  0
SECTION
  2
HEADER
  9
$ACADVER
  1
AC1014
  9
$ACADMAINTVER
 70
     9
  9
$DWGCODEPAGE
  3
ANSI_932
  9
$INSBASE
 10
0.0
 20
0.0
 30
0.0
  9
$EXTMIN
 10
-84.34999999999979
 20
-29.2500009999966
 30
-0.00000001
  9
$EXTMAX
 10
7.500000000000227
 20
6.056699334258977
 30
0.00000001
  9
$LIMMIN
 10
-90.48115667139086
 20
-36.39300477237663
  9
$LIMMAX
 10
15.39588278273004
 20
12.0690608168905
  9
$ORTHOMODE
 70
     0
  9
$REGENMODE
 70
     1
  9
$FILLMODE
 70
     1
  9
$QTEXTMODE
 70
     0
  9
$MIRRTEXT
 70
     0
  9
$DRAGMODE
 70
     2
  9
$LTSCALE
 40
1.0
  9
$OSMODE
 70
    55
  9
$ATTMODE
 70
     1
  9
$TEXTSIZE
 40
2.5
  9
$TRACEWID
 40
1.0
  9
$TEXTSTYLE
  7
STANDARD
  9
$CLAYER
  8
AM_0
  9
$CELTYPE
  6
BYLAYER
  9
$CECOLOR
 62
   256
  9
$CELTSCALE
 40
1.0
  9
$DELOBJ
 70
     1
  9
$DISPSILH
 70
     0
  9
$DIMSCALE
 40
0.5
  9
$DIMASZ
 40
2.5
  9
$DIMEXO
 40
1.0
  9
$DIMDLI
 40
12.0
  9
$DIMRND
 40
0.0
  9
$DIMDLE
 40
0.0
  9
$DIMEXE
 40
1.0
  9
$DIMTP
 40
0.1
  9
$DIMTM
 40
0.1
  9
$DIMTXT
 40
3.2
  9
$DIMCEN
 40
0.0
  9
$DIMTSZ
 40
0.0
  9
$DIMTOL
 70
     0
  9
$DIMLIM
 70
     0
  9
$DIMTIH
 70
     0
  9
$DIMTOH
 70
     0
  9
$DIMSE1
 70
     0
  9
$DIMSE2
 70
     0
  9
$DIMTAD
 70
     3
  9
$DIMZIN
 70
     8
  9
$DIMBLK
  1
OPEN30
  9
$DIMASO
 70
     1
  9
$DIMSHO
 70
     1
  9
$DIMPOST
  1

  9
$DIMAPOST
  1
"
  9
$DIMALT
 70
     0
  9
$DIMALTD
 70
     2
  9
$DIMALTF
 40
0.0393701
  9
$DIMLFAC
 40
1.0
  9
$DIMTOFL
 70
     1
  9
$DIMTVP
 40
0.0
  9
$DIMTIX
 70
     0
  9
$DIMSOXD
 70
     0
  9
$DIMSAH
 70
     0
  9
$DIMBLK1
  1

  9
$DIMBLK2
  1

  9
$DIMSTYLE
  2
AM_JIS
  9
$DIMCLRD
 70
   256
  9
$DIMCLRE
 70
   256
  9
$DIMCLRT
 70
     2
  9
$DIMTFAC
 40
0.71
  9
$DIMGAP
 40
1.5
  9
$DIMJUST
 70
     0
  9
$DIMSD1
 70
     0
  9
$DIMSD2
 70
     0
  9
$DIMTOLJ
 70
     0
  9
$DIMTZIN
 70
     0
  9
$DIMALTZ
 70
     0
  9
$DIMALTTZ
 70
     0
  9
$DIMFIT
 70
     3
  9
$DIMUPT
 70
     0
  9
$DIMUNIT
 70
     2
  9
$DIMDEC
 70
     3
  9
$DIMTDEC
 70
     3
  9
$DIMALTU
 70
     2
  9
$DIMALTTD
 70
     2
  9
$DIMTXSTY
  7
ASAMI
  9
$DIMAUNIT
 70
     0
  9
$LUNITS
 70
     2
  9
$LUPREC
 70
     2
  9
$SKETCHINC
 40
1.0
  9
$FILLETRAD
 40
2.5
  9
$AUNITS
 70
     0
  9
$AUPREC
 70
     0
  9
$MENU
  1
.
  9
$ELEVATION
 40
0.0
  9
$PELEVATION
 40
0.0
  9
$THICKNESS
 40
0.0
  9
$LIMCHECK
 70
     0
  9
$BLIPMODE
 70
     0
  9
$CHAMFERA
 40
0.75
  9
$CHAMFERB
 40
0.75
  9
$CHAMFERC
 40
20.0
  9
$CHAMFERD
 40
0.0
  9
$SKPOLY
 70
     0
  9
$TDCREATE
 40
2452836.771637361
  9
$TDUPDATE
 40
2453152.441769988
  9
$TDINDWG
 40
0.0418731713
  9
$TDUSRTIMER
 40
0.0418731713
  9
$USRTIMER
 70
     1
  9
$ANGBASE
 50
0.0
  9
$ANGDIR
 70
     0
  9
$PDMODE
 70
     0
  9
$PDSIZE
 40
0.0
  9
$PLINEWID
 40
0.0
  9
$COORDS
 70
     1
  9
$SPLFRAME
 70
     0
  9
$SPLINETYPE
 70
     6
  9
$SPLINESEGS
 70
     8
  9
$ATTDIA
 70
     1
  9
$ATTREQ
 70
     1
  9
$HANDLING
 70
 12289
  9
$HANDSEED
  5
1885
  9
$SURFTAB1
 70
     6
  9
$SURFTAB2
 70
     6
  9
$SURFTYPE
 70
     6
  9
$SURFU
 70
     6
  9
$SURFV
 70
     6
  9
$UCSNAME
  2

  9
$UCSORG
 10
0.0
 20
0.0
 30
0.0
  9
$UCSXDIR
 10
1.0
 20
0.0
 30
0.0
  9
$UCSYDIR
 10
0.0
 20
1.0
 30
0.0
  9
$PUCSNAME
  2

  9
$PUCSORG
 10
0.0
 20
0.0
 30
0.0
  9
$PUCSXDIR
 10
1.0
 20
0.0
 30
0.0
  9
$PUCSYDIR
 10
0.0
 20
1.0
 30
0.0
  9
$USERI1
 70
     0
  9
$USERI2
 70
     0
  9
$USERI3
 70
     0
  9
$USERI4
 70
     0
  9
$USERI5
 70
     0
  9
$USERR1
 40
0.0
  9
$USERR2
 40
0.0
  9
$USERR3
 40
0.0
  9
$USERR4
 40
0.0
  9
$USERR5
 40
0.0
  9
$WORLDVIEW
 70
     1
  9
$SHADEDGE
 70
     3
  9
$SHADEDIF
 70
    70
  9
$TILEMODE
 70
     1
  9
$MAXACTVP
 70
    64
  9
$PINSBASE
 10
0.0
 20
0.0
 30
0.0
  9
$PLIMCHECK
 70
     0
  9
$PEXTMIN
 10
1.000000000000000E+20
 20
1.000000000000000E+20
 30
1.000000000000000E+20
  9
$PEXTMAX
 10
-1.000000000000000E+20
 20
-1.000000000000000E+20
 30
-1.000000000000000E+20
  9
$PLIMMIN
 10
0.0
 20
0.0
  9
$PLIMMAX
 10
841.0
 20
594.0
  9
$UNITMODE
 70
     0
  9
$VISRETAIN
 70
     1
  9
$PLINEGEN
 70
     0
  9
$PSLTSCALE
 70
     0
  9
$TREEDEPTH
 70
  3020
  9
$PICKSTYLE
 70
     0
  9
$CMLSTYLE
  2
STANDARD
  9
$CMLJUST
 70
     0
  9
$CMLSCALE
 40
20.0
  9
$PROXYGRAPHICS
 70
     1
  9
$MEASUREMENT
 70
     1
  0
ENDSEC
  0
SECTION
  2
CLASSES
  0
CLASS
  1
ACDBDICTIONARYWDFLT
  2
AcDbDictionaryWithDefault
  3
AutoCAD 2000
 90
        0
280
     0
281
     0
  0
CLASS
  1
ACDBPLACEHOLDER
  2
AcDbPlaceHolder
  3
AutoCAD 2000
 90
        0
280
     0
281
     0
  0
CLASS
  1
LAYOUT
  2
AcDbLayout
  3
AutoCAD 2000
 90
        0
280
     0
281
     0
  0
CLASS
  1
AMGSETTINGSOBJ
  2
AmgSettingsObj
  3
"AcadM|Product Description: AutoCAD Mechanical 2000|Company: Autodesk"
 90
        0
280
     0
281
     0
  0
CLASS
  1
ACME_DOCUMENT
  2
AcMeDbDoc
  3
AcMeServices
 90
        0
280
     0
281
     0
  0
CLASS
  1
ACMESCOPE
  2
AcMeScope
  3
AcMeServices
 90
        0
280
     0
281
     0
  0
CLASS
  1
ACMECOMMANDHISTORY
  2
AcMeCommandHistory
  3
AcMeServices
 90
        0
280
     0
281
     0
  0
CLASS
  1
DICTIONARYVAR
  2
AcDbDictionaryVar
  3
AutoCAD 2000
 90
        0
280
     0
281
     0
  0
CLASS
  1
ACIMSYSVARMAN
  2
AcImSysVarManager
  3
AcMeServices
 90
        0
280
     0
281
     0
  0
CLASS
  1
ACIMREALSYSVAR
  2
AcImRealSysVar
  3
AcMeServices
 90
        0
280
     0
281
     0
  0
CLASS
  1
ACIMINTSYSVAR
  2
AcImIntSysVar
  3
AcMeServices
 90
        0
280
     0
281
     0
  0
CLASS
  1
ACMEDRAWINGMAN
  2
AcMeDrawingMan
  3
AcMeServices
 90
        0
280
     0
281
     0
  0
CLASS
  1
ACMEVIEW
  2
AcMeView
  3
AcMeServices
 90
        0
280
     0
281
     0
  0
CLASS
  1
ACDBENTITYCACHE
  2
AcMeEntityCache
  3
AcMeServices
 90
        0
280
     0
281
     0
  0
CLASS
  1
GSMANAGER
  2
AcMeGSManager
  3
AcMeServices
 90
        0
280
     0
281
     0
  0
CLASS
  1
AmdtInternalReactor
  2
AmdtInternalReactor
  3
AcMeServices
 90
        0
280
     0
281
     0
  0
CLASS
  1
ACMESTATEMGR
  2
AcMeStateMgr
  3
AcMeServices
 90
        0
280
     0
281
     0
  0
CLASS
  1
ACME_DATABASE
  2
AcMeDbDatabase
  3
AcMeServices
 90
        0
280
     0
281
     0
  0
CLASS
  1
ACRFINSADJUSTERMGR
  2
AcRfInsAdjusterMgr
  3
AcMeServices
 90
        0
280
     0
281
     0
  0
CLASS
  1
ACMDATADICTIONARY
  2
AcmDataDictionary
  3
"AcmSymBB|Product Description: AutoCAD Mechanical 2000|Company: Autodesk"
 90
        0
280
     0
281
     0
  0
CLASS
  1
ACMDATAENTRYBLOCK
  2
AcmDataEntryBlock
  3
"AcmSymBB|Product Description: AutoCAD Mechanical 2000|Company: Autodesk"
 90
        0
280
     0
281
     0
  0
CLASS
  1
AMGOBJPROPCFG
  2
AmgObjPropCfg
  3
"AmgLay|Product Description: AutoCAD Mechanical 2000|Company: Autodesk"
 90
        1
280
     0
281
     0
  0
CLASS
  1
ACAMGFILTERDAT
  2
AcAmgFilterDat
  3
"AcadM|Product Description: AutoCAD Mechanical 2000|Company: Autodesk"
 90
        0
280
     0
281
     0
  0
CLASS
  1
LAYER_INDEX
  2
AcDbLayerIndex
  3
AutoCAD 2000
 90
        0
280
     0
281
     0
  0
CLASS
  1
IDBUFFER
  2
AcDbIdBuffer
  3
AutoCAD 2000
 90
        0
280
     0
281
     0
  0
CLASS
  1
ACIMSTRSYSVAR
  2
AcImStrSysVar
  3
AcMeServices
 90
        0
280
     0
281
     0
  0
CLASS
  1
ACMSTANDARDJIS
  2
AcmStandardJIS
  3
"AcmSymBB|Product Description: AutoCAD Mechanical 2000|Company: Autodesk"
 90
        0
280
     0
281
     0
  0
CLASS
  1
ACMSURFSTANDARDJIS
  2
AcmSurfTextStdJIS
  3
"AcmSymBB|Product Description: AutoCAD Mechanical 2000|Company: Autodesk"
 90
        0
280
     0
281
     0
  0
CLASS
  1
ACMFCFSTANDARDJIS
  2
AcmFCFStdJIS
  3
"AcmSymBB|Product Description: AutoCAD Mechanical 2000|Company: Autodesk"
 90
        0
280
     0
281
     0
  0
CLASS
  1
ACMWELDSTANDARDJIS
  2
AcmWeldingStdJIS
  3
"AcmSymBB|Product Description: AutoCAD Mechanical 2000|Company: Autodesk"
 90
        0
280
     0
281
     0
  0
CLASS
  1
ACMIDSTANDARDJIS
  2
AcmIdStdJIS
  3
"AcmSymBB|Product Description: AutoCAD Mechanical 2000|Company: Autodesk"
 90
        0
280
     0
281
     0
  0
CLASS
  1
ACMDATUMSTANDARDJIS
  2
AcmDatumStdJIS
  3
"AcmSymBB|Product Description: AutoCAD Mechanical 2000|Company: Autodesk"
 90
        0
280
     0
281
     0
  0
CLASS
  1
ACMBOMSTANDARDJIS
  2
AcmBOMStdJIS
  3
"AcmSymBB|Product Description: AutoCAD Mechanical 2000|Company: Autodesk"
 90
        0
280
     0
281
     0
  0
CLASS
  1
ACMSTANDARDANSI
  2
AcmStandardANSI
  3
"AcmSymBB|Product Description: AutoCAD Mechanical 2000|Company: Autodesk"
 90
        0
280
     0
281
     0
  0
CLASS
  1
ACMSURFSTANDARDANSI
  2
AcmSurfTextStdANSI
  3
"AcmSymBB|Product Description: AutoCAD Mechanical 2000|Company: Autodesk"
 90
        0
280
     0
281
     0
  0
CLASS
  1
ACMFCFSTANDARDANSI
  2
AcmFCFStdANSI
  3
"AcmSymBB|Product Description: AutoCAD Mechanical 2000|Company: Autodesk"
 90
        0
280
     0
281
     0
  0
CLASS
  1
ACMWELDSTANDARDANSI
  2
AcmWeldingStdANSI
  3
"AcmSymBB|Product Description: AutoCAD Mechanical 2000|Company: Autodesk"
 90
        0
280
     0
281
     0
  0
CLASS
  1
ACMIDSTANDARDANSI
  2
AcmIdStdANSI
  3
"AcmSymBB|Product Description: AutoCAD Mechanical 2000|Company: Autodesk"
 90
        0
280
     0
281
     0
  0
CLASS
  1
ACMDATUMSTANDARDANSI
  2
AcmDatumStdANSI
  3
"AcmSymBB|Product Description: AutoCAD Mechanical 2000|Company: Autodesk"
 90
        0
280
     0
281
     0
  0
CLASS
  1
ACMBOMSTANDARDANSI
  2
AcmBOMStdANSI
  3
"AcmSymBB|Product Description: AutoCAD Mechanical 2000|Company: Autodesk"
 90
        0
280
     0
281
     0
  0
CLASS
  1
ACMSTANDARDBSI
  2
AcmStandardBSI
  3
"AcmSymBB|Product Description: AutoCAD Mechanical 2000|Company: Autodesk"
 90
        0
280
     0
281
     0
  0
CLASS
  1
ACMSURFSTANDARDBSI
  2
AcmSurfTextStdBSI
  3
"AcmSymBB|Product Description: AutoCAD Mechanical 2000|Company: Autodesk"
 90
        0
280
     0
281
     0
  0
CLASS
  1
ACMFCFSTANDARDBSI
  2
AcmFCFStdBSI
  3
"AcmSymBB|Product Description: AutoCAD Mechanical 2000|Company: Autodesk"
 90
        0
280
     0
281
     0
  0
CLASS
  1
ACMWELDSTANDARDBSI
  2
AcmWeldingStdBSI
  3
"AcmSymBB|Product Description: AutoCAD Mechanical 2000|Company: Autodesk"
 90
        0
280
     0
281
     0
  0
CLASS
  1
ACMIDSTANDARDBSI
  2
AcmIdStdBSI
  3
"AcmSymBB|Product Description: AutoCAD Mechanical 2000|Company: Autodesk"
 90
        0
280
     0
281
     0
  0
CLASS
  1
ACMDATUMSTANDARDBSI
  2
AcmDatumStdBSI
  3
"AcmSymBB|Product Description: AutoCAD Mechanical 2000|Company: Autodesk"
 90
        0
280
     0
281
     0
  0
CLASS
  1
ACMBOMSTANDARDBSI
  2
AcmBOMStdBSI
  3
"AcmSymBB|Product Description: AutoCAD Mechanical 2000|Company: Autodesk"
 90
        0
280
     0
281
     0
  0
CLASS
  1
LONG_TRANSACTION
  2
AcDbLongTransaction
  3
AutoCAD 2000
 90
        0
280
     0
281
     0
  0
CLASS
  1
LWPOLYLINE
  2
AcDbPolyline
  3
AutoCAD 2000
 90
        0
280
     0
281
     1
  0
CLASS
  1
HATCH
  2
AcDbHatch
  3
AutoCAD 2000
 90
        0
280
     0
281
     1
  0
CLASS
  1
XRECORD
  2
AcDbXrecord
  3
AutoCAD 2000
 90
        0
280
     0
281
     0
  0
ENDSEC
  0
SECTION
  2
TABLES
  0
TABLE
  2
VPORT
  5
8
330
0
100
AcDbSymbolTable
 70
     3
  0
VPORT
  5
185A
330
8
100
AcDbSymbolTableRecord
100
AcDbViewportTableRecord
  2
*ACTIVE
 70
     0
 10
0.0
 20
0.0
 11
1.0
 21
1.0
 12
-38.42311439815907
 22
-11.59627545043483
 13
0.0
 23
0.0
 14
2.5
 24
2.5
 15
10.0
 25
10.0
 16
0.0
 26
0.0
 36
1.0
 17
0.0
 27
0.0
 37
0.0
 40
58.9055298277895
 41
1.56570841889117
 42
50.0
 43
0.0
 44
0.0
 50
0.0
 51
0.0
 71
     0
 72
   100
 73
     1
 74
     3
 75
     0
 76
     0
 77
     0
 78
     0
  0
ENDTAB
  0
TABLE
  2
LTYPE
  5
5
330
0
100
AcDbSymbolTable
 70
    10
  0
LTYPE
  5
14
330
5
100
AcDbSymbolTableRecord
100
AcDbLinetypeTableRecord
  2
BYBLOCK
 70
     0
  3

 72
    65
 73
     0
 40
0.0
  0
LTYPE
  5
15
330
5
100
AcDbSymbolTableRecord
100
AcDbLinetypeTableRecord
  2
BYLAYER
 70
     0
  3

 72
    65
 73
     0
 40
0.0
  0
LTYPE
  5
16
330
5
100
AcDbSymbolTableRecord
100
AcDbLinetypeTableRecord
  2
CONTINUOUS
 70
     0
  3
Solid line
 72
    65
 73
     0
 40
0.0
  0
LTYPE
  5
4B
330
5
100
AcDbSymbolTableRecord
100
AcDbLinetypeTableRecord
  2
AM_ISO02W050
 70
     0
  3
__ __ __ __ __ __ __ __ __ __ __ __ __ __ __
 72
    65
 73
     2
 40
7.5
 49
6.0
 74
     0
 49
-1.5
 74
     0
  0
LTYPE
  5
4C
330
5
100
AcDbSymbolTableRecord
100
AcDbLinetypeTableRecord
  2
AM_ISO08W050
 70
     0
  3
____ . ____ . ____ . ____ . ____ . ____ . ____
 72
    65
 73
     4
 40
18.0
 49
12.0
 74
     0
 49
-1.5
 74
     0
 49
3.0
 74
     0
 49
-1.5
 74
     0
  0
LTYPE
  5
4D
330
5
100
AcDbSymbolTableRecord
100
AcDbLinetypeTableRecord
  2
AM_ISO09W050
 70
     0
  3
_____ . . _____ . . _____ . . ____ .. ____
 72
    65
 73
     6
 40
22.5
 49
12.0
 74
     0
 49
-1.5
 74
     0
 49
3.0
 74
     0
 49
-1.5
 74
     0
 49
3.0
 74
     0
 49
-1.5
 74
     0
  0
LTYPE
  5
4E
330
5
100
AcDbSymbolTableRecord
100
AcDbLinetypeTableRecord
  2
AMCONSTR
 70
     0
  3
_______________________
 72
    65
 73
     2
 40
9999.0
 49
9999.0
 74
     0
 49
0.0
 74
     0
  0
LTYPE
  5
4F
330
5
100
AcDbSymbolTableRecord
100
AcDbLinetypeTableRecord
  2
AM_ISO02W050X2
 70
     0
  3
 _ _ _ _ _ _ _ _ _ _ _ _
 72
    65
 73
     2
 40
3.75
 49
3.0
 74
     0
 49
-0.75
 74
     0
  0
LTYPE
  5
50
330
5
100
AcDbSymbolTableRecord
100
AcDbLinetypeTableRecord
  2
AM_ISO08W050X2
 70
     0
  3
__ . __ . __ . __ . __ . __
 72
    65
 73
     4
 40
9.0
 49
6.0
 74
     0
 49
-0.75
 74
     0
 49
1.5
 74
     0
 49
-0.75
 74
     0
  0
LTYPE
  5
53
330
5
100
AcDbSymbolTableRecord
100
AcDbLinetypeTableRecord
  2
AMZIGZAG
 70
     0
  3
/\/-/\/-/\/-/\/-/\/-/\/
 72
    65
 73
     2
 40
11.00009999999999
 49
0.0001
 74
     4
 75
   135
340
52
 46
0.04
 50
0.0
 44
0.0
 45
0.0
 49
-11.0
 74
     0
  0
LTYPE
  5
166
330
5
100
AcDbSymbolTableRecord
100
AcDbLinetypeTableRecord
  2
ACJISTGL
 70
     0
  3
_ _ _ _ _
 72
    65
 73
     2
 40
3.0
 49
2.0
 74
     0
 49
-1.0
 74
     0
  0
LTYPE
  5
26A
330
5
100
AcDbSymbolTableRecord
100
AcDbLinetypeTableRecord
  2
ACJISTGB
 70
     0
  3
__ . . __ . .
 72
    65
 73
     6
 40
9.0
 49
4.0
 74
     0
 49
-1.0
 74
     0
 49
1.0
 74
     0
 49
-1.0
 74
     0
 49
1.0
 74
     0
 49
-1.0
 74
     0
  0
ENDTAB
  0
TABLE
  2
LAYER
  5
2
330
0
100
AcDbSymbolTable
 70
     7
  0
LAYER
  5
10
330
2
100
AcDbSymbolTableRecord
100
AcDbLayerTableRecord
  2
0
 70
     0
 62
     7
  6
CONTINUOUS
  0
LAYER
  5
3F9
330
2
100
AcDbSymbolTableRecord
100
AcDbLayerTableRecord
  2
AM_0
 70
     0
 62
     7
  6
CONTINUOUS
  0
LAYER
  5
BD4
330
2
100
AcDbSymbolTableRecord
100
AcDbLayerTableRecord
  2
AM_11
 70
     0
 62
     3
  6
AM_ISO09W050
  0
LAYER
  5
BD5
330
2
100
AcDbSymbolTableRecord
100
AcDbLayerTableRecord
  2
AM_7
 70
     0
 62
     4
  6
AM_ISO08W050
  0
LAYER
  5
BD6
330
2
100
AcDbSymbolTableRecord
100
AcDbLayerTableRecord
  2
AM_5
 70
     0
 62
     3
  6
CONTINUOUS
  0
LAYER
  5
BD7
330
2
100
AcDbSymbolTableRecord
100
AcDbLayerTableRecord
  2
DEFPOINTS
 70
     0
 62
     7
  6
CONTINUOUS
  0
LAYER
  5
E59
330
2
100
AcDbSymbolTableRecord
100
AcDbLayerTableRecord
  2
AM_6
 70
     0
 62
     2
  6
CONTINUOUS
  0
ENDTAB
  0
TABLE
  2
STYLE
  5
3
330
0
100
AcDbSymbolTable
 70
     5
  0
STYLE
  5
11
330
3
100
AcDbSymbolTableRecord
100
AcDbTextStyleTableRecord
  2
STANDARD
 70
     0
 40
0.0
 41
1.0
 50
0.0
 71
     0
 42
2.5
  3
simplex.shx
  4
EXTFONT.SHX
  0
STYLE
  5
52
330
3
100
AcDbSymbolTableRecord
100
AcDbTextStyleTableRecord
  2

 70
     1
 40
0.0
 41
1.0
 50
0.0
 71
     0
 42
2.5
  3
ltypeshp.shx
  4

  0
STYLE
  5
6B
330
3
100
AcDbSymbolTableRecord
100
AcDbTextStyleTableRecord
  2
ASAMI
 70
     0
 40
0.0
 41
1.0
 50
0.0
 71
     0
 42
2.5
  3
simplex.shx
  4
EXTFONT.SHX
  0
STYLE
  5
262
330
3
100
AcDbSymbolTableRecord
100
AcDbTextStyleTableRecord
  2
ACJISTS
 70
     0
 40
1.0
 41
1.0
 50
0.0
 71
     0
 42
2.5
  3
simplex.shx
  4
bigfont.shx
  0
STYLE
  5
269
330
3
100
AcDbSymbolTableRecord
100
AcDbTextStyleTableRecord
  2
ACJISGDT
 70
     0
 40
0.0
 41
1.0
 50
0.0
 71
     0
 42
2.5
  3
amgdtans.shx
  4

  0
ENDTAB
  0
TABLE
  2
VIEW
  5
6
330
0
100
AcDbSymbolTable
 70
     0
  0
ENDTAB
  0
TABLE
  2
UCS
  5
7
330
0
100
AcDbSymbolTable
 70
     0
  0
ENDTAB
  0
TABLE
  2
APPID
  5
9
330
0
100
AcDbSymbolTable
 70
    12
  0
APPID
  5
12
330
9
100
AcDbSymbolTableRecord
100
AcDbRegAppTableRecord
  2
ACAD
 70
     0
  0
APPID
  5
30
330
9
100
AcDbSymbolTableRecord
100
AcDbRegAppTableRecord
  2
MCAD_NO_VIS
 70
     0
  0
APPID
  5
31
330
9
100
AcDbSymbolTableRecord
100
AcDbRegAppTableRecord
  2
ACAD_TEMP_GRAPHIC
 70
     0
  0
APPID
  5
2C2
330
9
100
AcDbSymbolTableRecord
100
AcDbRegAppTableRecord
  2
GENIUS_GENDTOL_13
 70
     0
  0
APPID
  5
339
330
9
100
AcDbSymbolTableRecord
100
AcDbRegAppTableRecord
  2
GENIUS_GENODEF_13
 70
     0
  0
APPID
  5
33A
330
9
100
AcDbSymbolTableRecord
100
AcDbRegAppTableRecord
  2
GENIUS_GENOBJ-N-RSBK_13
 70
     0
  0
APPID
  5
33B
330
9
100
AcDbSymbolTableRecord
100
AcDbRegAppTableRecord
  2
GENIUS_GENOBJ-N-LIB_13
 70
     0
  0
APPID
  5
33C
330
9
100
AcDbSymbolTableRecord
100
AcDbRegAppTableRecord
  2
GENIUS_GENSCALE_13
 70
     0
  0
APPID
  5
378
330
9
100
AcDbSymbolTableRecord
100
AcDbRegAppTableRecord
  2
GENIUS_GENDIMSH_14
 70
     0
  0
APPID
  5
BD8
330
9
100
AcDbSymbolTableRecord
100
AcDbRegAppTableRecord
  2
GENIUS_GENOBJ-N-CEN_13
 70
     0
  0
APPID
  5
BD9
330
9
100
AcDbSymbolTableRecord
100
AcDbRegAppTableRecord
  2
GENIUS_GENFIL_13
 70
     0
  0
APPID
  5
BDA
330
9
100
AcDbSymbolTableRecord
100
AcDbRegAppTableRecord
  2
GENIUS_GENOBJ-N-CHA_13
 70
     0
  0
ENDTAB
  0
TABLE
  2
DIMSTYLE
  5
A
330
0
100
AcDbSymbolTable
 70
     8
  0
DIMSTYLE
105
58
102
{ACAD_REACTORS
330
13B0
330
13B3
330
145B
330
14F3
102
}
330
A
100
AcDbSymbolTableRecord
100
AcDbDimStyleTableRecord
  2
AM_JIS
 70
     0
  3

  4
"
  5
OPEN30
  6

  7

 40
0.5
 41
2.5
 42
1.0
 43
12.0
 44
1.0
 45
0.0
 46
0.0
 47
0.1
 48
0.1
140
3.2
141
0.0
142
0.0
143
0.0393701
144
1.0
145
0.0
146
0.71
147
1.5
 71
     0
 72
     0
 73
     0
 74
     0
 75
     0
 76
     0
 77
     3
 78
     8
170
     0
171
     2
172
     1
173
     0
174
     0
175
     0
176
   256
177
   256
178
     2
270
     2
271
     3
272
     3
273
     2
274
     2
340
6B
275
     0
280
     0
281
     0
282
     0
283
     0
284
     0
285
     0
286
     0
287
     3
288
     0
  0
DIMSTYLE
105
5F
330
A
100
AcDbSymbolTableRecord
100
AcDbDimStyleTableRecord
  2
AM_JIS$3
 70
     0
  3

  4
"
  5
OPEN30
  6

  7

 40
0.5
 41
2.5
 42
1.0
 43
10.0
 44
1.0
 45
0.0
 46
0.0
 47
0.1
 48
0.1
140
3.2
141
0.0
142
0.0
143
0.0393701
144
1.0
145
0.0
146
0.71
147
1.5
 71
     0
 72
     0
 73
     0
 74
     1
 75
     0
 76
     0
 77
     3
 78
     8
170
     0
171
     2
172
     0
173
     0
174
     0
175
     0
176
   256
177
   256
178
     2
270
     2
271
     2
272
     3
273
     2
274
     2
340
6B
275
     0
280
     0
281
     0
282
     0
283
     0
284
     0
285
     0
286
     0
287
     0
288
     1
  0
DIMSTYLE
105
60
330
A
100
AcDbSymbolTableRecord
100
AcDbDimStyleTableRecord
  2
AM_JIS$4
 70
     0
  3

  4
"
  5
OPEN30
  6

  7

 40
0.5
 41
2.5
 42
1.0
 43
10.0
 44
1.0
 45
0.0
 46
0.0
 47
0.1
 48
0.1
140
3.2
141
0.0
142
0.0
143
0.0393701
144
1.0
145
0.0
146
0.71
147
1.5
 71
     0
 72
     0
 73
     0
 74
     1
 75
     0
 76
     0
 77
     3
 78
     8
170
     0
171
     2
172
     0
173
     0
174
     0
175
     0
176
   256
177
   256
178
     2
270
     2
271
     2
272
     3
273
     2
274
     2
340
6B
275
     0
280
     0
281
     0
282
     0
283
     0
284
     0
285
     0
286
     0
287
     0
288
     1
  0
DIMSTYLE
105
61
330
A
100
AcDbSymbolTableRecord
100
AcDbDimStyleTableRecord
  2
AM_JIS$6
 70
     0
  3

  4
"
  5
OPEN30
  6

  7

 40
0.5
 41
2.5
 42
1.0
 43
10.0
 44
1.0
 45
0.0
 46
0.0
 47
0.1
 48
0.1
140
3.2
141
0.0
142
0.0
143
0.0393701
144
1.0
145
0.0
146
0.71
147
1.5
 71
     0
 72
     0
 73
     0
 74
     0
 75
     0
 76
     0
 77
     0
 78
     8
170
     0
171
     2
172
     1
173
     0
174
     0
175
     0
176
   256
177
   256
178
     2
270
     2
271
     2
272
     2
273
     2
274
     2
340
6B
275
     0
280
     0
281
     0
282
     0
283
     0
284
     0
285
     0
286
     0
287
     3
288
     0
  0
DIMSTYLE
105
62
330
A
100
AcDbSymbolTableRecord
100
AcDbDimStyleTableRecord
  2
AM_JIS$7
 70
     0
  3

  4
"
  5
OPEN30
  6

  7

 40
0.5
 41
2.5
 42
1.0
 43
10.0
 44
1.0
 45
0.0
 46
0.0
 47
0.1
 48
0.1
140
3.2
141
0.0
142
0.0
143
0.0393701
144
1.0
145
0.0
146
0.71
147
1.5
 71
     0
 72
     0
 73
     0
 74
     0
 75
     0
 76
     0
 77
     3
 78
     8
170
     0
171
     2
172
     1
173
     0
174
     0
175
     0
176
   256
177
   256
178
     2
270
     2
271
     2
272
     3
273
     2
274
     2
340
6B
275
     0
280
     0
281
     0
282
     0
283
     0
284
     0
285
     0
286
     0
287
     3
288
     0
  0
DIMSTYLE
105
63
330
A
100
AcDbSymbolTableRecord
100
AcDbDimStyleTableRecord
  2
AM_JIS$SF
 70
     0
  3

  4
"
  5
OPEN30
  6

  7

 40
0.5
 41
2.5
 42
1.0
 43
10.0
 44
1.0
 45
0.0
 46
0.0
 47
0.1
 48
0.1
140
3.2
141
0.0
142
0.0
143
0.0393701
144
1.0
145
0.0
146
0.71
147
1.5
 71
     0
 72
     0
 73
     0
 74
     0
 75
     1
 76
     1
 77
     3
 78
     8
170
     0
171
     2
172
     1
173
     0
174
     0
175
     0
176
   256
177
   256
178
     2
270
     2
271
     2
272
     2
273
     2
274
     2
340
6B
275
     0
280
     0
281
     0
282
     0
283
     0
284
     0
285
     0
286
     0
287
     3
288
     0
  0
DIMSTYLE
105
68
330
A
100
AcDbSymbolTableRecord
100
AcDbDimStyleTableRecord
  2
AM_JIS$SH
 70
     0
  3

  4
"
  5

  6
GENAXEH
  7
OPEN30
 40
0.5
 41
2.5
 42
1.0
 43
10.0
 44
1.0
 45
0.0
 46
0.0
 47
0.1
 48
0.1
140
3.2
141
0.0
142
0.0
143
0.0393701
144
2.0
145
0.0
146
0.71
147
1.5
 71
     0
 72
     0
 73
     0
 74
     0
 75
     1
 76
     1
 77
     3
 78
     8
170
     0
171
     2
172
     1
173
     1
174
     0
175
     0
176
   256
177
   256
178
     2
270
     2
271
     2
272
     2
273
     2
274
     2
340
6B
275
     0
280
     0
281
     0
282
     0
283
     0
284
     0
285
     0
286
     0
287
     3
288
     0
  0
DIMSTYLE
105
B34
330
A
100
AcDbSymbolTableRecord
100
AcDbDimStyleTableRecord
  2
AM_JIS$2
 70
     0
  3

  4
"
  5
OPEN30
  6

  7

 40
0.5
 41
2.5
 42
1.0
 43
12.0
 44
1.0
 45
0.0
 46
0.0
 47
0.1
 48
0.1
140
3.2
141
0.0
142
0.0
143
0.0393701
144
1.0
145
0.0
146
0.71
147
1.5
 71
     0
 72
     0
 73
     0
 74
     0
 75
     0
 76
     0
 77
     3
 78
     8
170
     0
171
     2
172
     1
173
     0
174
     0
175
     0
176
   256
177
   256
178
     2
270
     2
271
     3
272
     3
273
     2
274
     2
340
6B
275
     0
280
     0
281
     0
282
     0
283
     0
284
     0
285
     0
286
     0
287
     3
288
     0
  0
ENDTAB
  0
TABLE
  2
BLOCK_RECORD
  5
1
330
0
100
AcDbSymbolTable
 70
     9
  0
BLOCK_RECORD
  5
1F
102
{ACAD_XDICTIONARY
360
74
102
}
330
1
100
AcDbSymbolTableRecord
100
AcDbBlockTableRecord
  2
*MODEL_SPACE
  0
BLOCK_RECORD
  5
101
102
{ACAD_XDICTIONARY
360
1883
102
}
330
1
100
AcDbSymbolTableRecord
100
AcDbBlockTableRecord
  2
*PAPER_SPACE
  0
BLOCK_RECORD
  5
59
330
1
100
AcDbSymbolTableRecord
100
AcDbBlockTableRecord
  2
_OPEN30
  0
BLOCK_RECORD
  5
64
330
1
100
AcDbSymbolTableRecord
100
AcDbBlockTableRecord
  2
GENAXEH
  0
BLOCK_RECORD
  5
13B4
330
1
100
AcDbSymbolTableRecord
100
AcDbBlockTableRecord
  2
*D5
  0
BLOCK_RECORD
  5
13C0
330
1
100
AcDbSymbolTableRecord
100
AcDbBlockTableRecord
  2
*D6
  0
BLOCK_RECORD
  5
145C
330
1
100
AcDbSymbolTableRecord
100
AcDbBlockTableRecord
  2
*D7
  0
BLOCK_RECORD
  5
14F4
330
1
100
AcDbSymbolTableRecord
100
AcDbBlockTableRecord
  2
*D8
  0
ENDTAB
  0
ENDSEC
  0
SECTION
  2
BLOCKS
  0
BLOCK
  5
20
330
1F
100
AcDbEntity
  8
0
100
AcDbBlockBegin
  2
*MODEL_SPACE
 70
     0
 10
0.0
 20
0.0
 30
0.0
  3
*MODEL_SPACE
  1

  0
ENDBLK
  5
21
330
1F
100
AcDbEntity
  8
0
100
AcDbBlockEnd
  0
BLOCK
  5
103
330
101
100
AcDbEntity
 67
     1
  8
0
100
AcDbBlockBegin
  2
*PAPER_SPACE
 70
     0
 10
0.0
 20
0.0
 30
0.0
  3
*PAPER_SPACE
  1

  0
ENDBLK
  5
104
330
101
100
AcDbEntity
 67
     1
  8
0
100
AcDbBlockEnd
  0
BLOCK
  5
5D
330
59
100
AcDbEntity
  8
0
100
AcDbBlockBegin
  2
_OPEN30
 70
     0
 10
0.0
 20
0.0
 30
0.0
  3
_OPEN30
  1

  0
LINE
  5
5A
330
59
100
AcDbEntity
  8
0
 62
     0
100
AcDbLine
 10
-1.0
 20
0.26794919
 30
0.0
 11
0.0
 21
0.0
 31
0.0
  0
LINE
  5
5B
330
59
100
AcDbEntity
  8
0
 62
     0
100
AcDbLine
 10
0.0
 20
0.0
 30
0.0
 11
-1.0
 21
-0.26794919
 31
0.0
  0
LINE
  5
5C
330
59
100
AcDbEntity
  8
0
 62
     0
100
AcDbLine
 10
0.0
 20
0.0
 30
0.0
 11
-1.0
 21
0.0
 31
0.0
  0
ENDBLK
  5
5E
330
59
100
AcDbEntity
  8
0
100
AcDbBlockEnd
  0
BLOCK
  5
66
330
64
100
AcDbEntity
  8
0
100
AcDbBlockBegin
  2
GENAXEH
 70
     0
 10
0.0
 20
0.0
 30
0.0
  3
GENAXEH
  1

  0
LINE
  5
65
330
64
100
AcDbEntity
  8
0
100
AcDbLine
 10
-1.0
 20
0.0
 30
0.0
 11
1.0
 21
0.0
 31
0.0
  0
ENDBLK
  5
67
330
64
100
AcDbEntity
  8
0
100
AcDbBlockEnd
  0
BLOCK
  5
13BE
330
13B4
100
AcDbEntity
  8
0
100
AcDbBlockBegin
  2
*D5
 70
     1
 10
0.0
 20
0.0
 30
0.0
  3
*D5
  1

  0
LINE
  5
180B
330
13B4
100
AcDbEntity
  8
AM_5
100
AcDbLine
 10
-74.74999999999977
 20
4.999999999999818
 30
0.0
 11
-82.49999999999978
 21
4.999999999999821
 31
0.0
  0
LINE
  5
180C
330
13B4
100
AcDbEntity
  8
AM_5
100
AcDbLine
 10
-74.74999999999977
 20
-4.999999999998916
 30
0.0
 11
-82.49999999999978
 21
-4.999999999998913
 31
0.0
  0
LINE
  5
180D
330
13B4
100
AcDbEntity
  8
AM_5
100
AcDbLine
 10
-81.99999999999979
 20
3.749999999999821
 30
0.0
 11
-81.99999999999979
 21
-3.749999999998914
 31
0.0
  0
INSERT
  5
180E
330
13B4
100
AcDbEntity
  8
AM_5
100
AcDbBlockReference
  2
_OPEN30
 10
-81.99999999999979
 20
4.99999999999982
 30
0.0
 41
1.25
 42
1.25
 43
1.25
 50
90.0
  0
INSERT
  5
180F
330
13B4
100
AcDbEntity
  8
AM_5
100
AcDbBlockReference
  2
_OPEN30
 10
-81.99999999999979
 20
-4.999999999998914
 30
0.0
 41
1.25
 42
1.25
 43
1.25
 50
270.0
  0
MTEXT
  5
1810
330
13B4
100
AcDbEntity
  8
AM_5
 62
     2
100
AcDbMText
 10
-83.54999999999979
 20
0.0000000000004404
 30
0.0
 40
1.6
 41
0.0
 71
     5
 72
     1
  1
%%c10
  7
ASAMI
 11
0.0000000000000001
 21
1.0
 31
0.0
1001
ACAD
1000
MTEXTBEGIN
1070
    73
1070
     1
1070
    44
1040
1.0
1070
    74
1070
     0
1000
MTEXTEND
  0
POINT
  5
1811
330
13B4
100
AcDbEntity
  8
DEFPOINTS
 62
     0
100
AcDbPoint
 10
-74.24999999999977
 20
4.999999999999818
 30
0.0
  0
POINT
  5
1812
330
13B4
100
AcDbEntity
  8
DEFPOINTS
 62
     0
100
AcDbPoint
 10
-74.24999999999977
 20
-4.999999999998916
 30
0.0
  0
POINT
  5
1813
330
13B4
100
AcDbEntity
  8
DEFPOINTS
 62
     0
100
AcDbPoint
 10
-81.99999999999979
 20
-4.999999999998914
 30
0.0
  0
ENDBLK
  5
13BF
330
13B4
100
AcDbEntity
  8
0
100
AcDbBlockEnd
  0
BLOCK
  5
13CA
330
13C0
100
AcDbEntity
  8
0
100
AcDbBlockBegin
  2
*D6
 70
     1
 10
0.0
 20
0.0
 30
0.0
  3
*D6
  1

  0
LINE
  5
15F5
330
13C0
100
AcDbEntity
  8
AM_5
100
AcDbLine
 10
-74.99999999999978
 20
-4.749999999998916
 30
0.0
 11
-74.99999999999978
 21
-18.50000099999659
 31
0.0
  0
LINE
  5
15F6
330
13C0
100
AcDbEntity
  8
AM_5
100
AcDbLine
 10
0.0000000000002238
 20
-5.500000000000135
 30
0.0
 11
0.000000000000223
 21
-18.50000099999659
 31
0.0
  0
LINE
  5
15F7
330
13C0
100
AcDbEntity
  8
AM_5
100
AcDbLine
 10
-73.74999999999978
 20
-18.00000099999659
 30
0.0
 11
-1.249999999999777
 21
-18.00000099999659
 31
0.0
  0
INSERT
  5
15F8
330
13C0
100
AcDbEntity
  8
AM_5
100
AcDbBlockReference
  2
_OPEN30
 10
-74.99999999999978
 20
-18.00000099999659
 30
0.0
 41
1.25
 42
1.25
 43
1.25
 50
180.0
  0
INSERT
  5
15F9
330
13C0
100
AcDbEntity
  8
AM_5
100
AcDbBlockReference
  2
_OPEN30
 10
0.000000000000223
 20
-18.00000099999659
 30
0.0
 41
1.25
 42
1.25
 43
1.25
  0
MTEXT
  5
15FA
330
13C0
100
AcDbEntity
  8
AM_5
 62
     2
100
AcDbMText
 10
-37.49999999999978
 20
-16.45000099999659
 30
0.0
 40
1.6
 41
0.0
 71
     5
 72
     1
  1
75
  7
ASAMI
1001
ACAD
1000
MTEXTBEGIN
1070
    73
1070
     1
1070
    44
1040
1.0
1070
    74
1070
     0
1000
MTEXTEND
  0
POINT
  5
15FB
330
13C0
100
AcDbEntity
  8
DEFPOINTS
 62
     0
100
AcDbPoint
 10
-74.99999999999978
 20
-4.249999999998916
 30
0.0
  0
POINT
  5
15FC
330
13C0
100
AcDbEntity
  8
DEFPOINTS
 62
     0
100
AcDbPoint
 10
0.0000000000002238
 20
-5.000000000000135
 30
0.0
  0
POINT
  5
15FD
330
13C0
100
AcDbEntity
  8
DEFPOINTS
 62
     0
100
AcDbPoint
 10
0.000000000000223
 20
-18.00000099999659
 30
0.0
  0
ENDBLK
  5
13CB
330
13C0
100
AcDbEntity
  8
0
100
AcDbBlockEnd
  0
BLOCK
  5
1466
330
145C
100
AcDbEntity
  8
0
100
AcDbBlockBegin
  2
*D7
 70
     1
 10
0.0
 20
0.0
 30
0.0
  3
*D7
  1

  0
LINE
  5
1814
330
145C
100
AcDbEntity
  8
AM_5
100
AcDbLine
 10
-30.00000000000027
 20
-5.500000000000035
 30
0.0
 11
-30.00000000000027
 21
-12.50000000000184
 31
0.0
  0
LINE
  5
1815
330
145C
100
AcDbEntity
  8
AM_5
100
AcDbLine
 10
0.0000000000000248
 20
-5.500000000000135
 30
0.0
 11
0.0000000000000244
 21
-12.50000000000184
 31
0.0
  0
LINE
  5
1816
330
145C
100
AcDbEntity
  8
AM_5
100
AcDbLine
 10
-28.75000000000028
 20
-12.00000000000184
 30
0.0
 11
-1.249999999999975
 21
-12.00000000000184
 31
0.0
  0
INSERT
  5
1817
330
145C
100
AcDbEntity
  8
AM_5
100
AcDbBlockReference
  2
_OPEN30
 10
-30.00000000000027
 20
-12.00000000000184
 30
0.0
 41
1.25
 42
1.25
 43
1.25
 50
180.0
  0
INSERT
  5
1818
330
145C
100
AcDbEntity
  8
AM_5
100
AcDbBlockReference
  2
_OPEN30
 10
0.0000000000000244
 20
-12.00000000000184
 30
0.0
 41
1.25
 42
1.25
 43
1.25
  0
MTEXT
  5
1819
330
145C
100
AcDbEntity
  8
AM_5
 62
     2
100
AcDbMText
 10
-15.00000000000012
 20
-10.45000000000184
 30
0.0
 40
1.6
 41
0.0
 71
     5
 72
     1
  1
30
  7
ASAMI
1001
ACAD
1000
MTEXTBEGIN
1070
    73
1070
     1
1070
    44
1040
1.0
1070
    74
1070
     0
1000
MTEXTEND
  0
POINT
  5
181A
330
145C
100
AcDbEntity
  8
DEFPOINTS
 62
     0
100
AcDbPoint
 10
-30.00000000000027
 20
-5.000000000000035
 30
0.0
  0
POINT
  5
181B
330
145C
100
AcDbEntity
  8
DEFPOINTS
 62
     0
100
AcDbPoint
 10
0.0000000000000249
 20
-5.000000000000135
 30
0.0
  0
POINT
  5
181C
330
145C
100
AcDbEntity
  8
DEFPOINTS
 62
     0
100
AcDbPoint
 10
0.0000000000000244
 20
-12.00000000000184
 30
0.0
  0
ENDBLK
  5
1467
330
145C
100
AcDbEntity
  8
0
100
AcDbBlockEnd
  0
BLOCK
  5
14FE
330
14F4
100
AcDbEntity
  8
0
100
AcDbBlockBegin
  2
*D8
 70
     1
 10
0.0
 20
0.0
 30
0.0
  3
*D8
  1

  0
LINE
  5
181D
330
14F4
100
AcDbEntity
  8
AM_5
100
AcDbLine
 10
0.5000000000000107
 20
4.999999999999879
 30
0.0
 11
7.500000000000227
 21
4.999999999999876
 31
0.0
  0
LINE
  5
181E
330
14F4
100
AcDbEntity
  8
AM_5
100
AcDbLine
 10
0.5000000000000178
 20
-5.00000000000012
 30
0.0
 11
7.500000000000225
 21
-5.000000000000123
 31
0.0
  0
LINE
  5
181F
330
14F4
100
AcDbEntity
  8
AM_5
100
AcDbLine
 10
7.000000000000227
 20
3.749999999999877
 30
0.0
 11
7.000000000000225
 21
-3.750000000000122
 31
0.0
  0
INSERT
  5
1820
330
14F4
100
AcDbEntity
  8
AM_5
100
AcDbBlockReference
  2
_OPEN30
 10
7.000000000000227
 20
4.999999999999877
 30
0.0
 41
1.25
 42
1.25
 43
1.25
 50
90.0
  0
INSERT
  5
1821
330
14F4
100
AcDbEntity
  8
AM_5
100
AcDbBlockReference
  2
_OPEN30
 10
7.000000000000225
 20
-5.000000000000122
 30
0.0
 41
1.25
 42
1.25
 43
1.25
 50
270.0
  0
MTEXT
  5
1822
330
14F4
100
AcDbEntity
  8
AM_5
 62
     2
100
AcDbMText
 10
5.450000000000226
 20
-0.000000000000121
 30
0.0
 40
1.6
 41
0.0
 71
     5
 72
     1
  1
%%c10
  7
ASAMI
 11
0.0000000000000001
 21
1.0
 31
0.0
1001
ACAD
1000
MTEXTBEGIN
1070
    73
1070
     1
1070
    44
1040
1.0
1070
    74
1070
     0
1000
MTEXTEND
  0
POINT
  5
1823
330
14F4
100
AcDbEntity
  8
DEFPOINTS
 62
     0
100
AcDbPoint
 10
0.0000000000000107
 20
4.999999999999879
 30
0.0
  0
POINT
  5
1824
330
14F4
100
AcDbEntity
  8
DEFPOINTS
 62
     0
100
AcDbPoint
 10
0.0000000000000178
 20
-5.00000000000012
 30
0.0
  0
POINT
  5
1825
330
14F4
100
AcDbEntity
  8
DEFPOINTS
 62
     0
100
AcDbPoint
 10
7.000000000000225
 20
-5.000000000000122
 30
0.0
  0
ENDBLK
  5
14FF
330
14F4
100
AcDbEntity
  8
0
100
AcDbBlockEnd
  0
ENDSEC
  0
SECTION
  2
ENTITIES
  0
TEXT
  5
E5A
330
1F
100
AcDbEntity
  8
AM_6
100
AcDbText
 10
-47.67857142857119
 20
-29.25000099999659
 30
0.0
 40
2.5
  1
LSM4100ZX
 72
     4
 11
-37.49999999999976
 21
-28.00000099999659
 31
0.0
100
AcDbText
  0
LINE
  5
132A
330
1F
100
AcDbEntity
  8
AM_0
100
AcDbLine
 10
-29.99999999999966
 20
4.999999999999971
 30
0.0
 11
-35.48488109809268
 21
4.99999999999985
 31
0.0
  0
LINE
  5
132B
330
1F
100
AcDbEntity
  8
AM_7
  6
AM_ISO08W050X2
100
AcDbLine
 10
3.293247997088201
 20
-0.0000000000001147
 30
0.0
 11
-77.73320485933165
 21
-0.0000000000001457
 31
0.0
1001
GENIUS_GENODEF_13
1002
{
1000
HIER
1070
     0
1002
}
1002
{
1000
MANEDIT
1070
     0
1002
}
1002
{
1000
NOSEL
1070
     0
1002
}
1002
{
1000
BEHIND
1070
     0
1002
}
1002
{
1000
REACTOR
1002
}
1001
GENIUS_GENOBJ-N-CEN_13
1002
{
1000
OWNER
1000
GEN
1002
}
  0
LINE
  5
138D
330
1F
100
AcDbEntity
  8
AM_0
100
AcDbLine
 10
-31.58609211882617
 20
-5.000000000000012
 30
0.0
 11
-34.7919300440512
 21
-5.000000000000149
 31
0.0
  0
LINE
  5
13AC
330
1F
100
AcDbEntity
  8
AM_0
100
AcDbLine
 10
-74.24999999999977
 20
4.999999999999818
 30
0.0
 11
-74.24999999999979
 21
-4.999999999998916
 31
0.0
  0
LINE
  5
13AD
330
1F
100
AcDbEntity
  8
AM_0
100
AcDbLine
 10
-74.99999999999977
 20
4.249999999999818
 30
0.0
 11
-74.99999999999978
 21
-4.249999999998916
 31
0.0
  0
LINE
  5
13AE
330
1F
100
AcDbEntity
  8
AM_0
100
AcDbLine
 10
-74.99999999999978
 20
-4.249999999998916
 30
0.0
 11
-74.24999999999979
 21
-4.999999999998916
 31
0.0
1001
GENIUS_GENFIL_13
1070
     0
1040
0.75
1040
0.75
1040
20.0
1040
0.0
1002
{
1002
}
1001
GENIUS_GENODEF_13
1002
{
1000
HIER
1070
     0
1002
}
1002
{
1000
MANEDIT
1070
     0
1002
}
1002
{
1000
NOSEL
1070
     0
1002
}
1002
{
1000
BEHIND
1070
     0
1002
}
1002
{
1000
REACTOR
1002
}
1001
GENIUS_GENOBJ-N-CHA_13
1002
{
1000
OWNER
1000
GEN
1002
}
  0
LINE
  5
13AF
330
1F
100
AcDbEntity
  8
AM_0
100
AcDbLine
 10
-74.24999999999977
 20
4.999999999999818
 30
0.0
 11
-74.99999999999977
 21
4.249999999999818
 31
0.0
1001
GENIUS_GENFIL_13
1070
     0
1040
0.75
1040
0.75
1040
20.0
1040
0.0
1002
{
1002
}
1001
GENIUS_GENODEF_13
1002
{
1000
HIER
1070
     0
1002
}
1002
{
1000
MANEDIT
1070
     0
1002
}
1002
{
1000
NOSEL
1070
     0
1002
}
1002
{
1000
BEHIND
1070
     0
1002
}
1002
{
1000
REACTOR
1002
}
1001
GENIUS_GENOBJ-N-CHA_13
1002
{
1000
OWNER
1000
GEN
1002
}
  0
DIMENSION
  5
13B0
330
1F
100
AcDbEntity
  8
AM_5
100
AcDbDimension
  2
*D5
 10
-81.99999999999979
 20
-4.999999999998914
 30
0.0
 11
-83.54999999999979
 21
0.0000000000004404
 31
0.0
 70
    32
  1
%%c<>
  3
AM_JIS
100
AcDbAlignedDimension
 13
-74.24999999999977
 23
4.999999999999818
 33
0.0
 14
-74.24999999999977
 24
-4.999999999998916
 34
0.0
 50
270.0
100
AcDbRotatedDimension
1001
GENIUS_GENDTOL_13
1000

1000
h7
1000

1040
0.0
  0
LINE
  5
13B1
330
1F
100
AcDbEntity
  8
AM_0
100
AcDbLine
 10
-31.58609211882617
 20
-5.000000000000012
 30
0.0
 11
-74.24999999999979
 21
-4.999999999998916
 31
0.0
  0
LINE
  5
13B2
330
1F
100
AcDbEntity
  8
AM_0
100
AcDbLine
 10
-29.99999999999963
 20
4.999999999999971
 30
0.0
 11
-74.24999999999977
 21
4.999999999999818
 31
0.0
  0
DIMENSION
  5
13B3
330
1F
100
AcDbEntity
  8
AM_5
100
AcDbDimension
  2
*D6
 10
0.000000000000223
 20
-18.00000099999659
 30
0.0
 11
-37.49999999999978
 21
-16.45000099999659
 31
0.0
 70
    32
  1
<>
  3
AM_JIS
100
AcDbAlignedDimension
 13
-74.99999999999978
 23
-4.249999999998916
 33
0.0
 14
0.0000000000002238
 24
-5.000000000000135
 34
0.0
100
AcDbRotatedDimension
1001
GENIUS_GENDTOL_13
1000

1000
h7
1000

1040
0.0
  0
DIMENSION
  5
145B
330
1F
100
AcDbEntity
  8
AM_5
100
AcDbDimension
  2
*D7
 10
0.0000000000000244
 20
-12.00000000000184
 30
0.0
 11
-15.00000000000012
 21
-10.45000000000184
 31
0.0
 70
    32
  1
<>
  3
AM_JIS
100
AcDbAlignedDimension
 13
-30.00000000000027
 23
-5.000000000000035
 33
0.0
 14
0.0000000000000249
 24
-5.000000000000135
 34
0.0
 50
359.9999999999967
100
AcDbRotatedDimension
1001
GENIUS_GENDTOL_13
1000

1000
h7
1000

1040
0.0
  0
DIMENSION
  5
14F3
330
1F
100
AcDbEntity
  8
AM_5
100
AcDbDimension
  2
*D8
 10
7.000000000000225
 20
-5.000000000000122
 30
0.0
 11
5.450000000000226
 21
-0.000000000000121
 31
0.0
 70
    32
  1
%%c<>
  3
AM_JIS
100
AcDbAlignedDimension
 13
0.0000000000000107
 23
4.999999999999879
 33
0.0
 14
0.0000000000000178
 24
-5.00000000000012
 34
0.0
 50
90.0
100
AcDbRotatedDimension
1001
GENIUS_GENDTOL_13
1000

1000
h7
1000

1040
0.0
  0
SPLINE
  5
1650
330
1F
100
AcDbEntity
  8
AM_0
100
AcDbSpline
210
0.0
220
0.0
230
1.0
 70
     8
 71
     3
 72
     8
 73
     4
 74
     0
 42
0.0000000001
 43
0.0000000001
 40
0.0
 40
0.0
 40
0.0
 40
0.0
 40
1.412269715655734
 40
1.412269715655734
 40
1.412269715655734
 40
1.412269715655734
 10
-28.60000000000035
 20
-4.931068745912462
 30
0.0
 10
-29.07075657188562
 20
-4.931068745912462
 30
0.0
 10
-29.53728590230837
 20
-4.907320106293504
 30
0.0
 10
-30.00000000000016
 20
-4.862137491825031
 30
0.0
  0
SPLINE
  5
1651
330
1F
100
AcDbEntity
  8
AM_0
100
AcDbSpline
210
0.0
220
0.0
230
1.0
 70
     8
 71
     3
 72
     8
 73
     4
 74
     2
 42
0.0000000001
 43
0.0000000001
 44
0.0000000001
 12
-1.0
 22
-0.0000000000000012
 32
0.0
 40
0.0
 40
0.0
 40
0.0
 40
0.0
 40
14.48999654934396
 40
14.48999654934396
 40
14.48999654934396
 40
14.48999654934396
 10
-13.60000000000038
 20
-4.9999999999999
 30
0.0
 10
-18.4299988497817
 20
-4.999999999999906
 30
0.0
 10
-22.81499942489104
 20
-2.49999999999991
 30
0.0
 10
-27.20000000000038
 20
0.0000000000000853
 30
0.0
 11
-13.60000000000038
 21
-4.9999999999999
 31
0.0
 11
-27.20000000000038
 21
0.0000000000000853
 31
0.0
  0
SPLINE
  5
1652
330
1F
100
AcDbEntity
  8
AM_0
100
AcDbSpline
210
0.0
220
0.0
230
1.0
 70
     8
 71
     3
 72
     8
 73
     4
 74
     2
 42
0.0000000001
 43
0.0000000001
 44
0.0000000001
 12
1.0
 22
0.0000000000000011
 32
0.0
 40
0.0
 40
0.0
 40
0.0
 40
0.0
 40
14.48999654934396
 40
14.48999654934396
 40
14.48999654934396
 40
14.48999654934396
 10
-27.20000000000019
 20
5.000000000000085
 30
0.0
 10
-22.37000115021887
 20
5.00000000000009
 30
0.0
 10
-17.98500057510953
 20
2.500000000000095
 30
0.0
 10
-13.60000000000019
 20
0.0000000000000995
 30
0.0
 11
-27.20000000000019
 21
5.000000000000085
 31
0.0
 11
-13.60000000000019
 21
0.0000000000000995
 31
0.0
  0
SPLINE
  5
1653
330
1F
100
AcDbEntity
  8
AM_0
100
AcDbSpline
210
0.0
220
0.0
230
1.0
 70
     8
 71
     3
 72
     8
 73
     4
 74
     0
 42
0.0000000001
 43
0.0000000001
 40
0.0
 40
0.0
 40
0.0
 40
0.0
 40
2.130230809022907
 40
2.130230809022907
 40
2.130230809022907
 40
2.130230809022907
 10
-27.20000000000037
 20
-5.000000000000028
 30
0.0
 10
-26.48992306365939
 20
-5.000000000000028
 30
0.0
 10
-25.78946391279677
 20
-4.945967287820195
 30
0.0
 10
-25.0972085993228
 20
-4.84584542285259
 30
0.0
  0
SPLINE
  5
1654
330
1F
100
AcDbEntity
  8
AM_0
100
AcDbSpline
210
0.0
220
0.0
230
1.0
 70
     8
 71
     3
 72
     8
 73
     4
 74
     0
 42
0.0000000001
 43
0.0000000001
 40
0.0
 40
0.0
 40
0.0
 40
0.0
 40
6.769478140335353
 40
6.769478140335353
 40
6.769478140335353
 40
6.769478140335353
 10
-23.44468331902509
 20
-4.617444503802602
 30
0.0
 10
-25.7011760324702
 20
-4.617444503802602
 30
0.0
 10
-27.87297539936872
 20
-4.104555633143043
 30
0.0
 10
-30.00000000000016
 20
-3.320518198385663
 30
0.0
  0
SPLINE
  5
1655
330
1F
100
AcDbEntity
  8
AM_0
100
AcDbSpline
210
0.0
220
0.0
230
1.0
 70
     8
 71
     3
 72
     8
 73
     4
 74
     0
 42
0.0000000001
 43
0.0000000001
 40
0.0
 40
0.0
 40
0.0
 40
0.0
 40
4.662554012798695
 40
4.662554012798695
 40
4.662554012798695
 40
4.662554012798695
 10
-25.45455121800577
 20
-4.850283670335301
 30
0.0
 10
-27.00873588893863
 20
-4.850283670335301
 30
0.0
 10
-28.51917702339542
 20
-4.597406538505488
 30
0.0
 10
-30.00000000000016
 20
-4.173309715469407
 30
0.0
  0
SPLINE
  5
1656
330
1F
100
AcDbEntity
  8
AM_0
100
AcDbSpline
210
0.0
220
0.0
230
1.0
 70
     8
 71
     3
 72
     8
 73
     4
 74
     0
 42
0.0000000001
 43
0.0000000001
 40
4.48458745047074
 40
4.48458745047074
 40
4.48458745047074
 40
4.48458745047074
 40
14.36247867694493
 40
14.36247867694493
 40
14.36247867694493
 40
14.36247867694493
 10
-32.66011257304456
 20
4.012415480171675
 30
0.0
 10
-29.5055443027199
 20
3.175678486893779
 30
0.0
 10
-26.47511381087247
 20
1.587839243446893
 30
0.0
 10
-23.4446833190251
 20
0.0000000000000284
 30
0.0
  0
SPLINE
  5
1657
330
1F
100
AcDbEntity
  8
AM_0
100
AcDbSpline
210
0.0
220
0.0
230
1.0
 70
     8
 71
     3
 72
     8
 73
     4
 74
     0
 42
0.0000000001
 43
0.0000000001
 40
9.094138221207366
 40
9.094138221207366
 40
9.094138221207366
 40
9.094138221207366
 40
14.43901837670146
 40
14.43901837670146
 40
14.43901837670146
 40
14.43901837670146
 10
-30.35484177507004
 20
2.570129247636849
 30
0.0
 10
-28.70722587777953
 20
1.795425718130807
 30
0.0
 10
-27.08088854789264
 20
0.8977128590654217
 30
0.0
 10
-25.4545512180058
 20
0.0000000000000284
 30
0.0
  0
SPLINE
  5
1658
330
1F
100
AcDbEntity
  8
AM_0
100
AcDbSpline
210
0.0
220
0.0
230
1.0
 70
     8
 71
     3
 72
     8
 73
     4
 74
     0
 42
0.0000000001
 43
0.0000000001
 40
0.0
 40
0.0
 40
0.0
 40
0.0
 40
2.764560748519282
 40
2.764560748519282
 40
2.764560748519282
 40
2.764560748519282
 10
-11.85455121800577
 20
-4.8502836703354
 30
0.0
 10
-10.93303096849935
 20
-4.8502836703354
 30
0.0
 10
-10.02688937612236
 20
-4.761381148510061
 30
0.0
 10
-9.133181972576771
 20
-4.600597789843114
 30
0.0
  0
SPLINE
  5
1659
330
1F
100
AcDbEntity
  8
AM_0
100
AcDbSpline
210
0.0
220
0.0
230
1.0
 70
     8
 71
     3
 72
     8
 73
     4
 74
     0
 42
0.0000000001
 43
0.0000000001
 40
1.870660592686466
 40
1.870660592686466
 40
1.870660592686466
 40
1.870660592686466
 40
14.43901837670146
 40
14.43901837670146
 40
14.43901837670146
 40
14.43901837670146
 10
-0.1050000000001816
 20
-4.733441157621768
 30
0.0
 10
-4.205964591229012
 20
-4.221900612101485
 30
0.0
 10
-8.030257904617315
 20
-2.110950306050717
 30
0.0
 10
-11.85455121800561
 20
0.0000000000000426
 30
0.0
  0
SPLINE
  5
165A
330
1F
100
AcDbEntity
  8
AM_0
100
AcDbSpline
210
0.0
220
0.0
230
1.0
 70
     8
 71
     3
 72
     8
 73
     4
 74
     0
 42
0.0000000001
 43
0.0000000001
 40
0.7142832446738512
 40
0.7142832446738512
 40
0.7142832446738512
 40
0.7142832446738512
 40
14.36247867694493
 40
14.36247867694493
 40
14.36247867694493
 40
14.36247867694493
 10
-22.73318197247125
 20
4.600597789824263
 30
0.0
 10
-18.2189216353562
 20
4.38780703547551
 30
0.0
 10
-14.03180247719055
 20
2.19390351773778
 30
0.0
 10
-9.844683319024909
 20
0.0000000000000497
 30
0.0
  0
SPLINE
  5
165B
330
1F
100
AcDbEntity
  8
AM_0
100
AcDbSpline
210
0.0
220
0.0
230
1.0
 70
     8
 71
     3
 72
     8
 73
     4
 74
     2
 42
0.0000000001
 43
0.0000000001
 44
0.0000000001
 12
-1.0
 22
-0.0000000000000012
 32
0.0
 40
0.0
 40
0.0
 40
0.0
 40
0.0
 40
14.36247867694493
 40
14.36247867694493
 40
14.36247867694493
 40
14.36247867694493
 10
-9.844683319025101
 20
-4.61744450380258
 30
0.0
 10
-14.63217621134008
 20
-4.617444503802587
 30
0.0
 10
-19.03842976518259
 20
-2.308722251901222
 30
0.0
 10
-23.4446833190251
 20
0.0000000000001421
 30
0.0
 11
-9.844683319025101
 21
-4.61744450380258
 31
0.0
 11
-23.4446833190251
 21
0.0000000000001421
 31
0.0
  0
SPLINE
  5
165C
330
1F
100
AcDbEntity
  8
AM_0
100
AcDbSpline
210
0.0
220
0.0
230
1.0
 70
     8
 71
     3
 72
     8
 73
     4
 74
     2
 42
0.0000000001
 43
0.0000000001
 44
0.0000000001
 12
-1.0
 22
-0.0000000000000012
 32
0.0
 40
0.0
 40
0.0
 40
0.0
 40
0.0
 40
14.48999654934396
 40
14.48999654934396
 40
14.48999654934396
 40
14.48999654934396
 10
-0.0000000000001918
 20
-5.0
 30
0.0
 10
-4.829998849781511
 20
-5.000000000000006
 30
0.0
 10
-9.214999424890851
 20
-2.50000000000001
 30
0.0
 10
-13.60000000000019
 20
-0.0000000000000142
 30
0.0
 11
-0.0000000000001918
 21
-5.0
 31
0.0
 11
-13.60000000000019
 21
-0.0000000000000142
 31
0.0
  0
SPLINE
  5
165D
330
1F
100
AcDbEntity
  8
AM_0
100
AcDbSpline
210
0.0
220
0.0
230
1.0
 70
     8
 71
     3
 72
     8
 73
     4
 74
     2
 42
0.0000000001
 43
0.0000000001
 44
0.0000000001
 12
1.0
 22
0.0000000000000011
 32
0.0
 40
0.0
 40
0.0
 40
0.0
 40
0.0
 40
14.48999654934396
 40
14.48999654934396
 40
14.48999654934396
 40
14.48999654934396
 10
-13.6000000000002
 20
5.000000000000099
 30
0.0
 10
-8.770001150218881
 20
5.000000000000104
 30
0.0
 10
-4.38500057510954
 20
2.500000000000109
 30
0.0
 10
-0.000000000000199
 20
0.0000000000001137
 30
0.0
 11
-13.6000000000002
 21
5.000000000000099
 31
0.0
 11
-0.000000000000199
 21
0.0000000000001137
 31
0.0
  0
SPLINE
  5
165E
330
1F
100
AcDbEntity
  8
AM_0
100
AcDbSpline
210
0.0
220
0.0
230
1.0
 70
     8
 71
     3
 72
     8
 73
     4
 74
     0
 42
0.0000000001
 43
0.0000000001
 40
0.3581103616548037
 40
0.3581103616548037
 40
0.3581103616548037
 40
0.3581103616548037
 40
12.40023413887867
 40
12.40023413887867
 40
12.40023413887867
 40
12.40023413887867
 10
-11.49720859932242
 20
4.845845422852661
 30
0.0
 10
-7.500306788787078
 20
4.74676393706283
 30
0.0
 10
-3.787959378150226
 20
3.002701128485
 30
0.0
 10
-0.1168127923960256
 20
1.020460356608964
 30
0.0
  0
SPLINE
  5
165F
330
1F
100
AcDbEntity
  8
AM_0
100
AcDbSpline
210
0.0
220
0.0
230
1.0
 70
     8
 71
     3
 72
     8
 73
     4
 74
     0
 42
0.0000000001
 43
0.0000000001
 40
4.542668862435135
 40
4.542668862435135
 40
4.542668862435135
 40
4.542668862435135
 40
14.36247867694493
 40
14.36247867694493
 40
14.36247867694493
 40
14.36247867694493
 10
-0.6849999999988015
 20
-3.997616655456624
 30
0.0
 10
-3.819459836855735
 20
-3.157005686572858
 30
0.0
 10
-6.832071577940325
 20
-1.578502843286408
 30
0.0
 10
-9.844683319024909
 20
0.0000000000000497
 30
0.0
  0
SPLINE
  5
1660
330
1F
100
AcDbEntity
  8
AM_0
100
AcDbSpline
210
0.0
220
0.0
230
1.0
 70
     8
 71
     3
 72
     8
 73
     4
 74
     0
 42
0.0000000001
 43
0.0000000001
 40
0.0
 40
0.0
 40
0.0
 40
0.0
 40
5.635889483499127
 40
5.635889483499127
 40
5.635889483499127
 40
5.635889483499127
 10
-0.0000000000002061
 20
5.0
 30
0.0
 10
-1.878629827833243
 20
5.0
 30
0.0
 10
-3.689939253836321
 20
4.621794028979138
 30
0.0
 10
-5.460112573044035
 20
4.012485438371236
 30
0.0
  0
SPLINE
  5
1661
330
1F
100
AcDbEntity
  8
AM_0
100
AcDbSpline
210
0.0
220
0.0
230
1.0
 70
     8
 71
     3
 72
     8
 73
     4
 74
     2
 42
0.0000000001
 43
0.0000000001
 44
0.0000000001
 12
-0.6417012268563091
 22
-0.7669547153848836
 32
0.0
 13
-0.990099942783104
 23
-0.1403641809753975
 33
0.0
 40
0.0
 40
0.0
 40
0.0
 40
0.0
 40
2.586565323616714
 40
2.586565323616714
 40
2.586565323616714
 40
2.586565323616714
 10
-0.0000000000002061
 20
4.074702686683963
 30
0.0
 10
-0.5532673805031499
 20
3.413443196151007
 30
0.0
 10
-1.502919504716202
 20
3.129473796924352
 30
0.0
 10
-2.356572231022092
 20
3.008453422528077
 30
0.0
 11
-0.0000000000002061
 21
4.074702686683963
 31
0.0
 11
-2.356572231022092
 21
3.008453422528077
 31
0.0
  0
SPLINE
  5
1662
330
1F
100
AcDbEntity
  8
AM_0
100
AcDbSpline
210
0.0
220
0.0
230
1.0
 70
     8
 71
     3
 72
     8
 73
     4
 74
     0
 42
0.0000000001
 43
0.0000000001
 40
0.7142832446738512
 40
0.7142832446738512
 40
0.7142832446738512
 40
0.7142832446738512
 40
9.361146747480315
 40
9.361146747480315
 40
9.361146747480315
 40
9.361146747480315
 10
-9.133181972471255
 20
4.600597789824284
 30
0.0
 10
-6.273156033886671
 20
4.465783438971577
 30
0.0
 10
-3.544441351448234
 20
3.535769882799627
 30
0.0
 10
-0.8638452046301736
 20
2.314358449480948
 30
0.0
  0
SPLINE
  5
1663
330
1F
100
AcDbEntity
  8
AM_0
100
AcDbSpline
210
0.0
220
0.0
230
1.0
 70
     8
 71
     3
 72
     8
 73
     4
 74
     0
 42
0.0000000001
 43
0.0000000001
 40
0.0
 40
0.0
 40
0.0
 40
0.0
 40
4.451443990518192
 40
4.451443990518192
 40
4.451443990518192
 40
4.451443990518192
 10
-9.844683319025101
 20
-4.617444503802694
 30
0.0
 10
-8.36086865551902
 20
-4.617444503802694
 30
0.0
 10
-6.913675880852728
 20
-4.395668414247445
 30
0.0
 10
-5.491754566547676
 20
-4.020852548923478
 30
0.0
  0
SPLINE
  5
1664
330
1F
100
AcDbEntity
  8
AM_0
100
AcDbSpline
210
0.0
220
0.0
230
1.0
 70
     8
 71
     3
 72
     8
 73
     4
 74
     2
 42
0.0000000001
 43
0.0000000001
 44
0.0000000001
 12
-1.0
 22
-0.0000000000000012
 32
0.0
 40
0.0
 40
0.0
 40
0.0
 40
0.0
 40
14.43901837670149
 40
14.43901837670149
 40
14.43901837670149
 40
14.43901837670149
 10
-11.85455121800577
 20
-4.850283670335286
 30
0.0
 10
-16.66755734357293
 20
-4.850283670335293
 30
0.0
 10
-21.06105428078937
 20
-2.425141835167575
 30
0.0
 10
-25.4545512180058
 20
0.0000000000001421
 30
0.0
 11
-11.85455121800577
 21
-4.850283670335286
 31
0.0
 11
-25.4545512180058
 21
0.0000000000001421
 31
0.0
  0
SPLINE
  5
1665
330
1F
100
AcDbEntity
  8
AM_0
100
AcDbSpline
210
0.0
220
0.0
230
1.0
 70
     8
 71
     3
 72
     8
 73
     4
 74
     0
 42
0.0000000001
 43
0.0000000001
 40
0.3581103616548037
 40
0.3581103616548037
 40
0.3581103616548037
 40
0.3581103616548037
 40
14.43901837670146
 40
14.43901837670146
 40
14.43901837670146
 40
14.43901837670146
 10
-25.09720859932242
 20
4.845845422852647
 30
0.0
 10
-20.42361382646615
 20
4.729989008053202
 30
0.0
 10
-16.13908252223587
 20
2.364994504026618
 30
0.0
 10
-11.85455121800561
 20
0.0000000000000426
 30
0.0
  0
SPLINE
  5
1666
330
1F
100
AcDbEntity
  8
AM_0
100
AcDbSpline
210
0.0
220
0.0
230
1.0
 70
     8
 71
     3
 72
     8
 73
     4
 74
     0
 42
0.0000000001
 43
0.0000000001
 40
0.0
 40
0.0
 40
0.0
 40
0.0
 40
5.635889483499305
 40
5.635889483499305
 40
5.635889483499305
 40
5.635889483499305
 10
-13.6000000000004
 20
5.000000000000099
 30
0.0
 10
-15.47862982783352
 20
5.000000000000099
 30
0.0
 10
-17.28993925383663
 20
4.62179402897923
 30
0.0
 10
-19.06011257304437
 20
4.012485438371278
 30
0.0
  0
SPLINE
  5
1667
330
1F
100
AcDbEntity
  8
AM_0
100
AcDbSpline
210
0.0
220
0.0
230
1.0
 70
     8
 71
     3
 72
     8
 73
     4
 74
     0
 42
0.0000000001
 43
0.0000000001
 40
0.0
 40
0.0
 40
0.0
 40
0.0
 40
2.130230809022907
 40
2.130230809022907
 40
2.130230809022907
 40
2.130230809022907
 10
-13.60000000000038
 20
-5.000000000000014
 30
0.0
 10
-12.8899230636594
 20
-5.000000000000014
 30
0.0
 10
-12.18946391279677
 20
-4.945967287820181
 30
0.0
 10
-11.49720859932281
 20
-4.845845422852576
 30
0.0
  0
SPLINE
  5
1668
330
1F
100
AcDbEntity
  8
AM_0
100
AcDbSpline
210
0.0
220
0.0
230
1.0
 70
     8
 71
     3
 72
     8
 73
     4
 74
     0
 42
0.0000000001
 43
0.0000000001
 40
0.0
 40
0.0
 40
0.0
 40
0.0
 40
4.451443990518192
 40
4.451443990518192
 40
4.451443990518192
 40
4.451443990518192
 10
-23.44468331902509
 20
-4.617444503802715
 30
0.0
 10
-21.96086865551901
 20
-4.617444503802715
 30
0.0
 10
-20.51367588085272
 20
-4.39566841424746
 30
0.0
 10
-19.09175456654767
 20
-4.020852548923492
 30
0.0
  0
SPLINE
  5
1669
330
1F
100
AcDbEntity
  8
AM_0
100
AcDbSpline
210
0.0
220
0.0
230
1.0
 70
     8
 71
     3
 72
     8
 73
     4
 74
     0
 42
0.0000000001
 43
0.0000000001
 40
0.0
 40
0.0
 40
0.0
 40
0.0
 40
2.764560748519282
 40
2.764560748519282
 40
2.764560748519282
 40
2.764560748519282
 10
-25.45455121800577
 20
-4.850283670335414
 30
0.0
 10
-24.53303096849935
 20
-4.850283670335414
 30
0.0
 10
-23.62688937612235
 20
-4.761381148510082
 30
0.0
 10
-22.73318197257676
 20
-4.600597789843135
 30
0.0
  0
SPLINE
  5
166A
330
1F
100
AcDbEntity
  8
AM_0
100
AcDbSpline
210
0.0
220
0.0
230
1.0
 70
     8
 71
     3
 72
     8
 73
     4
 74
     0
 42
0.0000000001
 43
0.0000000001
 40
0.0
 40
0.0
 40
0.0
 40
0.0
 40
1.412269715655931
 40
1.412269715655931
 40
1.412269715655931
 40
1.412269715655931
 10
-27.20000000000037
 20
-4.999999999999914
 30
0.0
 10
-27.67075657188569
 20
-4.999999999999914
 30
0.0
 10
-28.13728590230851
 20
-4.976251360380963
 30
0.0
 10
-28.60000000000038
 20
-4.931068745912462
 30
0.0
  0
SPLINE
  5
166B
330
1F
100
AcDbEntity
  8
AM_0
100
AcDbSpline
210
0.0
220
0.0
230
1.0
 70
     8
 71
     3
 72
     8
 73
     4
 74
     0
 42
0.0000000001
 43
0.0000000001
 40
11.41055204919593
 40
11.41055204919593
 40
11.41055204919593
 40
11.41055204919593
 40
14.48999654934393
 40
14.48999654934393
 40
14.48999654934393
 40
14.48999654934393
 10
-30.00000000000023
 20
1.569919008979091
 30
0.0
 10
-29.06381906416402
 20
1.062610501548952
 30
0.0
 10
-28.1319095320822
 20
0.5313052507745156
 30
0.0
 10
-27.20000000000038
 20
0.0000000000000853
 30
0.0
  0
LINE
  5
166F
330
1F
100
AcDbEntity
  8
AM_11
100
AcDbLine
 10
-30.00000000000027
 20
-5.000000000000033
 30
0.0
 11
-0.0000000000001918
 21
-5.0
 31
0.0
  0
LINE
  5
1670
330
1F
100
AcDbEntity
  8
AM_11
100
AcDbLine
 10
-0.0000000000009734
 20
5.0
 30
0.0
 11
-30.00000000000046
 21
4.999999999999964
 31
0.0
  0
LINE
  5
1671
330
1F
100
AcDbEntity
  8
AM_0
100
AcDbLine
 10
-0.000000000000199
 20
0.0
 30
0.0
 11
-0.0000000000002061
 21
5.0
 31
0.0
  0
ARC
  5
1672
330
1F
100
AcDbEntity
  8
AM_0
100
AcDbCircle
 10
1.985673182026999
 20
-2.543880164717904
 30
0.0
 40
3.04069811551605
100
AcDbArc
 50
159.392326973258
 51
208.5609268810355
  0
LINE
  5
1673
330
1F
100
AcDbEntity
  8
AM_0
100
AcDbLine
 10
-0.1050000000001816
 20
-4.733441157621825
 30
0.0
 11
-0.1050000000001887
 21
-1.326897854563185
 31
0.0
  0
LINE
  5
1674
330
1F
100
AcDbEntity
  8
AM_0
100
AcDbLine
 10
-0.0000000000001918
 20
-5.0
 30
0.0
 11
-0.000000000000199
 21
-1.0
 31
0.0
  0
LINE
  5
1675
330
1F
100
AcDbEntity
  8
AM_0
100
AcDbLine
 10
-0.8604579856913687
 20
-1.473654765166543
 30
0.0
 11
-0.1050000000001887
 21
-1.326897854563185
 31
0.0
  0
LINE
  5
1676
330
1F
100
AcDbEntity
  8
AM_0
100
AcDbLine
 10
-0.000000000000199
 20
0.0
 30
0.0
 11
-2.356572231022084
 21
0.0
 31
0.0
  0
LINE
  5
1677
330
1F
100
AcDbEntity
  8
AM_0
100
AcDbLine
 10
-2.356572231022084
 20
-0.8000000000000113
 30
0.0
 11
-0.1154700538381235
 21
-0.8000000000000113
 31
0.0
  0
LINE
  5
1678
330
1F
100
AcDbEntity
  8
AM_0
100
AcDbLine
 10
-0.000000000000199
 20
-1.0
 30
0.0
 11
-0.57735026918985
 21
0.0000000000000568
 31
0.0
  0
LINE
  5
1679
330
1F
100
AcDbEntity
  8
AM_0
100
AcDbLine
 10
-0.000000000000199
 20
0.0
 30
0.0
 11
-0.1050000000001958
 21
1.000000000000113
 31
0.0
  0
LINE
  5
167A
330
1F
100
AcDbEntity
  8
AM_0
100
AcDbLine
 10
-0.000000000000199
 20
0.0
 30
0.0
 11
-0.0888426091441659
 21
-0.846120087085751
 31
0.0
  0
LINE
  5
167B
330
1F
100
AcDbEntity
  8
AM_0
100
AcDbLine
 10
-2.356572231022084
 20
0.0
 30
0.0
 11
-2.356572231022084
 21
-0.8000000000000113
 31
0.0
  0
LINE
  5
167C
330
1F
100
AcDbEntity
  8
AM_0
100
AcDbLine
 10
-2.356572231022084
 20
-0.8000000000000113
 30
0.0
 11
-0.8604579856913687
 21
-1.473654765166543
 31
0.0
  0
LINE
  5
167D
330
1F
100
AcDbEntity
  8
AM_0
100
AcDbLine
 10
-0.1050000000001887
 20
-1.326897854563185
 30
0.0
 11
-0.000000000000199
 21
-1.0
 31
0.0
  0
LINE
  5
167E
330
1F
100
AcDbEntity
  8
AM_0
100
AcDbLine
 10
-1.06752419774606
 20
2.667140814010394
 30
0.0
 11
-2.356572231022092
 21
3.008453422528077
 31
0.0
  0
LINE
  5
167F
330
1F
100
AcDbEntity
  8
AM_0
100
AcDbLine
 10
-0.1050000000001958
 20
1.000000000000113
 30
0.0
 11
-1.06752419774606
 21
2.667140814010394
 31
0.0
  0
LINE
  5
1680
330
1F
100
AcDbEntity
  8
AM_0
100
AcDbLine
 10
-0.0000000000001918
 20
-5.0
 30
0.0
 11
-0.1050000000001816
 21
-4.733441157621825
 31
0.0
  0
LINE
  5
1681
330
1F
100
AcDbEntity
  8
AM_0
100
AcDbLine
 10
-0.1050000000001816
 20
-4.733441157621768
 30
0.0
 11
-0.6850000000001942
 21
-3.997616655461911
 31
0.0
  0
POLYLINE
  5
1682
330
1F
100
AcDbEntity
  8
AM_0
100
AcDb2dPolyline
 66
     1
 10
0.0
 20
0.0
 30
0.0
 70
     2
  0
VERTEX
  5
1683
330
1682
100
AcDbEntity
  8
AM_0
100
AcDbVertex
100
AcDb2dVertex
 10
-32.66011257304456
 20
4.012415480171668
 30
0.0
 42
-0.0080850818469205
  0
VERTEX
  5
1684
330
1682
100
AcDbEntity
  8
AM_0
100
AcDbVertex
100
AcDb2dVertex
 10
-33.16148797344176
 20
4.169462787361013
 30
0.0
 42
-0.0113772357485858
 70
     1
  0
VERTEX
  5
1685
330
1682
100
AcDbEntity
  8
AM_0
100
AcDbVertex
100
AcDb2dVertex
 10
-33.51870395973555
 20
4.296870601691708
 30
0.0
 42
-0.0082896290467094
  0
VERTEX
  5
1686
330
1682
100
AcDbEntity
  8
AM_0
100
AcDbVertex
100
AcDb2dVertex
 10
-34.65720865362613
 20
4.75416142567785
 30
0.0
 42
-0.2726804491113656
 70
     1
  0
VERTEX
  5
1687
330
1682
100
AcDbEntity
  8
AM_0
100
AcDbVertex
100
AcDb2dVertex
 10
-34.68113349684353
 20
4.78630406606895
 30
0.0
 42
-0.4014058829339297
  0
VERTEX
  5
1688
330
1682
100
AcDbEntity
  8
AM_0
100
AcDbVertex
100
AcDb2dVertex
 10
-34.63776115004931
 20
4.842654042620196
 30
0.0
 42
-0.0313656446754737
 70
     1
  0
VERTEX
  5
1689
330
1682
100
AcDbEntity
  8
AM_0
100
AcDbVertex
100
AcDb2dVertex
 10
-33.85632790319432
 20
4.91211982467054
 30
0.0
 42
-0.0039726403541645
  0
VERTEX
  5
168A
330
1682
100
AcDbEntity
  8
AM_0
100
AcDbVertex
100
AcDb2dVertex
 10
-33.14469120922058
 20
4.924935170450865
 30
0.0
 42
0.0019401889352083
 70
     1
  0
VERTEX
  5
168B
330
1682
100
AcDbEntity
  8
AM_0
100
AcDbVertex
100
AcDb2dVertex
 10
-31.68750000000017
 20
4.945251856588321
 30
0.0
 42
0.0036525506412497
  0
VERTEX
  5
168C
330
1682
100
AcDbEntity
  8
AM_0
100
AcDbVertex
100
AcDb2dVertex
 10
-31.11447992447796
 20
4.959653105453206
 30
0.0
 42
0.0018773371428962
 70
     1
  0
VERTEX
  5
168D
330
1682
100
AcDbEntity
  8
AM_0
100
AcDbVertex
100
AcDb2dVertex
 10
-30.00000000000017
 20
4.999999999999964
 30
0.0
  0
SEQEND
  5
168E
330
1682
100
AcDbEntity
  8
AM_0
  0
LINE
  5
168F
330
1F
100
AcDbEntity
  8
AM_11
100
AcDbLine
 10
-30.00000000000027
 20
-5.000000000000035
 30
0.0
 11
-30.00000000000017
 21
4.999999999999964
 31
0.0
  0
POLYLINE
  5
1690
330
1F
100
AcDbEntity
  8
AM_0
100
AcDb2dPolyline
 66
     1
 10
0.0
 20
0.0
 30
0.0
 70
     2
  0
VERTEX
  5
17D8
330
1690
100
AcDbEntity
  8
AM_0
100
AcDbVertex
100
AcDb2dVertex
 10
-30.00000000000017
 20
1.569919008979177
 30
0.0
 42
0.0282874143909206
  0
VERTEX
  5
17E0
330
1690
100
AcDbEntity
  8
AM_0
100
AcDbVertex
100
AcDb2dVertex
 10
-30.90293550879126
 20
1.815401822372931
 30
0.0
 42
0.0334074463496904
 70
     1
  0
VERTEX
  5
17D9
330
1690
100
AcDbEntity
  8
AM_0
100
AcDbVertex
100
AcDb2dVertex
 10
-31.68750000000017
 20
1.927649701234962
 30
0.0
 42
0.0318888583378959
  0
VERTEX
  5
17E1
330
1690
100
AcDbEntity
  8
AM_0
100
AcDbVertex
100
AcDb2dVertex
 10
-33.33642128136753
 20
1.946711718018388
 30
0.0
 42
0.0858515004804059
 70
     1
  0
VERTEX
  5
17DA
330
1690
100
AcDbEntity
  8
AM_0
100
AcDbVertex
100
AcDb2dVertex
 10
-33.93750000000018
 20
1.810101184954234
 30
0.0
 42
0.1198883322212034
  0
VERTEX
  5
17E2
330
1690
100
AcDbEntity
  8
AM_0
100
AcDbVertex
100
AcDb2dVertex
 10
-34.36601571350429
 20
1.495427004374128
 30
0.0
 42
0.1704800302433514
 70
     1
  0
VERTEX
  5
17DB
330
1690
100
AcDbEntity
  8
AM_0
100
AcDbVertex
100
AcDb2dVertex
 10
-34.50000000000017
 20
1.140592620820925
 30
0.0
 42
0.1172295991725422
  0
VERTEX
  5
17E3
330
1690
100
AcDbEntity
  8
AM_0
100
AcDbVertex
100
AcDb2dVertex
 10
-34.40544219068584
 20
0.6970907834154901
 30
0.0
 42
0.0600702127063981
 70
     1
  0
VERTEX
  5
17DC
330
1690
100
AcDbEntity
  8
AM_0
100
AcDbVertex
100
AcDb2dVertex
 10
-33.93750000000018
 20
-0.0435947289005156
 30
0.0
 42
0.0296604585274291
  0
VERTEX
  5
17E5
330
1690
100
AcDbEntity
  8
AM_0
100
AcDbVertex
100
AcDb2dVertex
 10
-33.17053302575226
 20
-0.8789355764949107
 30
0.0
 42
0.0168132859575098
 70
     1
  0
VERTEX
  5
17DD
330
1690
100
AcDbEntity
  8
AM_0
100
AcDbVertex
100
AcDb2dVertex
 10
-31.68750000000016
 20
-2.219858387533783
 30
0.0
 42
0.0308957679148907
  0
VERTEX
  5
17E4
330
1690
100
AcDbEntity
  8
AM_0
100
AcDbVertex
100
AcDb2dVertex
 10
-31.07784163660568
 20
-2.673512549692517
 30
0.0
 42
0.0186650242726538
 70
     1
  0
VERTEX
  5
17DE
330
1690
100
AcDbEntity
  8
AM_0
100
AcDbVertex
100
AcDb2dVertex
 10
-30.00000000000016
 20
-3.320518198385663
 30
0.0
  0
SEQEND
  5
17DF
330
1690
100
AcDbEntity
  8
AM_0
  0
LINE
  5
1691
330
1F
100
AcDbEntity
  8
AM_0
100
AcDbLine
 10
-30.00000000000017
 20
3.135158672236904
 30
0.0
 11
-30.3548417750701
 21
2.570129247636849
 31
0.0
  0
LINE
  5
1692
330
1F
100
AcDbEntity
  8
AM_0
100
AcDbLine
 10
-30.3548417750701
 20
2.570129247636849
 30
0.0
 11
-30.00000000000017
 21
1.569919008979177
 31
0.0
  0
ARC
  5
1693
330
1F
100
AcDbEntity
  8
AM_0
100
AcDbCircle
 10
-29.98376637263184
 20
-15.53638948211054
 30
0.0
 40
10.67426433449964
100
AcDbArc
 50
90.08713656171536
 51
99.2189139423629
  0
LINE
  5
1694
330
1F
100
AcDbEntity
  8
AM_0
100
AcDbLine
 10
-30.00000000000016
 20
-3.320518198385663
 30
0.0
 11
-30.00000000000027
 21
-4.862137491825059
 31
0.0
  0
SPLINE
  5
16D1
330
1F
100
AcDbEntity
  8
AM_0
100
AcDbSpline
210
0.0
220
0.0
230
1.0
 70
    24
 71
     3
 72
     9
 73
     5
 74
     3
 42
0.0000000001
 43
0.0000000001
 44
0.0000000001
 40
0.0
 40
0.0
 40
0.0
 40
0.0
 40
1.545571252394573
 40
2.800000000000046
 40
2.800000000000046
 40
2.800000000000046
 40
2.800000000000046
 10
-27.20000000000019
 20
5.000000000000085
 30
0.0
 10
-27.71519041746505
 20
5.000000000000097
 30
0.0
 10
-28.6485237507984
 20
5.00000000000012
 30
0.0
 10
-29.58185708413175
 20
5.000000000000017
 30
0.0
 10
-30.00000000000024
 20
4.999999999999971
 30
0.0
 11
-27.20000000000019
 21
5.000000000000085
 31
0.0
 11
-28.74557125239476
 21
5.000000000000084
 31
0.0
 11
-30.00000000000024
 21
4.999999999999971
 31
0.0
  0
VIEWPORT
  5
110
330
101
100
AcDbEntity
 67
     1
  8
0
100
AcDbViewport
 10
420.5
 20
297.0
 30
0.0
 40
948.9782706766916
 41
628.452
 68
     1
 69
     1
1001
ACAD
1000
MVIEW
1002
{
1070
    16
1010
0.0
1020
0.0
1030
0.0
1010
0.0
1020
0.0
1030
1.0
1040
0.0
1040
628.452
1040
420.5
1040
297.0
1040
50.0
1040
0.0
1040
0.0
1070
     0
1070
   100
1070
     1
1070
     1
1070
     0
1070
     0
1070
     0
1070
     0
1040
0.0
1040
0.0
1040
0.0
1040
10.0
1040
10.0
1040
10.0
1040
10.0
1070
     0
1002
{
1002
}
1002
}
  0
ENDSEC
  0
SECTION
  2
OBJECTS
  0
DICTIONARY
  5
C
330
0
100
AcDbDictionary
  3
ACAD_GROUP
350
D
  3
ACAD_LAYOUT
350
1A
  3
ACAD_MLINESTYLE
350
17
  3
ACAD_PLOTSETTINGS
350
19
  3
ACAD_PLOTSTYLENAME
350
E
  3
ACDBVARIABLEDICTIONARY
350
34
  3
ACMDICTIONARY
350
43
  3
AMG
350
2B
  3
AMGSNAPSETTINGS
350
6E
  3
DWGPROPS
350
184F
  3
ACDBHEADERROUNDTRIPXREC
350
185B
  0
DICTIONARY
  5
74
330
1F
100
AcDbDictionary
280
     1
  3
ACAD_INDEX
360
1851
  3
ACAD_LAYOUTSELFREF
360
187E
  0
DICTIONARY
  5
1883
330
101
100
AcDbDictionary
280
     1
  3
ACAD_LAYOUTSELFREF
360
1884
  0
DICTIONARY
  5
D
102
{ACAD_REACTORS
330
C
102
}
330
C
100
AcDbDictionary
  0
DICTIONARY
  5
1A
102
{ACAD_REACTORS
330
C
102
}
330
C
100
AcDbDictionary
  0
DICTIONARY
  5
17
102
{ACAD_REACTORS
330
C
102
}
330
C
100
AcDbDictionary
  3
STANDARD
350
18
  0
DICTIONARY
  5
19
102
{ACAD_REACTORS
330
C
102
}
330
C
100
AcDbDictionary
  0
ACDBDICTIONARYWDFLT
  5
E
102
{ACAD_REACTORS
330
C
102
}
330
C
100
AcDbDictionary
281
     1
  3
Normal
350
F
100
AcDbDictionaryWithDefault
340
F
  0
DICTIONARY
  5
34
102
{ACAD_REACTORS
330
C
102
}
330
C
100
AcDbDictionary
  3
INDEXCTL
350
35
  3
SORTENTS
350
B5E
  0
DICTIONARY
  5
43
102
{ACAD_REACTORS
330
C
102
}
330
C
100
AcDbDictionary
  3
ACMSTDDICTIONARY
350
260
  0
DICTIONARY
  5
2B
102
{ACAD_REACTORS
330
C
102
}
330
C
100
AcDbDictionary
  3
ACMGSETTINGS
350
2C
  0
DICTIONARY
  5
6E
102
{ACAD_REACTORS
330
C
102
}
330
C
100
AcDbDictionary
  0
XRECORD
  5
184F
102
{ACAD_REACTORS
330
C
102
}
330
C
100
AcDbXrecord
  1
DWGPROPS COOKIE
  2

  3

  4

  6

  7

  8

  9

300
AmdtFileType=82
301
=
302
=
303
=
304
=
305
=
306
=
307
=
308
=
309
=
 40
0.0417541666666667
 41
2452836.771637361
 42
2452901.584744271
  1

 90
        1
  0
DICTIONARY
  5
185B
102
{ACAD_REACTORS
330
C
102
}
330
C
100
AcDbDictionary
  3
TSTACKALIGN
350
185C
  3
TSTACKSIZE
350
185D
  3
HYPERLINKBASE
350
185E
  3
STYLESHEET
350
185F
  3
LAYOUTDICT
350
1860
  3
PLOTSETDICT
350
1861
  3
PLOTSTYLNAMDICT
350
1862
  3
LWETCUNION
350
1863
  3
INSUNITS
350
1864
  3
CEPSNTYPE
350
1865
  3
FINGERPRINTGUID
350
1866
  3
VERSIONGUID
350
1867
  3
PSVPSCALE
350
1868
  3
DIMSTYLEDATA
350
1869
  3
PUCSORTHOREF
350
186A
  3
PUCSORTHOVIEW
350
186B
  3
PUCSBASE
350
186C
  3
PUCSORGTOP
350
186D
  3
PUCSORGBOTTOM
350
186E
  3
PUCSORGLEFT
350
186F
  3
PUCSORGRIGHT
350
1870
  3
PUCSORGFRONT
350
1871
  3
PUCSORGBACK
350
1872
  3
UCSORTHOREF
350
1873
  3
UCSORTHOVIEW
350
1874
  3
UCSBASE
350
1875
  3
UCSORGTOP
350
1876
  3
UCSORGBOTTOM
350
1877
  3
UCSORGLEFT
350
1878
  3
UCSORGRIGHT
350
1879
  3
UCSORGFRONT
350
187A
  3
UCSORGBACK
350
187B
  0
DICTIONARY
  5
1851
102
{ACAD_REACTORS
330
74
102
}
330
74
100
AcDbDictionary
  3
*A1
350
1852
  0
XRECORD
  5
187E
102
{ACAD_REACTORS
330
74
102
}
330
74
100
AcDbXrecord
340
1F
  0
XRECORD
  5
1884
102
{ACAD_REACTORS
330
1883
102
}
330
1883
100
AcDbXrecord
340
101
  0
MLINESTYLE
  5
18
102
{ACAD_REACTORS
330
17
102
}
330
17
100
AcDbMlineStyle
  2
STANDARD
 70
     0
  3

 62
   256
 51
90.0
 52
90.0
 71
     2
 49
0.5
 62
   256
  6
BYLAYER
 49
-0.5
 62
   256
  6
BYLAYER
  0
ACDBPLACEHOLDER
  5
F
102
{ACAD_REACTORS
330
E
102
}
330
E
100
AcDbPlaceHolder
280
     0
  0
DICTIONARYVAR
  5
35
102
{ACAD_REACTORS
330
34
102
}
330
34
100
DictionaryVariables
280
     0
  1
1
  0
DICTIONARYVAR
  5
B5E
102
{ACAD_REACTORS
330
34
102
}
330
34
100
DictionaryVariables
280
     0
  1
96
  0
DICTIONARY
  5
260
102
{ACAD_REACTORS
330
43
102
}
330
43
100
AcDbDictionary
  0
DICTIONARY
  5
2C
102
{ACAD_REACTORS
330
2B
102
}
330
2B
100
AcDbDictionary
  3
DWGSETTINGS
350
2D
  0
XRECORD
  5
185C
102
{ACAD_REACTORS
330
185B
102
}
330
185B
100
AcDbXrecord
 90
        1
  0
XRECORD
  5
185D
102
{ACAD_REACTORS
330
185B
102
}
330
185B
100
AcDbXrecord
 90
       70
  0
XRECORD
  5
185E
102
{ACAD_REACTORS
330
185B
102
}
330
185B
100
AcDbXrecord
  1

  0
XRECORD
  5
185F
102
{ACAD_REACTORS
330
185B
102
}
330
185B
100
AcDbXrecord
  1
ASAMI.ctb
  0
XRECORD
  5
1860
102
{ACAD_REACTORS
330
185B
102
}
330
185B
100
AcDbXrecord
340
1A
  0
XRECORD
  5
1861
102
{ACAD_REACTORS
330
185B
102
}
330
185B
100
AcDbXrecord
340
19
  0
XRECORD
  5
1862
102
{ACAD_REACTORS
330
185B
102
}
330
185B
100
AcDbXrecord
340
E
  0
XRECORD
  5
1863
102
{ACAD_REACTORS
330
185B
102
}
330
185B
100
AcDbXrecord
 90
    10781
  0
XRECORD
  5
1864
102
{ACAD_REACTORS
330
185B
102
}
330
185B
100
AcDbXrecord
 90
        4
  0
XRECORD
  5
1865
102
{ACAD_REACTORS
330
185B
102
}
330
185B
100
AcDbXrecord
 90
        0
  0
XRECORD
  5
1866
102
{ACAD_REACTORS
330
185B
102
}
330
185B
100
AcDbXrecord
  1
{AFB28963-8C59-40AE-9337-C84526B81ACE}
  0
XRECORD
  5
1867
102
{ACAD_REACTORS
330
185B
102
}
330
185B
100
AcDbXrecord
  1
{482E4CF0-D6E9-4FA2-BFD2-2178727A2698}
  0
XRECORD
  5
1868
102
{ACAD_REACTORS
330
185B
102
}
330
185B
100
AcDbXrecord
 40
0.0
  0
XRECORD
  5
1869
102
{ACAD_REACTORS
330
185B
102
}
330
185B
100
AcDbXrecord
1000
DSTYLE
1002
{
1070
    79
 70
     2
1070
   341
340
59
1070
   342
340
59
1070
   371
 70
    -1
1070
   372
 70
    -1
1002
}
  0
XRECORD
  5
186A
102
{ACAD_REACTORS
330
185B
102
}
330
185B
100
AcDbXrecord
340
0
  0
XRECORD
  5
186B
102
{ACAD_REACTORS
330
185B
102
}
330
185B
100
AcDbXrecord
 70
     0
  0
XRECORD
  5
186C
102
{ACAD_REACTORS
330
185B
102
}
330
185B
100
AcDbXrecord
340
0
  0
XRECORD
  5
186D
102
{ACAD_REACTORS
330
185B
102
}
330
185B
100
AcDbXrecord
 10
0.0
 20
0.0
 30
0.0
  0
XRECORD
  5
186E
102
{ACAD_REACTORS
330
185B
102
}
330
185B
100
AcDbXrecord
 10
0.0
 20
0.0
 30
0.0
  0
XRECORD
  5
186F
102
{ACAD_REACTORS
330
185B
102
}
330
185B
100
AcDbXrecord
 10
0.0
 20
0.0
 30
0.0
  0
XRECORD
  5
1870
102
{ACAD_REACTORS
330
185B
102
}
330
185B
100
AcDbXrecord
 10
0.0
 20
0.0
 30
0.0
  0
XRECORD
  5
1871
102
{ACAD_REACTORS
330
185B
102
}
330
185B
100
AcDbXrecord
 10
0.0
 20
0.0
 30
0.0
  0
XRECORD
  5
1872
102
{ACAD_REACTORS
330
185B
102
}
330
185B
100
AcDbXrecord
 10
0.0
 20
0.0
 30
0.0
  0
XRECORD
  5
1873
102
{ACAD_REACTORS
330
185B
102
}
330
185B
100
AcDbXrecord
340
0
  0
XRECORD
  5
1874
102
{ACAD_REACTORS
330
185B
102
}
330
185B
100
AcDbXrecord
 70
     0
  0
XRECORD
  5
1875
102
{ACAD_REACTORS
330
185B
102
}
330
185B
100
AcDbXrecord
340
0
  0
XRECORD
  5
1876
102
{ACAD_REACTORS
330
185B
102
}
330
185B
100
AcDbXrecord
 10
0.0
 20
0.0
 30
0.0
  0
XRECORD
  5
1877
102
{ACAD_REACTORS
330
185B
102
}
330
185B
100
AcDbXrecord
 10
0.0
 20
0.0
 30
0.0
  0
XRECORD
  5
1878
102
{ACAD_REACTORS
330
185B
102
}
330
185B
100
AcDbXrecord
 10
0.0
 20
0.0
 30
0.0
  0
XRECORD
  5
1879
102
{ACAD_REACTORS
330
185B
102
}
330
185B
100
AcDbXrecord
 10
0.0
 20
0.0
 30
0.0
  0
XRECORD
  5
187A
102
{ACAD_REACTORS
330
185B
102
}
330
185B
100
AcDbXrecord
 10
0.0
 20
0.0
 30
0.0
  0
XRECORD
  5
187B
102
{ACAD_REACTORS
330
185B
102
}
330
185B
100
AcDbXrecord
 10
0.0
 20
0.0
 30
0.0
  0
LAYER_INDEX
  5
1852
102
{ACAD_REACTORS
330
1851
102
}
330
1851
100
AcDbIndex
 40
2453152.441769988
100
AcDbLayerIndex
  8
0
360
1853
 90
        0
  8
AM_0
360
1854
 90
       60
  8
AM_11
360
1855
 90
        3
  8
AM_7
360
1856
 90
        1
  8
AM_5
360
1857
 90
        4
  8
Defpoints
360
1858
 90
        0
  8
AM_6
360
1859
 90
        1
  0
XRECORD
  5
2D
102
{ACAD_REACTORS
330
2C
102
}
330
2C
100
AcDbXrecord
  1
VERSION
140
15.0
  1
PRODUCT
  2
AutoCAD Mechanical 2000
  0
IDBUFFER
  5
1853
330
0
100
AcDbIdBuffer
  0
IDBUFFER
  5
1854
330
0
100
AcDbIdBuffer
330
167D
330
167E
330
167F
330
1680
330
1681
330
1682
330
1690
330
1691
330
1692
330
1693
330
1694
330
16D1
330
132A
330
138D
330
13AC
330
13AD
330
13AE
330
13AF
330
13B1
330
13B2
330
1650
330
1651
330
1652
330
1653
330
1654
330
1655
330
1656
330
1657
330
1658
330
1659
330
165A
330
165B
330
165C
330
165D
330
165E
330
165F
330
1660
330
1661
330
1662
330
1663
330
1664
330
1665
330
1666
330
1667
330
1668
330
1669
330
166A
330
166B
330
1671
330
1672
330
1673
330
1674
330
1675
330
1676
330
1677
330
1678
330
1679
330
167A
330
167B
330
167C
  0
IDBUFFER
  5
1855
330
0
100
AcDbIdBuffer
330
166F
330
1670
330
168F
  0
IDBUFFER
  5
1856
330
0
100
AcDbIdBuffer
330
132B
  0
IDBUFFER
  5
1857
330
0
100
AcDbIdBuffer
330
13B0
330
13B3
330
145B
330
14F3
  0
IDBUFFER
  5
1858
330
0
100
AcDbIdBuffer
  0
IDBUFFER
  5
1859
330
0
100
AcDbIdBuffer
330
E5A
  0
ENDSEC
  0
EOF
