  0
SECTION
  2
HEADER
  9
$ACADVER
  1
AC1014
  9
$ACADMAINTVER
 70
     9
  9
$DWGCODEPAGE
  3
ANSI_932
  9
$INSBASE
 10
0.0
 20
0.0
 30
0.0
  9
$EXTMIN
 10
-89.34999999999979
 20
-30.25000099999979
 30
-0.00000001
  9
$EXTMAX
 10
7.500000000000227
 20
6.635821947209722
 30
0.00000001
  9
$LIMMIN
 10
-96.43712032207412
 20
-37.27092828395655
  9
$LIMMAX
 10
19.52719522358006
 20
18.37053775224791
  9
$ORTHOMODE
 70
     0
  9
$REGENMODE
 70
     1
  9
$FILLMODE
 70
     1
  9
$QTEXTMODE
 70
     0
  9
$MIRRTEXT
 70
     0
  9
$DRAGMODE
 70
     2
  9
$LTSCALE
 40
1.0
  9
$OSMODE
 70
    55
  9
$ATTMODE
 70
     1
  9
$TEXTSIZE
 40
2.5
  9
$TRACEWID
 40
1.0
  9
$TEXTSTYLE
  7
STANDARD
  9
$CLAYER
  8
AM_0
  9
$CELTYPE
  6
BYLAYER
  9
$CECOLOR
 62
   256
  9
$CELTSCALE
 40
1.0
  9
$DELOBJ
 70
     1
  9
$DISPSILH
 70
     0
  9
$DIMSCALE
 40
0.5
  9
$DIMASZ
 40
2.5
  9
$DIMEXO
 40
1.0
  9
$DIMDLI
 40
12.0
  9
$DIMRND
 40
0.0
  9
$DIMDLE
 40
0.0
  9
$DIMEXE
 40
1.0
  9
$DIMTP
 40
0.1
  9
$DIMTM
 40
0.1
  9
$DIMTXT
 40
3.2
  9
$DIMCEN
 40
0.0
  9
$DIMTSZ
 40
0.0
  9
$DIMTOL
 70
     0
  9
$DIMLIM
 70
     0
  9
$DIMTIH
 70
     0
  9
$DIMTOH
 70
     0
  9
$DIMSE1
 70
     0
  9
$DIMSE2
 70
     0
  9
$DIMTAD
 70
     3
  9
$DIMZIN
 70
     8
  9
$DIMBLK
  1
OPEN30
  9
$DIMASO
 70
     1
  9
$DIMSHO
 70
     1
  9
$DIMPOST
  1

  9
$DIMAPOST
  1
"
  9
$DIMALT
 70
     0
  9
$DIMALTD
 70
     2
  9
$DIMALTF
 40
0.0393701
  9
$DIMLFAC
 40
1.0
  9
$DIMTOFL
 70
     1
  9
$DIMTVP
 40
0.0
  9
$DIMTIX
 70
     0
  9
$DIMSOXD
 70
     0
  9
$DIMSAH
 70
     0
  9
$DIMBLK1
  1

  9
$DIMBLK2
  1

  9
$DIMSTYLE
  2
AM_JIS
  9
$DIMCLRD
 70
   256
  9
$DIMCLRE
 70
   256
  9
$DIMCLRT
 70
     2
  9
$DIMTFAC
 40
0.71
  9
$DIMGAP
 40
1.5
  9
$DIMJUST
 70
     0
  9
$DIMSD1
 70
     0
  9
$DIMSD2
 70
     0
  9
$DIMTOLJ
 70
     0
  9
$DIMTZIN
 70
     0
  9
$DIMALTZ
 70
     0
  9
$DIMALTTZ
 70
     0
  9
$DIMFIT
 70
     3
  9
$DIMUPT
 70
     0
  9
$DIMUNIT
 70
     2
  9
$DIMDEC
 70
     3
  9
$DIMTDEC
 70
     3
  9
$DIMALTU
 70
     2
  9
$DIMALTTD
 70
     2
  9
$DIMTXSTY
  7
ASAMI
  9
$DIMAUNIT
 70
     0
  9
$LUNITS
 70
     2
  9
$LUPREC
 70
     2
  9
$SKETCHINC
 40
1.0
  9
$FILLETRAD
 40
2.5
  9
$AUNITS
 70
     0
  9
$AUPREC
 70
     0
  9
$MENU
  1
.
  9
$ELEVATION
 40
0.0
  9
$PELEVATION
 40
0.0
  9
$THICKNESS
 40
0.0
  9
$LIMCHECK
 70
     0
  9
$BLIPMODE
 70
     0
  9
$CHAMFERA
 40
0.75
  9
$CHAMFERB
 40
0.75
  9
$CHAMFERC
 40
20.0
  9
$CHAMFERD
 40
0.0
  9
$SKPOLY
 70
     0
  9
$TDCREATE
 40
2452836.771637361
  9
$TDUPDATE
 40
2453152.441922616
  9
$TDINDWG
 40
0.0290040856
  9
$TDUSRTIMER
 40
0.0290040856
  9
$USRTIMER
 70
     1
  9
$ANGBASE
 50
0.0
  9
$ANGDIR
 70
     0
  9
$PDMODE
 70
     0
  9
$PDSIZE
 40
0.0
  9
$PLINEWID
 40
0.0
  9
$COORDS
 70
     1
  9
$SPLFRAME
 70
     0
  9
$SPLINETYPE
 70
     6
  9
$SPLINESEGS
 70
     8
  9
$ATTDIA
 70
     1
  9
$ATTREQ
 70
     1
  9
$HANDLING
 70
 12289
  9
$HANDSEED
  5
1B09
  9
$SURFTAB1
 70
     6
  9
$SURFTAB2
 70
     6
  9
$SURFTYPE
 70
     6
  9
$SURFU
 70
     6
  9
$SURFV
 70
     6
  9
$UCSNAME
  2

  9
$UCSORG
 10
0.0
 20
0.0
 30
0.0
  9
$UCSXDIR
 10
1.0
 20
0.0
 30
0.0
  9
$UCSYDIR
 10
0.0
 20
1.0
 30
0.0
  9
$PUCSNAME
  2

  9
$PUCSORG
 10
0.0
 20
0.0
 30
0.0
  9
$PUCSXDIR
 10
1.0
 20
0.0
 30
0.0
  9
$PUCSYDIR
 10
0.0
 20
1.0
 30
0.0
  9
$USERI1
 70
     0
  9
$USERI2
 70
     0
  9
$USERI3
 70
     0
  9
$USERI4
 70
     0
  9
$USERI5
 70
     0
  9
$USERR1
 40
0.0
  9
$USERR2
 40
0.0
  9
$USERR3
 40
0.0
  9
$USERR4
 40
0.0
  9
$USERR5
 40
0.0
  9
$WORLDVIEW
 70
     1
  9
$SHADEDGE
 70
     3
  9
$SHADEDIF
 70
    70
  9
$TILEMODE
 70
     1
  9
$MAXACTVP
 70
    64
  9
$PINSBASE
 10
0.0
 20
0.0
 30
0.0
  9
$PLIMCHECK
 70
     0
  9
$PEXTMIN
 10
1.000000000000000E+20
 20
1.000000000000000E+20
 30
1.000000000000000E+20
  9
$PEXTMAX
 10
-1.000000000000000E+20
 20
-1.000000000000000E+20
 30
-1.000000000000000E+20
  9
$PLIMMIN
 10
0.0
 20
0.0
  9
$PLIMMAX
 10
841.0
 20
594.0
  9
$UNITMODE
 70
     0
  9
$VISRETAIN
 70
     1
  9
$PLINEGEN
 70
     0
  9
$PSLTSCALE
 70
     0
  9
$TREEDEPTH
 70
  3020
  9
$PICKSTYLE
 70
     0
  9
$CMLSTYLE
  2
STANDARD
  9
$CMLJUST
 70
     0
  9
$CMLSCALE
 40
20.0
  9
$PROXYGRAPHICS
 70
     1
  9
$MEASUREMENT
 70
     1
  0
ENDSEC
  0
SECTION
  2
CLASSES
  0
CLASS
  1
ACDBDICTIONARYWDFLT
  2
AcDbDictionaryWithDefault
  3
AutoCAD 2000
 90
        0
280
     0
281
     0
  0
CLASS
  1
ACDBPLACEHOLDER
  2
AcDbPlaceHolder
  3
AutoCAD 2000
 90
        0
280
     0
281
     0
  0
CLASS
  1
LAYOUT
  2
AcDbLayout
  3
AutoCAD 2000
 90
        0
280
     0
281
     0
  0
CLASS
  1
AMGSETTINGSOBJ
  2
AmgSettingsObj
  3
"AcadM|Product Description: AutoCAD Mechanical 2000|Company: Autodesk"
 90
        0
280
     0
281
     0
  0
CLASS
  1
ACME_DOCUMENT
  2
AcMeDbDoc
  3
AcMeServices
 90
        0
280
     0
281
     0
  0
CLASS
  1
ACMESCOPE
  2
AcMeScope
  3
AcMeServices
 90
        0
280
     0
281
     0
  0
CLASS
  1
ACMECOMMANDHISTORY
  2
AcMeCommandHistory
  3
AcMeServices
 90
        0
280
     0
281
     0
  0
CLASS
  1
DICTIONARYVAR
  2
AcDbDictionaryVar
  3
AutoCAD 2000
 90
        0
280
     0
281
     0
  0
CLASS
  1
ACIMSYSVARMAN
  2
AcImSysVarManager
  3
AcMeServices
 90
        0
280
     0
281
     0
  0
CLASS
  1
ACIMREALSYSVAR
  2
AcImRealSysVar
  3
AcMeServices
 90
        0
280
     0
281
     0
  0
CLASS
  1
ACIMINTSYSVAR
  2
AcImIntSysVar
  3
AcMeServices
 90
        0
280
     0
281
     0
  0
CLASS
  1
ACMEDRAWINGMAN
  2
AcMeDrawingMan
  3
AcMeServices
 90
        0
280
     0
281
     0
  0
CLASS
  1
ACMEVIEW
  2
AcMeView
  3
AcMeServices
 90
        0
280
     0
281
     0
  0
CLASS
  1
ACDBENTITYCACHE
  2
AcMeEntityCache
  3
AcMeServices
 90
        0
280
     0
281
     0
  0
CLASS
  1
GSMANAGER
  2
AcMeGSManager
  3
AcMeServices
 90
        0
280
     0
281
     0
  0
CLASS
  1
AmdtInternalReactor
  2
AmdtInternalReactor
  3
AcMeServices
 90
        0
280
     0
281
     0
  0
CLASS
  1
ACMESTATEMGR
  2
AcMeStateMgr
  3
AcMeServices
 90
        0
280
     0
281
     0
  0
CLASS
  1
ACME_DATABASE
  2
AcMeDbDatabase
  3
AcMeServices
 90
        0
280
     0
281
     0
  0
CLASS
  1
ACRFINSADJUSTERMGR
  2
AcRfInsAdjusterMgr
  3
AcMeServices
 90
        0
280
     0
281
     0
  0
CLASS
  1
ACMDATADICTIONARY
  2
AcmDataDictionary
  3
"AcmSymBB|Product Description: AutoCAD Mechanical 2000|Company: Autodesk"
 90
        0
280
     0
281
     0
  0
CLASS
  1
ACMDATAENTRYBLOCK
  2
AcmDataEntryBlock
  3
"AcmSymBB|Product Description: AutoCAD Mechanical 2000|Company: Autodesk"
 90
        0
280
     0
281
     0
  0
CLASS
  1
AMGOBJPROPCFG
  2
AmgObjPropCfg
  3
"AmgLay|Product Description: AutoCAD Mechanical 2000|Company: Autodesk"
 90
        1
280
     0
281
     0
  0
CLASS
  1
ACAMGFILTERDAT
  2
AcAmgFilterDat
  3
"AcadM|Product Description: AutoCAD Mechanical 2000|Company: Autodesk"
 90
        0
280
     0
281
     0
  0
CLASS
  1
LAYER_INDEX
  2
AcDbLayerIndex
  3
AutoCAD 2000
 90
        0
280
     0
281
     0
  0
CLASS
  1
IDBUFFER
  2
AcDbIdBuffer
  3
AutoCAD 2000
 90
        0
280
     0
281
     0
  0
CLASS
  1
ACIMSTRSYSVAR
  2
AcImStrSysVar
  3
AcMeServices
 90
        0
280
     0
281
     0
  0
CLASS
  1
ACMSTANDARDJIS
  2
AcmStandardJIS
  3
"AcmSymBB|Product Description: AutoCAD Mechanical 2000|Company: Autodesk"
 90
        0
280
     0
281
     0
  0
CLASS
  1
ACMSURFSTANDARDJIS
  2
AcmSurfTextStdJIS
  3
"AcmSymBB|Product Description: AutoCAD Mechanical 2000|Company: Autodesk"
 90
        0
280
     0
281
     0
  0
CLASS
  1
ACMFCFSTANDARDJIS
  2
AcmFCFStdJIS
  3
"AcmSymBB|Product Description: AutoCAD Mechanical 2000|Company: Autodesk"
 90
        0
280
     0
281
     0
  0
CLASS
  1
ACMWELDSTANDARDJIS
  2
AcmWeldingStdJIS
  3
"AcmSymBB|Product Description: AutoCAD Mechanical 2000|Company: Autodesk"
 90
        0
280
     0
281
     0
  0
CLASS
  1
ACMIDSTANDARDJIS
  2
AcmIdStdJIS
  3
"AcmSymBB|Product Description: AutoCAD Mechanical 2000|Company: Autodesk"
 90
        0
280
     0
281
     0
  0
CLASS
  1
ACMDATUMSTANDARDJIS
  2
AcmDatumStdJIS
  3
"AcmSymBB|Product Description: AutoCAD Mechanical 2000|Company: Autodesk"
 90
        0
280
     0
281
     0
  0
CLASS
  1
ACMBOMSTANDARDJIS
  2
AcmBOMStdJIS
  3
"AcmSymBB|Product Description: AutoCAD Mechanical 2000|Company: Autodesk"
 90
        0
280
     0
281
     0
  0
CLASS
  1
ACMSTANDARDANSI
  2
AcmStandardANSI
  3
"AcmSymBB|Product Description: AutoCAD Mechanical 2000|Company: Autodesk"
 90
        0
280
     0
281
     0
  0
CLASS
  1
ACMSURFSTANDARDANSI
  2
AcmSurfTextStdANSI
  3
"AcmSymBB|Product Description: AutoCAD Mechanical 2000|Company: Autodesk"
 90
        0
280
     0
281
     0
  0
CLASS
  1
ACMFCFSTANDARDANSI
  2
AcmFCFStdANSI
  3
"AcmSymBB|Product Description: AutoCAD Mechanical 2000|Company: Autodesk"
 90
        0
280
     0
281
     0
  0
CLASS
  1
ACMWELDSTANDARDANSI
  2
AcmWeldingStdANSI
  3
"AcmSymBB|Product Description: AutoCAD Mechanical 2000|Company: Autodesk"
 90
        0
280
     0
281
     0
  0
CLASS
  1
ACMIDSTANDARDANSI
  2
AcmIdStdANSI
  3
"AcmSymBB|Product Description: AutoCAD Mechanical 2000|Company: Autodesk"
 90
        0
280
     0
281
     0
  0
CLASS
  1
ACMDATUMSTANDARDANSI
  2
AcmDatumStdANSI
  3
"AcmSymBB|Product Description: AutoCAD Mechanical 2000|Company: Autodesk"
 90
        0
280
     0
281
     0
  0
CLASS
  1
ACMBOMSTANDARDANSI
  2
AcmBOMStdANSI
  3
"AcmSymBB|Product Description: AutoCAD Mechanical 2000|Company: Autodesk"
 90
        0
280
     0
281
     0
  0
CLASS
  1
ACMSTANDARDBSI
  2
AcmStandardBSI
  3
"AcmSymBB|Product Description: AutoCAD Mechanical 2000|Company: Autodesk"
 90
        0
280
     0
281
     0
  0
CLASS
  1
ACMSURFSTANDARDBSI
  2
AcmSurfTextStdBSI
  3
"AcmSymBB|Product Description: AutoCAD Mechanical 2000|Company: Autodesk"
 90
        0
280
     0
281
     0
  0
CLASS
  1
ACMFCFSTANDARDBSI
  2
AcmFCFStdBSI
  3
"AcmSymBB|Product Description: AutoCAD Mechanical 2000|Company: Autodesk"
 90
        0
280
     0
281
     0
  0
CLASS
  1
ACMWELDSTANDARDBSI
  2
AcmWeldingStdBSI
  3
"AcmSymBB|Product Description: AutoCAD Mechanical 2000|Company: Autodesk"
 90
        0
280
     0
281
     0
  0
CLASS
  1
ACMIDSTANDARDBSI
  2
AcmIdStdBSI
  3
"AcmSymBB|Product Description: AutoCAD Mechanical 2000|Company: Autodesk"
 90
        0
280
     0
281
     0
  0
CLASS
  1
ACMDATUMSTANDARDBSI
  2
AcmDatumStdBSI
  3
"AcmSymBB|Product Description: AutoCAD Mechanical 2000|Company: Autodesk"
 90
        0
280
     0
281
     0
  0
CLASS
  1
ACMBOMSTANDARDBSI
  2
AcmBOMStdBSI
  3
"AcmSymBB|Product Description: AutoCAD Mechanical 2000|Company: Autodesk"
 90
        0
280
     0
281
     0
  0
CLASS
  1
LONG_TRANSACTION
  2
AcDbLongTransaction
  3
AutoCAD 2000
 90
        0
280
     0
281
     0
  0
CLASS
  1
LWPOLYLINE
  2
AcDbPolyline
  3
AutoCAD 2000
 90
        0
280
     0
281
     1
  0
CLASS
  1
HATCH
  2
AcDbHatch
  3
AutoCAD 2000
 90
        0
280
     0
281
     1
  0
CLASS
  1
XRECORD
  2
AcDbXrecord
  3
AutoCAD 2000
 90
        0
280
     0
281
     0
  0
ENDSEC
  0
SECTION
  2
TABLES
  0
TABLE
  2
VPORT
  5
8
330
0
100
AcDbSymbolTable
 70
     3
  0
VPORT
  5
1ADE
330
8
100
AcDbSymbolTableRecord
100
AcDbViewportTableRecord
  2
*ACTIVE
 70
     0
 10
0.0
 20
0.0
 11
1.0
 21
1.0
 12
-40.92337994853538
 22
-11.80622950566153
 13
0.0
 23
0.0
 14
2.5
 24
2.5
 15
10.0
 25
10.0
 16
0.0
 26
0.0
 36
1.0
 17
0.0
 27
0.0
 37
0.0
 40
62.11331773062286
 41
1.56570841889117
 42
50.0
 43
0.0
 44
0.0
 50
0.0
 51
0.0
 71
     0
 72
   100
 73
     1
 74
     3
 75
     0
 76
     0
 77
     0
 78
     0
  0
ENDTAB
  0
TABLE
  2
LTYPE
  5
5
330
0
100
AcDbSymbolTable
 70
    10
  0
LTYPE
  5
14
330
5
100
AcDbSymbolTableRecord
100
AcDbLinetypeTableRecord
  2
BYBLOCK
 70
     0
  3

 72
    65
 73
     0
 40
0.0
  0
LTYPE
  5
15
330
5
100
AcDbSymbolTableRecord
100
AcDbLinetypeTableRecord
  2
BYLAYER
 70
     0
  3

 72
    65
 73
     0
 40
0.0
  0
LTYPE
  5
16
330
5
100
AcDbSymbolTableRecord
100
AcDbLinetypeTableRecord
  2
CONTINUOUS
 70
     0
  3
Solid line
 72
    65
 73
     0
 40
0.0
  0
LTYPE
  5
4B
330
5
100
AcDbSymbolTableRecord
100
AcDbLinetypeTableRecord
  2
AM_ISO02W050
 70
     0
  3
__ __ __ __ __ __ __ __ __ __ __ __ __ __ __
 72
    65
 73
     2
 40
7.5
 49
6.0
 74
     0
 49
-1.5
 74
     0
  0
LTYPE
  5
4C
330
5
100
AcDbSymbolTableRecord
100
AcDbLinetypeTableRecord
  2
AM_ISO08W050
 70
     0
  3
____ . ____ . ____ . ____ . ____ . ____ . ____
 72
    65
 73
     4
 40
18.0
 49
12.0
 74
     0
 49
-1.5
 74
     0
 49
3.0
 74
     0
 49
-1.5
 74
     0
  0
LTYPE
  5
4D
330
5
100
AcDbSymbolTableRecord
100
AcDbLinetypeTableRecord
  2
AM_ISO09W050
 70
     0
  3
_____ . . _____ . . _____ . . ____ .. ____
 72
    65
 73
     6
 40
22.5
 49
12.0
 74
     0
 49
-1.5
 74
     0
 49
3.0
 74
     0
 49
-1.5
 74
     0
 49
3.0
 74
     0
 49
-1.5
 74
     0
  0
LTYPE
  5
4E
330
5
100
AcDbSymbolTableRecord
100
AcDbLinetypeTableRecord
  2
AMCONSTR
 70
     0
  3
_______________________
 72
    65
 73
     2
 40
9999.0
 49
9999.0
 74
     0
 49
0.0
 74
     0
  0
LTYPE
  5
4F
330
5
100
AcDbSymbolTableRecord
100
AcDbLinetypeTableRecord
  2
AM_ISO02W050X2
 70
     0
  3
 _ _ _ _ _ _ _ _ _ _ _ _
 72
    65
 73
     2
 40
3.75
 49
3.0
 74
     0
 49
-0.75
 74
     0
  0
LTYPE
  5
50
330
5
100
AcDbSymbolTableRecord
100
AcDbLinetypeTableRecord
  2
AM_ISO08W050X2
 70
     0
  3
__ . __ . __ . __ . __ . __
 72
    65
 73
     4
 40
9.0
 49
6.0
 74
     0
 49
-0.75
 74
     0
 49
1.5
 74
     0
 49
-0.75
 74
     0
  0
LTYPE
  5
53
330
5
100
AcDbSymbolTableRecord
100
AcDbLinetypeTableRecord
  2
AMZIGZAG
 70
     0
  3
/\/-/\/-/\/-/\/-/\/-/\/
 72
    65
 73
     2
 40
11.00009999999999
 49
0.0001
 74
     4
 75
   135
340
52
 46
0.04
 50
0.0
 44
0.0
 45
0.0
 49
-11.0
 74
     0
  0
LTYPE
  5
166
330
5
100
AcDbSymbolTableRecord
100
AcDbLinetypeTableRecord
  2
ACJISTGL
 70
     0
  3
_ _ _ _ _
 72
    65
 73
     2
 40
3.0
 49
2.0
 74
     0
 49
-1.0
 74
     0
  0
LTYPE
  5
26A
330
5
100
AcDbSymbolTableRecord
100
AcDbLinetypeTableRecord
  2
ACJISTGB
 70
     0
  3
__ . . __ . .
 72
    65
 73
     6
 40
9.0
 49
4.0
 74
     0
 49
-1.0
 74
     0
 49
1.0
 74
     0
 49
-1.0
 74
     0
 49
1.0
 74
     0
 49
-1.0
 74
     0
  0
ENDTAB
  0
TABLE
  2
LAYER
  5
2
330
0
100
AcDbSymbolTable
 70
     7
  0
LAYER
  5
10
330
2
100
AcDbSymbolTableRecord
100
AcDbLayerTableRecord
  2
0
 70
     0
 62
     7
  6
CONTINUOUS
  0
LAYER
  5
3F9
330
2
100
AcDbSymbolTableRecord
100
AcDbLayerTableRecord
  2
AM_0
 70
     0
 62
     7
  6
CONTINUOUS
  0
LAYER
  5
BD4
330
2
100
AcDbSymbolTableRecord
100
AcDbLayerTableRecord
  2
AM_11
 70
     0
 62
     3
  6
AM_ISO09W050
  0
LAYER
  5
BD5
330
2
100
AcDbSymbolTableRecord
100
AcDbLayerTableRecord
  2
AM_7
 70
     0
 62
     4
  6
AM_ISO08W050
  0
LAYER
  5
BD6
330
2
100
AcDbSymbolTableRecord
100
AcDbLayerTableRecord
  2
AM_5
 70
     0
 62
     3
  6
CONTINUOUS
  0
LAYER
  5
BD7
330
2
100
AcDbSymbolTableRecord
100
AcDbLayerTableRecord
  2
DEFPOINTS
 70
     0
 62
     7
  6
CONTINUOUS
  0
LAYER
  5
E59
330
2
100
AcDbSymbolTableRecord
100
AcDbLayerTableRecord
  2
AM_6
 70
     0
 62
     2
  6
CONTINUOUS
  0
ENDTAB
  0
TABLE
  2
STYLE
  5
3
330
0
100
AcDbSymbolTable
 70
     5
  0
STYLE
  5
11
330
3
100
AcDbSymbolTableRecord
100
AcDbTextStyleTableRecord
  2
STANDARD
 70
     0
 40
0.0
 41
1.0
 50
0.0
 71
     0
 42
2.5
  3
simplex.shx
  4
EXTFONT.SHX
  0
STYLE
  5
52
330
3
100
AcDbSymbolTableRecord
100
AcDbTextStyleTableRecord
  2

 70
     1
 40
0.0
 41
1.0
 50
0.0
 71
     0
 42
2.5
  3
ltypeshp.shx
  4

  0
STYLE
  5
6B
330
3
100
AcDbSymbolTableRecord
100
AcDbTextStyleTableRecord
  2
ASAMI
 70
     0
 40
0.0
 41
1.0
 50
0.0
 71
     0
 42
2.5
  3
simplex.shx
  4
EXTFONT.SHX
  0
STYLE
  5
262
330
3
100
AcDbSymbolTableRecord
100
AcDbTextStyleTableRecord
  2
ACJISTS
 70
     0
 40
1.0
 41
1.0
 50
0.0
 71
     0
 42
2.5
  3
simplex.shx
  4
bigfont.shx
  0
STYLE
  5
269
330
3
100
AcDbSymbolTableRecord
100
AcDbTextStyleTableRecord
  2
ACJISGDT
 70
     0
 40
0.0
 41
1.0
 50
0.0
 71
     0
 42
2.5
  3
amgdtans.shx
  4

  0
ENDTAB
  0
TABLE
  2
VIEW
  5
6
330
0
100
AcDbSymbolTable
 70
     0
  0
ENDTAB
  0
TABLE
  2
UCS
  5
7
330
0
100
AcDbSymbolTable
 70
     0
  0
ENDTAB
  0
TABLE
  2
APPID
  5
9
330
0
100
AcDbSymbolTable
 70
    12
  0
APPID
  5
12
330
9
100
AcDbSymbolTableRecord
100
AcDbRegAppTableRecord
  2
ACAD
 70
     0
  0
APPID
  5
30
330
9
100
AcDbSymbolTableRecord
100
AcDbRegAppTableRecord
  2
MCAD_NO_VIS
 70
     0
  0
APPID
  5
31
330
9
100
AcDbSymbolTableRecord
100
AcDbRegAppTableRecord
  2
ACAD_TEMP_GRAPHIC
 70
     0
  0
APPID
  5
2C2
330
9
100
AcDbSymbolTableRecord
100
AcDbRegAppTableRecord
  2
GENIUS_GENDTOL_13
 70
     0
  0
APPID
  5
339
330
9
100
AcDbSymbolTableRecord
100
AcDbRegAppTableRecord
  2
GENIUS_GENODEF_13
 70
     0
  0
APPID
  5
33A
330
9
100
AcDbSymbolTableRecord
100
AcDbRegAppTableRecord
  2
GENIUS_GENOBJ-N-RSBK_13
 70
     0
  0
APPID
  5
33B
330
9
100
AcDbSymbolTableRecord
100
AcDbRegAppTableRecord
  2
GENIUS_GENOBJ-N-LIB_13
 70
     0
  0
APPID
  5
33C
330
9
100
AcDbSymbolTableRecord
100
AcDbRegAppTableRecord
  2
GENIUS_GENSCALE_13
 70
     0
  0
APPID
  5
378
330
9
100
AcDbSymbolTableRecord
100
AcDbRegAppTableRecord
  2
GENIUS_GENDIMSH_14
 70
     0
  0
APPID
  5
BD8
330
9
100
AcDbSymbolTableRecord
100
AcDbRegAppTableRecord
  2
GENIUS_GENOBJ-N-CEN_13
 70
     0
  0
APPID
  5
BD9
330
9
100
AcDbSymbolTableRecord
100
AcDbRegAppTableRecord
  2
GENIUS_GENFIL_13
 70
     0
  0
APPID
  5
BDA
330
9
100
AcDbSymbolTableRecord
100
AcDbRegAppTableRecord
  2
GENIUS_GENOBJ-N-CHA_13
 70
     0
  0
ENDTAB
  0
TABLE
  2
DIMSTYLE
  5
A
330
0
100
AcDbSymbolTable
 70
     8
  0
DIMSTYLE
105
58
102
{ACAD_REACTORS
330
13B3
330
145B
330
16DD
330
1779
102
}
330
A
100
AcDbSymbolTableRecord
100
AcDbDimStyleTableRecord
  2
AM_JIS
 70
     0
  3

  4
"
  5
OPEN30
  6

  7

 40
0.5
 41
2.5
 42
1.0
 43
12.0
 44
1.0
 45
0.0
 46
0.0
 47
0.1
 48
0.1
140
3.2
141
0.0
142
0.0
143
0.0393701
144
1.0
145
0.0
146
0.71
147
1.5
 71
     0
 72
     0
 73
     0
 74
     0
 75
     0
 76
     0
 77
     3
 78
     8
170
     0
171
     2
172
     1
173
     0
174
     0
175
     0
176
   256
177
   256
178
     2
270
     2
271
     3
272
     3
273
     2
274
     2
340
6B
275
     0
280
     0
281
     0
282
     0
283
     0
284
     0
285
     0
286
     0
287
     3
288
     0
  0
DIMSTYLE
105
5F
330
A
100
AcDbSymbolTableRecord
100
AcDbDimStyleTableRecord
  2
AM_JIS$3
 70
     0
  3

  4
"
  5
OPEN30
  6

  7

 40
0.5
 41
2.5
 42
1.0
 43
10.0
 44
1.0
 45
0.0
 46
0.0
 47
0.1
 48
0.1
140
3.2
141
0.0
142
0.0
143
0.0393701
144
1.0
145
0.0
146
0.71
147
1.5
 71
     0
 72
     0
 73
     0
 74
     1
 75
     0
 76
     0
 77
     3
 78
     8
170
     0
171
     2
172
     0
173
     0
174
     0
175
     0
176
   256
177
   256
178
     2
270
     2
271
     2
272
     3
273
     2
274
     2
340
6B
275
     0
280
     0
281
     0
282
     0
283
     0
284
     0
285
     0
286
     0
287
     0
288
     1
  0
DIMSTYLE
105
60
330
A
100
AcDbSymbolTableRecord
100
AcDbDimStyleTableRecord
  2
AM_JIS$4
 70
     0
  3

  4
"
  5
OPEN30
  6

  7

 40
0.5
 41
2.5
 42
1.0
 43
10.0
 44
1.0
 45
0.0
 46
0.0
 47
0.1
 48
0.1
140
3.2
141
0.0
142
0.0
143
0.0393701
144
1.0
145
0.0
146
0.71
147
1.5
 71
     0
 72
     0
 73
     0
 74
     1
 75
     0
 76
     0
 77
     3
 78
     8
170
     0
171
     2
172
     0
173
     0
174
     0
175
     0
176
   256
177
   256
178
     2
270
     2
271
     2
272
     3
273
     2
274
     2
340
6B
275
     0
280
     0
281
     0
282
     0
283
     0
284
     0
285
     0
286
     0
287
     0
288
     1
  0
DIMSTYLE
105
61
330
A
100
AcDbSymbolTableRecord
100
AcDbDimStyleTableRecord
  2
AM_JIS$6
 70
     0
  3

  4
"
  5
OPEN30
  6

  7

 40
0.5
 41
2.5
 42
1.0
 43
10.0
 44
1.0
 45
0.0
 46
0.0
 47
0.1
 48
0.1
140
3.2
141
0.0
142
0.0
143
0.0393701
144
1.0
145
0.0
146
0.71
147
1.5
 71
     0
 72
     0
 73
     0
 74
     0
 75
     0
 76
     0
 77
     0
 78
     8
170
     0
171
     2
172
     1
173
     0
174
     0
175
     0
176
   256
177
   256
178
     2
270
     2
271
     2
272
     2
273
     2
274
     2
340
6B
275
     0
280
     0
281
     0
282
     0
283
     0
284
     0
285
     0
286
     0
287
     3
288
     0
  0
DIMSTYLE
105
62
330
A
100
AcDbSymbolTableRecord
100
AcDbDimStyleTableRecord
  2
AM_JIS$7
 70
     0
  3

  4
"
  5
OPEN30
  6

  7

 40
0.5
 41
2.5
 42
1.0
 43
10.0
 44
1.0
 45
0.0
 46
0.0
 47
0.1
 48
0.1
140
3.2
141
0.0
142
0.0
143
0.0393701
144
1.0
145
0.0
146
0.71
147
1.5
 71
     0
 72
     0
 73
     0
 74
     0
 75
     0
 76
     0
 77
     3
 78
     8
170
     0
171
     2
172
     1
173
     0
174
     0
175
     0
176
   256
177
   256
178
     2
270
     2
271
     2
272
     3
273
     2
274
     2
340
6B
275
     0
280
     0
281
     0
282
     0
283
     0
284
     0
285
     0
286
     0
287
     3
288
     0
  0
DIMSTYLE
105
63
330
A
100
AcDbSymbolTableRecord
100
AcDbDimStyleTableRecord
  2
AM_JIS$SF
 70
     0
  3

  4
"
  5
OPEN30
  6

  7

 40
0.5
 41
2.5
 42
1.0
 43
10.0
 44
1.0
 45
0.0
 46
0.0
 47
0.1
 48
0.1
140
3.2
141
0.0
142
0.0
143
0.0393701
144
1.0
145
0.0
146
0.71
147
1.5
 71
     0
 72
     0
 73
     0
 74
     0
 75
     1
 76
     1
 77
     3
 78
     8
170
     0
171
     2
172
     1
173
     0
174
     0
175
     0
176
   256
177
   256
178
     2
270
     2
271
     2
272
     2
273
     2
274
     2
340
6B
275
     0
280
     0
281
     0
282
     0
283
     0
284
     0
285
     0
286
     0
287
     3
288
     0
  0
DIMSTYLE
105
68
330
A
100
AcDbSymbolTableRecord
100
AcDbDimStyleTableRecord
  2
AM_JIS$SH
 70
     0
  3

  4
"
  5

  6
GENAXEH
  7
OPEN30
 40
0.5
 41
2.5
 42
1.0
 43
10.0
 44
1.0
 45
0.0
 46
0.0
 47
0.1
 48
0.1
140
3.2
141
0.0
142
0.0
143
0.0393701
144
2.0
145
0.0
146
0.71
147
1.5
 71
     0
 72
     0
 73
     0
 74
     0
 75
     1
 76
     1
 77
     3
 78
     8
170
     0
171
     2
172
     1
173
     1
174
     0
175
     0
176
   256
177
   256
178
     2
270
     2
271
     2
272
     2
273
     2
274
     2
340
6B
275
     0
280
     0
281
     0
282
     0
283
     0
284
     0
285
     0
286
     0
287
     3
288
     0
  0
DIMSTYLE
105
B34
330
A
100
AcDbSymbolTableRecord
100
AcDbDimStyleTableRecord
  2
AM_JIS$2
 70
     0
  3

  4
"
  5
OPEN30
  6

  7

 40
0.5
 41
2.5
 42
1.0
 43
12.0
 44
1.0
 45
0.0
 46
0.0
 47
0.1
 48
0.1
140
3.2
141
0.0
142
0.0
143
0.0393701
144
1.0
145
0.0
146
0.71
147
1.5
 71
     0
 72
     0
 73
     0
 74
     0
 75
     0
 76
     0
 77
     3
 78
     8
170
     0
171
     2
172
     1
173
     0
174
     0
175
     0
176
   256
177
   256
178
     2
270
     2
271
     3
272
     3
273
     2
274
     2
340
6B
275
     0
280
     0
281
     0
282
     0
283
     0
284
     0
285
     0
286
     0
287
     3
288
     0
  0
ENDTAB
  0
TABLE
  2
BLOCK_RECORD
  5
1
330
0
100
AcDbSymbolTable
 70
     9
  0
BLOCK_RECORD
  5
1F
102
{ACAD_XDICTIONARY
360
74
102
}
330
1
100
AcDbSymbolTableRecord
100
AcDbBlockTableRecord
  2
*MODEL_SPACE
  0
BLOCK_RECORD
  5
101
102
{ACAD_XDICTIONARY
360
1B07
102
}
330
1
100
AcDbSymbolTableRecord
100
AcDbBlockTableRecord
  2
*PAPER_SPACE
  0
BLOCK_RECORD
  5
59
330
1
100
AcDbSymbolTableRecord
100
AcDbBlockTableRecord
  2
_OPEN30
  0
BLOCK_RECORD
  5
64
330
1
100
AcDbSymbolTableRecord
100
AcDbBlockTableRecord
  2
GENAXEH
  0
BLOCK_RECORD
  5
13C0
330
1
100
AcDbSymbolTableRecord
100
AcDbBlockTableRecord
  2
*D5
  0
BLOCK_RECORD
  5
145C
330
1
100
AcDbSymbolTableRecord
100
AcDbBlockTableRecord
  2
*D6
  0
BLOCK_RECORD
  5
16DE
330
1
100
AcDbSymbolTableRecord
100
AcDbBlockTableRecord
  2
*D7
  0
BLOCK_RECORD
  5
177A
330
1
100
AcDbSymbolTableRecord
100
AcDbBlockTableRecord
  2
*D8
  0
ENDTAB
  0
ENDSEC
  0
SECTION
  2
BLOCKS
  0
BLOCK
  5
20
330
1F
100
AcDbEntity
  8
0
100
AcDbBlockBegin
  2
*MODEL_SPACE
 70
     0
 10
0.0
 20
0.0
 30
0.0
  3
*MODEL_SPACE
  1

  0
ENDBLK
  5
21
330
1F
100
AcDbEntity
  8
0
100
AcDbBlockEnd
  0
BLOCK
  5
103
330
101
100
AcDbEntity
 67
     1
  8
0
100
AcDbBlockBegin
  2
*PAPER_SPACE
 70
     0
 10
0.0
 20
0.0
 30
0.0
  3
*PAPER_SPACE
  1

  0
ENDBLK
  5
104
330
101
100
AcDbEntity
 67
     1
  8
0
100
AcDbBlockEnd
  0
BLOCK
  5
5D
330
59
100
AcDbEntity
  8
0
100
AcDbBlockBegin
  2
_OPEN30
 70
     0
 10
0.0
 20
0.0
 30
0.0
  3
_OPEN30
  1

  0
LINE
  5
5A
330
59
100
AcDbEntity
  8
0
 62
     0
100
AcDbLine
 10
-1.0
 20
0.26794919
 30
0.0
 11
0.0
 21
0.0
 31
0.0
  0
LINE
  5
5B
330
59
100
AcDbEntity
  8
0
 62
     0
100
AcDbLine
 10
0.0
 20
0.0
 30
0.0
 11
-1.0
 21
-0.26794919
 31
0.0
  0
LINE
  5
5C
330
59
100
AcDbEntity
  8
0
 62
     0
100
AcDbLine
 10
0.0
 20
0.0
 30
0.0
 11
-1.0
 21
0.0
 31
0.0
  0
ENDBLK
  5
5E
330
59
100
AcDbEntity
  8
0
100
AcDbBlockEnd
  0
BLOCK
  5
66
330
64
100
AcDbEntity
  8
0
100
AcDbBlockBegin
  2
GENAXEH
 70
     0
 10
0.0
 20
0.0
 30
0.0
  3
GENAXEH
  1

  0
LINE
  5
65
330
64
100
AcDbEntity
  8
0
100
AcDbLine
 10
-1.0
 20
0.0
 30
0.0
 11
1.0
 21
0.0
 31
0.0
  0
ENDBLK
  5
67
330
64
100
AcDbEntity
  8
0
100
AcDbBlockEnd
  0
BLOCK
  5
13CA
330
13C0
100
AcDbEntity
  8
0
100
AcDbBlockBegin
  2
*D5
 70
     1
 10
0.0
 20
0.0
 30
0.0
  3
*D5
  1

  0
LINE
  5
1A3B
330
13C0
100
AcDbEntity
  8
AM_5
100
AcDbLine
 10
-79.99999999999978
 20
-5.749999999998682
 30
0.0
 11
-79.99999999999978
 21
-19.49999999999868
 31
0.0
  0
LINE
  5
1A3C
330
13C0
100
AcDbEntity
  8
AM_5
100
AcDbLine
 10
0.0000000000002238
 20
-5.500000000000135
 30
0.0
 11
0.0000000000002229
 21
-19.49999999999868
 31
0.0
  0
LINE
  5
1A3D
330
13C0
100
AcDbEntity
  8
AM_5
100
AcDbLine
 10
-78.74999999999978
 20
-18.99999999999868
 30
0.0
 11
-1.249999999999777
 21
-18.99999999999868
 31
0.0
  0
INSERT
  5
1A3E
330
13C0
100
AcDbEntity
  8
AM_5
100
AcDbBlockReference
  2
_OPEN30
 10
-79.99999999999978
 20
-18.99999999999868
 30
0.0
 41
1.25
 42
1.25
 43
1.25
 50
180.0
  0
INSERT
  5
1A3F
330
13C0
100
AcDbEntity
  8
AM_5
100
AcDbBlockReference
  2
_OPEN30
 10
0.000000000000223
 20
-18.99999999999868
 30
0.0
 41
1.25
 42
1.25
 43
1.25
  0
MTEXT
  5
1A40
330
13C0
100
AcDbEntity
  8
AM_5
 62
     2
100
AcDbMText
 10
-39.99999999999978
 20
-17.44999999999868
 30
0.0
 40
1.6
 41
0.0
 71
     5
 72
     1
  1
80
  7
ASAMI
1001
ACAD
1000
MTEXTBEGIN
1070
    73
1070
     1
1070
    44
1040
1.0
1070
    74
1070
     0
1000
MTEXTEND
  0
POINT
  5
1A41
330
13C0
100
AcDbEntity
  8
DEFPOINTS
 62
     0
100
AcDbPoint
 10
-79.99999999999978
 20
-5.249999999998682
 30
0.0
  0
POINT
  5
1A42
330
13C0
100
AcDbEntity
  8
DEFPOINTS
 62
     0
100
AcDbPoint
 10
0.0000000000002238
 20
-5.000000000000135
 30
0.0
  0
POINT
  5
1A43
330
13C0
100
AcDbEntity
  8
DEFPOINTS
 62
     0
100
AcDbPoint
 10
0.000000000000223
 20
-18.99999999999868
 30
0.0
  0
ENDBLK
  5
13CB
330
13C0
100
AcDbEntity
  8
0
100
AcDbBlockEnd
  0
BLOCK
  5
1466
330
145C
100
AcDbEntity
  8
0
100
AcDbBlockBegin
  2
*D6
 70
     1
 10
0.0
 20
0.0
 30
0.0
  3
*D6
  1

  0
LINE
  5
1A44
330
145C
100
AcDbEntity
  8
AM_5
100
AcDbLine
 10
-30.00000000000027
 20
-5.500000000000035
 30
0.0
 11
-30.00000000000027
 21
-13.5000000000004
 31
0.0
  0
LINE
  5
1A45
330
145C
100
AcDbEntity
  8
AM_5
100
AcDbLine
 10
0.0000000000000248
 20
-5.500000000000135
 30
0.0
 11
0.0000000000000243
 21
-13.5000000000004
 31
0.0
  0
LINE
  5
1A46
330
145C
100
AcDbEntity
  8
AM_5
100
AcDbLine
 10
-28.75000000000028
 20
-13.0000000000004
 30
0.0
 11
-1.249999999999975
 21
-13.0000000000004
 31
0.0
  0
INSERT
  5
1A47
330
145C
100
AcDbEntity
  8
AM_5
100
AcDbBlockReference
  2
_OPEN30
 10
-30.00000000000027
 20
-13.0000000000004
 30
0.0
 41
1.25
 42
1.25
 43
1.25
 50
180.0
  0
INSERT
  5
1A48
330
145C
100
AcDbEntity
  8
AM_5
100
AcDbBlockReference
  2
_OPEN30
 10
0.0000000000000244
 20
-13.0000000000004
 30
0.0
 41
1.25
 42
1.25
 43
1.25
  0
MTEXT
  5
1A49
330
145C
100
AcDbEntity
  8
AM_5
 62
     2
100
AcDbMText
 10
-15.00000000000012
 20
-11.4500000000004
 30
0.0
 40
1.6
 41
0.0
 71
     5
 72
     1
  1
30
  7
ASAMI
1001
ACAD
1000
MTEXTBEGIN
1070
    73
1070
     1
1070
    44
1040
1.0
1070
    74
1070
     0
1000
MTEXTEND
  0
POINT
  5
1A4A
330
145C
100
AcDbEntity
  8
DEFPOINTS
 62
     0
100
AcDbPoint
 10
-30.00000000000027
 20
-5.000000000000035
 30
0.0
  0
POINT
  5
1A4B
330
145C
100
AcDbEntity
  8
DEFPOINTS
 62
     0
100
AcDbPoint
 10
0.0000000000000249
 20
-5.000000000000135
 30
0.0
  0
POINT
  5
1A4C
330
145C
100
AcDbEntity
  8
DEFPOINTS
 62
     0
100
AcDbPoint
 10
0.0000000000000244
 20
-13.0000000000004
 30
0.0
  0
ENDBLK
  5
1467
330
145C
100
AcDbEntity
  8
0
100
AcDbBlockEnd
  0
BLOCK
  5
16E8
330
16DE
100
AcDbEntity
  8
0
100
AcDbBlockBegin
  2
*D7
 70
     1
 10
0.0
 20
0.0
 30
0.0
  3
*D7
  1

  0
LINE
  5
1A29
330
16DE
100
AcDbEntity
  8
AM_5
100
AcDbLine
 10
-79.74999999999977
 20
5.999999999999808
 30
0.0
 11
-87.49999999999978
 21
5.99999999999981
 31
0.0
  0
LINE
  5
1A2A
330
16DE
100
AcDbEntity
  8
AM_5
100
AcDbLine
 10
-79.74999999999977
 20
-5.999999999998673
 30
0.0
 11
-87.49999999999978
 21
-5.999999999998671
 31
0.0
  0
LINE
  5
1A2B
330
16DE
100
AcDbEntity
  8
AM_5
100
AcDbLine
 10
-86.99999999999979
 20
4.74999999999981
 30
0.0
 11
-86.99999999999979
 21
-4.749999999998671
 31
0.0
  0
INSERT
  5
1A2C
330
16DE
100
AcDbEntity
  8
AM_5
100
AcDbBlockReference
  2
_OPEN30
 10
-86.99999999999979
 20
5.99999999999981
 30
0.0
 41
1.25
 42
1.25
 43
1.25
 50
90.0
  0
INSERT
  5
1A2D
330
16DE
100
AcDbEntity
  8
AM_5
100
AcDbBlockReference
  2
_OPEN30
 10
-86.99999999999979
 20
-5.999999999998671
 30
0.0
 41
1.25
 42
1.25
 43
1.25
 50
270.0
  0
MTEXT
  5
1A2E
330
16DE
100
AcDbEntity
  8
AM_5
 62
     2
100
AcDbMText
 10
-88.54999999999979
 20
0.0000000000005557
 30
0.0
 40
1.6
 41
0.0
 71
     5
 72
     1
  1
%%c12
  7
ASAMI
 11
0.0000000000000001
 21
1.0
 31
0.0
1001
ACAD
1000
MTEXTBEGIN
1070
    73
1070
     1
1070
    44
1040
1.0
1070
    74
1070
     0
1000
MTEXTEND
  0
POINT
  5
1A2F
330
16DE
100
AcDbEntity
  8
DEFPOINTS
 62
     0
100
AcDbPoint
 10
-79.24999999999977
 20
5.999999999999808
 30
0.0
  0
POINT
  5
1A30
330
16DE
100
AcDbEntity
  8
DEFPOINTS
 62
     0
100
AcDbPoint
 10
-79.24999999999977
 20
-5.999999999998673
 30
0.0
  0
POINT
  5
1A31
330
16DE
100
AcDbEntity
  8
DEFPOINTS
 62
     0
100
AcDbPoint
 10
-86.99999999999979
 20
-5.999999999998671
 30
0.0
  0
ENDBLK
  5
16E9
330
16DE
100
AcDbEntity
  8
0
100
AcDbBlockEnd
  0
BLOCK
  5
1784
330
177A
100
AcDbEntity
  8
0
100
AcDbBlockBegin
  2
*D8
 70
     1
 10
0.0
 20
0.0
 30
0.0
  3
*D8
  1

  0
LINE
  5
1A32
330
177A
100
AcDbEntity
  8
AM_5
100
AcDbLine
 10
0.5000000000000107
 20
5.499999999999867
 30
0.0
 11
7.500000000000227
 21
5.499999999999864
 31
0.0
  0
LINE
  5
1A33
330
177A
100
AcDbEntity
  8
AM_5
100
AcDbLine
 10
0.5000000000000178
 20
-5.500000000000133
 30
0.0
 11
7.500000000000225
 21
-5.500000000000135
 31
0.0
  0
LINE
  5
1A34
330
177A
100
AcDbEntity
  8
AM_5
100
AcDbLine
 10
7.000000000000227
 20
4.249999999999865
 30
0.0
 11
7.000000000000225
 21
-4.250000000000135
 31
0.0
  0
INSERT
  5
1A35
330
177A
100
AcDbEntity
  8
AM_5
100
AcDbBlockReference
  2
_OPEN30
 10
7.000000000000227
 20
5.499999999999865
 30
0.0
 41
1.25
 42
1.25
 43
1.25
 50
90.0
  0
INSERT
  5
1A36
330
177A
100
AcDbEntity
  8
AM_5
100
AcDbBlockReference
  2
_OPEN30
 10
7.000000000000225
 20
-5.500000000000135
 30
0.0
 41
1.25
 42
1.25
 43
1.25
 50
270.0
  0
MTEXT
  5
1A37
330
177A
100
AcDbEntity
  8
AM_5
 62
     2
100
AcDbMText
 10
5.450000000000226
 20
-0.000000000000133
 30
0.0
 40
1.6
 41
0.0
 71
     5
 72
     1
  1
%%c11
  7
ASAMI
 11
0.0000000000000001
 21
1.0
 31
0.0
1001
ACAD
1000
MTEXTBEGIN
1070
    73
1070
     1
1070
    44
1040
1.0
1070
    74
1070
     0
1000
MTEXTEND
  0
POINT
  5
1A38
330
177A
100
AcDbEntity
  8
DEFPOINTS
 62
     0
100
AcDbPoint
 10
0.0000000000000107
 20
5.499999999999867
 30
0.0
  0
POINT
  5
1A39
330
177A
100
AcDbEntity
  8
DEFPOINTS
 62
     0
100
AcDbPoint
 10
0.0000000000000178
 20
-5.500000000000133
 30
0.0
  0
POINT
  5
1A3A
330
177A
100
AcDbEntity
  8
DEFPOINTS
 62
     0
100
AcDbPoint
 10
7.000000000000225
 20
-5.500000000000135
 30
0.0
  0
ENDBLK
  5
1785
330
177A
100
AcDbEntity
  8
0
100
AcDbBlockEnd
  0
ENDSEC
  0
SECTION
  2
ENTITIES
  0
TEXT
  5
E5A
330
1F
100
AcDbEntity
  8
AM_6
100
AcDbText
 10
-49.94047619047595
 20
-30.25000099999978
 30
0.0
 40
2.5
  1
LSM4110ZX
 72
     4
 11
-39.99999999999976
 21
-29.00000099999978
 31
0.0
100
AcDbText
  0
LINE
  5
132B
330
1F
100
AcDbEntity
  8
AM_7
  6
AM_ISO08W050X2
100
AcDbLine
 10
3.541276707827535
 20
-0.0000000000001145
 30
0.0
 11
-82.73320485933165
 21
-0.0000000000001492
 31
0.0
1001
GENIUS_GENODEF_13
1002
{
1000
HIER
1070
     0
1002
}
1002
{
1000
MANEDIT
1070
     0
1002
}
1002
{
1000
NOSEL
1070
     0
1002
}
1002
{
1000
BEHIND
1070
     0
1002
}
1002
{
1000
REACTOR
1002
}
1001
GENIUS_GENOBJ-N-CEN_13
1002
{
1000
OWNER
1000
GEN
1002
}
  0
DIMENSION
  5
13B3
330
1F
100
AcDbEntity
  8
AM_5
100
AcDbDimension
  2
*D5
 10
0.000000000000223
 20
-18.99999999999868
 30
0.0
 11
-39.99999999999978
 21
-17.44999999999868
 31
0.0
 70
    32
  1
<>
  3
AM_JIS
100
AcDbAlignedDimension
 13
-79.99999999999978
 23
-5.249999999998682
 33
0.0
 14
0.0000000000002238
 24
-5.000000000000135
 34
0.0
100
AcDbRotatedDimension
1001
GENIUS_GENDTOL_13
1000

1000
h7
1000

1040
0.0
  0
DIMENSION
  5
145B
330
1F
100
AcDbEntity
  8
AM_5
100
AcDbDimension
  2
*D6
 10
0.0000000000000244
 20
-13.0000000000004
 30
0.0
 11
-15.00000000000012
 21
-11.4500000000004
 31
0.0
 70
    32
  1
<>
  3
AM_JIS
100
AcDbAlignedDimension
 13
-30.00000000000027
 23
-5.000000000000035
 33
0.0
 14
0.0000000000000249
 24
-5.000000000000135
 34
0.0
 50
359.9999999999967
100
AcDbRotatedDimension
1001
GENIUS_GENDTOL_13
1000

1000
h7
1000

1040
0.0
  0
LINE
  5
16D7
330
1F
100
AcDbEntity
  8
AM_0
100
AcDbLine
 10
-38.99999999999979
 20
5.99999999999996
 30
0.0
 11
-79.24999999999977
 21
5.999999999999807
 31
0.0
  0
LINE
  5
16D8
330
1F
100
AcDbEntity
  8
AM_0
100
AcDbLine
 10
-38.99999999999981
 20
-5.999999999999781
 30
0.0
 11
-79.24999999999982
 21
-5.999999999998674
 31
0.0
  0
LINE
  5
16DA
330
1F
100
AcDbEntity
  8
AM_0
100
AcDbLine
 10
-79.99999999999977
 20
5.249999999999804
 30
0.0
 11
-79.99999999999982
 21
-5.249999999998654
 31
0.0
  0
LINE
  5
16DB
330
1F
100
AcDbEntity
  8
AM_0
100
AcDbLine
 10
-79.24999999999977
 20
5.999999999999808
 30
0.0
 11
-79.24999999999979
 21
-5.999999999998673
 31
0.0
  0
DIMENSION
  5
16DD
330
1F
100
AcDbEntity
  8
AM_5
100
AcDbDimension
  2
*D7
 10
-86.99999999999979
 20
-5.999999999998671
 30
0.0
 11
-88.54999999999979
 21
0.0000000000005557
 31
0.0
 70
    32
  1
%%c<>
  3
AM_JIS
100
AcDbAlignedDimension
 13
-79.24999999999977
 23
5.999999999999808
 33
0.0
 14
-79.24999999999977
 24
-5.999999999998673
 34
0.0
 50
270.0
100
AcDbRotatedDimension
1001
GENIUS_GENDTOL_13
1000

1000
h7
1000

1040
0.0
  0
LINE
  5
1707
330
1F
100
AcDbEntity
  8
AM_0
100
AcDbLine
 10
-79.24999999999977
 20
5.999999999999807
 30
0.0
 11
-79.99999999999977
 21
5.249999999999804
 31
0.0
1001
GENIUS_GENFIL_13
1070
     0
1040
0.75
1040
0.75
1040
20.0
1040
0.0
1002
{
1002
}
1001
GENIUS_GENODEF_13
1002
{
1000
HIER
1070
     0
1002
}
1002
{
1000
MANEDIT
1070
     0
1002
}
1002
{
1000
NOSEL
1070
     0
1002
}
1002
{
1000
BEHIND
1070
     0
1002
}
1002
{
1000
REACTOR
1002
}
1001
GENIUS_GENOBJ-N-CHA_13
1002
{
1000
OWNER
1000
GEN
1002
}
  0
LINE
  5
170A
330
1F
100
AcDbEntity
  8
AM_0
100
AcDbLine
 10
-79.99999999999982
 20
-5.249999999998654
 30
0.0
 11
-79.24999999999982
 21
-5.999999999998674
 31
0.0
1001
GENIUS_GENFIL_13
1070
     0
1040
0.75
1040
0.75
1040
20.0
1040
0.0
1002
{
1002
}
1001
GENIUS_GENODEF_13
1002
{
1000
HIER
1070
     0
1002
}
1002
{
1000
MANEDIT
1070
     0
1002
}
1002
{
1000
NOSEL
1070
     0
1002
}
1002
{
1000
BEHIND
1070
     0
1002
}
1002
{
1000
REACTOR
1002
}
1001
GENIUS_GENOBJ-N-CHA_13
1002
{
1000
OWNER
1000
GEN
1002
}
  0
LINE
  5
1768
330
1F
100
AcDbEntity
  8
AM_0
100
AcDbLine
 10
-1.06752419774606
 20
2.933854895411434
 30
0.0
 11
-2.356572231022092
 21
3.309298764780885
 31
0.0
  0
LINE
  5
1769
330
1F
100
AcDbEntity
  8
AM_0
100
AcDbLine
 10
-0.000000000000199
 20
-1.1
 30
0.0
 11
-0.57735026918985
 21
0.0000000000000625
 31
0.0
  0
LINE
  5
176A
330
1F
100
AcDbEntity
  8
AM_0
100
AcDbLine
 10
-0.000000000000199
 20
0.0
 30
0.0
 11
-0.0888426091441659
 21
-0.9307320957943263
 31
0.0
  0
LINE
  5
176B
330
1F
100
AcDbEntity
  8
AM_0
100
AcDbLine
 10
-0.000000000000199
 20
0.0
 30
0.0
 11
-0.1050000000001958
 21
1.100000000000125
 31
0.0
  0
LINE
  5
176C
330
1F
100
AcDbEntity
  8
AM_0
100
AcDbLine
 10
-2.356572231022084
 20
0.0
 30
0.0
 11
-2.356572231022084
 21
-0.8800000000000125
 31
0.0
  0
LINE
  5
176D
330
1F
100
AcDbEntity
  8
AM_0
100
AcDbLine
 10
-0.000000000000199
 20
0.0
 30
0.0
 11
-2.356572231022084
 21
0.0
 31
0.0
  0
LINE
  5
176E
330
1F
100
AcDbEntity
  8
AM_0
100
AcDbLine
 10
-2.356572231022084
 20
-0.8800000000000125
 30
0.0
 11
-0.1154700538381235
 21
-0.8800000000000125
 31
0.0
  0
LINE
  5
176F
330
1F
100
AcDbEntity
  8
AM_0
100
AcDbLine
 10
-0.8604579856913687
 20
-1.621020241683197
 30
0.0
 11
-0.1050000000001887
 21
-1.459587640019504
 31
0.0
  0
ELLIPSE
  5
1770
330
1F
100
AcDbEntity
  8
AM_0
100
AcDbEllipse
 10
1.985673182026999
 20
-2.798268181189695
 30
0.0
 11
-0.0000000000000016
 21
3.344767927067654
 31
0.0
210
0.0
220
0.0
230
1.0
 40
0.9090909090909093
 41
1.211124581303824
 42
2.06927853829032
  0
LINE
  5
1771
330
1F
100
AcDbEntity
  8
AM_0
100
AcDbLine
 10
-2.356572231022084
 20
-0.8800000000000125
 30
0.0
 11
-0.8604579856913687
 21
-1.621020241683197
 31
0.0
  0
LINE
  5
1772
330
1F
100
AcDbEntity
  8
AM_0
100
AcDbLine
 10
-0.1050000000001887
 20
-1.459587640019504
 30
0.0
 11
-0.000000000000199
 21
-1.1
 31
0.0
  0
LINE
  5
1773
330
1F
100
AcDbEntity
  8
AM_0
100
AcDbLine
 10
-0.000000000000199
 20
0.0
 30
0.0
 11
-0.0000000000002061
 21
5.5
 31
0.0
  0
LINE
  5
1774
330
1F
100
AcDbEntity
  8
AM_0
100
AcDbLine
 10
-0.1050000000001958
 20
1.100000000000125
 30
0.0
 11
-1.06752419774606
 21
2.933854895411434
 31
0.0
  0
LINE
  5
1775
330
1F
100
AcDbEntity
  8
AM_0
100
AcDbLine
 10
-0.0000000000001918
 20
-5.5
 30
0.0
 11
-0.1050000000001816
 21
-5.206785273384008
 31
0.0
  0
LINE
  5
1776
330
1F
100
AcDbEntity
  8
AM_0
100
AcDbLine
 10
-0.1050000000001816
 20
-5.206785273384008
 30
0.0
 11
-0.1050000000001887
 21
-1.459587640019504
 31
0.0
  0
LINE
  5
1777
330
1F
100
AcDbEntity
  8
AM_0
100
AcDbLine
 10
-0.0000000000001918
 20
-5.5
 30
0.0
 11
-0.000000000000199
 21
-1.1
 31
0.0
  0
LINE
  5
1778
330
1F
100
AcDbEntity
  8
AM_0
100
AcDbLine
 10
-0.1050000000001816
 20
-5.206785273383946
 30
0.0
 11
-0.6850000000001942
 21
-4.397378321008102
 31
0.0
  0
DIMENSION
  5
1779
330
1F
100
AcDbEntity
  8
AM_5
100
AcDbDimension
  2
*D8
 10
7.000000000000225
 20
-5.500000000000135
 30
0.0
 11
5.450000000000226
 21
-0.000000000000133
 31
0.0
 70
    32
  1
%%c<>
  3
AM_JIS
100
AcDbAlignedDimension
 13
0.0000000000000107
 23
5.499999999999867
 33
0.0
 14
0.0000000000000178
 24
-5.500000000000133
 34
0.0
 50
90.0
100
AcDbRotatedDimension
1001
GENIUS_GENDTOL_13
1000

1000
h7
1000

1040
0.0
  0
SPLINE
  5
1786
330
1F
100
AcDbEntity
  8
AM_0
100
AcDbSpline
210
0.0
220
0.0
230
1.0
 70
     8
 71
     3
 72
     8
 73
     4
 74
     0
 42
0.0000000001
 43
0.0000000001
 40
0.0
 40
0.0
 40
0.0
 40
0.0
 40
14.48999654934396
 40
14.48999654934396
 40
14.48999654934396
 40
14.48999654934396
 10
-13.60000000000038
 20
-5.49999999999989
 30
0.0
 10
-18.4299988497817
 20
-5.499999999999897
 30
0.0
 10
-22.81499942489104
 20
-2.749999999999901
 30
0.0
 10
-27.20000000000038
 20
0.0000000000000938
 30
0.0
  0
SPLINE
  5
1787
330
1F
100
AcDbEntity
  8
AM_0
100
AcDbSpline
210
0.0
220
0.0
230
1.0
 70
     8
 71
     3
 72
     8
 73
     4
 74
     0
 42
0.0000000001
 43
0.0000000001
 40
0.0
 40
0.0
 40
0.0
 40
0.0
 40
14.48999654934396
 40
14.48999654934396
 40
14.48999654934396
 40
14.48999654934396
 10
-27.20000000000019
 20
5.500000000000094
 30
0.0
 10
-22.37000115021887
 20
5.5000000000001
 30
0.0
 10
-17.98500057510953
 20
2.750000000000104
 30
0.0
 10
-13.60000000000019
 20
0.0000000000001094
 30
0.0
  0
SPLINE
  5
1788
330
1F
100
AcDbEntity
  8
AM_0
100
AcDbSpline
210
0.0
220
0.0
230
1.0
 70
     8
 71
     3
 72
     8
 73
     4
 74
     0
 42
0.0000000001
 43
0.0000000001
 40
0.0
 40
0.0
 40
0.0
 40
0.0
 40
2.130230809022907
 40
2.130230809022907
 40
2.130230809022907
 40
2.130230809022907
 10
-27.20000000000037
 20
-5.500000000000031
 30
0.0
 10
-26.48992306365939
 20
-5.500000000000031
 30
0.0
 10
-25.78946391279677
 20
-5.440564016602215
 30
0.0
 10
-25.0972085993228
 20
-5.33042996513785
 30
0.0
  0
SPLINE
  5
1789
330
1F
100
AcDbEntity
  8
AM_0
100
AcDbSpline
210
0.0
220
0.0
230
1.0
 70
     8
 71
     3
 72
     8
 73
     4
 74
     0
 42
0.0000000001
 43
0.0000000001
 40
0.0
 40
0.0
 40
0.0
 40
0.0
 40
2.764560748519282
 40
2.764560748519282
 40
2.764560748519282
 40
2.764560748519282
 10
-11.85455121800577
 20
-5.33531203736894
 30
0.0
 10
-10.93303096849935
 20
-5.33531203736894
 30
0.0
 10
-10.02688937612236
 20
-5.237519263361067
 30
0.0
 10
-9.133181972576771
 20
-5.060657568827426
 30
0.0
  0
SPLINE
  5
178A
330
1F
100
AcDbEntity
  8
AM_0
100
AcDbSpline
210
0.0
220
0.0
230
1.0
 70
     8
 71
     3
 72
     8
 73
     4
 74
     0
 42
0.0000000001
 43
0.0000000001
 40
1.870660592686466
 40
1.870660592686466
 40
1.870660592686466
 40
1.870660592686466
 40
14.43901837670146
 40
14.43901837670146
 40
14.43901837670146
 40
14.43901837670146
 10
-0.1050000000001816
 20
-5.206785273383946
 30
0.0
 10
-4.205964591229012
 20
-4.644090673311634
 30
0.0
 10
-8.030257904617315
 20
-2.32204533665579
 30
0.0
 10
-11.85455121800561
 20
0.0000000000000469
 30
0.0
  0
SPLINE
  5
178B
330
1F
100
AcDbEntity
  8
AM_0
100
AcDbSpline
210
0.0
220
0.0
230
1.0
 70
     8
 71
     3
 72
     8
 73
     4
 74
     0
 42
0.0000000001
 43
0.0000000001
 40
0.7142832446738512
 40
0.7142832446738512
 40
0.7142832446738512
 40
0.7142832446738512
 40
14.36247867694493
 40
14.36247867694493
 40
14.36247867694493
 40
14.36247867694493
 10
-22.73318197247125
 20
5.060657568806689
 30
0.0
 10
-18.2189216353562
 20
4.826587739023062
 30
0.0
 10
-14.03180247719055
 20
2.413293869511558
 30
0.0
 10
-9.844683319024909
 20
0.0000000000000547
 30
0.0
  0
SPLINE
  5
178C
330
1F
100
AcDbEntity
  8
AM_0
100
AcDbSpline
210
0.0
220
0.0
230
1.0
 70
     8
 71
     3
 72
     8
 73
     4
 74
     0
 42
0.0000000001
 43
0.0000000001
 40
0.0
 40
0.0
 40
0.0
 40
0.0
 40
14.36247867694493
 40
14.36247867694493
 40
14.36247867694493
 40
14.36247867694493
 10
-9.844683319025101
 20
-5.079188954182839
 30
0.0
 10
-14.63217621134008
 20
-5.079188954182845
 30
0.0
 10
-19.03842976518259
 20
-2.539594477091344
 30
0.0
 10
-23.4446833190251
 20
0.0000000000001563
 30
0.0
  0
SPLINE
  5
178D
330
1F
100
AcDbEntity
  8
AM_0
100
AcDbSpline
210
0.0
220
0.0
230
1.0
 70
     8
 71
     3
 72
     8
 73
     4
 74
     0
 42
0.0000000001
 43
0.0000000001
 40
0.0
 40
0.0
 40
0.0
 40
0.0
 40
14.48999654934396
 40
14.48999654934396
 40
14.48999654934396
 40
14.48999654934396
 10
-0.0000000000001918
 20
-5.5
 30
0.0
 10
-4.829998849781511
 20
-5.500000000000007
 30
0.0
 10
-9.214999424890851
 20
-2.750000000000011
 30
0.0
 10
-13.60000000000019
 20
-0.0000000000000156
 30
0.0
  0
SPLINE
  5
178E
330
1F
100
AcDbEntity
  8
AM_0
100
AcDbSpline
210
0.0
220
0.0
230
1.0
 70
     8
 71
     3
 72
     8
 73
     4
 74
     0
 42
0.0000000001
 43
0.0000000001
 40
0.0
 40
0.0
 40
0.0
 40
0.0
 40
14.48999654934396
 40
14.48999654934396
 40
14.48999654934396
 40
14.48999654934396
 10
-13.6000000000002
 20
5.50000000000011
 30
0.0
 10
-8.770001150218881
 20
5.500000000000115
 30
0.0
 10
-4.38500057510954
 20
2.75000000000012
 30
0.0
 10
-0.000000000000199
 20
0.0000000000001251
 30
0.0
  0
SPLINE
  5
178F
330
1F
100
AcDbEntity
  8
AM_0
100
AcDbSpline
210
0.0
220
0.0
230
1.0
 70
     8
 71
     3
 72
     8
 73
     4
 74
     0
 42
0.0000000001
 43
0.0000000001
 40
0.3581103616548037
 40
0.3581103616548037
 40
0.3581103616548037
 40
0.3581103616548037
 40
12.40023413887867
 40
12.40023413887867
 40
12.40023413887867
 40
12.40023413887867
 10
-11.49720859932242
 20
5.330429965137928
 30
0.0
 10
-7.500306788787078
 20
5.221440330769113
 30
0.0
 10
-3.787959378150226
 20
3.3029712413335
 30
0.0
 10
-0.1168127923960256
 20
1.122506392269861
 30
0.0
  0
SPLINE
  5
1790
330
1F
100
AcDbEntity
  8
AM_0
100
AcDbSpline
210
0.0
220
0.0
230
1.0
 70
     8
 71
     3
 72
     8
 73
     4
 74
     0
 42
0.0000000001
 43
0.0000000001
 40
4.542668862435135
 40
4.542668862435135
 40
4.542668862435135
 40
4.542668862435135
 40
14.36247867694493
 40
14.36247867694493
 40
14.36247867694493
 40
14.36247867694493
 10
-0.6849999999988015
 20
-4.397378321002287
 30
0.0
 10
-3.819459836855735
 20
-3.472706255230145
 30
0.0
 10
-6.832071577940325
 20
-1.736353127615049
 30
0.0
 10
-9.844683319024909
 20
0.0000000000000547
 30
0.0
  0
SPLINE
  5
1791
330
1F
100
AcDbEntity
  8
AM_0
100
AcDbSpline
210
0.0
220
0.0
230
1.0
 70
     8
 71
     3
 72
     8
 73
     4
 74
     0
 42
0.0000000001
 43
0.0000000001
 40
0.0
 40
0.0
 40
0.0
 40
0.0
 40
5.635889483499127
 40
5.635889483499127
 40
5.635889483499127
 40
5.635889483499127
 10
-0.0000000000002061
 20
5.5
 30
0.0
 10
-1.878629827833243
 20
5.5
 30
0.0
 10
-3.689939253836321
 20
5.083973431877052
 30
0.0
 10
-5.460112573044035
 20
4.413733982208359
 30
0.0
  0
SPLINE
  5
1792
330
1F
100
AcDbEntity
  8
AM_0
100
AcDbSpline
210
0.0
220
0.0
230
1.0
 70
     8
 71
     3
 72
     8
 73
     4
 74
     0
 42
0.0000000001
 43
0.0000000001
 40
0.0
 40
0.0
 40
0.0
 40
0.0
 40
2.586565323616714
 40
2.586565323616714
 40
2.586565323616714
 40
2.586565323616714
 10
-0.0000000000002061
 20
4.48217295535236
 30
0.0
 10
-0.5532673805031499
 20
3.754787515766108
 30
0.0
 10
-1.502919504716202
 20
3.442421176616787
 30
0.0
 10
-2.356572231022092
 20
3.309298764780885
 30
0.0
  0
SPLINE
  5
1793
330
1F
100
AcDbEntity
  8
AM_0
100
AcDbSpline
210
0.0
220
0.0
230
1.0
 70
     8
 71
     3
 72
     8
 73
     4
 74
     0
 42
0.0000000001
 43
0.0000000001
 40
0.7142832446738512
 40
0.7142832446738512
 40
0.7142832446738512
 40
0.7142832446738512
 40
9.361146747480315
 40
9.361146747480315
 40
9.361146747480315
 40
9.361146747480315
 10
-9.133181972471255
 20
5.060657568806713
 30
0.0
 10
-6.273156033886671
 20
4.912361782868735
 30
0.0
 10
-3.544441351448234
 20
3.88934687107959
 30
0.0
 10
-0.8638452046301736
 20
2.545794294429043
 30
0.0
  0
SPLINE
  5
1794
330
1F
100
AcDbEntity
  8
AM_0
100
AcDbSpline
210
0.0
220
0.0
230
1.0
 70
     8
 71
     3
 72
     8
 73
     4
 74
     0
 42
0.0000000001
 43
0.0000000001
 40
0.0
 40
0.0
 40
0.0
 40
0.0
 40
4.451443990518192
 40
4.451443990518192
 40
4.451443990518192
 40
4.451443990518192
 10
-9.844683319025101
 20
-5.079188954182964
 30
0.0
 10
-8.36086865551902
 20
-5.079188954182964
 30
0.0
 10
-6.913675880852728
 20
-4.83523525567219
 30
0.0
 10
-5.491754566547676
 20
-4.422937803815827
 30
0.0
  0
SPLINE
  5
1795
330
1F
100
AcDbEntity
  8
AM_0
100
AcDbSpline
210
0.0
220
0.0
230
1.0
 70
     8
 71
     3
 72
     8
 73
     4
 74
     0
 42
0.0000000001
 43
0.0000000001
 40
0.0
 40
0.0
 40
0.0
 40
0.0
 40
14.43901837670149
 40
14.43901837670149
 40
14.43901837670149
 40
14.43901837670149
 10
-11.85455121800577
 20
-5.335312037368815
 30
0.0
 10
-16.66755734357293
 20
-5.335312037368822
 30
0.0
 10
-21.06105428078937
 20
-2.667656018684333
 30
0.0
 10
-25.4545512180058
 20
0.0000000000001563
 30
0.0
  0
SPLINE
  5
1796
330
1F
100
AcDbEntity
  8
AM_0
100
AcDbSpline
210
0.0
220
0.0
230
1.0
 70
     8
 71
     3
 72
     8
 73
     4
 74
     0
 42
0.0000000001
 43
0.0000000001
 40
0.3581103616548037
 40
0.3581103616548037
 40
0.3581103616548037
 40
0.3581103616548037
 40
14.43901837670146
 40
14.43901837670146
 40
14.43901837670146
 40
14.43901837670146
 10
-25.09720859932242
 20
5.330429965137913
 30
0.0
 10
-20.42361382646615
 20
5.202987908858522
 30
0.0
 10
-16.13908252223587
 20
2.60149395442928
 30
0.0
 10
-11.85455121800561
 20
0.0000000000000469
 30
0.0
  0
SPLINE
  5
1797
330
1F
100
AcDbEntity
  8
AM_0
100
AcDbSpline
210
0.0
220
0.0
230
1.0
 70
     8
 71
     3
 72
     8
 73
     4
 74
     0
 42
0.0000000001
 43
0.0000000001
 40
0.0
 40
0.0
 40
0.0
 40
0.0
 40
5.635889483499305
 40
5.635889483499305
 40
5.635889483499305
 40
5.635889483499305
 10
-13.6000000000004
 20
5.50000000000011
 30
0.0
 10
-15.47862982783352
 20
5.50000000000011
 30
0.0
 10
-17.28993925383663
 20
5.083973431877154
 30
0.0
 10
-19.06011257304437
 20
4.413733982208406
 30
0.0
  0
SPLINE
  5
1798
330
1F
100
AcDbEntity
  8
AM_0
100
AcDbSpline
210
0.0
220
0.0
230
1.0
 70
     8
 71
     3
 72
     8
 73
     4
 74
     0
 42
0.0000000001
 43
0.0000000001
 40
0.0
 40
0.0
 40
0.0
 40
0.0
 40
2.130230809022907
 40
2.130230809022907
 40
2.130230809022907
 40
2.130230809022907
 10
-13.60000000000038
 20
-5.500000000000015
 30
0.0
 10
-12.8899230636594
 20
-5.500000000000015
 30
0.0
 10
-12.18946391279677
 20
-5.440564016602199
 30
0.0
 10
-11.49720859932281
 20
-5.330429965137835
 30
0.0
  0
SPLINE
  5
1799
330
1F
100
AcDbEntity
  8
AM_0
100
AcDbSpline
210
0.0
220
0.0
230
1.0
 70
     8
 71
     3
 72
     8
 73
     4
 74
     0
 42
0.0000000001
 43
0.0000000001
 40
0.0
 40
0.0
 40
0.0
 40
0.0
 40
4.451443990518192
 40
4.451443990518192
 40
4.451443990518192
 40
4.451443990518192
 10
-23.44468331902509
 20
-5.079188954182987
 30
0.0
 10
-21.96086865551901
 20
-5.079188954182987
 30
0.0
 10
-20.51367588085272
 20
-4.835235255672206
 30
0.0
 10
-19.09175456654767
 20
-4.422937803815842
 30
0.0
  0
SPLINE
  5
179A
330
1F
100
AcDbEntity
  8
AM_0
100
AcDbSpline
210
0.0
220
0.0
230
1.0
 70
     8
 71
     3
 72
     8
 73
     4
 74
     0
 42
0.0000000001
 43
0.0000000001
 40
0.0
 40
0.0
 40
0.0
 40
0.0
 40
2.764560748519282
 40
2.764560748519282
 40
2.764560748519282
 40
2.764560748519282
 10
-25.45455121800577
 20
-5.335312037368956
 30
0.0
 10
-24.53303096849935
 20
-5.335312037368956
 30
0.0
 10
-23.62688937612235
 20
-5.23751926336109
 30
0.0
 10
-22.73318197257676
 20
-5.060657568827449
 30
0.0
  0
LINE
  5
179B
330
1F
100
AcDbEntity
  8
AM_0
100
AcDbLine
 10
-30.00000000000017
 20
3.448674539460595
 30
0.0
 11
-30.3548417750701
 21
2.827142172400534
 31
0.0
  0
LINE
  5
179C
330
1F
100
AcDbEntity
  8
AM_0
100
AcDbLine
 10
-29.99999999999966
 20
5.499999999999968
 30
0.0
 11
-37.62626129027199
 21
5.499999999999785
 31
0.0
  0
POLYLINE
  5
179D
330
1F
100
AcDbEntity
  8
AM_0
100
AcDb2dPolyline
 66
     1
 10
0.0
 20
0.0
 30
0.0
 70
     2
  0
VERTEX
  5
179E
330
179D
100
AcDbEntity
  8
AM_0
100
AcDbVertex
100
AcDb2dVertex
 10
-32.66011257304456
 20
4.413657028188835
 30
0.0
 42
-0.0080850818469205
  0
VERTEX
  5
179F
330
179D
100
AcDbEntity
  8
AM_0
100
AcDbVertex
100
AcDb2dVertex
 10
-33.16148797344176
 20
4.586409066097115
 30
0.0
 42
-0.0113772357485858
 70
     1
  0
VERTEX
  5
17A0
330
179D
100
AcDbEntity
  8
AM_0
100
AcDbVertex
100
AcDb2dVertex
 10
-33.51870395973555
 20
4.726557661860879
 30
0.0
 42
-0.0082896290467094
  0
VERTEX
  5
17A1
330
179D
100
AcDbEntity
  8
AM_0
100
AcDbVertex
100
AcDb2dVertex
 10
-34.65720865362613
 20
5.229577568245635
 30
0.0
 42
-0.2726804491113656
 70
     1
  0
VERTEX
  5
17A2
330
179D
100
AcDbEntity
  8
AM_0
100
AcDbVertex
100
AcDb2dVertex
 10
-34.68113349684353
 20
5.264934472675846
 30
0.0
 42
-0.4014058829339297
  0
VERTEX
  5
17A3
330
179D
100
AcDbEntity
  8
AM_0
100
AcDbVertex
100
AcDb2dVertex
 10
-34.63776115004931
 20
5.326919446882216
 30
0.0
 42
-0.0313656446754737
 70
     1
  0
VERTEX
  5
17A4
330
179D
100
AcDbEntity
  8
AM_0
100
AcDbVertex
100
AcDb2dVertex
 10
-33.85632790319432
 20
5.403331807137594
 30
0.0
 42
-0.0039726403541645
  0
VERTEX
  5
17A5
330
179D
100
AcDbEntity
  8
AM_0
100
AcDbVertex
100
AcDb2dVertex
 10
-33.14469120922058
 20
5.417428687495952
 30
0.0
 42
0.0019401889352083
 70
     1
  0
VERTEX
  5
17A6
330
179D
100
AcDbEntity
  8
AM_0
100
AcDbVertex
100
AcDb2dVertex
 10
-31.68750000000017
 20
5.439777042247153
 30
0.0
 42
0.0036525506412497
  0
VERTEX
  5
17A7
330
179D
100
AcDbEntity
  8
AM_0
100
AcDbVertex
100
AcDb2dVertex
 10
-31.11447992447796
 20
5.455618415998527
 30
0.0
 42
0.0018773371428962
 70
     1
  0
VERTEX
  5
17A8
330
179D
100
AcDbEntity
  8
AM_0
100
AcDbVertex
100
AcDb2dVertex
 10
-30.00000000000017
 20
5.49999999999996
 30
0.0
  0
SEQEND
  5
17A9
330
179D
100
AcDbEntity
  8
AM_0
  0
LINE
  5
17B0
330
1F
100
AcDbEntity
  8
AM_0
100
AcDbLine
 10
-30.3548417750701
 20
2.827142172400534
 30
0.0
 11
-30.00000000000017
 21
1.726910909877094
 31
0.0
  0
ELLIPSE
  5
17B1
330
1F
100
AcDbEntity
  8
AM_0
100
AcDbEllipse
 10
-29.98376637263184
 20
-17.09002843032159
 30
0.0
 11
-0.0000000000001749
 21
11.74169076794961
 31
0.0
210
0.0
220
0.0
230
1.0
 40
0.9090909090908844
 41
0.0015208199007835
 42
0.1609004017522309
  0
LINE
  5
17B2
330
1F
100
AcDbEntity
  8
AM_0
100
AcDbLine
 10
-31.58609211882617
 20
-5.500000000000014
 30
0.0
 11
-37.62626129027393
 21
-5.500000000000296
 31
0.0
  0
LINE
  5
17B3
330
1F
100
AcDbEntity
  8
AM_11
100
AcDbLine
 10
-30.00000000000027
 20
-5.500000000000039
 30
0.0
 11
-30.00000000000017
 21
5.49999999999996
 31
0.0
  0
LINE
  5
17B4
330
1F
100
AcDbEntity
  8
AM_0
100
AcDbLine
 10
-30.00000000000016
 20
-3.652570018224229
 30
0.0
 11
-30.00000000000027
 21
-5.348351241007565
 31
0.0
  0
SPLINE
  5
17B5
330
1F
100
AcDbEntity
  8
AM_0
100
AcDbSpline
210
0.0
220
0.0
230
1.0
 70
     8
 71
     3
 72
     8
 73
     4
 74
     0
 42
0.0000000001
 43
0.0000000001
 40
0.0
 40
0.0
 40
0.0
 40
0.0
 40
1.412269715655734
 40
1.412269715655734
 40
1.412269715655734
 40
1.412269715655734
 10
-28.60000000000035
 20
-5.424175620503708
 30
0.0
 10
-29.07075657188562
 20
-5.424175620503708
 30
0.0
 10
-29.53728590230837
 20
-5.398052116922855
 30
0.0
 10
-30.00000000000016
 20
-5.348351241007534
 30
0.0
  0
SPLINE
  5
17B6
330
1F
100
AcDbEntity
  8
AM_0
100
AcDbSpline
210
0.0
220
0.0
230
1.0
 70
     8
 71
     3
 72
     8
 73
     4
 74
     0
 42
0.0000000001
 43
0.0000000001
 40
0.0
 40
0.0
 40
0.0
 40
0.0
 40
6.769478140335353
 40
6.769478140335353
 40
6.769478140335353
 40
6.769478140335353
 10
-23.44468331902509
 20
-5.079188954182862
 30
0.0
 10
-25.7011760324702
 20
-5.079188954182862
 30
0.0
 10
-27.87297539936872
 20
-4.515011196457347
 30
0.0
 10
-30.00000000000016
 20
-3.652570018224229
 30
0.0
  0
SPLINE
  5
17B7
330
1F
100
AcDbEntity
  8
AM_0
100
AcDbSpline
210
0.0
220
0.0
230
1.0
 70
     8
 71
     3
 72
     8
 73
     4
 74
     0
 42
0.0000000001
 43
0.0000000001
 40
0.0
 40
0.0
 40
0.0
 40
0.0
 40
4.662554012798695
 40
4.662554012798695
 40
4.662554012798695
 40
4.662554012798695
 10
-25.45455121800577
 20
-5.335312037368831
 30
0.0
 10
-27.00873588893863
 20
-5.335312037368831
 30
0.0
 10
-28.51917702339542
 20
-5.057147192356037
 30
0.0
 10
-30.00000000000016
 20
-4.590640687016349
 30
0.0
  0
SPLINE
  5
17B8
330
1F
100
AcDbEntity
  8
AM_0
100
AcDbSpline
210
0.0
220
0.0
230
1.0
 70
     8
 71
     3
 72
     8
 73
     4
 74
     0
 42
0.0000000001
 43
0.0000000001
 40
4.48458745047074
 40
4.48458745047074
 40
4.48458745047074
 40
4.48458745047074
 40
14.36247867694493
 40
14.36247867694493
 40
14.36247867694493
 40
14.36247867694493
 10
-32.66011257304456
 20
4.413657028188843
 30
0.0
 10
-29.5055443027199
 20
3.493246335583158
 30
0.0
 10
-26.47511381087247
 20
1.746623167791583
 30
0.0
 10
-23.4446833190251
 20
0.0000000000000313
 30
0.0
  0
SPLINE
  5
17B9
330
1F
100
AcDbEntity
  8
AM_0
100
AcDbSpline
210
0.0
220
0.0
230
1.0
 70
     8
 71
     3
 72
     8
 73
     4
 74
     0
 42
0.0000000001
 43
0.0000000001
 40
9.094138221207366
 40
9.094138221207366
 40
9.094138221207366
 40
9.094138221207366
 40
14.43901837670146
 40
14.43901837670146
 40
14.43901837670146
 40
14.43901837670146
 10
-30.35484177507004
 20
2.827142172400534
 30
0.0
 10
-28.70722587777953
 20
1.974968289943888
 30
0.0
 10
-27.08088854789264
 20
0.9874841449719639
 30
0.0
 10
-25.4545512180058
 20
0.0000000000000313
 30
0.0
  0
SPLINE
  5
17BA
330
1F
100
AcDbEntity
  8
AM_0
100
AcDbSpline
210
0.0
220
0.0
230
1.0
 70
     8
 71
     3
 72
     8
 73
     4
 74
     0
 42
0.0000000001
 43
0.0000000001
 40
0.0
 40
0.0
 40
0.0
 40
0.0
 40
1.412269715655931
 40
1.412269715655931
 40
1.412269715655931
 40
1.412269715655931
 10
-27.20000000000037
 20
-5.499999999999906
 30
0.0
 10
-27.67075657188569
 20
-5.499999999999906
 30
0.0
 10
-28.13728590230851
 20
-5.47387649641906
 30
0.0
 10
-28.60000000000038
 20
-5.424175620503708
 30
0.0
  0
SPLINE
  5
17BB
330
1F
100
AcDbEntity
  8
AM_0
100
AcDbSpline
210
0.0
220
0.0
230
1.0
 70
     8
 71
     3
 72
     8
 73
     4
 74
     0
 42
0.0000000001
 43
0.0000000001
 40
11.41055204919593
 40
11.41055204919593
 40
11.41055204919593
 40
11.41055204919593
 40
14.48999654934393
 40
14.48999654934393
 40
14.48999654934393
 40
14.48999654934393
 10
-30.00000000000023
 20
1.726910909877001
 30
0.0
 10
-29.06381906416402
 20
1.168871551703848
 30
0.0
 10
-28.1319095320822
 20
0.5844357758519672
 30
0.0
 10
-27.20000000000038
 20
0.0000000000000938
 30
0.0
  0
LINE
  5
17BC
330
1F
100
AcDbEntity
  8
AM_11
100
AcDbLine
 10
-30.00000000000027
 20
-5.500000000000037
 30
0.0
 11
-0.0000000000001918
 21
-5.5
 31
0.0
  0
LINE
  5
17BD
330
1F
100
AcDbEntity
  8
AM_11
100
AcDbLine
 10
-0.0000000000009734
 20
5.5
 30
0.0
 11
-30.00000000000046
 21
5.49999999999996
 31
0.0
  0
LINE
  5
17CE
330
1F
100
AcDbEntity
  8
AM_0
100
AcDbLine
 10
-38.99999999999978
 20
5.99999999999996
 30
0.0
 11
-38.99999999999982
 21
-5.999999999999782
 31
0.0
  0
LINE
  5
17E6
330
1F
100
AcDbEntity
  8
AM_0
100
AcDbLine
 10
-37.62626129027199
 20
5.499999999999785
 30
0.0
 11
-37.62626129027393
 21
-5.500000000000296
 31
0.0
  0
LINE
  5
17E7
330
1F
100
AcDbEntity
  8
AM_0
100
AcDbLine
 10
-37.62626129027393
 20
-5.500000000000296
 30
0.0
 11
-38.99999999999982
 21
-5.999999999999782
 31
0.0
  0
LINE
  5
17E8
330
1F
100
AcDbEntity
  8
AM_0
100
AcDbLine
 10
-38.99999999999978
 20
5.99999999999996
 30
0.0
 11
-37.62626129027199
 21
5.499999999999785
 31
0.0
  0
SPLINE
  5
18EA
330
1F
100
AcDbEntity
  8
AM_0
100
AcDbSpline
210
0.0
220
0.0
230
1.0
 70
    24
 71
     3
 72
     8
 73
     4
 74
     2
 42
0.0000000001
 43
0.0000000001
 44
0.0000000001
 40
0.0
 40
0.0
 40
0.0
 40
0.0
 40
2.799999999996853
 40
2.799999999996853
 40
2.799999999996853
 40
2.799999999996853
 10
-27.20000000000019
 20
5.500000000000094
 30
0.0
 10
-28.13333333333248
 20
5.500000000000094
 30
0.0
 10
-29.06666666666476
 20
5.500000000000093
 30
0.0
 10
-29.99999999999705
 20
5.500000000000092
 30
0.0
 11
-27.20000000000019
 21
5.500000000000094
 31
0.0
 11
-29.99999999999705
 21
5.500000000000092
 31
0.0
  0
POLYLINE
  5
19F3
330
1F
100
AcDbEntity
  8
AM_0
100
AcDb2dPolyline
 66
     1
 10
0.0
 20
0.0
 30
0.0
 70
     2
  0
VERTEX
  5
19F5
330
19F3
100
AcDbEntity
  8
AM_0
100
AcDbVertex
100
AcDb2dVertex
 10
-30.00000000000023
 20
1.726910909877001
 30
0.0
 42
0.0311108090225707
  0
VERTEX
  5
19FD
330
19F3
100
AcDbEntity
  8
AM_0
100
AcDbVertex
100
AcDb2dVertex
 10
-30.89302044199149
 20
1.994659657234226
 30
0.0
 42
0.036070589497011
 70
     1
  0
VERTEX
  5
19F6
330
19F3
100
AcDbEntity
  8
AM_0
100
AcDbVertex
100
AcDb2dVertex
 10
-31.68750000000017
 20
2.120414671358458
 30
0.0
 42
0.0355846925022874
  0
VERTEX
  5
19FE
330
19F3
100
AcDbEntity
  8
AM_0
100
AcDbVertex
100
AcDb2dVertex
 10
-33.33122965654084
 20
2.142991639374518
 30
0.0
 42
0.0943076533924427
 70
     1
  0
VERTEX
  5
19F7
330
19F3
100
AcDbEntity
  8
AM_0
100
AcDbVertex
100
AcDb2dVertex
 10
-33.93750000000018
 20
1.991111303449658
 30
0.0
 42
0.1218489606621676
  0
VERTEX
  5
19FF
330
19F3
100
AcDbEntity
  8
AM_0
100
AcDbVertex
100
AcDb2dVertex
 10
-34.36786877132941
 20
1.645908570969076
 30
0.0
 42
0.1647589739291677
 70
     1
  0
VERTEX
  5
19F8
330
19F3
100
AcDbEntity
  8
AM_0
100
AcDbVertex
100
AcDb2dVertex
 10
-34.50000000000017
 20
1.254651882903017
 30
0.0
 42
0.1020366464605822
  0
VERTEX
  5
1A00
330
19F3
100
AcDbEntity
  8
AM_0
100
AcDbVertex
100
AcDb2dVertex
 10
-34.40122127801442
 20
0.7778251360991533
 30
0.0
 42
0.0551022499392254
 70
     1
  0
VERTEX
  5
19F9
330
19F3
100
AcDbEntity
  8
AM_0
100
AcDbVertex
100
AcDb2dVertex
 10
-33.95820790150937
 20
-0.0000000000001294
 30
0.0
 42
0.0303278318540177
  0
VERTEX
  5
1A02
330
19F3
100
AcDbEntity
  8
AM_0
100
AcDbVertex
100
AcDb2dVertex
 10
-33.18461587520227
 20
-0.9402472945064346
 30
0.0
 42
0.0174041179377221
 70
     1
  0
VERTEX
  5
19FA
330
19F3
100
AcDbEntity
  8
AM_0
100
AcDbVertex
100
AcDb2dVertex
 10
-31.68750000000016
 20
-2.441844226287161
 30
0.0
 42
0.0324450856557931
  0
VERTEX
  5
1A01
330
19F3
100
AcDbEntity
  8
AM_0
100
AcDbVertex
100
AcDb2dVertex
 10
-31.09137599084189
 20
-2.931067522470371
 30
0.0
 42
0.0191113364050268
 70
     1
  0
VERTEX
  5
19FB
330
19F3
100
AcDbEntity
  8
AM_0
100
AcDbVertex
100
AcDb2dVertex
 10
-30.00000000000026
 20
-3.65257001822416
 30
0.0
  0
SEQEND
  5
19FC
330
19F3
100
AcDbEntity
  8
AM_0
  0
VIEWPORT
  5
110
330
101
100
AcDbEntity
 67
     1
  8
0
100
AcDbViewport
 10
420.5
 20
297.0
 30
0.0
 40
948.9782706766916
 41
628.452
 68
     1
 69
     1
1001
ACAD
1000
MVIEW
1002
{
1070
    16
1010
0.0
1020
0.0
1030
0.0
1010
0.0
1020
0.0
1030
1.0
1040
0.0
1040
628.452
1040
420.5
1040
297.0
1040
50.0
1040
0.0
1040
0.0
1070
     0
1070
   100
1070
     1
1070
     1
1070
     0
1070
     0
1070
     0
1070
     0
1040
0.0
1040
0.0
1040
0.0
1040
10.0
1040
10.0
1040
10.0
1040
10.0
1070
     0
1002
{
1002
}
1002
}
  0
ENDSEC
  0
SECTION
  2
OBJECTS
  0
DICTIONARY
  5
C
330
0
100
AcDbDictionary
  3
ACAD_GROUP
350
D
  3
ACAD_LAYOUT
350
1A
  3
ACAD_MLINESTYLE
350
17
  3
ACAD_PLOTSETTINGS
350
19
  3
ACAD_PLOTSTYLENAME
350
E
  3
ACDBVARIABLEDICTIONARY
350
34
  3
ACMDICTIONARY
350
43
  3
AMG
350
2B
  3
AMGSNAPSETTINGS
350
6E
  3
DWGPROPS
350
1AD3
  3
ACDBHEADERROUNDTRIPXREC
350
1ADF
  0
DICTIONARY
  5
74
330
1F
100
AcDbDictionary
280
     1
  3
ACAD_INDEX
360
1AD5
  3
ACAD_LAYOUTSELFREF
360
1B02
  0
DICTIONARY
  5
1B07
330
101
100
AcDbDictionary
280
     1
  3
ACAD_LAYOUTSELFREF
360
1B08
  0
DICTIONARY
  5
D
102
{ACAD_REACTORS
330
C
102
}
330
C
100
AcDbDictionary
  0
DICTIONARY
  5
1A
102
{ACAD_REACTORS
330
C
102
}
330
C
100
AcDbDictionary
  0
DICTIONARY
  5
17
102
{ACAD_REACTORS
330
C
102
}
330
C
100
AcDbDictionary
  3
STANDARD
350
18
  0
DICTIONARY
  5
19
102
{ACAD_REACTORS
330
C
102
}
330
C
100
AcDbDictionary
  0
ACDBDICTIONARYWDFLT
  5
E
102
{ACAD_REACTORS
330
C
102
}
330
C
100
AcDbDictionary
281
     1
  3
Normal
350
F
100
AcDbDictionaryWithDefault
340
F
  0
DICTIONARY
  5
34
102
{ACAD_REACTORS
330
C
102
}
330
C
100
AcDbDictionary
  3
INDEXCTL
350
35
  3
SORTENTS
350
B5E
  0
DICTIONARY
  5
43
102
{ACAD_REACTORS
330
C
102
}
330
C
100
AcDbDictionary
  3
ACMSTDDICTIONARY
350
260
  0
DICTIONARY
  5
2B
102
{ACAD_REACTORS
330
C
102
}
330
C
100
AcDbDictionary
  3
ACMGSETTINGS
350
2C
  0
DICTIONARY
  5
6E
102
{ACAD_REACTORS
330
C
102
}
330
C
100
AcDbDictionary
  0
XRECORD
  5
1AD3
102
{ACAD_REACTORS
330
C
102
}
330
C
100
AcDbXrecord
  1
DWGPROPS COOKIE
  2

  3

  4

  6

  7

  8

  9

300
AmdtFileType=82
301
=
302
=
303
=
304
=
305
=
306
=
307
=
308
=
309
=
 40
0.0288829166666667
 41
2452836.771637361
 42
2452901.584623113
  1

 90
        1
  0
DICTIONARY
  5
1ADF
102
{ACAD_REACTORS
330
C
102
}
330
C
100
AcDbDictionary
  3
TSTACKALIGN
350
1AE0
  3
TSTACKSIZE
350
1AE1
  3
HYPERLINKBASE
350
1AE2
  3
STYLESHEET
350
1AE3
  3
LAYOUTDICT
350
1AE4
  3
PLOTSETDICT
350
1AE5
  3
PLOTSTYLNAMDICT
350
1AE6
  3
LWETCUNION
350
1AE7
  3
INSUNITS
350
1AE8
  3
CEPSNTYPE
350
1AE9
  3
FINGERPRINTGUID
350
1AEA
  3
VERSIONGUID
350
1AEB
  3
PSVPSCALE
350
1AEC
  3
DIMSTYLEDATA
350
1AED
  3
PUCSORTHOREF
350
1AEE
  3
PUCSORTHOVIEW
350
1AEF
  3
PUCSBASE
350
1AF0
  3
PUCSORGTOP
350
1AF1
  3
PUCSORGBOTTOM
350
1AF2
  3
PUCSORGLEFT
350
1AF3
  3
PUCSORGRIGHT
350
1AF4
  3
PUCSORGFRONT
350
1AF5
  3
PUCSORGBACK
350
1AF6
  3
UCSORTHOREF
350
1AF7
  3
UCSORTHOVIEW
350
1AF8
  3
UCSBASE
350
1AF9
  3
UCSORGTOP
350
1AFA
  3
UCSORGBOTTOM
350
1AFB
  3
UCSORGLEFT
350
1AFC
  3
UCSORGRIGHT
350
1AFD
  3
UCSORGFRONT
350
1AFE
  3
UCSORGBACK
350
1AFF
  0
DICTIONARY
  5
1AD5
102
{ACAD_REACTORS
330
74
102
}
330
74
100
AcDbDictionary
  3
*A1
350
1AD6
  0
XRECORD
  5
1B02
102
{ACAD_REACTORS
330
74
102
}
330
74
100
AcDbXrecord
340
1F
  0
XRECORD
  5
1B08
102
{ACAD_REACTORS
330
1B07
102
}
330
1B07
100
AcDbXrecord
340
101
  0
MLINESTYLE
  5
18
102
{ACAD_REACTORS
330
17
102
}
330
17
100
AcDbMlineStyle
  2
STANDARD
 70
     0
  3

 62
   256
 51
90.0
 52
90.0
 71
     2
 49
0.5
 62
   256
  6
BYLAYER
 49
-0.5
 62
   256
  6
BYLAYER
  0
ACDBPLACEHOLDER
  5
F
102
{ACAD_REACTORS
330
E
102
}
330
E
100
AcDbPlaceHolder
280
     0
  0
DICTIONARYVAR
  5
35
102
{ACAD_REACTORS
330
34
102
}
330
34
100
DictionaryVariables
280
     0
  1
1
  0
DICTIONARYVAR
  5
B5E
102
{ACAD_REACTORS
330
34
102
}
330
34
100
DictionaryVariables
280
     0
  1
96
  0
DICTIONARY
  5
260
102
{ACAD_REACTORS
330
43
102
}
330
43
100
AcDbDictionary
  0
DICTIONARY
  5
2C
102
{ACAD_REACTORS
330
2B
102
}
330
2B
100
AcDbDictionary
  3
DWGSETTINGS
350
2D
  0
XRECORD
  5
1AE0
102
{ACAD_REACTORS
330
1ADF
102
}
330
1ADF
100
AcDbXrecord
 90
        1
  0
XRECORD
  5
1AE1
102
{ACAD_REACTORS
330
1ADF
102
}
330
1ADF
100
AcDbXrecord
 90
       70
  0
XRECORD
  5
1AE2
102
{ACAD_REACTORS
330
1ADF
102
}
330
1ADF
100
AcDbXrecord
  1

  0
XRECORD
  5
1AE3
102
{ACAD_REACTORS
330
1ADF
102
}
330
1ADF
100
AcDbXrecord
  1
ASAMI.ctb
  0
XRECORD
  5
1AE4
102
{ACAD_REACTORS
330
1ADF
102
}
330
1ADF
100
AcDbXrecord
340
1A
  0
XRECORD
  5
1AE5
102
{ACAD_REACTORS
330
1ADF
102
}
330
1ADF
100
AcDbXrecord
340
19
  0
XRECORD
  5
1AE6
102
{ACAD_REACTORS
330
1ADF
102
}
330
1ADF
100
AcDbXrecord
340
E
  0
XRECORD
  5
1AE7
102
{ACAD_REACTORS
330
1ADF
102
}
330
1ADF
100
AcDbXrecord
 90
    10781
  0
XRECORD
  5
1AE8
102
{ACAD_REACTORS
330
1ADF
102
}
330
1ADF
100
AcDbXrecord
 90
        4
  0
XRECORD
  5
1AE9
102
{ACAD_REACTORS
330
1ADF
102
}
330
1ADF
100
AcDbXrecord
 90
        0
  0
XRECORD
  5
1AEA
102
{ACAD_REACTORS
330
1ADF
102
}
330
1ADF
100
AcDbXrecord
  1
{AFB28963-8C59-40AE-9337-C84526B81ACE}
  0
XRECORD
  5
1AEB
102
{ACAD_REACTORS
330
1ADF
102
}
330
1ADF
100
AcDbXrecord
  1
{6B092F8A-11ED-44B6-B250-8E7ACDD688CD}
  0
XRECORD
  5
1AEC
102
{ACAD_REACTORS
330
1ADF
102
}
330
1ADF
100
AcDbXrecord
 40
0.0
  0
XRECORD
  5
1AED
102
{ACAD_REACTORS
330
1ADF
102
}
330
1ADF
100
AcDbXrecord
1000
DSTYLE
1002
{
1070
    79
 70
     2
1070
   341
340
59
1070
   342
340
59
1070
   371
 70
    -1
1070
   372
 70
    -1
1002
}
  0
XRECORD
  5
1AEE
102
{ACAD_REACTORS
330
1ADF
102
}
330
1ADF
100
AcDbXrecord
340
0
  0
XRECORD
  5
1AEF
102
{ACAD_REACTORS
330
1ADF
102
}
330
1ADF
100
AcDbXrecord
 70
     0
  0
XRECORD
  5
1AF0
102
{ACAD_REACTORS
330
1ADF
102
}
330
1ADF
100
AcDbXrecord
340
0
  0
XRECORD
  5
1AF1
102
{ACAD_REACTORS
330
1ADF
102
}
330
1ADF
100
AcDbXrecord
 10
0.0
 20
0.0
 30
0.0
  0
XRECORD
  5
1AF2
102
{ACAD_REACTORS
330
1ADF
102
}
330
1ADF
100
AcDbXrecord
 10
0.0
 20
0.0
 30
0.0
  0
XRECORD
  5
1AF3
102
{ACAD_REACTORS
330
1ADF
102
}
330
1ADF
100
AcDbXrecord
 10
0.0
 20
0.0
 30
0.0
  0
XRECORD
  5
1AF4
102
{ACAD_REACTORS
330
1ADF
102
}
330
1ADF
100
AcDbXrecord
 10
0.0
 20
0.0
 30
0.0
  0
XRECORD
  5
1AF5
102
{ACAD_REACTORS
330
1ADF
102
}
330
1ADF
100
AcDbXrecord
 10
0.0
 20
0.0
 30
0.0
  0
XRECORD
  5
1AF6
102
{ACAD_REACTORS
330
1ADF
102
}
330
1ADF
100
AcDbXrecord
 10
0.0
 20
0.0
 30
0.0
  0
XRECORD
  5
1AF7
102
{ACAD_REACTORS
330
1ADF
102
}
330
1ADF
100
AcDbXrecord
340
0
  0
XRECORD
  5
1AF8
102
{ACAD_REACTORS
330
1ADF
102
}
330
1ADF
100
AcDbXrecord
 70
     0
  0
XRECORD
  5
1AF9
102
{ACAD_REACTORS
330
1ADF
102
}
330
1ADF
100
AcDbXrecord
340
0
  0
XRECORD
  5
1AFA
102
{ACAD_REACTORS
330
1ADF
102
}
330
1ADF
100
AcDbXrecord
 10
0.0
 20
0.0
 30
0.0
  0
XRECORD
  5
1AFB
102
{ACAD_REACTORS
330
1ADF
102
}
330
1ADF
100
AcDbXrecord
 10
0.0
 20
0.0
 30
0.0
  0
XRECORD
  5
1AFC
102
{ACAD_REACTORS
330
1ADF
102
}
330
1ADF
100
AcDbXrecord
 10
0.0
 20
0.0
 30
0.0
  0
XRECORD
  5
1AFD
102
{ACAD_REACTORS
330
1ADF
102
}
330
1ADF
100
AcDbXrecord
 10
0.0
 20
0.0
 30
0.0
  0
XRECORD
  5
1AFE
102
{ACAD_REACTORS
330
1ADF
102
}
330
1ADF
100
AcDbXrecord
 10
0.0
 20
0.0
 30
0.0
  0
XRECORD
  5
1AFF
102
{ACAD_REACTORS
330
1ADF
102
}
330
1ADF
100
AcDbXrecord
 10
0.0
 20
0.0
 30
0.0
  0
LAYER_INDEX
  5
1AD6
102
{ACAD_REACTORS
330
1AD5
102
}
330
1AD5
100
AcDbIndex
 40
2453152.441922616
100
AcDbLayerIndex
  8
0
360
1AD7
 90
        0
  8
AM_0
360
1AD8
 90
       64
  8
AM_11
360
1AD9
 90
        3
  8
AM_7
360
1ADA
 90
        1
  8
AM_5
360
1ADB
 90
        4
  8
Defpoints
360
1ADC
 90
        0
  8
AM_6
360
1ADD
 90
        1
  0
XRECORD
  5
2D
102
{ACAD_REACTORS
330
2C
102
}
330
2C
100
AcDbXrecord
  1
VERSION
140
15.0
  1
PRODUCT
  2
AutoCAD Mechanical 2000
  0
IDBUFFER
  5
1AD7
330
0
100
AcDbIdBuffer
  0
IDBUFFER
  5
1AD8
330
0
100
AcDbIdBuffer
330
17B1
330
17B2
330
17B4
330
17B5
330
17B6
330
17B7
330
17B8
330
17B9
330
17BA
330
17BB
330
17CE
330
17E6
330
17E7
330
17E8
330
18EA
330
19F3
330
16D7
330
16D8
330
16DA
330
16DB
330
1707
330
170A
330
1768
330
1769
330
176A
330
176B
330
176C
330
176D
330
176E
330
176F
330
1770
330
1771
330
1772
330
1773
330
1774
330
1775
330
1776
330
1777
330
1778
330
1786
330
1787
330
1788
330
1789
330
178A
330
178B
330
178C
330
178D
330
178E
330
178F
330
1790
330
1791
330
1792
330
1793
330
1794
330
1795
330
1796
330
1797
330
1798
330
1799
330
179A
330
179B
330
179C
330
179D
330
17B0
  0
IDBUFFER
  5
1AD9
330
0
100
AcDbIdBuffer
330
17B3
330
17BC
330
17BD
  0
IDBUFFER
  5
1ADA
330
0
100
AcDbIdBuffer
330
132B
  0
IDBUFFER
  5
1ADB
330
0
100
AcDbIdBuffer
330
13B3
330
145B
330
16DD
330
1779
  0
IDBUFFER
  5
1ADC
330
0
100
AcDbIdBuffer
  0
IDBUFFER
  5
1ADD
330
0
100
AcDbIdBuffer
330
E5A
  0
ENDSEC
  0
EOF
