  0
SECTION
  2
HEADER
  9
$ACADVER
  1
AC1014
  9
$ACADMAINTVER
 70
     9
  9
$DWGCODEPAGE
  3
ANSI_932
  9
$INSBASE
 10
0.0
 20
0.0
 30
0.0
  9
$EXTMIN
 10
-113.6999999999998
 20
-56.50000099999966
 30
-0.00000001
  9
$EXTMAX
 10
15.00000000000043
 20
9.04884810506455
 30
0.00000001
  9
$LIMMIN
 10
-120.4678844982326
 20
-64.80706836834187
  9
$LIMMAX
 10
25.75196630140777
 20
19.39188064251806
  9
$ORTHOMODE
 70
     0
  9
$REGENMODE
 70
     1
  9
$FILLMODE
 70
     1
  9
$QTEXTMODE
 70
     0
  9
$MIRRTEXT
 70
     0
  9
$DRAGMODE
 70
     2
  9
$LTSCALE
 40
1.0
  9
$OSMODE
 70
    55
  9
$ATTMODE
 70
     1
  9
$TEXTSIZE
 40
2.5
  9
$TRACEWID
 40
1.0
  9
$TEXTSTYLE
  7
STANDARD
  9
$CLAYER
  8
AM_0
  9
$CELTYPE
  6
BYLAYER
  9
$CECOLOR
 62
   256
  9
$CELTSCALE
 40
1.0
  9
$DELOBJ
 70
     1
  9
$DISPSILH
 70
     0
  9
$DIMSCALE
 40
1.0
  9
$DIMASZ
 40
2.5
  9
$DIMEXO
 40
1.0
  9
$DIMDLI
 40
12.0
  9
$DIMRND
 40
0.0
  9
$DIMDLE
 40
0.0
  9
$DIMEXE
 40
1.0
  9
$DIMTP
 40
0.1
  9
$DIMTM
 40
0.1
  9
$DIMTXT
 40
3.2
  9
$DIMCEN
 40
0.0
  9
$DIMTSZ
 40
0.0
  9
$DIMTOL
 70
     0
  9
$DIMLIM
 70
     0
  9
$DIMTIH
 70
     0
  9
$DIMTOH
 70
     0
  9
$DIMSE1
 70
     0
  9
$DIMSE2
 70
     0
  9
$DIMTAD
 70
     3
  9
$DIMZIN
 70
     8
  9
$DIMBLK
  1
OPEN30
  9
$DIMASO
 70
     1
  9
$DIMSHO
 70
     1
  9
$DIMPOST
  1

  9
$DIMAPOST
  1
"
  9
$DIMALT
 70
     0
  9
$DIMALTD
 70
     2
  9
$DIMALTF
 40
0.0393701
  9
$DIMLFAC
 40
1.0
  9
$DIMTOFL
 70
     1
  9
$DIMTVP
 40
0.0
  9
$DIMTIX
 70
     0
  9
$DIMSOXD
 70
     0
  9
$DIMSAH
 70
     0
  9
$DIMBLK1
  1

  9
$DIMBLK2
  1

  9
$DIMSTYLE
  2
AM_JIS
  9
$DIMCLRD
 70
   256
  9
$DIMCLRE
 70
   256
  9
$DIMCLRT
 70
     2
  9
$DIMTFAC
 40
0.71
  9
$DIMGAP
 40
1.5
  9
$DIMJUST
 70
     0
  9
$DIMSD1
 70
     0
  9
$DIMSD2
 70
     0
  9
$DIMTOLJ
 70
     0
  9
$DIMTZIN
 70
     0
  9
$DIMALTZ
 70
     0
  9
$DIMALTTZ
 70
     0
  9
$DIMFIT
 70
     3
  9
$DIMUPT
 70
     0
  9
$DIMUNIT
 70
     2
  9
$DIMDEC
 70
     3
  9
$DIMTDEC
 70
     3
  9
$DIMALTU
 70
     2
  9
$DIMALTTD
 70
     2
  9
$DIMTXSTY
  7
ASAMI
  9
$DIMAUNIT
 70
     0
  9
$LUNITS
 70
     2
  9
$LUPREC
 70
     2
  9
$SKETCHINC
 40
1.0
  9
$FILLETRAD
 40
2.5
  9
$AUNITS
 70
     0
  9
$AUPREC
 70
     0
  9
$MENU
  1
.
  9
$ELEVATION
 40
0.0
  9
$PELEVATION
 40
0.0
  9
$THICKNESS
 40
0.0
  9
$LIMCHECK
 70
     0
  9
$BLIPMODE
 70
     0
  9
$CHAMFERA
 40
1.0
  9
$CHAMFERB
 40
1.0
  9
$CHAMFERC
 40
20.0
  9
$CHAMFERD
 40
0.0
  9
$SKPOLY
 70
     0
  9
$TDCREATE
 40
2452836.771637361
  9
$TDUPDATE
 40
2453152.442537685
  9
$TDINDWG
 40
0.0670496875
  9
$TDUSRTIMER
 40
0.0670496875
  9
$USRTIMER
 70
     1
  9
$ANGBASE
 50
0.0
  9
$ANGDIR
 70
     0
  9
$PDMODE
 70
     0
  9
$PDSIZE
 40
0.0
  9
$PLINEWID
 40
0.0
  9
$COORDS
 70
     1
  9
$SPLFRAME
 70
     0
  9
$SPLINETYPE
 70
     6
  9
$SPLINESEGS
 70
     8
  9
$ATTDIA
 70
     1
  9
$ATTREQ
 70
     1
  9
$HANDLING
 70
 12289
  9
$HANDSEED
  5
25DE
  9
$SURFTAB1
 70
     6
  9
$SURFTAB2
 70
     6
  9
$SURFTYPE
 70
     6
  9
$SURFU
 70
     6
  9
$SURFV
 70
     6
  9
$UCSNAME
  2

  9
$UCSORG
 10
0.0
 20
0.0
 30
0.0
  9
$UCSXDIR
 10
1.0
 20
0.0
 30
0.0
  9
$UCSYDIR
 10
0.0
 20
1.0
 30
0.0
  9
$PUCSNAME
  2

  9
$PUCSORG
 10
0.0
 20
0.0
 30
0.0
  9
$PUCSXDIR
 10
1.0
 20
0.0
 30
0.0
  9
$PUCSYDIR
 10
0.0
 20
1.0
 30
0.0
  9
$USERI1
 70
     0
  9
$USERI2
 70
     0
  9
$USERI3
 70
     0
  9
$USERI4
 70
     0
  9
$USERI5
 70
     0
  9
$USERR1
 40
0.0
  9
$USERR2
 40
0.0
  9
$USERR3
 40
0.0
  9
$USERR4
 40
0.0
  9
$USERR5
 40
0.0
  9
$WORLDVIEW
 70
     1
  9
$SHADEDGE
 70
     3
  9
$SHADEDIF
 70
    70
  9
$TILEMODE
 70
     1
  9
$MAXACTVP
 70
    64
  9
$PINSBASE
 10
0.0
 20
0.0
 30
0.0
  9
$PLIMCHECK
 70
     0
  9
$PEXTMIN
 10
1.000000000000000E+20
 20
1.000000000000000E+20
 30
1.000000000000000E+20
  9
$PEXTMAX
 10
-1.000000000000000E+20
 20
-1.000000000000000E+20
 30
-1.000000000000000E+20
  9
$PLIMMIN
 10
0.0
 20
0.0
  9
$PLIMMAX
 10
841.0
 20
594.0
  9
$UNITMODE
 70
     0
  9
$VISRETAIN
 70
     1
  9
$PLINEGEN
 70
     0
  9
$PSLTSCALE
 70
     0
  9
$TREEDEPTH
 70
  3020
  9
$PICKSTYLE
 70
     0
  9
$CMLSTYLE
  2
STANDARD
  9
$CMLJUST
 70
     0
  9
$CMLSCALE
 40
20.0
  9
$PROXYGRAPHICS
 70
     1
  9
$MEASUREMENT
 70
     1
  0
ENDSEC
  0
SECTION
  2
CLASSES
  0
CLASS
  1
ACDBDICTIONARYWDFLT
  2
AcDbDictionaryWithDefault
  3
AutoCAD 2000
 90
        0
280
     0
281
     0
  0
CLASS
  1
ACDBPLACEHOLDER
  2
AcDbPlaceHolder
  3
AutoCAD 2000
 90
        0
280
     0
281
     0
  0
CLASS
  1
LAYOUT
  2
AcDbLayout
  3
AutoCAD 2000
 90
        0
280
     0
281
     0
  0
CLASS
  1
AMGSETTINGSOBJ
  2
AmgSettingsObj
  3
"AcadM|Product Description: AutoCAD Mechanical 2000|Company: Autodesk"
 90
        0
280
     0
281
     0
  0
CLASS
  1
ACME_DOCUMENT
  2
AcMeDbDoc
  3
AcMeServices
 90
        0
280
     0
281
     0
  0
CLASS
  1
ACMESCOPE
  2
AcMeScope
  3
AcMeServices
 90
        0
280
     0
281
     0
  0
CLASS
  1
ACMECOMMANDHISTORY
  2
AcMeCommandHistory
  3
AcMeServices
 90
        0
280
     0
281
     0
  0
CLASS
  1
DICTIONARYVAR
  2
AcDbDictionaryVar
  3
AutoCAD 2000
 90
        0
280
     0
281
     0
  0
CLASS
  1
ACIMSYSVARMAN
  2
AcImSysVarManager
  3
AcMeServices
 90
        0
280
     0
281
     0
  0
CLASS
  1
ACIMREALSYSVAR
  2
AcImRealSysVar
  3
AcMeServices
 90
        0
280
     0
281
     0
  0
CLASS
  1
ACIMINTSYSVAR
  2
AcImIntSysVar
  3
AcMeServices
 90
        0
280
     0
281
     0
  0
CLASS
  1
ACMEDRAWINGMAN
  2
AcMeDrawingMan
  3
AcMeServices
 90
        0
280
     0
281
     0
  0
CLASS
  1
ACMEVIEW
  2
AcMeView
  3
AcMeServices
 90
        0
280
     0
281
     0
  0
CLASS
  1
ACDBENTITYCACHE
  2
AcMeEntityCache
  3
AcMeServices
 90
        0
280
     0
281
     0
  0
CLASS
  1
GSMANAGER
  2
AcMeGSManager
  3
AcMeServices
 90
        0
280
     0
281
     0
  0
CLASS
  1
AmdtInternalReactor
  2
AmdtInternalReactor
  3
AcMeServices
 90
        0
280
     0
281
     0
  0
CLASS
  1
ACMESTATEMGR
  2
AcMeStateMgr
  3
AcMeServices
 90
        0
280
     0
281
     0
  0
CLASS
  1
ACME_DATABASE
  2
AcMeDbDatabase
  3
AcMeServices
 90
        0
280
     0
281
     0
  0
CLASS
  1
ACRFINSADJUSTERMGR
  2
AcRfInsAdjusterMgr
  3
AcMeServices
 90
        0
280
     0
281
     0
  0
CLASS
  1
ACMDATADICTIONARY
  2
AcmDataDictionary
  3
"AcmSymBB|Product Description: AutoCAD Mechanical 2000|Company: Autodesk"
 90
        0
280
     0
281
     0
  0
CLASS
  1
ACMDATAENTRYBLOCK
  2
AcmDataEntryBlock
  3
"AcmSymBB|Product Description: AutoCAD Mechanical 2000|Company: Autodesk"
 90
        0
280
     0
281
     0
  0
CLASS
  1
AMGOBJPROPCFG
  2
AmgObjPropCfg
  3
"AmgLay|Product Description: AutoCAD Mechanical 2000|Company: Autodesk"
 90
        1
280
     0
281
     0
  0
CLASS
  1
ACAMGFILTERDAT
  2
AcAmgFilterDat
  3
"AcadM|Product Description: AutoCAD Mechanical 2000|Company: Autodesk"
 90
        0
280
     0
281
     0
  0
CLASS
  1
LAYER_INDEX
  2
AcDbLayerIndex
  3
AutoCAD 2000
 90
        0
280
     0
281
     0
  0
CLASS
  1
IDBUFFER
  2
AcDbIdBuffer
  3
AutoCAD 2000
 90
        0
280
     0
281
     0
  0
CLASS
  1
ACIMSTRSYSVAR
  2
AcImStrSysVar
  3
AcMeServices
 90
        0
280
     0
281
     0
  0
CLASS
  1
ACMSTANDARDJIS
  2
AcmStandardJIS
  3
"AcmSymBB|Product Description: AutoCAD Mechanical 2000|Company: Autodesk"
 90
        0
280
     0
281
     0
  0
CLASS
  1
ACMSURFSTANDARDJIS
  2
AcmSurfTextStdJIS
  3
"AcmSymBB|Product Description: AutoCAD Mechanical 2000|Company: Autodesk"
 90
        0
280
     0
281
     0
  0
CLASS
  1
ACMFCFSTANDARDJIS
  2
AcmFCFStdJIS
  3
"AcmSymBB|Product Description: AutoCAD Mechanical 2000|Company: Autodesk"
 90
        0
280
     0
281
     0
  0
CLASS
  1
ACMWELDSTANDARDJIS
  2
AcmWeldingStdJIS
  3
"AcmSymBB|Product Description: AutoCAD Mechanical 2000|Company: Autodesk"
 90
        0
280
     0
281
     0
  0
CLASS
  1
ACMIDSTANDARDJIS
  2
AcmIdStdJIS
  3
"AcmSymBB|Product Description: AutoCAD Mechanical 2000|Company: Autodesk"
 90
        0
280
     0
281
     0
  0
CLASS
  1
ACMDATUMSTANDARDJIS
  2
AcmDatumStdJIS
  3
"AcmSymBB|Product Description: AutoCAD Mechanical 2000|Company: Autodesk"
 90
        0
280
     0
281
     0
  0
CLASS
  1
ACMBOMSTANDARDJIS
  2
AcmBOMStdJIS
  3
"AcmSymBB|Product Description: AutoCAD Mechanical 2000|Company: Autodesk"
 90
        0
280
     0
281
     0
  0
CLASS
  1
ACMSTANDARDANSI
  2
AcmStandardANSI
  3
"AcmSymBB|Product Description: AutoCAD Mechanical 2000|Company: Autodesk"
 90
        0
280
     0
281
     0
  0
CLASS
  1
ACMSURFSTANDARDANSI
  2
AcmSurfTextStdANSI
  3
"AcmSymBB|Product Description: AutoCAD Mechanical 2000|Company: Autodesk"
 90
        0
280
     0
281
     0
  0
CLASS
  1
ACMFCFSTANDARDANSI
  2
AcmFCFStdANSI
  3
"AcmSymBB|Product Description: AutoCAD Mechanical 2000|Company: Autodesk"
 90
        0
280
     0
281
     0
  0
CLASS
  1
ACMWELDSTANDARDANSI
  2
AcmWeldingStdANSI
  3
"AcmSymBB|Product Description: AutoCAD Mechanical 2000|Company: Autodesk"
 90
        0
280
     0
281
     0
  0
CLASS
  1
ACMIDSTANDARDANSI
  2
AcmIdStdANSI
  3
"AcmSymBB|Product Description: AutoCAD Mechanical 2000|Company: Autodesk"
 90
        0
280
     0
281
     0
  0
CLASS
  1
ACMDATUMSTANDARDANSI
  2
AcmDatumStdANSI
  3
"AcmSymBB|Product Description: AutoCAD Mechanical 2000|Company: Autodesk"
 90
        0
280
     0
281
     0
  0
CLASS
  1
ACMBOMSTANDARDANSI
  2
AcmBOMStdANSI
  3
"AcmSymBB|Product Description: AutoCAD Mechanical 2000|Company: Autodesk"
 90
        0
280
     0
281
     0
  0
CLASS
  1
ACMSTANDARDBSI
  2
AcmStandardBSI
  3
"AcmSymBB|Product Description: AutoCAD Mechanical 2000|Company: Autodesk"
 90
        0
280
     0
281
     0
  0
CLASS
  1
ACMSURFSTANDARDBSI
  2
AcmSurfTextStdBSI
  3
"AcmSymBB|Product Description: AutoCAD Mechanical 2000|Company: Autodesk"
 90
        0
280
     0
281
     0
  0
CLASS
  1
ACMFCFSTANDARDBSI
  2
AcmFCFStdBSI
  3
"AcmSymBB|Product Description: AutoCAD Mechanical 2000|Company: Autodesk"
 90
        0
280
     0
281
     0
  0
CLASS
  1
ACMWELDSTANDARDBSI
  2
AcmWeldingStdBSI
  3
"AcmSymBB|Product Description: AutoCAD Mechanical 2000|Company: Autodesk"
 90
        0
280
     0
281
     0
  0
CLASS
  1
ACMIDSTANDARDBSI
  2
AcmIdStdBSI
  3
"AcmSymBB|Product Description: AutoCAD Mechanical 2000|Company: Autodesk"
 90
        0
280
     0
281
     0
  0
CLASS
  1
ACMDATUMSTANDARDBSI
  2
AcmDatumStdBSI
  3
"AcmSymBB|Product Description: AutoCAD Mechanical 2000|Company: Autodesk"
 90
        0
280
     0
281
     0
  0
CLASS
  1
ACMBOMSTANDARDBSI
  2
AcmBOMStdBSI
  3
"AcmSymBB|Product Description: AutoCAD Mechanical 2000|Company: Autodesk"
 90
        0
280
     0
281
     0
  0
CLASS
  1
LONG_TRANSACTION
  2
AcDbLongTransaction
  3
AutoCAD 2000
 90
        0
280
     0
281
     0
  0
CLASS
  1
LWPOLYLINE
  2
AcDbPolyline
  3
AutoCAD 2000
 90
        0
280
     0
281
     1
  0
CLASS
  1
HATCH
  2
AcDbHatch
  3
AutoCAD 2000
 90
        0
280
     0
281
     1
  0
CLASS
  1
XRECORD
  2
AcDbXrecord
  3
AutoCAD 2000
 90
        0
280
     0
281
     0
  0
ENDSEC
  0
SECTION
  2
TABLES
  0
TABLE
  2
VPORT
  5
8
330
0
100
AcDbSymbolTable
 70
     3
  0
VPORT
  5
25B3
330
8
100
AcDbSymbolTableRecord
100
AcDbViewportTableRecord
  2
*ACTIVE
 70
     0
 10
0.0
 20
0.0
 11
1.0
 21
1.0
 12
-49.34924930042697
 22
-23.72577706483221
 13
0.0
 23
0.0
 14
2.5
 24
2.5
 15
10.0
 25
10.0
 16
0.0
 26
0.0
 36
1.0
 17
0.0
 27
0.0
 37
0.0
 40
82.5397578457651
 41
1.56570841889117
 42
50.0
 43
0.0
 44
0.0
 50
0.0
 51
0.0
 71
     0
 72
   100
 73
     1
 74
     3
 75
     0
 76
     0
 77
     0
 78
     0
  0
ENDTAB
  0
TABLE
  2
LTYPE
  5
5
330
0
100
AcDbSymbolTable
 70
    10
  0
LTYPE
  5
14
330
5
100
AcDbSymbolTableRecord
100
AcDbLinetypeTableRecord
  2
BYBLOCK
 70
     0
  3

 72
    65
 73
     0
 40
0.0
  0
LTYPE
  5
15
330
5
100
AcDbSymbolTableRecord
100
AcDbLinetypeTableRecord
  2
BYLAYER
 70
     0
  3

 72
    65
 73
     0
 40
0.0
  0
LTYPE
  5
16
330
5
100
AcDbSymbolTableRecord
100
AcDbLinetypeTableRecord
  2
CONTINUOUS
 70
     0
  3
Solid line
 72
    65
 73
     0
 40
0.0
  0
LTYPE
  5
4B
330
5
100
AcDbSymbolTableRecord
100
AcDbLinetypeTableRecord
  2
AM_ISO02W050
 70
     0
  3
__ __ __ __ __ __ __ __ __ __ __ __ __ __ __
 72
    65
 73
     2
 40
7.5
 49
6.0
 74
     0
 49
-1.5
 74
     0
  0
LTYPE
  5
4C
330
5
100
AcDbSymbolTableRecord
100
AcDbLinetypeTableRecord
  2
AM_ISO08W050
 70
     0
  3
____ . ____ . ____ . ____ . ____ . ____ . ____
 72
    65
 73
     4
 40
18.0
 49
12.0
 74
     0
 49
-1.5
 74
     0
 49
3.0
 74
     0
 49
-1.5
 74
     0
  0
LTYPE
  5
4D
330
5
100
AcDbSymbolTableRecord
100
AcDbLinetypeTableRecord
  2
AM_ISO09W050
 70
     0
  3
_____ . . _____ . . _____ . . ____ .. ____
 72
    65
 73
     6
 40
22.5
 49
12.0
 74
     0
 49
-1.5
 74
     0
 49
3.0
 74
     0
 49
-1.5
 74
     0
 49
3.0
 74
     0
 49
-1.5
 74
     0
  0
LTYPE
  5
4E
330
5
100
AcDbSymbolTableRecord
100
AcDbLinetypeTableRecord
  2
AMCONSTR
 70
     0
  3
_______________________
 72
    65
 73
     2
 40
9999.0
 49
9999.0
 74
     0
 49
0.0
 74
     0
  0
LTYPE
  5
4F
330
5
100
AcDbSymbolTableRecord
100
AcDbLinetypeTableRecord
  2
AM_ISO02W050X2
 70
     0
  3
 _ _ _ _ _ _ _ _ _ _ _ _
 72
    65
 73
     2
 40
3.75
 49
3.0
 74
     0
 49
-0.75
 74
     0
  0
LTYPE
  5
50
330
5
100
AcDbSymbolTableRecord
100
AcDbLinetypeTableRecord
  2
AM_ISO08W050X2
 70
     0
  3
__ . __ . __ . __ . __ . __
 72
    65
 73
     4
 40
9.0
 49
6.0
 74
     0
 49
-0.75
 74
     0
 49
1.5
 74
     0
 49
-0.75
 74
     0
  0
LTYPE
  5
53
330
5
100
AcDbSymbolTableRecord
100
AcDbLinetypeTableRecord
  2
AMZIGZAG
 70
     0
  3
/\/-/\/-/\/-/\/-/\/-/\/
 72
    65
 73
     2
 40
11.00009999999999
 49
0.0001
 74
     4
 75
   135
340
52
 46
0.04
 50
0.0
 44
0.0
 45
0.0
 49
-11.0
 74
     0
  0
LTYPE
  5
166
330
5
100
AcDbSymbolTableRecord
100
AcDbLinetypeTableRecord
  2
ACJISTGL
 70
     0
  3
_ _ _ _ _
 72
    65
 73
     2
 40
3.0
 49
2.0
 74
     0
 49
-1.0
 74
     0
  0
LTYPE
  5
26A
330
5
100
AcDbSymbolTableRecord
100
AcDbLinetypeTableRecord
  2
ACJISTGB
 70
     0
  3
__ . . __ . .
 72
    65
 73
     6
 40
9.0
 49
4.0
 74
     0
 49
-1.0
 74
     0
 49
1.0
 74
     0
 49
-1.0
 74
     0
 49
1.0
 74
     0
 49
-1.0
 74
     0
  0
ENDTAB
  0
TABLE
  2
LAYER
  5
2
330
0
100
AcDbSymbolTable
 70
     7
  0
LAYER
  5
10
330
2
100
AcDbSymbolTableRecord
100
AcDbLayerTableRecord
  2
0
 70
     0
 62
     7
  6
CONTINUOUS
  0
LAYER
  5
3F9
330
2
100
AcDbSymbolTableRecord
100
AcDbLayerTableRecord
  2
AM_0
 70
     0
 62
     7
  6
CONTINUOUS
  0
LAYER
  5
BD4
330
2
100
AcDbSymbolTableRecord
100
AcDbLayerTableRecord
  2
AM_11
 70
     0
 62
     3
  6
AM_ISO09W050
  0
LAYER
  5
BD5
330
2
100
AcDbSymbolTableRecord
100
AcDbLayerTableRecord
  2
AM_7
 70
     0
 62
     4
  6
AM_ISO08W050
  0
LAYER
  5
BD6
330
2
100
AcDbSymbolTableRecord
100
AcDbLayerTableRecord
  2
AM_5
 70
     0
 62
     3
  6
CONTINUOUS
  0
LAYER
  5
BD7
330
2
100
AcDbSymbolTableRecord
100
AcDbLayerTableRecord
  2
DEFPOINTS
 70
     0
 62
     7
  6
CONTINUOUS
  0
LAYER
  5
E59
330
2
100
AcDbSymbolTableRecord
100
AcDbLayerTableRecord
  2
AM_6
 70
     0
 62
     2
  6
CONTINUOUS
  0
ENDTAB
  0
TABLE
  2
STYLE
  5
3
330
0
100
AcDbSymbolTable
 70
     5
  0
STYLE
  5
11
330
3
100
AcDbSymbolTableRecord
100
AcDbTextStyleTableRecord
  2
STANDARD
 70
     0
 40
0.0
 41
1.0
 50
0.0
 71
     0
 42
2.5
  3
simplex.shx
  4
EXTFONT.SHX
  0
STYLE
  5
52
330
3
100
AcDbSymbolTableRecord
100
AcDbTextStyleTableRecord
  2

 70
     1
 40
0.0
 41
1.0
 50
0.0
 71
     0
 42
2.5
  3
ltypeshp.shx
  4

  0
STYLE
  5
6B
330
3
100
AcDbSymbolTableRecord
100
AcDbTextStyleTableRecord
  2
ASAMI
 70
     0
 40
0.0
 41
1.0
 50
0.0
 71
     0
 42
2.5
  3
simplex.shx
  4
EXTFONT.SHX
  0
STYLE
  5
262
330
3
100
AcDbSymbolTableRecord
100
AcDbTextStyleTableRecord
  2
ACJISTS
 70
     0
 40
1.0
 41
1.0
 50
0.0
 71
     0
 42
2.5
  3
simplex.shx
  4
bigfont.shx
  0
STYLE
  5
269
330
3
100
AcDbSymbolTableRecord
100
AcDbTextStyleTableRecord
  2
ACJISGDT
 70
     0
 40
0.0
 41
1.0
 50
0.0
 71
     0
 42
2.5
  3
amgdtans.shx
  4

  0
ENDTAB
  0
TABLE
  2
VIEW
  5
6
330
0
100
AcDbSymbolTable
 70
     0
  0
ENDTAB
  0
TABLE
  2
UCS
  5
7
330
0
100
AcDbSymbolTable
 70
     0
  0
ENDTAB
  0
TABLE
  2
APPID
  5
9
330
0
100
AcDbSymbolTable
 70
    12
  0
APPID
  5
12
330
9
100
AcDbSymbolTableRecord
100
AcDbRegAppTableRecord
  2
ACAD
 70
     0
  0
APPID
  5
30
330
9
100
AcDbSymbolTableRecord
100
AcDbRegAppTableRecord
  2
MCAD_NO_VIS
 70
     0
  0
APPID
  5
31
330
9
100
AcDbSymbolTableRecord
100
AcDbRegAppTableRecord
  2
ACAD_TEMP_GRAPHIC
 70
     0
  0
APPID
  5
2C2
330
9
100
AcDbSymbolTableRecord
100
AcDbRegAppTableRecord
  2
GENIUS_GENDTOL_13
 70
     0
  0
APPID
  5
339
330
9
100
AcDbSymbolTableRecord
100
AcDbRegAppTableRecord
  2
GENIUS_GENODEF_13
 70
     0
  0
APPID
  5
33A
330
9
100
AcDbSymbolTableRecord
100
AcDbRegAppTableRecord
  2
GENIUS_GENOBJ-N-RSBK_13
 70
     0
  0
APPID
  5
33B
330
9
100
AcDbSymbolTableRecord
100
AcDbRegAppTableRecord
  2
GENIUS_GENOBJ-N-LIB_13
 70
     0
  0
APPID
  5
33C
330
9
100
AcDbSymbolTableRecord
100
AcDbRegAppTableRecord
  2
GENIUS_GENSCALE_13
 70
     0
  0
APPID
  5
378
330
9
100
AcDbSymbolTableRecord
100
AcDbRegAppTableRecord
  2
GENIUS_GENDIMSH_14
 70
     0
  0
APPID
  5
BD8
330
9
100
AcDbSymbolTableRecord
100
AcDbRegAppTableRecord
  2
GENIUS_GENOBJ-N-CEN_13
 70
     0
  0
APPID
  5
BD9
330
9
100
AcDbSymbolTableRecord
100
AcDbRegAppTableRecord
  2
GENIUS_GENFIL_13
 70
     0
  0
APPID
  5
BDA
330
9
100
AcDbSymbolTableRecord
100
AcDbRegAppTableRecord
  2
GENIUS_GENOBJ-N-CHA_13
 70
     0
  0
ENDTAB
  0
TABLE
  2
DIMSTYLE
  5
A
330
0
100
AcDbSymbolTable
 70
     8
  0
DIMSTYLE
105
58
102
{ACAD_REACTORS
330
13B3
330
145B
330
1920
330
1A14
102
}
330
A
100
AcDbSymbolTableRecord
100
AcDbDimStyleTableRecord
  2
AM_JIS
 70
     0
  3

  4
"
  5
OPEN30
  6

  7

 40
1.0
 41
2.5
 42
1.0
 43
12.0
 44
1.0
 45
0.0
 46
0.0
 47
0.1
 48
0.1
140
3.2
141
0.0
142
0.0
143
0.0393701
144
1.0
145
0.0
146
0.71
147
1.5
 71
     0
 72
     0
 73
     0
 74
     0
 75
     0
 76
     0
 77
     3
 78
     8
170
     0
171
     2
172
     1
173
     0
174
     0
175
     0
176
   256
177
   256
178
     2
270
     2
271
     3
272
     3
273
     2
274
     2
340
6B
275
     0
280
     0
281
     0
282
     0
283
     0
284
     0
285
     0
286
     0
287
     3
288
     0
  0
DIMSTYLE
105
5F
330
A
100
AcDbSymbolTableRecord
100
AcDbDimStyleTableRecord
  2
AM_JIS$3
 70
     0
  3

  4
"
  5
OPEN30
  6

  7

 40
1.0
 41
2.5
 42
1.0
 43
10.0
 44
1.0
 45
0.0
 46
0.0
 47
0.1
 48
0.1
140
3.2
141
0.0
142
0.0
143
0.0393701
144
1.0
145
0.0
146
0.71
147
1.5
 71
     0
 72
     0
 73
     0
 74
     1
 75
     0
 76
     0
 77
     3
 78
     8
170
     0
171
     2
172
     0
173
     0
174
     0
175
     0
176
   256
177
   256
178
     2
270
     2
271
     2
272
     3
273
     2
274
     2
340
6B
275
     0
280
     0
281
     0
282
     0
283
     0
284
     0
285
     0
286
     0
287
     0
288
     1
  0
DIMSTYLE
105
60
330
A
100
AcDbSymbolTableRecord
100
AcDbDimStyleTableRecord
  2
AM_JIS$4
 70
     0
  3

  4
"
  5
OPEN30
  6

  7

 40
1.0
 41
2.5
 42
1.0
 43
10.0
 44
1.0
 45
0.0
 46
0.0
 47
0.1
 48
0.1
140
3.2
141
0.0
142
0.0
143
0.0393701
144
1.0
145
0.0
146
0.71
147
1.5
 71
     0
 72
     0
 73
     0
 74
     1
 75
     0
 76
     0
 77
     3
 78
     8
170
     0
171
     2
172
     0
173
     0
174
     0
175
     0
176
   256
177
   256
178
     2
270
     2
271
     2
272
     3
273
     2
274
     2
340
6B
275
     0
280
     0
281
     0
282
     0
283
     0
284
     0
285
     0
286
     0
287
     0
288
     1
  0
DIMSTYLE
105
61
330
A
100
AcDbSymbolTableRecord
100
AcDbDimStyleTableRecord
  2
AM_JIS$6
 70
     0
  3

  4
"
  5
OPEN30
  6

  7

 40
1.0
 41
2.5
 42
1.0
 43
10.0
 44
1.0
 45
0.0
 46
0.0
 47
0.1
 48
0.1
140
3.2
141
0.0
142
0.0
143
0.0393701
144
1.0
145
0.0
146
0.71
147
1.5
 71
     0
 72
     0
 73
     0
 74
     0
 75
     0
 76
     0
 77
     0
 78
     8
170
     0
171
     2
172
     1
173
     0
174
     0
175
     0
176
   256
177
   256
178
     2
270
     2
271
     2
272
     2
273
     2
274
     2
340
6B
275
     0
280
     0
281
     0
282
     0
283
     0
284
     0
285
     0
286
     0
287
     3
288
     0
  0
DIMSTYLE
105
62
330
A
100
AcDbSymbolTableRecord
100
AcDbDimStyleTableRecord
  2
AM_JIS$7
 70
     0
  3

  4
"
  5
OPEN30
  6

  7

 40
1.0
 41
2.5
 42
1.0
 43
10.0
 44
1.0
 45
0.0
 46
0.0
 47
0.1
 48
0.1
140
3.2
141
0.0
142
0.0
143
0.0393701
144
1.0
145
0.0
146
0.71
147
1.5
 71
     0
 72
     0
 73
     0
 74
     0
 75
     0
 76
     0
 77
     3
 78
     8
170
     0
171
     2
172
     1
173
     0
174
     0
175
     0
176
   256
177
   256
178
     2
270
     2
271
     2
272
     3
273
     2
274
     2
340
6B
275
     0
280
     0
281
     0
282
     0
283
     0
284
     0
285
     0
286
     0
287
     3
288
     0
  0
DIMSTYLE
105
63
330
A
100
AcDbSymbolTableRecord
100
AcDbDimStyleTableRecord
  2
AM_JIS$SF
 70
     0
  3

  4
"
  5
OPEN30
  6

  7

 40
1.0
 41
2.5
 42
1.0
 43
10.0
 44
1.0
 45
0.0
 46
0.0
 47
0.1
 48
0.1
140
3.2
141
0.0
142
0.0
143
0.0393701
144
1.0
145
0.0
146
0.71
147
1.5
 71
     0
 72
     0
 73
     0
 74
     0
 75
     1
 76
     1
 77
     3
 78
     8
170
     0
171
     2
172
     1
173
     0
174
     0
175
     0
176
   256
177
   256
178
     2
270
     2
271
     2
272
     2
273
     2
274
     2
340
6B
275
     0
280
     0
281
     0
282
     0
283
     0
284
     0
285
     0
286
     0
287
     3
288
     0
  0
DIMSTYLE
105
68
330
A
100
AcDbSymbolTableRecord
100
AcDbDimStyleTableRecord
  2
AM_JIS$SH
 70
     0
  3

  4
"
  5

  6
GENAXEH
  7
OPEN30
 40
1.0
 41
2.5
 42
1.0
 43
10.0
 44
1.0
 45
0.0
 46
0.0
 47
0.1
 48
0.1
140
3.2
141
0.0
142
0.0
143
0.0393701
144
2.0
145
0.0
146
0.71
147
1.5
 71
     0
 72
     0
 73
     0
 74
     0
 75
     1
 76
     1
 77
     3
 78
     8
170
     0
171
     2
172
     1
173
     1
174
     0
175
     0
176
   256
177
   256
178
     2
270
     2
271
     2
272
     2
273
     2
274
     2
340
6B
275
     0
280
     0
281
     0
282
     0
283
     0
284
     0
285
     0
286
     0
287
     3
288
     0
  0
DIMSTYLE
105
B34
330
A
100
AcDbSymbolTableRecord
100
AcDbDimStyleTableRecord
  2
AM_JIS$2
 70
     0
  3

  4
"
  5
OPEN30
  6

  7

 40
1.0
 41
2.5
 42
1.0
 43
12.0
 44
1.0
 45
0.0
 46
0.0
 47
0.1
 48
0.1
140
3.2
141
0.0
142
0.0
143
0.0393701
144
1.0
145
0.0
146
0.71
147
1.5
 71
     0
 72
     0
 73
     0
 74
     0
 75
     0
 76
     0
 77
     3
 78
     8
170
     0
171
     2
172
     1
173
     0
174
     0
175
     0
176
   256
177
   256
178
     2
270
     2
271
     3
272
     3
273
     2
274
     2
340
6B
275
     0
280
     0
281
     0
282
     0
283
     0
284
     0
285
     0
286
     0
287
     3
288
     0
  0
ENDTAB
  0
TABLE
  2
BLOCK_RECORD
  5
1
330
0
100
AcDbSymbolTable
 70
     9
  0
BLOCK_RECORD
  5
1F
102
{ACAD_XDICTIONARY
360
74
102
}
330
1
100
AcDbSymbolTableRecord
100
AcDbBlockTableRecord
  2
*MODEL_SPACE
  0
BLOCK_RECORD
  5
101
102
{ACAD_XDICTIONARY
360
25DC
102
}
330
1
100
AcDbSymbolTableRecord
100
AcDbBlockTableRecord
  2
*PAPER_SPACE
  0
BLOCK_RECORD
  5
59
330
1
100
AcDbSymbolTableRecord
100
AcDbBlockTableRecord
  2
_OPEN30
  0
BLOCK_RECORD
  5
64
330
1
100
AcDbSymbolTableRecord
100
AcDbBlockTableRecord
  2
GENAXEH
  0
BLOCK_RECORD
  5
13C0
330
1
100
AcDbSymbolTableRecord
100
AcDbBlockTableRecord
  2
*D5
  0
BLOCK_RECORD
  5
145C
330
1
100
AcDbSymbolTableRecord
100
AcDbBlockTableRecord
  2
*D6
  0
BLOCK_RECORD
  5
1921
330
1
100
AcDbSymbolTableRecord
100
AcDbBlockTableRecord
  2
*D7
  0
BLOCK_RECORD
  5
1A15
330
1
100
AcDbSymbolTableRecord
100
AcDbBlockTableRecord
  2
*D8
  0
ENDTAB
  0
ENDSEC
  0
SECTION
  2
BLOCKS
  0
BLOCK
  5
20
330
1F
100
AcDbEntity
  8
0
100
AcDbBlockBegin
  2
*MODEL_SPACE
 70
     0
 10
0.0
 20
0.0
 30
0.0
  3
*MODEL_SPACE
  1

  0
ENDBLK
  5
21
330
1F
100
AcDbEntity
  8
0
100
AcDbBlockEnd
  0
BLOCK
  5
103
330
101
100
AcDbEntity
 67
     1
  8
0
100
AcDbBlockBegin
  2
*PAPER_SPACE
 70
     0
 10
0.0
 20
0.0
 30
0.0
  3
*PAPER_SPACE
  1

  0
ENDBLK
  5
104
330
101
100
AcDbEntity
 67
     1
  8
0
100
AcDbBlockEnd
  0
BLOCK
  5
5D
330
59
100
AcDbEntity
  8
0
100
AcDbBlockBegin
  2
_OPEN30
 70
     0
 10
0.0
 20
0.0
 30
0.0
  3
_OPEN30
  1

  0
LINE
  5
5A
330
59
100
AcDbEntity
  8
0
 62
     0
100
AcDbLine
 10
-1.0
 20
0.26794919
 30
0.0
 11
0.0
 21
0.0
 31
0.0
  0
LINE
  5
5B
330
59
100
AcDbEntity
  8
0
 62
     0
100
AcDbLine
 10
0.0
 20
0.0
 30
0.0
 11
-1.0
 21
-0.26794919
 31
0.0
  0
LINE
  5
5C
330
59
100
AcDbEntity
  8
0
 62
     0
100
AcDbLine
 10
0.0
 20
0.0
 30
0.0
 11
-1.0
 21
0.0
 31
0.0
  0
ENDBLK
  5
5E
330
59
100
AcDbEntity
  8
0
100
AcDbBlockEnd
  0
BLOCK
  5
66
330
64
100
AcDbEntity
  8
0
100
AcDbBlockBegin
  2
GENAXEH
 70
     0
 10
0.0
 20
0.0
 30
0.0
  3
GENAXEH
  1

  0
LINE
  5
65
330
64
100
AcDbEntity
  8
0
100
AcDbLine
 10
-1.0
 20
0.0
 30
0.0
 11
1.0
 21
0.0
 31
0.0
  0
ENDBLK
  5
67
330
64
100
AcDbEntity
  8
0
100
AcDbBlockEnd
  0
BLOCK
  5
13CA
330
13C0
100
AcDbEntity
  8
0
100
AcDbBlockBegin
  2
*D5
 70
     1
 10
0.0
 20
0.0
 30
0.0
  3
*D5
  1

  0
LINE
  5
255A
330
13C0
100
AcDbEntity
  8
AM_5
100
AcDbLine
 10
-94.99999999999978
 20
-7.999999999998206
 30
0.0
 11
-94.99999999999978
 21
-34.99999999999821
 31
0.0
  0
LINE
  5
255B
330
13C0
100
AcDbEntity
  8
AM_5
100
AcDbLine
 10
0.0000000000004233
 20
-8.499999999998912
 30
0.0
 11
0.0000000000004217
 21
-34.99999999999821
 31
0.0
  0
LINE
  5
255C
330
13C0
100
AcDbEntity
  8
AM_5
100
AcDbLine
 10
-92.49999999999978
 20
-33.9999999999982
 30
0.0
 11
-2.499999999999578
 21
-33.9999999999982
 31
0.0
  0
INSERT
  5
255D
330
13C0
100
AcDbEntity
  8
AM_5
100
AcDbBlockReference
  2
_OPEN30
 10
-94.99999999999978
 20
-33.9999999999982
 30
0.0
 41
2.5
 42
2.5
 43
2.5
 50
180.0
  0
INSERT
  5
255E
330
13C0
100
AcDbEntity
  8
AM_5
100
AcDbBlockReference
  2
_OPEN30
 10
0.0000000000004218
 20
-33.9999999999982
 30
0.0
 41
2.5
 42
2.5
 43
2.5
  0
MTEXT
  5
255F
330
13C0
100
AcDbEntity
  8
AM_5
 62
     2
100
AcDbMText
 10
-47.49999999999968
 20
-30.8999999999982
 30
0.0
 40
3.2
 41
0.0
 71
     5
 72
     1
  1
95
  7
ASAMI
1001
ACAD
1000
MTEXTBEGIN
1070
    73
1070
     1
1070
    44
1040
1.0
1070
    74
1070
     0
1000
MTEXTEND
  0
POINT
  5
2560
330
13C0
100
AcDbEntity
  8
DEFPOINTS
 62
     0
100
AcDbPoint
 10
-94.99999999999978
 20
-6.999999999998206
 30
0.0
  0
POINT
  5
2561
330
13C0
100
AcDbEntity
  8
DEFPOINTS
 62
     0
100
AcDbPoint
 10
0.0000000000004234
 20
-7.499999999998913
 30
0.0
  0
POINT
  5
2562
330
13C0
100
AcDbEntity
  8
DEFPOINTS
 62
     0
100
AcDbPoint
 10
0.0000000000004218
 20
-33.9999999999982
 30
0.0
  0
ENDBLK
  5
13CB
330
13C0
100
AcDbEntity
  8
0
100
AcDbBlockEnd
  0
BLOCK
  5
1466
330
145C
100
AcDbEntity
  8
0
100
AcDbBlockBegin
  2
*D6
 70
     1
 10
0.0
 20
0.0
 30
0.0
  3
*D6
  1

  0
LINE
  5
2563
330
145C
100
AcDbEntity
  8
AM_5
100
AcDbLine
 10
-40.00000000000062
 20
-8.499999999999893
 30
0.0
 11
-40.00000000000062
 21
-23.00000000000049
 31
0.0
  0
LINE
  5
2564
330
145C
100
AcDbEntity
  8
AM_5
100
AcDbLine
 10
0.0000000000002244
 20
-8.499999999998912
 30
0.0
 11
0.0000000000002235
 21
-23.00000000000049
 31
0.0
  0
LINE
  5
2565
330
145C
100
AcDbEntity
  8
AM_5
100
AcDbLine
 10
-37.50000000000062
 20
-22.00000000000049
 30
0.0
 11
-2.499999999999776
 21
-22.00000000000049
 31
0.0
  0
INSERT
  5
2566
330
145C
100
AcDbEntity
  8
AM_5
100
AcDbBlockReference
  2
_OPEN30
 10
-40.00000000000062
 20
-22.00000000000049
 30
0.0
 41
2.5
 42
2.5
 43
2.5
 50
180.0
  0
INSERT
  5
2567
330
145C
100
AcDbEntity
  8
AM_5
100
AcDbBlockReference
  2
_OPEN30
 10
0.0000000000002235
 20
-22.00000000000049
 30
0.0
 41
2.5
 42
2.5
 43
2.5
  0
MTEXT
  5
2568
330
145C
100
AcDbEntity
  8
AM_5
 62
     2
100
AcDbMText
 10
-20.00000000000019
 20
-18.90000000000049
 30
0.0
 40
3.2
 41
0.0
 71
     5
 72
     1
  1
40
  7
ASAMI
1001
ACAD
1000
MTEXTBEGIN
1070
    73
1070
     1
1070
    44
1040
1.0
1070
    74
1070
     0
1000
MTEXTEND
  0
POINT
  5
2569
330
145C
100
AcDbEntity
  8
DEFPOINTS
 62
     0
100
AcDbPoint
 10
-40.00000000000062
 20
-7.499999999999892
 30
0.0
  0
POINT
  5
256A
330
145C
100
AcDbEntity
  8
DEFPOINTS
 62
     0
100
AcDbPoint
 10
0.0000000000002244
 20
-7.499999999998913
 30
0.0
  0
POINT
  5
256B
330
145C
100
AcDbEntity
  8
DEFPOINTS
 62
     0
100
AcDbPoint
 10
0.0000000000002235
 20
-22.00000000000049
 30
0.0
  0
ENDBLK
  5
1467
330
145C
100
AcDbEntity
  8
0
100
AcDbBlockEnd
  0
BLOCK
  5
192B
330
1921
100
AcDbEntity
  8
0
100
AcDbBlockBegin
  2
*D7
 70
     1
 10
0.0
 20
0.0
 30
0.0
  3
*D7
  1

  0
LINE
  5
2551
330
1921
100
AcDbEntity
  8
AM_5
100
AcDbLine
 10
-94.99999999999976
 20
7.999999999999781
 30
0.0
 11
-109.9999999999997
 21
7.999999999999785
 31
0.0
  0
LINE
  5
2552
330
1921
100
AcDbEntity
  8
AM_5
100
AcDbLine
 10
-94.99999999999978
 20
-7.999999999998193
 30
0.0
 11
-109.9999999999997
 21
-7.999999999998189
 31
0.0
  0
LINE
  5
2553
330
1921
100
AcDbEntity
  8
AM_5
100
AcDbLine
 10
-108.9999999999997
 20
5.499999999999785
 30
0.0
 11
-108.9999999999997
 21
-5.499999999998189
 31
0.0
  0
INSERT
  5
2554
330
1921
100
AcDbEntity
  8
AM_5
100
AcDbBlockReference
  2
_OPEN30
 10
-108.9999999999997
 20
7.999999999999785
 30
0.0
 41
2.5
 42
2.5
 43
2.5
 50
90.0
  0
INSERT
  5
2555
330
1921
100
AcDbEntity
  8
AM_5
100
AcDbBlockReference
  2
_OPEN30
 10
-108.9999999999997
 20
-7.999999999998189
 30
0.0
 41
2.5
 42
2.5
 43
2.5
 50
270.0
  0
MTEXT
  5
2556
330
1921
100
AcDbEntity
  8
AM_5
 62
     2
100
AcDbMText
 10
-112.0999999999997
 20
0.0000000000007807
 30
0.0
 40
3.2
 41
0.0
 71
     5
 72
     1
  1
%%c16
  7
ASAMI
 11
0.0000000000000001
 21
1.0
 31
0.0
1001
ACAD
1000
MTEXTBEGIN
1070
    73
1070
     1
1070
    44
1040
1.0
1070
    74
1070
     0
1000
MTEXTEND
  0
POINT
  5
2557
330
1921
100
AcDbEntity
  8
DEFPOINTS
 62
     0
100
AcDbPoint
 10
-93.99999999999977
 20
7.99999999999978
 30
0.0
  0
POINT
  5
2558
330
1921
100
AcDbEntity
  8
DEFPOINTS
 62
     0
100
AcDbPoint
 10
-93.99999999999979
 20
-7.999999999998194
 30
0.0
  0
POINT
  5
2559
330
1921
100
AcDbEntity
  8
DEFPOINTS
 62
     0
100
AcDbPoint
 10
-108.9999999999997
 20
-7.999999999998189
 30
0.0
  0
ENDBLK
  5
192C
330
1921
100
AcDbEntity
  8
0
100
AcDbBlockEnd
  0
BLOCK
  5
1A1F
330
1A15
100
AcDbEntity
  8
0
100
AcDbBlockBegin
  2
*D8
 70
     1
 10
0.0
 20
0.0
 30
0.0
  3
*D8
  1

  0
LINE
  5
256C
330
1A15
100
AcDbEntity
  8
AM_5
100
AcDbLine
 10
1.000000000000012
 20
7.500000000000156
 30
0.0
 11
15.00000000000043
 21
7.500000000000151
 31
0.0
  0
LINE
  5
256D
330
1A15
100
AcDbEntity
  8
AM_5
100
AcDbLine
 10
0.9999999999984371
 20
-7.499999999996937
 30
0.0
 11
15.00000000000042
 21
-7.499999999996942
 31
0.0
  0
LINE
  5
256E
330
1A15
100
AcDbEntity
  8
AM_5
100
AcDbLine
 10
14.00000000000042
 20
5.000000000000151
 30
0.0
 11
14.00000000000042
 21
-4.999999999996942
 31
0.0
  0
INSERT
  5
256F
330
1A15
100
AcDbEntity
  8
AM_5
100
AcDbBlockReference
  2
_OPEN30
 10
14.00000000000042
 20
7.500000000000151
 30
0.0
 41
2.5
 42
2.5
 43
2.5
 50
90.0
  0
INSERT
  5
2570
330
1A15
100
AcDbEntity
  8
AM_5
100
AcDbBlockReference
  2
_OPEN30
 10
14.00000000000042
 20
-7.499999999996942
 30
0.0
 41
2.5
 42
2.5
 43
2.5
 50
270.0
  0
MTEXT
  5
2571
330
1A15
100
AcDbEntity
  8
AM_5
 62
     2
100
AcDbMText
 10
10.90000000000042
 20
0.000000000001608
 30
0.0
 40
3.2
 41
0.0
 71
     5
 72
     1
  1
%%c15
  7
ASAMI
 11
0.0000000000000001
 21
1.0
 31
0.0
1001
ACAD
1000
MTEXTBEGIN
1070
    73
1070
     1
1070
    44
1040
1.0
1070
    74
1070
     0
1000
MTEXTEND
  0
POINT
  5
2572
330
1A15
100
AcDbEntity
  8
DEFPOINTS
 62
     0
100
AcDbPoint
 10
0.0000000000000121
 20
7.500000000000156
 30
0.0
  0
POINT
  5
2573
330
1A15
100
AcDbEntity
  8
DEFPOINTS
 62
     0
100
AcDbPoint
 10
-0.0000000000015628
 20
-7.499999999996937
 30
0.0
  0
POINT
  5
2574
330
1A15
100
AcDbEntity
  8
DEFPOINTS
 62
     0
100
AcDbPoint
 10
14.00000000000042
 20
-7.499999999996942
 30
0.0
  0
ENDBLK
  5
1A20
330
1A15
100
AcDbEntity
  8
0
100
AcDbBlockEnd
  0
ENDSEC
  0
SECTION
  2
ENTITIES
  0
TEXT
  5
E5A
330
1F
100
AcDbEntity
  8
AM_6
100
AcDbText
 10
-67.85714285714252
 20
-56.50000099999965
 30
0.0
 40
5.0
  1
LSM4150ZX
 72
     4
 11
-47.49999999999967
 21
-54.00000099999965
 31
0.0
100
AcDbText
  0
LINE
  5
132B
330
1F
100
AcDbEntity
  8
AM_7
  6
AM_ISO08W050X2
100
AcDbLine
 10
4.557768030854969
 20
-0.0000000000001137
 30
0.0
 11
-97.73320485933165
 21
-0.0000000000001634
 31
0.0
1001
GENIUS_GENODEF_13
1002
{
1000
HIER
1070
     0
1002
}
1002
{
1000
MANEDIT
1070
     0
1002
}
1002
{
1000
NOSEL
1070
     0
1002
}
1002
{
1000
BEHIND
1070
     0
1002
}
1002
{
1000
REACTOR
1002
}
1001
GENIUS_GENOBJ-N-CEN_13
1002
{
1000
OWNER
1000
GEN
1002
}
  0
DIMENSION
  5
13B3
330
1F
100
AcDbEntity
  8
AM_5
100
AcDbDimension
  2
*D5
 10
0.0000000000004218
 20
-33.9999999999982
 30
0.0
 11
-47.49999999999968
 21
-30.8999999999982
 31
0.0
 70
    32
  1
<>
  3
AM_JIS
100
AcDbAlignedDimension
 13
-94.99999999999978
 23
-6.999999999998206
 33
0.0
 14
0.0000000000004234
 24
-7.499999999998913
 34
0.0
100
AcDbRotatedDimension
1001
GENIUS_GENDTOL_13
1000

1000
h7
1000

1040
0.0
  0
DIMENSION
  5
145B
330
1F
100
AcDbEntity
  8
AM_5
100
AcDbDimension
  2
*D6
 10
0.0000000000002235
 20
-22.00000000000049
 30
0.0
 11
-20.00000000000019
 21
-18.90000000000049
 31
0.0
 70
    32
  1
<>
  3
AM_JIS
100
AcDbAlignedDimension
 13
-40.00000000000062
 23
-7.499999999999892
 33
0.0
 14
0.0000000000002244
 24
-7.499999999998913
 34
0.0
 50
359.9999999999967
100
AcDbRotatedDimension
1001
GENIUS_GENDTOL_13
1000

1000
h7
1000

1040
0.0
  0
LINE
  5
17E7
330
1F
100
AcDbEntity
  8
AM_0
100
AcDbLine
 10
-49.62626129027285
 20
-7.499999999999547
 30
0.0
 11
-50.9999999999998
 21
-7.999999999999419
 31
0.0
  0
LINE
  5
17E8
330
1F
100
AcDbEntity
  8
AM_0
100
AcDbLine
 10
-50.99999999999976
 20
7.999999999999964
 30
0.0
 11
-49.62626129027285
 21
7.50000000000011
 31
0.0
  0
LINE
  5
191B
330
1F
100
AcDbEntity
  8
AM_0
100
AcDbLine
 10
-50.9999999999998
 20
-7.999999999999336
 30
0.0
 11
-93.9999999999998
 21
-7.999999999998204
 31
0.0
  0
LINE
  5
191E
330
1F
100
AcDbEntity
  8
AM_0
100
AcDbLine
 10
-93.99999999999977
 20
7.99999999999978
 30
0.0
 11
-93.99999999999979
 21
-7.999999999998194
 31
0.0
  0
LINE
  5
191F
330
1F
100
AcDbEntity
  8
AM_0
100
AcDbLine
 10
-94.99999999999976
 20
6.999999999999776
 30
0.0
 11
-94.99999999999982
 21
-6.999999999998178
 31
0.0
  0
DIMENSION
  5
1920
330
1F
100
AcDbEntity
  8
AM_5
100
AcDbDimension
  2
*D7
 10
-108.9999999999997
 20
-7.999999999998189
 30
0.0
 11
-112.0999999999997
 21
0.0000000000007807
 31
0.0
 70
    32
  1
%%c<>
  3
AM_JIS
100
AcDbAlignedDimension
 13
-93.99999999999977
 23
7.99999999999978
 33
0.0
 14
-93.99999999999979
 24
-7.999999999998194
 34
0.0
 50
270.0
100
AcDbRotatedDimension
1001
GENIUS_GENDTOL_13
1000

1000
h7
1000

1040
0.0
  0
LINE
  5
192D
330
1F
100
AcDbEntity
  8
AM_0
100
AcDbLine
 10
-50.99999999999975
 20
7.999999999999953
 30
0.0
 11
-93.99999999999977
 21
7.99999999999978
 31
0.0
  0
LINE
  5
1939
330
1F
100
AcDbEntity
  8
AM_0
100
AcDbLine
 10
-93.99999999999977
 20
7.99999999999978
 30
0.0
 11
-94.99999999999976
 21
6.999999999999776
 31
0.0
1001
GENIUS_GENFIL_13
1070
     0
1040
1.0
1040
1.0
1040
20.0
1040
0.0
1002
{
1002
}
1001
GENIUS_GENODEF_13
1002
{
1000
HIER
1070
     0
1002
}
1002
{
1000
MANEDIT
1070
     0
1002
}
1002
{
1000
NOSEL
1070
     0
1002
}
1002
{
1000
BEHIND
1070
     0
1002
}
1002
{
1000
REACTOR
1002
}
1001
GENIUS_GENOBJ-N-CHA_13
1002
{
1000
OWNER
1000
GEN
1002
}
  0
LINE
  5
193F
330
1F
100
AcDbEntity
  8
AM_0
100
AcDbLine
 10
-94.9999999999998
 20
-6.999999999998177
 30
0.0
 11
-93.9999999999998
 21
-7.999999999998204
 31
0.0
1001
GENIUS_GENFIL_13
1070
     0
1040
1.0
1040
1.0
1040
20.0
1040
0.0
1002
{
1002
}
1001
GENIUS_GENODEF_13
1002
{
1000
HIER
1070
     0
1002
}
1002
{
1000
MANEDIT
1070
     0
1002
}
1002
{
1000
NOSEL
1070
     0
1002
}
1002
{
1000
BEHIND
1070
     0
1002
}
1002
{
1000
REACTOR
1002
}
1001
GENIUS_GENOBJ-N-CHA_13
1002
{
1000
OWNER
1000
GEN
1002
}
  0
LINE
  5
194C
330
1F
100
AcDbEntity
  8
AM_0
100
AcDbLine
 10
-94.99999999999982
 20
-6.999999999998178
 30
0.0
 11
-93.99999999999982
 21
-7.999999999998204
 31
0.0
1001
GENIUS_GENFIL_13
1070
     0
1040
1.0
1040
1.0
1040
20.0
1040
0.0
1002
{
1002
}
1001
GENIUS_GENODEF_13
1002
{
1000
HIER
1070
     0
1002
}
1002
{
1000
MANEDIT
1070
     0
1002
}
1002
{
1000
NOSEL
1070
     0
1002
}
1002
{
1000
BEHIND
1070
     0
1002
}
1002
{
1000
REACTOR
1002
}
1001
GENIUS_GENOBJ-N-CHA_13
1002
{
1000
OWNER
1000
GEN
1002
}
  0
DIMENSION
  5
1A14
330
1F
100
AcDbEntity
  8
AM_5
100
AcDbDimension
  2
*D8
 10
14.00000000000042
 20
-7.499999999996942
 30
0.0
 11
10.90000000000042
 21
0.000000000001608
 31
0.0
 70
    32
  1
%%c<>
  3
AM_JIS
100
AcDbAlignedDimension
 13
0.0000000000000121
 23
7.500000000000156
 33
0.0
 14
-0.0000000000015628
 24
-7.499999999996937
 34
0.0
 50
90.0
100
AcDbRotatedDimension
1001
GENIUS_GENDTOL_13
1000

1000
h7
1000

1040
0.0
  0
LINE
  5
1A88
330
1F
100
AcDbEntity
  8
AM_0
100
AcDbLine
 10
-50.99999999999976
 20
7.999999999999966
 30
0.0
 11
-50.9999999999998
 21
-7.999999999999418
 31
0.0
  0
LINE
  5
1A8D
330
1F
100
AcDbEntity
  8
AM_0
100
AcDbLine
 10
-49.62626129027285
 20
7.500000000000113
 30
0.0
 11
-49.62626129027285
 21
-7.499999999999546
 31
0.0
  0
LINE
  5
1DFB
330
1F
100
AcDbEntity
  8
AM_0
100
AcDbLine
 10
-39.99999999999984
 20
7.500000000000113
 30
0.0
 11
-49.62626129027286
 21
7.500000000000113
 31
0.0
  0
LINE
  5
1DFC
330
1F
100
AcDbEntity
  8
AM_0
100
AcDbLine
 10
-42.30991566569286
 20
-7.49999999999988
 30
0.0
 11
-49.62626129027396
 21
-7.499999999999947
 31
0.0
  0
SPLINE
  5
221D
330
1F
100
AcDbEntity
  8
AM_0
100
AcDbSpline
210
0.0
220
0.0
230
1.0
 70
    24
 71
     3
 72
     8
 73
     4
 74
     2
 42
0.0000000001
 43
0.0000000001
 44
0.0000000001
 40
0.0
 40
0.0
 40
0.0
 40
0.0
 40
2.909090909095191
 40
2.909090909095191
 40
2.909090909095191
 40
2.909090909095191
 10
-37.0909090909096
 20
7.500000000000284
 30
0.0
 10
-38.060606060608
 20
7.500000000000284
 30
0.0
 10
-39.03030303030639
 20
7.500000000000285
 30
0.0
 10
-40.00000000000479
 20
7.500000000000284
 30
0.0
 11
-37.0909090909096
 21
7.500000000000284
 31
0.0
 11
-40.00000000000479
 21
7.500000000000284
 31
0.0
  0
SPLINE
  5
221E
330
1F
100
AcDbEntity
  8
AM_0
100
AcDbSpline
210
0.0
220
0.0
230
1.0
 70
     8
 71
     3
 72
     8
 73
     4
 74
     0
 42
0.0000000001
 43
0.0000000001
 40
11.41055204919593
 40
11.41055204919593
 40
11.41055204919593
 40
11.41055204919593
 40
14.05074874038537
 40
14.05074874038537
 40
14.05074874038537
 40
14.05074874038537
 10
-40.00010834913863
 20
2.35487851346879
 30
0.0
 10
-38.97943654801814
 20
1.659824262640746
 30
0.0
 10
-37.96131074332661
 20
0.7951055044688005
 30
0.0
 10
-36.64179128456674
 20
-0.0000000000000213
 30
0.0
  0
SPLINE
  5
221F
330
1F
100
AcDbEntity
  8
AM_0
100
AcDbSpline
210
0.0
220
0.0
230
1.0
 70
     8
 71
     3
 72
     8
 73
     4
 74
     0
 42
0.0000000001
 43
0.0000000001
 40
0.0
 40
0.0
 40
0.0
 40
0.0
 40
1.412269715655931
 40
1.412269715655931
 40
1.412269715655931
 40
1.412269715655931
 10
-36.18192653095701
 20
-7.499999999999715
 30
0.0
 10
-36.82386731080063
 20
-7.499999999999715
 30
0.0
 10
-37.4600436704681
 20
-7.464377040571285
 30
0.0
 10
-38.09101744004792
 20
-7.39660311886854
 30
0.0
  0
SPLINE
  5
2220
330
1F
100
AcDbEntity
  8
AM_0
100
AcDbSpline
210
0.0
220
0.0
230
1.0
 70
     8
 71
     3
 72
     8
 73
     4
 74
     0
 42
0.0000000001
 43
0.0000000001
 40
9.094138221207366
 40
9.094138221207366
 40
9.094138221207366
 40
9.094138221207366
 40
13.97710794881361
 40
13.97710794881361
 40
13.97710794881361
 40
13.97710794881361
 10
-40.4839834969611
 20
3.855193871455426
 30
0.0
 10
-38.43140106417111
 20
2.793564675178892
 30
0.0
 10
-36.52313851178784
 20
1.369912166447377
 30
0.0
 10
-34.34496401785017
 20
0.0000000000122071
 30
0.0
  0
SPLINE
  5
2221
330
1F
100
AcDbEntity
  8
AM_0
100
AcDbSpline
210
0.0
220
0.0
230
1.0
 70
     8
 71
     3
 72
     8
 73
     4
 74
     0
 42
0.0000000001
 43
0.0000000001
 40
4.48458745047074
 40
4.48458745047074
 40
4.48458745047074
 40
4.48458745047074
 40
13.87374977251145
 40
13.87374977251145
 40
13.87374977251145
 40
13.87374977251145
 10
-43.62742623596974
 20
6.018623220257666
 30
0.0
 10
-39.53857685962603
 20
4.825616645683354
 30
0.0
 10
-35.47624722569132
 20
2.548782675196157
 30
0.0
 10
-31.42147425831468
 20
-0.0000000000000355
 30
0.0
  0
SPLINE
  5
2222
330
1F
100
AcDbEntity
  8
AM_0
100
AcDbSpline
210
0.0
220
0.0
230
1.0
 70
     8
 71
     3
 72
     8
 73
     4
 74
     0
 42
0.0000000001
 43
0.0000000001
 40
0.0
 40
0.0
 40
0.0
 40
0.0
 40
4.662554012798695
 40
4.662554012798695
 40
4.662554012798695
 40
4.662554012798695
 10
-33.80176910096436
 20
-7.275425505502795
 30
0.0
 10
-35.92111183405464
 20
-7.275425505502795
 30
0.0
 10
-37.98080429013207
 20
-6.89610980775808
 30
0.0
 10
-40.00010834913854
 20
-6.259964573203959
 30
0.0
  0
SPLINE
  5
2223
330
1F
100
AcDbEntity
  8
AM_0
100
AcDbSpline
210
0.0
220
0.0
230
1.0
 70
     8
 71
     3
 72
     8
 73
     4
 74
     0
 42
0.0000000001
 43
0.0000000001
 40
0.0
 40
0.0
 40
0.0
 40
0.0
 40
6.769478140335353
 40
6.769478140335353
 40
6.769478140335353
 40
6.769478140335353
 10
-31.0610401478089
 20
-6.926166755703746
 30
0.0
 10
-34.13807566614314
 20
-6.926166755703746
 30
0.0
 10
-37.09962025736838
 20
-6.156833449714412
 30
0.0
 10
-40.00010834913854
 20
-4.980777297578342
 30
0.0
  0
SPLINE
  5
2224
330
1F
100
AcDbEntity
  8
AM_0
100
AcDbSpline
210
0.0
220
0.0
230
1.0
 70
     8
 71
     3
 72
     8
 73
     4
 74
     0
 42
0.0000000001
 43
0.0000000001
 40
0.0
 40
0.0
 40
0.0
 40
0.0
 40
1.412269715655734
 40
1.412269715655734
 40
1.412269715655734
 40
1.412269715655734
 10
-38.09101744004789
 20
-7.39660311886854
 30
0.0
 10
-38.73295821989143
 20
-7.39660311886854
 30
0.0
 10
-39.36913457955882
 20
-7.360980159440103
 30
0.0
 10
-40.00010834913854
 20
-7.293206237737393
 30
0.0
  0
ELLIPSE
  5
2225
330
1F
100
AcDbEntity
  8
AM_0
100
AcDbEllipse
 10
-39.97797158454537
 20
-23.30458422316565
 30
0.0
 11
-0.0000000000002385
 21
16.01139650174947
 31
0.0
210
0.0
220
0.0
230
1.0
 40
0.9090909090908844
 41
0.0015208199007835
 42
0.1609004017522309
  0
SPLINE
  5
2226
330
1F
100
AcDbEntity
  8
AM_0
100
AcDbSpline
210
0.0
220
0.0
230
1.0
 70
     8
 71
     3
 72
     8
 73
     4
 74
     0
 42
0.0000000001
 43
0.0000000001
 40
0.0
 40
0.0
 40
0.0
 40
0.0
 40
2.764560748519282
 40
2.764560748519282
 40
2.764560748519282
 40
2.764560748519282
 10
-33.80176910096436
 20
-7.275425505502965
 30
0.0
 10
-32.54515057891016
 20
-7.275425505502965
 30
0.0
 10
-31.30950295294153
 20
-7.142071722764967
 30
0.0
 10
-30.09081103901572
 20
-6.900896684764546
 30
0.0
  0
SPLINE
  5
2227
330
1F
100
AcDbEntity
  8
AM_0
100
AcDbSpline
210
0.0
220
0.0
230
1.0
 70
     8
 71
     3
 72
     8
 73
     4
 74
     0
 42
0.0000000001
 43
0.0000000001
 40
0.0
 40
0.0
 40
0.0
 40
0.0
 40
4.451443990518192
 40
4.451443990518192
 40
4.451443990518192
 40
4.451443990518192
 10
-31.0610401478089
 20
-6.926166755703917
 30
0.0
 10
-29.03765651575515
 20
-6.926166755703917
 30
0.0
 10
-27.06421182302839
 20
-6.59350262137103
 30
0.0
 10
-25.5862381200414
 20
-6.160397935357671
 30
0.0
  0
SPLINE
  5
2228
330
1F
100
AcDbEntity
  8
AM_0
100
AcDbSpline
210
0.0
220
0.0
230
1.0
 70
     8
 71
     3
 72
     8
 73
     4
 74
     0
 42
0.0000000001
 43
0.0000000001
 40
0.0
 40
0.0
 40
0.0
 40
0.0
 40
2.130230809022907
 40
2.130230809022907
 40
2.130230809022907
 40
2.130230809022907
 10
-18.54545454545532
 20
-7.499999999999864
 30
0.0
 10
-17.57716781408126
 20
-7.499999999999864
 30
0.0
 10
-16.62199624472313
 20
-7.418950931730115
 30
0.0
 10
-15.67801172634954
 20
-7.268768134278715
 30
0.0
  0
SPLINE
  5
2229
330
1F
100
AcDbEntity
  8
AM_0
100
AcDbSpline
210
0.0
220
0.0
230
1.0
 70
     8
 71
     3
 72
     8
 73
     4
 74
     0
 42
0.0000000001
 43
0.0000000001
 40
0.0
 40
0.0
 40
0.0
 40
0.0
 40
5.635889483499305
 40
5.635889483499305
 40
5.635889483499305
 40
5.635889483499305
 10
-18.54545454545532
 20
7.500000000000312
 30
0.0
 10
-21.10722249250049
 20
7.500000000000312
 30
0.0
 10
-23.57718989159564
 20
6.932691043469006
 30
0.0
 10
-25.9910625996062
 20
6.018728157557077
 30
0.0
  0
SPLINE
  5
222A
330
1F
100
AcDbEntity
  8
AM_0
100
AcDbSpline
210
0.0
220
0.0
230
1.0
 70
     8
 71
     3
 72
     8
 73
     4
 74
     0
 42
0.0000000001
 43
0.0000000001
 40
0.3581103616548037
 40
0.3581103616548037
 40
0.3581103616548037
 40
0.3581103616548037
 40
14.43901837670146
 40
14.43901837670146
 40
14.43901837670146
 40
14.43901837670146
 10
-34.22346627180354
 20
7.268768134279127
 30
0.0
 10
-27.85038249063591
 20
7.094983512079963
 30
0.0
 10
-22.00783980304915
 20
3.547491756040088
 30
0.0
 10
-16.16529711546244
 20
0.0000000000002274
 30
0.0
  0
SPLINE
  5
222B
330
1F
100
AcDbEntity
  8
AM_0
100
AcDbSpline
210
0.0
220
0.0
230
1.0
 70
     8
 71
     3
 72
     8
 73
     4
 74
     0
 42
0.0000000001
 43
0.0000000001
 40
0.0
 40
0.0
 40
0.0
 40
0.0
 40
14.43901837670149
 40
14.43901837670149
 40
14.43901837670149
 40
14.43901837670149
 10
-16.16529711546268
 20
-7.275425505502774
 30
0.0
 10
-22.72848728669061
 20
-7.275425505502781
 30
0.0
 10
-28.71961947380393
 20
-3.637712752751212
 30
0.0
 10
-34.34496401785849
 20
0.0000000000003695
 30
0.0
  0
SPLINE
  5
222C
330
1F
100
AcDbEntity
  8
AM_0
100
AcDbSpline
210
0.0
220
0.0
230
1.0
 70
     8
 71
     3
 72
     8
 73
     4
 74
     0
 42
0.0000000001
 43
0.0000000001
 40
0.0
 40
0.0
 40
0.0
 40
0.0
 40
4.451443990518192
 40
4.451443990518192
 40
4.451443990518192
 40
4.451443990518192
 10
-13.42456816230721
 20
-6.926166755703889
 30
0.0
 10
-11.40118453025346
 20
-6.926166755703889
 30
0.0
 10
-9.427739837526708
 20
-6.593502621371015
 30
0.0
 10
-7.488756227110727
 20
-6.031278823385065
 30
0.0
  0
SPLINE
  5
222D
330
1F
100
AcDbEntity
  8
AM_0
100
AcDbSpline
210
0.0
220
0.0
230
1.0
 70
     8
 71
     3
 72
     8
 73
     4
 74
     0
 42
0.0000000001
 43
0.0000000001
 40
0.7142832446738512
 40
0.7142832446738512
 40
0.7142832446738512
 40
0.7142832446738512
 40
9.361146747480315
 40
9.361146747480315
 40
9.361146747480315
 40
9.361146747480315
 10
-12.45433905337013
 20
6.900896684736594
 30
0.0
 10
-8.554303682572971
 20
6.698675158457518
 30
0.0
 10
-4.833329115611469
 20
5.303654824199597
 30
0.0
 10
-1.177970733586841
 20
3.471537674221579
 30
0.0
  0
SPLINE
  5
222E
330
1F
100
AcDbEntity
  8
AM_0
100
AcDbSpline
210
0.0
220
0.0
230
1.0
 70
     8
 71
     3
 72
     8
 73
     4
 74
     0
 42
0.0000000001
 43
0.0000000001
 40
0.0
 40
0.0
 40
0.0
 40
0.0
 40
2.586565323616714
 40
2.586565323616714
 40
2.586565323616714
 40
2.586565323616714
 10
-0.0000000000005222
 20
6.112054030026101
 30
0.0
 10
-0.7544555188681735
 20
5.120164794226667
 30
0.0
 10
-2.049435688249618
 20
4.694210695386686
 30
0.0
 10
-3.213507587757638
 20
4.512680133792272
 30
0.0
  0
SPLINE
  5
222F
330
1F
100
AcDbEntity
  8
AM_0
100
AcDbSpline
210
0.0
220
0.0
230
1.0
 70
     8
 71
     3
 72
     8
 73
     4
 74
     0
 42
0.0000000001
 43
0.0000000001
 40
0.0
 40
0.0
 40
0.0
 40
0.0
 40
5.635889483499127
 40
5.635889483499127
 40
5.635889483499127
 40
5.635889483499127
 10
-0.0000000000005222
 20
7.500000000000156
 30
0.0
 10
-2.561767947045572
 20
7.500000000000156
 30
0.0
 10
-5.031735346140678
 20
6.932691043468864
 30
0.0
 10
-7.445608054151197
 20
6.018728157557006
 30
0.0
  0
SPLINE
  5
2230
330
1F
100
AcDbEntity
  8
AM_0
100
AcDbSpline
210
0.0
220
0.0
230
1.0
 70
     8
 71
     3
 72
     8
 73
     4
 74
     0
 42
0.0000000001
 43
0.0000000001
 40
4.542668862435135
 40
4.542668862435135
 40
4.542668862435135
 40
4.542668862435135
 40
14.36247867694493
 40
14.36247867694493
 40
14.36247867694493
 40
14.36247867694493
 10
-0.9340909090895337
 20
-5.99642498318478
 30
0.0
 10
-5.208354322985352
 20
-4.735508529859131
 30
0.0
 10
-9.316461242646148
 20
-2.367754264929459
 30
0.0
 10
-13.42456816230694
 20
0.0000000000002274
 30
0.0
  0
SPLINE
  5
2231
330
1F
100
AcDbEntity
  8
AM_0
100
AcDbSpline
210
0.0
220
0.0
230
1.0
 70
     8
 71
     3
 72
     8
 73
     4
 74
     0
 42
0.0000000001
 43
0.0000000001
 40
0.3581103616548037
 40
0.3581103616548037
 40
0.3581103616548037
 40
0.3581103616548037
 40
12.40023413887867
 40
12.40023413887867
 40
12.40023413887867
 40
12.40023413887867
 10
-15.678011726349
 20
7.268768134279142
 30
0.0
 10
-10.22769107561898
 20
7.120145905594398
 30
0.0
 10
-5.165399152023276
 20
4.504051692727657
 30
0.0
 10
-0.1592901714493671
 20
1.530690534913603
 30
0.0
  0
SPLINE
  5
2232
330
1F
100
AcDbEntity
  8
AM_0
100
AcDbSpline
210
0.0
220
0.0
230
1.0
 70
     8
 71
     3
 72
     8
 73
     4
 74
     0
 42
0.0000000001
 43
0.0000000001
 40
0.0
 40
0.0
 40
0.0
 40
0.0
 40
14.48999654934396
 40
14.48999654934396
 40
14.48999654934396
 40
14.48999654934396
 10
-18.54545454545506
 20
7.500000000000312
 30
0.0
 10
-11.95909247757146
 20
7.500000000000312
 30
0.0
 10
-5.979546238785991
 20
3.750000000000326
 30
0.0
 10
-0.0000000000005222
 20
0.0000000000003268
 30
0.0
  0
SPLINE
  5
2233
330
1F
100
AcDbEntity
  8
AM_0
100
AcDbSpline
210
0.0
220
0.0
230
1.0
 70
     8
 71
     3
 72
     8
 73
     4
 74
     0
 42
0.0000000001
 43
0.0000000001
 40
0.0
 40
0.0
 40
0.0
 40
0.0
 40
14.48999654934396
 40
14.48999654934396
 40
14.48999654934396
 40
14.48999654934396
 10
-0.0000000000005222
 20
-7.499999999999843
 30
0.0
 10
-6.586362067884136
 20
-7.49999999999985
 30
0.0
 10
-12.56590830666959
 20
-3.749999999999857
 30
0.0
 10
-18.54545454545506
 20
0.0000000000001421
 30
0.0
  0
SPLINE
  5
2234
330
1F
100
AcDbEntity
  8
AM_0
100
AcDbSpline
210
0.0
220
0.0
230
1.0
 70
     8
 71
     3
 72
     8
 73
     4
 74
     0
 42
0.0000000001
 43
0.0000000001
 40
0.0
 40
0.0
 40
0.0
 40
0.0
 40
14.36247867694493
 40
14.36247867694493
 40
14.36247867694493
 40
14.36247867694493
 10
-13.42456816230721
 20
-6.926166755703718
 30
0.0
 10
-19.95296756091853
 20
-6.926166755703718
 30
0.0
 10
-25.96149513434014
 20
-3.463083377851674
 30
0.0
 10
-31.42147425831466
 20
-0.0000000000000142
 30
0.0
  0
SPLINE
  5
2235
330
1F
100
AcDbEntity
  8
AM_0
100
AcDbSpline
210
0.0
220
0.0
230
1.0
 70
     8
 71
     3
 72
     8
 73
     4
 74
     0
 42
0.0000000001
 43
0.0000000001
 40
0.7142832446738512
 40
0.7142832446738512
 40
0.7142832446738512
 40
0.7142832446738512
 40
14.36247867694493
 40
14.36247867694493
 40
14.36247867694493
 40
14.36247867694493
 10
-30.99979359882468
 20
6.900896684736551
 30
0.0
 10
-24.84398404821324
 20
6.581710553213426
 30
0.0
 10
-19.13427610526009
 20
3.290855276606833
 30
0.0
 10
-13.42456816230694
 20
0.0000000000002274
 30
0.0
  0
SPLINE
  5
2236
330
1F
100
AcDbEntity
  8
AM_0
100
AcDbSpline
210
0.0
220
0.0
230
1.0
 70
     8
 71
     3
 72
     8
 73
     4
 74
     0
 42
0.0000000001
 43
0.0000000001
 40
1.870660592686466
 40
1.870660592686466
 40
1.870660592686466
 40
1.870660592686466
 40
14.43901837670146
 40
14.43901837670146
 40
14.43901837670146
 40
14.43901837670146
 10
-0.1431818181823257
 20
-7.100161736432497
 30
0.0
 10
-5.735406260767094
 20
-6.332850918152075
 30
0.0
 10
-10.95035168811477
 20
-3.166425459075924
 30
0.0
 10
-16.16529711546244
 20
0.0000000000002274
 30
0.0
  0
SPLINE
  5
2237
330
1F
100
AcDbEntity
  8
AM_0
100
AcDbSpline
210
0.0
220
0.0
230
1.0
 70
     8
 71
     3
 72
     8
 73
     4
 74
     0
 42
0.0000000001
 43
0.0000000001
 40
0.0
 40
0.0
 40
0.0
 40
0.0
 40
2.764560748519282
 40
2.764560748519282
 40
2.764560748519282
 40
2.764560748519282
 10
-16.16529711546268
 20
-7.275425505502944
 30
0.0
 10
-14.90867859340847
 20
-7.275425505502944
 30
0.0
 10
-13.67303096743984
 20
-7.142071722764931
 30
0.0
 10
-12.45433905351404
 20
-6.900896684764518
 30
0.0
  0
SPLINE
  5
2238
330
1F
100
AcDbEntity
  8
AM_0
100
AcDbSpline
210
0.0
220
0.0
230
1.0
 70
     8
 71
     3
 72
     8
 73
     4
 74
     0
 42
0.0000000001
 43
0.0000000001
 40
0.0
 40
0.0
 40
0.0
 40
0.0
 40
2.130230809022907
 40
2.130230809022907
 40
2.130230809022907
 40
2.130230809022907
 10
-36.18192653095701
 20
-7.499999999999879
 30
0.0
 10
-35.21363979958294
 20
-7.499999999999879
 30
0.0
 10
-34.25846823022482
 20
-7.418950931730137
 30
0.0
 10
-33.31448371185123
 20
-7.26876813427873
 30
0.0
  0
SPLINE
  5
2239
330
1F
100
AcDbEntity
  8
AM_0
100
AcDbSpline
210
0.0
220
0.0
230
1.0
 70
     8
 71
     3
 72
     8
 73
     4
 74
     0
 42
0.0000000001
 43
0.0000000001
 40
0.0
 40
0.0
 40
0.0
 40
0.0
 40
14.48999654934396
 40
14.48999654934396
 40
14.48999654934396
 40
14.48999654934396
 10
-37.0909090909096
 20
7.500000000000284
 30
0.0
 10
-30.50454702302598
 20
7.500000000000284
 30
0.0
 10
-24.52500078424052
 20
3.750000000000298
 30
0.0
 10
-18.54545454545506
 20
0.0000000000002984
 30
0.0
  0
SPLINE
  5
223A
330
1F
100
AcDbEntity
  8
AM_0
100
AcDbSpline
210
0.0
220
0.0
230
1.0
 70
     8
 71
     3
 72
     8
 73
     4
 74
     0
 42
0.0000000001
 43
0.0000000001
 40
0.0
 40
0.0
 40
0.0
 40
0.0
 40
14.48999654934396
 40
14.48999654934396
 40
14.48999654934396
 40
14.48999654934396
 10
-18.54545454545532
 20
-7.499999999999694
 30
0.0
 10
-25.13181661333892
 20
-7.499999999999708
 30
0.0
 10
-31.11136285212439
 20
-3.749999999999701
 30
0.0
 10
-36.64179128456674
 20
-0.0000000000000213
 30
0.0
  0
ELLIPSE
  5
223B
330
1F
100
AcDbEntity
  8
AM_0
100
AcDbEllipse
 10
2.707736157309295
 20
-3.8158202470767
 30
0.0
 11
-0.0000000000000022
 21
4.561047173274074
 31
0.0
210
0.0
220
0.0
230
1.0
 40
0.9090909090909093
 41
1.211124581303824
 42
2.06927853829032
  0
LINE
  5
223C
330
1F
100
AcDbEntity
  8
AM_11
100
AcDbLine
 10
-0.0000000000015667
 20
7.500000000000156
 30
0.0
 11
-40.00000000000052
 21
7.500000000000092
 31
0.0
  0
LINE
  5
223D
330
1F
100
AcDbEntity
  8
AM_11
100
AcDbLine
 10
-40.00000000000492
 20
-7.499999999999892
 30
0.0
 11
-0.0000000000005222
 21
-7.499999999999843
 31
0.0
  0
LINE
  5
223E
330
1F
100
AcDbEntity
  8
AM_0
100
AcDbLine
 10
-3.213507587757639
 20
-1.199999999999853
 30
0.0
 11
-1.173351798670299
 21
-2.210482147749658
 31
0.0
  0
LINE
  5
223F
330
1F
100
AcDbEntity
  8
AM_0
100
AcDbLine
 10
-3.213507587757639
 20
-1.199999999999853
 30
0.0
 11
-0.1574591643249654
 21
-1.199999999999853
 31
0.0
  0
LINE
  5
2240
330
1F
100
AcDbEntity
  8
AM_0
100
AcDbLine
 10
-0.0000000000005222
 20
0.0000000000001563
 30
0.0
 11
-3.213507587757639
 21
0.0000000000001563
 31
0.0
  0
LINE
  5
2241
330
1F
100
AcDbEntity
  8
AM_0
100
AcDbLine
 10
-1.455714815108503
 20
4.000711221015748
 30
0.0
 11
-3.213507587757639
 21
4.512680133792272
 31
0.0
  0
LINE
  5
2244
330
1F
100
AcDbEntity
  8
AM_0
100
AcDbLine
 10
-40.00010834913983
 20
-4.980777297578342
 30
0.0
 11
-40.00010834913998
 21
-7.293206237737429
 31
0.0
  0
LINE
  5
224A
330
1F
100
AcDbEntity
  8
AM_0
100
AcDbLine
 10
-40.48398349696118
 20
3.855193871455433
 30
0.0
 11
-40.00010834913855
 21
2.354878513468918
 31
0.0
  0
LINE
  5
224B
330
1F
100
AcDbEntity
  8
AM_0
100
AcDbLine
 10
-40.00000000000482
 20
4.694105589948712
 30
0.0
 11
-40.48398349696118
 21
3.855193871455433
 31
0.0
  0
POLYLINE
  5
224C
330
1F
100
AcDbEntity
  8
AM_0
100
AcDb2dPolyline
 66
     1
 10
0.0
 20
0.0
 30
0.0
 70
     2
  0
VERTEX
  5
224D
330
224C
100
AcDbEntity
  8
AM_0
100
AcDbVertex
100
AcDb2dVertex
 10
-43.62742623596974
 20
6.018623220257659
 30
0.0
 42
-0.0080850818469205
  0
VERTEX
  5
224E
330
224C
100
AcDbEntity
  8
AM_0
100
AcDbVertex
100
AcDb2dVertex
 10
-44.31111996378411
 20
6.254194181041675
 30
0.0
 42
-0.0113772357485858
 70
     1
  0
VERTEX
  5
224F
330
224C
100
AcDbEntity
  8
AM_0
100
AcDbVertex
100
AcDb2dVertex
 10
-44.79823267236655
 20
6.445305902537718
 30
0.0
 42
-0.0082896290467094
  0
VERTEX
  5
2250
330
224C
100
AcDbEntity
  8
AM_0
100
AcDbVertex
100
AcDb2dVertex
 10
-46.35073907312644
 20
7.131242138516924
 30
0.0
 42
-0.2726804491113656
 70
     1
  0
VERTEX
  5
2251
330
224C
100
AcDbEntity
  8
AM_0
100
AcDbVertex
100
AcDb2dVertex
 10
-46.38336385933199
 20
7.179456099103582
 30
0.0
 42
-0.4014058829339297
  0
VERTEX
  5
2252
330
224C
100
AcDbEntity
  8
AM_0
100
AcDbVertex
100
AcDb2dVertex
 10
-46.32421975006713
 20
7.263981063930451
 30
0.0
 42
-0.0313656446754737
 70
     1
  0
VERTEX
  5
2253
330
224C
100
AcDbEntity
  8
AM_0
100
AcDbVertex
100
AcDb2dVertex
 10
-45.25862895890123
 20
7.368179737005959
 30
0.0
 42
-0.0039726403541645
  0
VERTEX
  5
2254
330
224C
100
AcDbEntity
  8
AM_0
100
AcDbVertex
100
AcDb2dVertex
 10
-44.28821528530069
 20
7.387402755676454
 30
0.0
 42
0.0019401889352083
 70
     1
  0
VERTEX
  5
2255
330
224C
100
AcDbEntity
  8
AM_0
100
AcDbVertex
100
AcDb2dVertex
 10
-42.3011363636365
 20
7.417877784882641
 30
0.0
 42
0.0036525506412497
  0
VERTEX
  5
2256
330
224C
100
AcDbEntity
  8
AM_0
100
AcDbVertex
100
AcDb2dVertex
 10
-41.51974535156076
 20
7.439479658179969
 30
0.0
 42
0.0018773371428962
 70
     1
  0
VERTEX
  5
2257
330
224C
100
AcDbEntity
  8
AM_0
100
AcDbVertex
100
AcDb2dVertex
 10
-40.00000000000013
 20
7.500000000000092
 30
0.0
  0
SEQEND
  5
2258
330
224C
100
AcDbEntity
  8
AM_0
  0
LINE
  5
2259
330
1F
100
AcDbEntity
  8
AM_0
100
AcDbLine
 10
-3.213507587757639
 20
0.0000000000001563
 30
0.0
 11
-3.213507587757639
 21
-1.199999999999853
 31
0.0
  0
LINE
  5
225B
330
1F
100
AcDbEntity
  8
AM_0
100
AcDbLine
 10
-0.0000000000005222
 20
0.0000000000001563
 30
0.0
 11
-0.1211490124695658
 21
-1.26918013062847
 31
0.0
  0
LINE
  5
225C
330
1F
100
AcDbEntity
  8
AM_0
100
AcDbLine
 10
-0.0000000000005222
 20
-1.499999999999843
 30
0.0
 11
-0.7872958216227737
 21
0.0000000000002416
 31
0.0
  0
LINE
  5
225D
330
1F
100
AcDbEntity
  8
AM_0
100
AcDbLine
 10
-0.1431818181823274
 20
-7.10016173643249
 30
0.0
 11
-0.9340909090914344
 21
-5.996424983192717
 31
0.0
  0
LINE
  5
225E
330
1F
100
AcDbEntity
  8
AM_0
100
AcDbLine
 10
-0.0000000000005222
 20
-7.499999999999843
 30
0.0
 11
-0.0000000000005222
 21
-1.499999999999843
 31
0.0
  0
LINE
  5
225F
330
1F
100
AcDbEntity
  8
AM_0
100
AcDbLine
 10
-0.1431818181823274
 20
-7.100161736432582
 30
0.0
 11
-0.1431818181823274
 21
-1.990346781844628
 31
0.0
  0
LINE
  5
2260
330
1F
100
AcDbEntity
  8
AM_0
100
AcDbLine
 10
-0.0000000000005222
 20
-7.499999999999843
 30
0.0
 11
-0.1431818181823274
 21
-7.100161736432582
 31
0.0
  0
LINE
  5
2261
330
1F
100
AcDbEntity
  8
AM_0
100
AcDbLine
 10
-0.1431818181823274
 20
-1.990346781844628
 30
0.0
 11
-0.0000000000005222
 21
-1.499999999999843
 31
0.0
  0
LINE
  5
2262
330
1F
100
AcDbEntity
  8
AM_0
100
AcDbLine
 10
-1.173351798670299
 20
-2.210482147749658
 30
0.0
 11
-0.1431818181823274
 21
-1.990346781844628
 31
0.0
  0
LINE
  5
2263
330
1F
100
AcDbEntity
  8
AM_0
100
AcDbLine
 10
-0.0000000000005222
 20
0.0000000000001563
 30
0.0
 11
-0.0000000000005222
 21
7.500000000000156
 31
0.0
  0
LINE
  5
2264
330
1F
100
AcDbEntity
  8
AM_0
100
AcDbLine
 10
-0.1431818181823274
 20
1.500000000000319
 30
0.0
 11
-1.455714815108503
 21
4.000711221015748
 31
0.0
  0
LINE
  5
2265
330
1F
100
AcDbEntity
  8
AM_0
100
AcDbLine
 10
-0.0000000000005222
 20
0.0000000000001563
 30
0.0
 11
-0.1431818181823274
 21
1.500000000000319
 31
0.0
  0
LINE
  5
231D
330
1F
100
AcDbEntity
  8
AM_11
100
AcDbLine
 10
-40.00000000000492
 20
-7.500000000000092
 30
0.0
 11
-40.00000000000479
 21
7.4999999999999
 31
0.0
  0
POLYLINE
  5
24C9
330
1F
100
AcDbEntity
  8
AM_0
100
AcDb2dPolyline
 66
     1
 10
0.0
 20
0.0
 30
0.0
 70
     2
  0
VERTEX
  5
24CB
330
24C9
100
AcDbEntity
  8
AM_0
100
AcDbVertex
100
AcDb2dVertex
 10
-40.00000000000484
 20
2.354804729533055
 30
0.0
 42
0.0311138950035855
  0
VERTEX
  5
24D3
330
24C9
100
AcDbEntity
  8
AM_0
100
AcDbVertex
100
AcDb2dVertex
 10
-41.21780717716312
 20
2.719966981975179
 30
0.0
 42
0.0360740436678994
 70
     1
  0
VERTEX
  5
24CC
330
24C9
100
AcDbEntity
  8
AM_0
100
AcDbVertex
100
AcDb2dVertex
 10
-42.30124471277492
 20
2.891474551852603
 30
0.0
 42
0.035586243802713
  0
VERTEX
  5
24D4
330
24C9
100
AcDbEntity
  8
AM_0
100
AcDbVertex
100
AcDb2dVertex
 10
-44.54269342798091
 20
2.92226826204198
 30
0.0
 42
0.0943115179563565
 70
     1
  0
VERTEX
  5
24CD
330
24C9
100
AcDbEntity
  8
AM_0
100
AcDbVertex
100
AcDb2dVertex
 10
-45.36942653095674
 20
2.715151777431508
 30
0.0
 42
0.1218450732976241
  0
VERTEX
  5
24D5
330
24C9
100
AcDbEntity
  8
AM_0
100
AcDbVertex
100
AcDb2dVertex
 10
-45.95030407523316
 20
2.249217266682279
 30
0.0
 42
0.1610289288887001
 70
     1
  0
VERTEX
  5
24CE
330
24C9
100
AcDbEntity
  8
AM_0
100
AcDbVertex
100
AcDb2dVertex
 10
-46.13647198550219
 20
1.710888931231544
 30
0.0
 42
0.1057094808394895
  0
VERTEX
  5
24D6
330
24C9
100
AcDbEntity
  8
AM_0
100
AcDbVertex
100
AcDb2dVertex
 10
-46.00067815833078
 20
1.030527285201372
 30
0.0
 42
0.0575375020631194
 70
     1
  0
VERTEX
  5
24CF
330
24C9
100
AcDbEntity
  8
AM_0
100
AcDbVertex
100
AcDb2dVertex
 10
-45.36942653095674
 20
-0.0653920933506171
 30
0.0
 42
0.0292303467209648
  0
VERTEX
  5
24D8
330
24C9
100
AcDbEntity
  8
AM_0
100
AcDbVertex
100
AcDb2dVertex
 10
-44.31414831635163
 20
-1.328535428570262
 30
0.0
 42
0.0169403586778718
 70
     1
  0
VERTEX
  5
24D0
330
24C9
100
AcDbEntity
  8
AM_0
100
AcDbVertex
100
AcDb2dVertex
 10
-42.3012447127749
 20
-3.329787581300514
 30
0.0
 42
0.0315767810174046
  0
VERTEX
  5
24D7
330
24C9
100
AcDbEntity
  8
AM_0
100
AcDbVertex
100
AcDb2dVertex
 10
-41.48250941382627
 20
-3.999328492287872
 30
0.0
 42
0.0187729494813669
 70
     1
  0
VERTEX
  5
24D1
330
24C9
100
AcDbEntity
  8
AM_0
100
AcDbVertex
100
AcDb2dVertex
 10
-40.00010834913983
 20
-4.980777297577414
 30
0.0
  0
SEQEND
  5
24D2
330
24C9
100
AcDbEntity
  8
AM_0
  0
VIEWPORT
  5
110
330
101
100
AcDbEntity
 67
     1
  8
0
100
AcDbViewport
 10
420.5
 20
297.0
 30
0.0
 40
948.9782706766916
 41
628.452
 68
     1
 69
     1
1001
ACAD
1000
MVIEW
1002
{
1070
    16
1010
0.0
1020
0.0
1030
0.0
1010
0.0
1020
0.0
1030
1.0
1040
0.0
1040
628.452
1040
420.5
1040
297.0
1040
50.0
1040
0.0
1040
0.0
1070
     0
1070
   100
1070
     1
1070
     1
1070
     0
1070
     0
1070
     0
1070
     0
1040
0.0
1040
0.0
1040
0.0
1040
10.0
1040
10.0
1040
10.0
1040
10.0
1070
     0
1002
{
1002
}
1002
}
  0
ENDSEC
  0
SECTION
  2
OBJECTS
  0
DICTIONARY
  5
C
330
0
100
AcDbDictionary
  3
ACAD_GROUP
350
D
  3
ACAD_LAYOUT
350
1A
  3
ACAD_MLINESTYLE
350
17
  3
ACAD_PLOTSETTINGS
350
19
  3
ACAD_PLOTSTYLENAME
350
E
  3
ACDBVARIABLEDICTIONARY
350
34
  3
ACMDICTIONARY
350
43
  3
AMG
350
2B
  3
AMGSNAPSETTINGS
350
6E
  3
DWGPROPS
350
25A8
  3
ACDBHEADERROUNDTRIPXREC
350
25B4
  0
DICTIONARY
  5
74
330
1F
100
AcDbDictionary
280
     1
  3
ACAD_INDEX
360
25AA
  3
ACAD_LAYOUTSELFREF
360
25D7
  0
DICTIONARY
  5
25DC
330
101
100
AcDbDictionary
280
     1
  3
ACAD_LAYOUTSELFREF
360
25DD
  0
DICTIONARY
  5
D
102
{ACAD_REACTORS
330
C
102
}
330
C
100
AcDbDictionary
  0
DICTIONARY
  5
1A
102
{ACAD_REACTORS
330
C
102
}
330
C
100
AcDbDictionary
  0
DICTIONARY
  5
17
102
{ACAD_REACTORS
330
C
102
}
330
C
100
AcDbDictionary
  3
STANDARD
350
18
  0
DICTIONARY
  5
19
102
{ACAD_REACTORS
330
C
102
}
330
C
100
AcDbDictionary
  0
ACDBDICTIONARYWDFLT
  5
E
102
{ACAD_REACTORS
330
C
102
}
330
C
100
AcDbDictionary
281
     1
  3
Normal
350
F
100
AcDbDictionaryWithDefault
340
F
  0
DICTIONARY
  5
34
102
{ACAD_REACTORS
330
C
102
}
330
C
100
AcDbDictionary
  3
INDEXCTL
350
35
  3
SORTENTS
350
B5E
  0
DICTIONARY
  5
43
102
{ACAD_REACTORS
330
C
102
}
330
C
100
AcDbDictionary
  3
ACMSTDDICTIONARY
350
260
  0
DICTIONARY
  5
2B
102
{ACAD_REACTORS
330
C
102
}
330
C
100
AcDbDictionary
  3
ACMGSETTINGS
350
2C
  0
DICTIONARY
  5
6E
102
{ACAD_REACTORS
330
C
102
}
330
C
100
AcDbDictionary
  0
XRECORD
  5
25A8
102
{ACAD_REACTORS
330
C
102
}
330
C
100
AcDbXrecord
  1
DWGPROPS COOKIE
  2

  3

  4

  6

  7

  8

  9

300
AmdtFileType=82
301
=
302
=
303
=
304
=
305
=
306
=
307
=
308
=
309
=
 40
0.0669261689814815
 41
2452836.771637361
 42
2452901.583151389
  1

 90
        1
  0
DICTIONARY
  5
25B4
102
{ACAD_REACTORS
330
C
102
}
330
C
100
AcDbDictionary
  3
TSTACKALIGN
350
25B5
  3
TSTACKSIZE
350
25B6
  3
HYPERLINKBASE
350
25B7
  3
STYLESHEET
350
25B8
  3
LAYOUTDICT
350
25B9
  3
PLOTSETDICT
350
25BA
  3
PLOTSTYLNAMDICT
350
25BB
  3
LWETCUNION
350
25BC
  3
INSUNITS
350
25BD
  3
CEPSNTYPE
350
25BE
  3
FINGERPRINTGUID
350
25BF
  3
VERSIONGUID
350
25C0
  3
PSVPSCALE
350
25C1
  3
DIMSTYLEDATA
350
25C2
  3
PUCSORTHOREF
350
25C3
  3
PUCSORTHOVIEW
350
25C4
  3
PUCSBASE
350
25C5
  3
PUCSORGTOP
350
25C6
  3
PUCSORGBOTTOM
350
25C7
  3
PUCSORGLEFT
350
25C8
  3
PUCSORGRIGHT
350
25C9
  3
PUCSORGFRONT
350
25CA
  3
PUCSORGBACK
350
25CB
  3
UCSORTHOREF
350
25CC
  3
UCSORTHOVIEW
350
25CD
  3
UCSBASE
350
25CE
  3
UCSORGTOP
350
25CF
  3
UCSORGBOTTOM
350
25D0
  3
UCSORGLEFT
350
25D1
  3
UCSORGRIGHT
350
25D2
  3
UCSORGFRONT
350
25D3
  3
UCSORGBACK
350
25D4
  0
DICTIONARY
  5
25AA
102
{ACAD_REACTORS
330
74
102
}
330
74
100
AcDbDictionary
  3
*A1
350
25AB
  0
XRECORD
  5
25D7
102
{ACAD_REACTORS
330
74
102
}
330
74
100
AcDbXrecord
340
1F
  0
XRECORD
  5
25DD
102
{ACAD_REACTORS
330
25DC
102
}
330
25DC
100
AcDbXrecord
340
101
  0
MLINESTYLE
  5
18
102
{ACAD_REACTORS
330
17
102
}
330
17
100
AcDbMlineStyle
  2
STANDARD
 70
     0
  3

 62
   256
 51
90.0
 52
90.0
 71
     2
 49
0.5
 62
   256
  6
BYLAYER
 49
-0.5
 62
   256
  6
BYLAYER
  0
ACDBPLACEHOLDER
  5
F
102
{ACAD_REACTORS
330
E
102
}
330
E
100
AcDbPlaceHolder
280
     0
  0
DICTIONARYVAR
  5
35
102
{ACAD_REACTORS
330
34
102
}
330
34
100
DictionaryVariables
280
     0
  1
1
  0
DICTIONARYVAR
  5
B5E
102
{ACAD_REACTORS
330
34
102
}
330
34
100
DictionaryVariables
280
     0
  1
96
  0
DICTIONARY
  5
260
102
{ACAD_REACTORS
330
43
102
}
330
43
100
AcDbDictionary
  0
DICTIONARY
  5
2C
102
{ACAD_REACTORS
330
2B
102
}
330
2B
100
AcDbDictionary
  3
DWGSETTINGS
350
2D
  0
XRECORD
  5
25B5
102
{ACAD_REACTORS
330
25B4
102
}
330
25B4
100
AcDbXrecord
 90
        1
  0
XRECORD
  5
25B6
102
{ACAD_REACTORS
330
25B4
102
}
330
25B4
100
AcDbXrecord
 90
       70
  0
XRECORD
  5
25B7
102
{ACAD_REACTORS
330
25B4
102
}
330
25B4
100
AcDbXrecord
  1

  0
XRECORD
  5
25B8
102
{ACAD_REACTORS
330
25B4
102
}
330
25B4
100
AcDbXrecord
  1
ASAMI.ctb
  0
XRECORD
  5
25B9
102
{ACAD_REACTORS
330
25B4
102
}
330
25B4
100
AcDbXrecord
340
1A
  0
XRECORD
  5
25BA
102
{ACAD_REACTORS
330
25B4
102
}
330
25B4
100
AcDbXrecord
340
19
  0
XRECORD
  5
25BB
102
{ACAD_REACTORS
330
25B4
102
}
330
25B4
100
AcDbXrecord
340
E
  0
XRECORD
  5
25BC
102
{ACAD_REACTORS
330
25B4
102
}
330
25B4
100
AcDbXrecord
 90
    10781
  0
XRECORD
  5
25BD
102
{ACAD_REACTORS
330
25B4
102
}
330
25B4
100
AcDbXrecord
 90
        4
  0
XRECORD
  5
25BE
102
{ACAD_REACTORS
330
25B4
102
}
330
25B4
100
AcDbXrecord
 90
        0
  0
XRECORD
  5
25BF
102
{ACAD_REACTORS
330
25B4
102
}
330
25B4
100
AcDbXrecord
  1
{AFB28963-8C59-40AE-9337-C84526B81ACE}
  0
XRECORD
  5
25C0
102
{ACAD_REACTORS
330
25B4
102
}
330
25B4
100
AcDbXrecord
  1
{0813B398-60AC-47FF-B832-0FD0F6087298}
  0
XRECORD
  5
25C1
102
{ACAD_REACTORS
330
25B4
102
}
330
25B4
100
AcDbXrecord
 40
0.0
  0
XRECORD
  5
25C2
102
{ACAD_REACTORS
330
25B4
102
}
330
25B4
100
AcDbXrecord
1000
DSTYLE
1002
{
1070
    79
 70
     2
1070
   341
340
59
1070
   342
340
59
1070
   371
 70
    -1
1070
   372
 70
    -1
1002
}
  0
XRECORD
  5
25C3
102
{ACAD_REACTORS
330
25B4
102
}
330
25B4
100
AcDbXrecord
340
0
  0
XRECORD
  5
25C4
102
{ACAD_REACTORS
330
25B4
102
}
330
25B4
100
AcDbXrecord
 70
     0
  0
XRECORD
  5
25C5
102
{ACAD_REACTORS
330
25B4
102
}
330
25B4
100
AcDbXrecord
340
0
  0
XRECORD
  5
25C6
102
{ACAD_REACTORS
330
25B4
102
}
330
25B4
100
AcDbXrecord
 10
0.0
 20
0.0
 30
0.0
  0
XRECORD
  5
25C7
102
{ACAD_REACTORS
330
25B4
102
}
330
25B4
100
AcDbXrecord
 10
0.0
 20
0.0
 30
0.0
  0
XRECORD
  5
25C8
102
{ACAD_REACTORS
330
25B4
102
}
330
25B4
100
AcDbXrecord
 10
0.0
 20
0.0
 30
0.0
  0
XRECORD
  5
25C9
102
{ACAD_REACTORS
330
25B4
102
}
330
25B4
100
AcDbXrecord
 10
0.0
 20
0.0
 30
0.0
  0
XRECORD
  5
25CA
102
{ACAD_REACTORS
330
25B4
102
}
330
25B4
100
AcDbXrecord
 10
0.0
 20
0.0
 30
0.0
  0
XRECORD
  5
25CB
102
{ACAD_REACTORS
330
25B4
102
}
330
25B4
100
AcDbXrecord
 10
0.0
 20
0.0
 30
0.0
  0
XRECORD
  5
25CC
102
{ACAD_REACTORS
330
25B4
102
}
330
25B4
100
AcDbXrecord
340
0
  0
XRECORD
  5
25CD
102
{ACAD_REACTORS
330
25B4
102
}
330
25B4
100
AcDbXrecord
 70
     0
  0
XRECORD
  5
25CE
102
{ACAD_REACTORS
330
25B4
102
}
330
25B4
100
AcDbXrecord
340
0
  0
XRECORD
  5
25CF
102
{ACAD_REACTORS
330
25B4
102
}
330
25B4
100
AcDbXrecord
 10
0.0
 20
0.0
 30
0.0
  0
XRECORD
  5
25D0
102
{ACAD_REACTORS
330
25B4
102
}
330
25B4
100
AcDbXrecord
 10
0.0
 20
0.0
 30
0.0
  0
XRECORD
  5
25D1
102
{ACAD_REACTORS
330
25B4
102
}
330
25B4
100
AcDbXrecord
 10
0.0
 20
0.0
 30
0.0
  0
XRECORD
  5
25D2
102
{ACAD_REACTORS
330
25B4
102
}
330
25B4
100
AcDbXrecord
 10
0.0
 20
0.0
 30
0.0
  0
XRECORD
  5
25D3
102
{ACAD_REACTORS
330
25B4
102
}
330
25B4
100
AcDbXrecord
 10
0.0
 20
0.0
 30
0.0
  0
XRECORD
  5
25D4
102
{ACAD_REACTORS
330
25B4
102
}
330
25B4
100
AcDbXrecord
 10
0.0
 20
0.0
 30
0.0
  0
LAYER_INDEX
  5
25AB
102
{ACAD_REACTORS
330
25AA
102
}
330
25AA
100
AcDbIndex
 40
2453152.442537685
100
AcDbLayerIndex
  8
0
360
25AC
 90
        0
  8
AM_0
360
25AD
 90
       65
  8
AM_11
360
25AE
 90
        3
  8
AM_7
360
25AF
 90
        1
  8
AM_5
360
25B0
 90
        4
  8
Defpoints
360
25B1
 90
        0
  8
AM_6
360
25B2
 90
        1
  0
XRECORD
  5
2D
102
{ACAD_REACTORS
330
2C
102
}
330
2C
100
AcDbXrecord
  1
VERSION
140
15.0
  1
PRODUCT
  2
AutoCAD Mechanical 2000
  0
IDBUFFER
  5
25AC
330
0
100
AcDbIdBuffer
  0
IDBUFFER
  5
25AD
330
0
100
AcDbIdBuffer
330
2244
330
224A
330
224B
330
224C
330
2259
330
225B
330
225C
330
225D
330
225E
330
225F
330
2260
330
2261
330
2262
330
2263
330
2264
330
2265
330
24C9
330
17E7
330
17E8
330
191B
330
191E
330
191F
330
192D
330
1939
330
193F
330
194C
330
1A88
330
1A8D
330
1DFB
330
1DFC
330
221D
330
221E
330
221F
330
2220
330
2221
330
2222
330
2223
330
2224
330
2225
330
2226
330
2227
330
2228
330
2229
330
222A
330
222B
330
222C
330
222D
330
222E
330
222F
330
2230
330
2231
330
2232
330
2233
330
2234
330
2235
330
2236
330
2237
330
2238
330
2239
330
223A
330
223B
330
223E
330
223F
330
2240
330
2241
  0
IDBUFFER
  5
25AE
330
0
100
AcDbIdBuffer
330
223C
330
223D
330
231D
  0
IDBUFFER
  5
25AF
330
0
100
AcDbIdBuffer
330
132B
  0
IDBUFFER
  5
25B0
330
0
100
AcDbIdBuffer
330
13B3
330
145B
330
1920
330
1A14
  0
IDBUFFER
  5
25B1
330
0
100
AcDbIdBuffer
  0
IDBUFFER
  5
25B2
330
0
100
AcDbIdBuffer
330
E5A
  0
ENDSEC
  0
EOF
