  0
SECTION
  2
HEADER
  9
$ACADVER
  1
AC1014
  9
$ACADMAINTVER
 70
     9
  9
$DWGCODEPAGE
  3
ANSI_932
  9
$INSBASE
 10
0.0
 20
0.0
 30
0.0
  9
$EXTMIN
 10
-143.6999999999999
 20
-66.10758120273597
 30
-0.00000001
  9
$EXTMAX
 10
14.42392444799416
 20
8.50000000000003
 30
0.00000001
  9
$LIMMIN
 10
-154.7439489828512
 20
-85.11348208970805
  9
$LIMMAX
 10
24.8585667391502
 20
24.66674505524247
  9
$ORTHOMODE
 70
     0
  9
$REGENMODE
 70
     1
  9
$FILLMODE
 70
     1
  9
$QTEXTMODE
 70
     0
  9
$MIRRTEXT
 70
     0
  9
$DRAGMODE
 70
     2
  9
$LTSCALE
 40
1.0
  9
$OSMODE
 70
    55
  9
$ATTMODE
 70
     1
  9
$TEXTSIZE
 40
2.5
  9
$TRACEWID
 40
1.0
  9
$TEXTSTYLE
  7
STANDARD
  9
$CLAYER
  8
AM_0
  9
$CELTYPE
  6
BYLAYER
  9
$CECOLOR
 62
   256
  9
$CELTSCALE
 40
1.0
  9
$DELOBJ
 70
     1
  9
$DISPSILH
 70
     0
  9
$DIMSCALE
 40
1.0
  9
$DIMASZ
 40
2.5
  9
$DIMEXO
 40
1.0
  9
$DIMDLI
 40
12.0
  9
$DIMRND
 40
0.0
  9
$DIMDLE
 40
0.0
  9
$DIMEXE
 40
1.0
  9
$DIMTP
 40
0.1
  9
$DIMTM
 40
0.1
  9
$DIMTXT
 40
3.2
  9
$DIMCEN
 40
0.0
  9
$DIMTSZ
 40
0.0
  9
$DIMTOL
 70
     0
  9
$DIMLIM
 70
     0
  9
$DIMTIH
 70
     0
  9
$DIMTOH
 70
     0
  9
$DIMSE1
 70
     0
  9
$DIMSE2
 70
     0
  9
$DIMTAD
 70
     3
  9
$DIMZIN
 70
     8
  9
$DIMBLK
  1
OPEN30
  9
$DIMASO
 70
     1
  9
$DIMSHO
 70
     1
  9
$DIMPOST
  1

  9
$DIMAPOST
  1
"
  9
$DIMALT
 70
     0
  9
$DIMALTD
 70
     2
  9
$DIMALTF
 40
0.0393701
  9
$DIMLFAC
 40
1.0
  9
$DIMTOFL
 70
     1
  9
$DIMTVP
 40
0.0
  9
$DIMTIX
 70
     0
  9
$DIMSOXD
 70
     0
  9
$DIMSAH
 70
     0
  9
$DIMBLK1
  1

  9
$DIMBLK2
  1

  9
$DIMSTYLE
  2
AM_JIS
  9
$DIMCLRD
 70
   256
  9
$DIMCLRE
 70
   256
  9
$DIMCLRT
 70
     2
  9
$DIMTFAC
 40
0.71
  9
$DIMGAP
 40
1.5
  9
$DIMJUST
 70
     0
  9
$DIMSD1
 70
     0
  9
$DIMSD2
 70
     0
  9
$DIMTOLJ
 70
     0
  9
$DIMTZIN
 70
     0
  9
$DIMALTZ
 70
     0
  9
$DIMALTTZ
 70
     0
  9
$DIMFIT
 70
     3
  9
$DIMUPT
 70
     0
  9
$DIMUNIT
 70
     2
  9
$DIMDEC
 70
     3
  9
$DIMTDEC
 70
     3
  9
$DIMALTU
 70
     2
  9
$DIMALTTD
 70
     2
  9
$DIMTXSTY
  7
ASAMI
  9
$DIMAUNIT
 70
     0
  9
$LUNITS
 70
     2
  9
$LUPREC
 70
     2
  9
$SKETCHINC
 40
1.0
  9
$FILLETRAD
 40
2.5
  9
$AUNITS
 70
     0
  9
$AUPREC
 70
     0
  9
$MENU
  1
.
  9
$ELEVATION
 40
0.0
  9
$PELEVATION
 40
0.0
  9
$THICKNESS
 40
0.0
  9
$LIMCHECK
 70
     0
  9
$BLIPMODE
 70
     0
  9
$CHAMFERA
 40
0.75
  9
$CHAMFERB
 40
0.75
  9
$CHAMFERC
 40
20.0
  9
$CHAMFERD
 40
0.0
  9
$SKPOLY
 70
     0
  9
$TDCREATE
 40
2452838.430434386
  9
$TDUPDATE
 40
2453152.434826088
  9
$TDINDWG
 40
0.1817243981
  9
$TDUSRTIMER
 40
0.1817243981
  9
$USRTIMER
 70
     1
  9
$ANGBASE
 50
0.0
  9
$ANGDIR
 70
     0
  9
$PDMODE
 70
     0
  9
$PDSIZE
 40
0.0
  9
$PLINEWID
 40
0.0
  9
$COORDS
 70
     1
  9
$SPLFRAME
 70
     0
  9
$SPLINETYPE
 70
     6
  9
$SPLINESEGS
 70
     8
  9
$ATTDIA
 70
     1
  9
$ATTREQ
 70
     1
  9
$HANDLING
 70
 12289
  9
$HANDSEED
  5
523E
  9
$SURFTAB1
 70
     6
  9
$SURFTAB2
 70
     6
  9
$SURFTYPE
 70
     6
  9
$SURFU
 70
     6
  9
$SURFV
 70
     6
  9
$UCSNAME
  2

  9
$UCSORG
 10
0.0
 20
0.0
 30
0.0
  9
$UCSXDIR
 10
1.0
 20
0.0
 30
0.0
  9
$UCSYDIR
 10
0.0
 20
1.0
 30
0.0
  9
$PUCSNAME
  2

  9
$PUCSORG
 10
0.0
 20
0.0
 30
0.0
  9
$PUCSXDIR
 10
1.0
 20
0.0
 30
0.0
  9
$PUCSYDIR
 10
0.0
 20
1.0
 30
0.0
  9
$USERI1
 70
     0
  9
$USERI2
 70
     0
  9
$USERI3
 70
     0
  9
$USERI4
 70
     0
  9
$USERI5
 70
     0
  9
$USERR1
 40
0.0
  9
$USERR2
 40
0.0
  9
$USERR3
 40
0.0
  9
$USERR4
 40
0.0
  9
$USERR5
 40
0.0
  9
$WORLDVIEW
 70
     1
  9
$SHADEDGE
 70
     3
  9
$SHADEDIF
 70
    70
  9
$TILEMODE
 70
     1
  9
$MAXACTVP
 70
    64
  9
$PINSBASE
 10
0.0
 20
0.0
 30
0.0
  9
$PLIMCHECK
 70
     0
  9
$PEXTMIN
 10
1.000000000000000E+20
 20
1.000000000000000E+20
 30
1.000000000000000E+20
  9
$PEXTMAX
 10
-1.000000000000000E+20
 20
-1.000000000000000E+20
 30
-1.000000000000000E+20
  9
$PLIMMIN
 10
0.0
 20
0.0
  9
$PLIMMAX
 10
841.0
 20
594.0
  9
$UNITMODE
 70
     0
  9
$VISRETAIN
 70
     1
  9
$PLINEGEN
 70
     0
  9
$PSLTSCALE
 70
     0
  9
$TREEDEPTH
 70
  3020
  9
$PICKSTYLE
 70
     0
  9
$CMLSTYLE
  2
STANDARD
  9
$CMLJUST
 70
     0
  9
$CMLSCALE
 40
20.0
  9
$PROXYGRAPHICS
 70
     1
  9
$MEASUREMENT
 70
     1
  0
ENDSEC
  0
SECTION
  2
CLASSES
  0
CLASS
  1
ACDBDICTIONARYWDFLT
  2
AcDbDictionaryWithDefault
  3
AutoCAD 2000
 90
        0
280
     0
281
     0
  0
CLASS
  1
ACDBPLACEHOLDER
  2
AcDbPlaceHolder
  3
AutoCAD 2000
 90
        0
280
     0
281
     0
  0
CLASS
  1
LAYOUT
  2
AcDbLayout
  3
AutoCAD 2000
 90
        0
280
     0
281
     0
  0
CLASS
  1
AMGSETTINGSOBJ
  2
AmgSettingsObj
  3
"AcadM|Product Description: AutoCAD Mechanical 2000|Company: Autodesk"
 90
        0
280
     0
281
     0
  0
CLASS
  1
ACME_DOCUMENT
  2
AcMeDbDoc
  3
AcMeServices
 90
        0
280
     0
281
     0
  0
CLASS
  1
ACMESCOPE
  2
AcMeScope
  3
AcMeServices
 90
        0
280
     0
281
     0
  0
CLASS
  1
ACMECOMMANDHISTORY
  2
AcMeCommandHistory
  3
AcMeServices
 90
        0
280
     0
281
     0
  0
CLASS
  1
DICTIONARYVAR
  2
AcDbDictionaryVar
  3
AutoCAD 2000
 90
        0
280
     0
281
     0
  0
CLASS
  1
ACIMSYSVARMAN
  2
AcImSysVarManager
  3
AcMeServices
 90
        0
280
     0
281
     0
  0
CLASS
  1
ACIMREALSYSVAR
  2
AcImRealSysVar
  3
AcMeServices
 90
        0
280
     0
281
     0
  0
CLASS
  1
ACIMINTSYSVAR
  2
AcImIntSysVar
  3
AcMeServices
 90
        0
280
     0
281
     0
  0
CLASS
  1
ACMEDRAWINGMAN
  2
AcMeDrawingMan
  3
AcMeServices
 90
        0
280
     0
281
     0
  0
CLASS
  1
ACMEVIEW
  2
AcMeView
  3
AcMeServices
 90
        0
280
     0
281
     0
  0
CLASS
  1
ACDBENTITYCACHE
  2
AcMeEntityCache
  3
AcMeServices
 90
        0
280
     0
281
     0
  0
CLASS
  1
GSMANAGER
  2
AcMeGSManager
  3
AcMeServices
 90
        0
280
     0
281
     0
  0
CLASS
  1
AmdtInternalReactor
  2
AmdtInternalReactor
  3
AcMeServices
 90
        0
280
     0
281
     0
  0
CLASS
  1
ACMESTATEMGR
  2
AcMeStateMgr
  3
AcMeServices
 90
        0
280
     0
281
     0
  0
CLASS
  1
ACME_DATABASE
  2
AcMeDbDatabase
  3
AcMeServices
 90
        0
280
     0
281
     0
  0
CLASS
  1
ACRFINSADJUSTERMGR
  2
AcRfInsAdjusterMgr
  3
AcMeServices
 90
        0
280
     0
281
     0
  0
CLASS
  1
ACMDATADICTIONARY
  2
AcmDataDictionary
  3
"AcmSymBB|Product Description: AutoCAD Mechanical 2000|Company: Autodesk"
 90
        0
280
     0
281
     0
  0
CLASS
  1
ACMDATAENTRYBLOCK
  2
AcmDataEntryBlock
  3
"AcmSymBB|Product Description: AutoCAD Mechanical 2000|Company: Autodesk"
 90
        0
280
     0
281
     0
  0
CLASS
  1
AMGOBJPROPCFG
  2
AmgObjPropCfg
  3
"AmgLay|Product Description: AutoCAD Mechanical 2000|Company: Autodesk"
 90
        1
280
     0
281
     0
  0
CLASS
  1
ACAMGFILTERDAT
  2
AcAmgFilterDat
  3
"AcadM|Product Description: AutoCAD Mechanical 2000|Company: Autodesk"
 90
        0
280
     0
281
     0
  0
CLASS
  1
LAYER_INDEX
  2
AcDbLayerIndex
  3
AutoCAD 2000
 90
        0
280
     0
281
     0
  0
CLASS
  1
IDBUFFER
  2
AcDbIdBuffer
  3
AutoCAD 2000
 90
        0
280
     0
281
     0
  0
CLASS
  1
ACIMSTRSYSVAR
  2
AcImStrSysVar
  3
AcMeServices
 90
        0
280
     0
281
     0
  0
CLASS
  1
ACMSTANDARDJIS
  2
AcmStandardJIS
  3
"AcmSymBB|Product Description: AutoCAD Mechanical 2000|Company: Autodesk"
 90
        0
280
     0
281
     0
  0
CLASS
  1
ACMSURFSTANDARDJIS
  2
AcmSurfTextStdJIS
  3
"AcmSymBB|Product Description: AutoCAD Mechanical 2000|Company: Autodesk"
 90
        0
280
     0
281
     0
  0
CLASS
  1
ACMFCFSTANDARDJIS
  2
AcmFCFStdJIS
  3
"AcmSymBB|Product Description: AutoCAD Mechanical 2000|Company: Autodesk"
 90
        0
280
     0
281
     0
  0
CLASS
  1
ACMWELDSTANDARDJIS
  2
AcmWeldingStdJIS
  3
"AcmSymBB|Product Description: AutoCAD Mechanical 2000|Company: Autodesk"
 90
        0
280
     0
281
     0
  0
CLASS
  1
ACMIDSTANDARDJIS
  2
AcmIdStdJIS
  3
"AcmSymBB|Product Description: AutoCAD Mechanical 2000|Company: Autodesk"
 90
        0
280
     0
281
     0
  0
CLASS
  1
ACMDATUMSTANDARDJIS
  2
AcmDatumStdJIS
  3
"AcmSymBB|Product Description: AutoCAD Mechanical 2000|Company: Autodesk"
 90
        0
280
     0
281
     0
  0
CLASS
  1
ACMBOMSTANDARDJIS
  2
AcmBOMStdJIS
  3
"AcmSymBB|Product Description: AutoCAD Mechanical 2000|Company: Autodesk"
 90
        0
280
     0
281
     0
  0
CLASS
  1
ACMSTANDARDANSI
  2
AcmStandardANSI
  3
"AcmSymBB|Product Description: AutoCAD Mechanical 2000|Company: Autodesk"
 90
        0
280
     0
281
     0
  0
CLASS
  1
ACMSURFSTANDARDANSI
  2
AcmSurfTextStdANSI
  3
"AcmSymBB|Product Description: AutoCAD Mechanical 2000|Company: Autodesk"
 90
        0
280
     0
281
     0
  0
CLASS
  1
ACMFCFSTANDARDANSI
  2
AcmFCFStdANSI
  3
"AcmSymBB|Product Description: AutoCAD Mechanical 2000|Company: Autodesk"
 90
        0
280
     0
281
     0
  0
CLASS
  1
ACMWELDSTANDARDANSI
  2
AcmWeldingStdANSI
  3
"AcmSymBB|Product Description: AutoCAD Mechanical 2000|Company: Autodesk"
 90
        0
280
     0
281
     0
  0
CLASS
  1
ACMIDSTANDARDANSI
  2
AcmIdStdANSI
  3
"AcmSymBB|Product Description: AutoCAD Mechanical 2000|Company: Autodesk"
 90
        0
280
     0
281
     0
  0
CLASS
  1
ACMDATUMSTANDARDANSI
  2
AcmDatumStdANSI
  3
"AcmSymBB|Product Description: AutoCAD Mechanical 2000|Company: Autodesk"
 90
        0
280
     0
281
     0
  0
CLASS
  1
ACMBOMSTANDARDANSI
  2
AcmBOMStdANSI
  3
"AcmSymBB|Product Description: AutoCAD Mechanical 2000|Company: Autodesk"
 90
        0
280
     0
281
     0
  0
CLASS
  1
ACMSTANDARDBSI
  2
AcmStandardBSI
  3
"AcmSymBB|Product Description: AutoCAD Mechanical 2000|Company: Autodesk"
 90
        0
280
     0
281
     0
  0
CLASS
  1
ACMSURFSTANDARDBSI
  2
AcmSurfTextStdBSI
  3
"AcmSymBB|Product Description: AutoCAD Mechanical 2000|Company: Autodesk"
 90
        0
280
     0
281
     0
  0
CLASS
  1
ACMFCFSTANDARDBSI
  2
AcmFCFStdBSI
  3
"AcmSymBB|Product Description: AutoCAD Mechanical 2000|Company: Autodesk"
 90
        0
280
     0
281
     0
  0
CLASS
  1
ACMWELDSTANDARDBSI
  2
AcmWeldingStdBSI
  3
"AcmSymBB|Product Description: AutoCAD Mechanical 2000|Company: Autodesk"
 90
        0
280
     0
281
     0
  0
CLASS
  1
ACMIDSTANDARDBSI
  2
AcmIdStdBSI
  3
"AcmSymBB|Product Description: AutoCAD Mechanical 2000|Company: Autodesk"
 90
        0
280
     0
281
     0
  0
CLASS
  1
ACMDATUMSTANDARDBSI
  2
AcmDatumStdBSI
  3
"AcmSymBB|Product Description: AutoCAD Mechanical 2000|Company: Autodesk"
 90
        0
280
     0
281
     0
  0
CLASS
  1
ACMBOMSTANDARDBSI
  2
AcmBOMStdBSI
  3
"AcmSymBB|Product Description: AutoCAD Mechanical 2000|Company: Autodesk"
 90
        0
280
     0
281
     0
  0
CLASS
  1
LONG_TRANSACTION
  2
AcDbLongTransaction
  3
AutoCAD 2000
 90
        0
280
     0
281
     0
  0
CLASS
  1
LWPOLYLINE
  2
AcDbPolyline
  3
AutoCAD 2000
 90
        0
280
     0
281
     1
  0
CLASS
  1
HATCH
  2
AcDbHatch
  3
AutoCAD 2000
 90
        0
280
     0
281
     1
  0
CLASS
  1
XRECORD
  2
AcDbXrecord
  3
AutoCAD 2000
 90
        0
280
     0
281
     0
  0
ENDSEC
  0
SECTION
  2
TABLES
  0
TABLE
  2
VPORT
  5
8
330
0
100
AcDbSymbolTable
 70
     3
  0
VPORT
  5
520D
330
8
100
AcDbSymbolTableRecord
100
AcDbViewportTableRecord
  2
*ACTIVE
 70
     0
 10
0.0
 20
0.0
 11
1.0
 21
1.0
 12
-64.6343825517911
 22
-28.80370971344878
 13
0.0
 23
0.0
 14
2.5
 24
2.5
 15
10.0
 25
10.0
 16
0.0
 26
0.0
 36
1.0
 17
0.0
 27
0.0
 37
0.0
 40
101.4064613210908
 41
1.56570841889117
 42
50.0
 43
0.0
 44
0.0
 50
0.0
 51
0.0
 71
     0
 72
   100
 73
     1
 74
     3
 75
     0
 76
     0
 77
     0
 78
     0
  0
ENDTAB
  0
TABLE
  2
LTYPE
  5
5
330
0
100
AcDbSymbolTable
 70
    10
  0
LTYPE
  5
14
330
5
100
AcDbSymbolTableRecord
100
AcDbLinetypeTableRecord
  2
BYBLOCK
 70
     0
  3

 72
    65
 73
     0
 40
0.0
  0
LTYPE
  5
15
330
5
100
AcDbSymbolTableRecord
100
AcDbLinetypeTableRecord
  2
BYLAYER
 70
     0
  3

 72
    65
 73
     0
 40
0.0
  0
LTYPE
  5
16
330
5
100
AcDbSymbolTableRecord
100
AcDbLinetypeTableRecord
  2
CONTINUOUS
 70
     0
  3
Solid line
 72
    65
 73
     0
 40
0.0
  0
LTYPE
  5
4B
330
5
100
AcDbSymbolTableRecord
100
AcDbLinetypeTableRecord
  2
AM_ISO02W050
 70
     0
  3
__ __ __ __ __ __ __ __ __ __ __ __ __ __ __
 72
    65
 73
     2
 40
7.5
 49
6.0
 74
     0
 49
-1.5
 74
     0
  0
LTYPE
  5
4C
330
5
100
AcDbSymbolTableRecord
100
AcDbLinetypeTableRecord
  2
AM_ISO08W050
 70
     0
  3
____ . ____ . ____ . ____ . ____ . ____ . ____
 72
    65
 73
     4
 40
18.0
 49
12.0
 74
     0
 49
-1.5
 74
     0
 49
3.0
 74
     0
 49
-1.5
 74
     0
  0
LTYPE
  5
4D
330
5
100
AcDbSymbolTableRecord
100
AcDbLinetypeTableRecord
  2
AM_ISO09W050
 70
     0
  3
_____ . . _____ . . _____ . . ____ .. ____
 72
    65
 73
     6
 40
22.5
 49
12.0
 74
     0
 49
-1.5
 74
     0
 49
3.0
 74
     0
 49
-1.5
 74
     0
 49
3.0
 74
     0
 49
-1.5
 74
     0
  0
LTYPE
  5
4E
330
5
100
AcDbSymbolTableRecord
100
AcDbLinetypeTableRecord
  2
AMCONSTR
 70
     0
  3
_______________________
 72
    65
 73
     2
 40
9999.0
 49
9999.0
 74
     0
 49
0.0
 74
     0
  0
LTYPE
  5
4F
330
5
100
AcDbSymbolTableRecord
100
AcDbLinetypeTableRecord
  2
AM_ISO02W050X2
 70
     0
  3
 _ _ _ _ _ _ _ _ _ _ _ _
 72
    65
 73
     2
 40
3.75
 49
3.0
 74
     0
 49
-0.75
 74
     0
  0
LTYPE
  5
50
330
5
100
AcDbSymbolTableRecord
100
AcDbLinetypeTableRecord
  2
AM_ISO08W050X2
 70
     0
  3
__ . __ . __ . __ . __ . __
 72
    65
 73
     4
 40
9.0
 49
6.0
 74
     0
 49
-0.75
 74
     0
 49
1.5
 74
     0
 49
-0.75
 74
     0
  0
LTYPE
  5
53
330
5
100
AcDbSymbolTableRecord
100
AcDbLinetypeTableRecord
  2
AMZIGZAG
 70
     0
  3
/\/-/\/-/\/-/\/-/\/-/\/
 72
    65
 73
     2
 40
11.00009999999999
 49
0.0001
 74
     4
 75
   135
340
52
 46
0.04
 50
0.0
 44
0.0
 45
0.0
 49
-11.0
 74
     0
  0
LTYPE
  5
166
330
5
100
AcDbSymbolTableRecord
100
AcDbLinetypeTableRecord
  2
ACJISTGL
 70
     0
  3
_ _ _ _ _
 72
    65
 73
     2
 40
3.0
 49
2.0
 74
     0
 49
-1.0
 74
     0
  0
LTYPE
  5
26A
330
5
100
AcDbSymbolTableRecord
100
AcDbLinetypeTableRecord
  2
ACJISTGB
 70
     0
  3
__ . . __ . .
 72
    65
 73
     6
 40
9.0
 49
4.0
 74
     0
 49
-1.0
 74
     0
 49
1.0
 74
     0
 49
-1.0
 74
     0
 49
1.0
 74
     0
 49
-1.0
 74
     0
  0
ENDTAB
  0
TABLE
  2
LAYER
  5
2
330
0
100
AcDbSymbolTable
 70
     7
  0
LAYER
  5
10
330
2
100
AcDbSymbolTableRecord
100
AcDbLayerTableRecord
  2
0
 70
     0
 62
     7
  6
CONTINUOUS
  0
LAYER
  5
3F9
330
2
100
AcDbSymbolTableRecord
100
AcDbLayerTableRecord
  2
AM_0
 70
     0
 62
     7
  6
CONTINUOUS
  0
LAYER
  5
BDD
330
2
100
AcDbSymbolTableRecord
100
AcDbLayerTableRecord
  2
AM_11
 70
     0
 62
     3
  6
AM_ISO09W050
  0
LAYER
  5
BDE
330
2
100
AcDbSymbolTableRecord
100
AcDbLayerTableRecord
  2
AM_7
 70
     0
 62
     4
  6
AM_ISO08W050
  0
LAYER
  5
BDF
330
2
100
AcDbSymbolTableRecord
100
AcDbLayerTableRecord
  2
AM_5
 70
     0
 62
     3
  6
CONTINUOUS
  0
LAYER
  5
BE0
330
2
100
AcDbSymbolTableRecord
100
AcDbLayerTableRecord
  2
DEFPOINTS
 70
     0
 62
     7
  6
CONTINUOUS
  0
LAYER
  5
14FF
330
2
100
AcDbSymbolTableRecord
100
AcDbLayerTableRecord
  2
AM_6
 70
     0
 62
     2
  6
CONTINUOUS
  0
ENDTAB
  0
TABLE
  2
STYLE
  5
3
330
0
100
AcDbSymbolTable
 70
     5
  0
STYLE
  5
11
330
3
100
AcDbSymbolTableRecord
100
AcDbTextStyleTableRecord
  2
STANDARD
 70
     0
 40
0.0
 41
1.0
 50
0.0
 71
     0
 42
2.5
  3
simplex.shx
  4
EXTFONT.SHX
  0
STYLE
  5
52
330
3
100
AcDbSymbolTableRecord
100
AcDbTextStyleTableRecord
  2

 70
     1
 40
0.0
 41
1.0
 50
0.0
 71
     0
 42
2.5
  3
ltypeshp.shx
  4

  0
STYLE
  5
6B
330
3
100
AcDbSymbolTableRecord
100
AcDbTextStyleTableRecord
  2
ASAMI
 70
     0
 40
0.0
 41
1.0
 50
0.0
 71
     0
 42
2.5
  3
simplex.shx
  4
EXTFONT.SHX
  0
STYLE
  5
262
330
3
100
AcDbSymbolTableRecord
100
AcDbTextStyleTableRecord
  2
ACJISTS
 70
     0
 40
1.0
 41
1.0
 50
0.0
 71
     0
 42
2.5
  3
simplex.shx
  4
bigfont.shx
  0
STYLE
  5
269
330
3
100
AcDbSymbolTableRecord
100
AcDbTextStyleTableRecord
  2
ACJISGDT
 70
     0
 40
0.0
 41
1.0
 50
0.0
 71
     0
 42
2.5
  3
amgdtans.shx
  4

  0
ENDTAB
  0
TABLE
  2
VIEW
  5
6
330
0
100
AcDbSymbolTable
 70
     0
  0
ENDTAB
  0
TABLE
  2
UCS
  5
7
330
0
100
AcDbSymbolTable
 70
     0
  0
ENDTAB
  0
TABLE
  2
APPID
  5
9
330
0
100
AcDbSymbolTable
 70
    14
  0
APPID
  5
12
330
9
100
AcDbSymbolTableRecord
100
AcDbRegAppTableRecord
  2
ACAD
 70
     0
  0
APPID
  5
30
330
9
100
AcDbSymbolTableRecord
100
AcDbRegAppTableRecord
  2
MCAD_NO_VIS
 70
     0
  0
APPID
  5
31
330
9
100
AcDbSymbolTableRecord
100
AcDbRegAppTableRecord
  2
ACAD_TEMP_GRAPHIC
 70
     0
  0
APPID
  5
2C2
330
9
100
AcDbSymbolTableRecord
100
AcDbRegAppTableRecord
  2
GENIUS_GENDTOL_13
 70
     0
  0
APPID
  5
339
330
9
100
AcDbSymbolTableRecord
100
AcDbRegAppTableRecord
  2
GENIUS_GENODEF_13
 70
     0
  0
APPID
  5
33A
330
9
100
AcDbSymbolTableRecord
100
AcDbRegAppTableRecord
  2
GENIUS_GENOBJ-N-RSBK_13
 70
     0
  0
APPID
  5
33B
330
9
100
AcDbSymbolTableRecord
100
AcDbRegAppTableRecord
  2
GENIUS_GENOBJ-N-LIB_13
 70
     0
  0
APPID
  5
33C
330
9
100
AcDbSymbolTableRecord
100
AcDbRegAppTableRecord
  2
GENIUS_GENSCALE_13
 70
     0
  0
APPID
  5
378
330
9
100
AcDbSymbolTableRecord
100
AcDbRegAppTableRecord
  2
GENIUS_GENDIMSH_14
 70
     0
  0
APPID
  5
BE1
330
9
100
AcDbSymbolTableRecord
100
AcDbRegAppTableRecord
  2
GENIUS_GENFIL_13
 70
     0
  0
APPID
  5
BE2
330
9
100
AcDbSymbolTableRecord
100
AcDbRegAppTableRecord
  2
GENIUS_GENOBJ-N-CHA_13
 70
     0
  0
APPID
  5
151B
330
9
100
AcDbSymbolTableRecord
100
AcDbRegAppTableRecord
  2
DCO15
 70
     0
  0
APPID
  5
1860
330
9
100
AcDbSymbolTableRecord
100
AcDbRegAppTableRecord
  2
GENIUS_GENOBJ-N-CEN_13
 70
     0
  0
APPID
  5
359C
330
9
100
AcDbSymbolTableRecord
100
AcDbRegAppTableRecord
  2
GENIUS_GENOBJ-N-FIL_13
 70
     0
  0
ENDTAB
  0
TABLE
  2
DIMSTYLE
  5
A
330
0
100
AcDbSymbolTable
 70
     8
  0
DIMSTYLE
105
58
102
{ACAD_REACTORS
330
4047
330
412A
330
42F4
330
4C4F
330
4D75
102
}
330
A
100
AcDbSymbolTableRecord
100
AcDbDimStyleTableRecord
  2
AM_JIS
 70
     0
  3

  4
"
  5
OPEN30
  6

  7

 40
1.0
 41
2.5
 42
1.0
 43
12.0
 44
1.0
 45
0.0
 46
0.0
 47
0.1
 48
0.1
140
3.2
141
0.0
142
0.0
143
0.0393701
144
1.0
145
0.0
146
0.71
147
1.5
 71
     0
 72
     0
 73
     0
 74
     0
 75
     0
 76
     0
 77
     3
 78
     8
170
     0
171
     2
172
     1
173
     0
174
     0
175
     0
176
   256
177
   256
178
     2
270
     2
271
     3
272
     3
273
     2
274
     2
340
6B
275
     0
280
     0
281
     0
282
     0
283
     0
284
     0
285
     0
286
     0
287
     3
288
     0
  0
DIMSTYLE
105
5F
330
A
100
AcDbSymbolTableRecord
100
AcDbDimStyleTableRecord
  2
AM_JIS$3
 70
     0
  3

  4
"
  5
OPEN30
  6

  7

 40
1.0
 41
2.5
 42
1.0
 43
10.0
 44
1.0
 45
0.0
 46
0.0
 47
0.1
 48
0.1
140
3.2
141
0.0
142
0.0
143
0.0393701
144
1.0
145
0.0
146
0.71
147
1.5
 71
     0
 72
     0
 73
     0
 74
     1
 75
     0
 76
     0
 77
     3
 78
     8
170
     0
171
     2
172
     0
173
     0
174
     0
175
     0
176
   256
177
   256
178
     2
270
     2
271
     2
272
     3
273
     2
274
     2
340
6B
275
     0
280
     0
281
     0
282
     0
283
     0
284
     0
285
     0
286
     0
287
     0
288
     1
  0
DIMSTYLE
105
60
102
{ACAD_REACTORS
330
4E46
102
}
330
A
100
AcDbSymbolTableRecord
100
AcDbDimStyleTableRecord
  2
AM_JIS$4
 70
     0
  3

  4
"
  5
OPEN30
  6

  7

 40
1.0
 41
2.5
 42
1.0
 43
10.0
 44
1.0
 45
0.0
 46
0.0
 47
0.1
 48
0.1
140
3.2
141
0.0
142
0.0
143
0.0393701
144
1.0
145
0.0
146
0.71
147
1.5
 71
     0
 72
     0
 73
     0
 74
     1
 75
     0
 76
     0
 77
     3
 78
     8
170
     0
171
     2
172
     0
173
     0
174
     0
175
     0
176
   256
177
   256
178
     2
270
     2
271
     2
272
     3
273
     2
274
     2
340
6B
275
     0
280
     0
281
     0
282
     0
283
     0
284
     0
285
     0
286
     0
287
     0
288
     1
  0
DIMSTYLE
105
61
330
A
100
AcDbSymbolTableRecord
100
AcDbDimStyleTableRecord
  2
AM_JIS$6
 70
     0
  3

  4
"
  5
OPEN30
  6

  7

 40
1.0
 41
2.5
 42
1.0
 43
10.0
 44
1.0
 45
0.0
 46
0.0
 47
0.1
 48
0.1
140
3.2
141
0.0
142
0.0
143
0.0393701
144
1.0
145
0.0
146
0.71
147
1.5
 71
     0
 72
     0
 73
     0
 74
     0
 75
     0
 76
     0
 77
     0
 78
     8
170
     0
171
     2
172
     1
173
     0
174
     0
175
     0
176
   256
177
   256
178
     2
270
     2
271
     2
272
     2
273
     2
274
     2
340
6B
275
     0
280
     0
281
     0
282
     0
283
     0
284
     0
285
     0
286
     0
287
     3
288
     0
  0
DIMSTYLE
105
62
330
A
100
AcDbSymbolTableRecord
100
AcDbDimStyleTableRecord
  2
AM_JIS$7
 70
     0
  3

  4
"
  5
OPEN30
  6

  7

 40
1.0
 41
2.5
 42
1.0
 43
10.0
 44
1.0
 45
0.0
 46
0.0
 47
0.1
 48
0.1
140
3.2
141
0.0
142
0.0
143
0.0393701
144
1.0
145
0.0
146
0.71
147
1.5
 71
     0
 72
     0
 73
     0
 74
     0
 75
     0
 76
     0
 77
     3
 78
     8
170
     0
171
     2
172
     1
173
     0
174
     0
175
     0
176
   256
177
   256
178
     2
270
     2
271
     2
272
     3
273
     2
274
     2
340
6B
275
     0
280
     0
281
     0
282
     0
283
     0
284
     0
285
     0
286
     0
287
     3
288
     0
  0
DIMSTYLE
105
63
330
A
100
AcDbSymbolTableRecord
100
AcDbDimStyleTableRecord
  2
AM_JIS$SF
 70
     0
  3

  4
"
  5
OPEN30
  6

  7

 40
1.0
 41
2.5
 42
1.0
 43
10.0
 44
1.0
 45
0.0
 46
0.0
 47
0.1
 48
0.1
140
3.2
141
0.0
142
0.0
143
0.0393701
144
1.0
145
0.0
146
0.71
147
1.5
 71
     0
 72
     0
 73
     0
 74
     0
 75
     1
 76
     1
 77
     3
 78
     8
170
     0
171
     2
172
     1
173
     0
174
     0
175
     0
176
   256
177
   256
178
     2
270
     2
271
     2
272
     2
273
     2
274
     2
340
6B
275
     0
280
     0
281
     0
282
     0
283
     0
284
     0
285
     0
286
     0
287
     3
288
     0
  0
DIMSTYLE
105
68
330
A
100
AcDbSymbolTableRecord
100
AcDbDimStyleTableRecord
  2
AM_JIS$SH
 70
     0
  3

  4
"
  5

  6
GENAXEH
  7
OPEN30
 40
1.0
 41
2.5
 42
1.0
 43
10.0
 44
1.0
 45
0.0
 46
0.0
 47
0.1
 48
0.1
140
3.2
141
0.0
142
0.0
143
0.0393701
144
2.0
145
0.0
146
0.71
147
1.5
 71
     0
 72
     0
 73
     0
 74
     0
 75
     1
 76
     1
 77
     3
 78
     8
170
     0
171
     2
172
     1
173
     1
174
     0
175
     0
176
   256
177
   256
178
     2
270
     2
271
     2
272
     2
273
     2
274
     2
340
6B
275
     0
280
     0
281
     0
282
     0
283
     0
284
     0
285
     0
286
     0
287
     3
288
     0
  0
DIMSTYLE
105
B34
330
A
100
AcDbSymbolTableRecord
100
AcDbDimStyleTableRecord
  2
AM_JIS$2
 70
     0
  3

  4
"
  5
OPEN30
  6

  7

 40
1.0
 41
2.5
 42
1.0
 43
12.0
 44
1.0
 45
0.0
 46
0.0
 47
0.1
 48
0.1
140
3.2
141
0.0
142
0.0
143
0.0393701
144
1.0
145
0.0
146
0.71
147
1.5
 71
     0
 72
     0
 73
     0
 74
     0
 75
     0
 76
     0
 77
     3
 78
     8
170
     0
171
     2
172
     1
173
     0
174
     0
175
     0
176
   256
177
   256
178
     2
270
     2
271
     3
272
     3
273
     2
274
     2
340
6B
275
     0
280
     0
281
     0
282
     0
283
     0
284
     0
285
     0
286
     0
287
     3
288
     0
  0
ENDTAB
  0
TABLE
  2
BLOCK_RECORD
  5
1
330
0
100
AcDbSymbolTable
 70
    11
  0
BLOCK_RECORD
  5
1F
102
{ACAD_XDICTIONARY
360
74
102
}
330
1
100
AcDbSymbolTableRecord
100
AcDbBlockTableRecord
  2
*MODEL_SPACE
  0
BLOCK_RECORD
  5
101
102
{ACAD_XDICTIONARY
360
5236
102
}
330
1
100
AcDbSymbolTableRecord
100
AcDbBlockTableRecord
  2
*PAPER_SPACE
  0
BLOCK_RECORD
  5
59
330
1
100
AcDbSymbolTableRecord
100
AcDbBlockTableRecord
  2
_OPEN30
  0
BLOCK_RECORD
  5
64
330
1
100
AcDbSymbolTableRecord
100
AcDbBlockTableRecord
  2
GENAXEH
  0
BLOCK_RECORD
  5
4048
330
1
100
AcDbSymbolTableRecord
100
AcDbBlockTableRecord
  2
*D5
  0
BLOCK_RECORD
  5
412B
330
1
100
AcDbSymbolTableRecord
100
AcDbBlockTableRecord
  2
*D6
  0
BLOCK_RECORD
  5
42F5
330
1
100
AcDbSymbolTableRecord
100
AcDbBlockTableRecord
  2
*D7
  0
BLOCK_RECORD
  5
4C50
330
1
100
AcDbSymbolTableRecord
100
AcDbBlockTableRecord
  2
*D8
  0
BLOCK_RECORD
  5
4D76
330
1
100
AcDbSymbolTableRecord
100
AcDbBlockTableRecord
  2
*D9
  0
BLOCK_RECORD
  5
4E47
330
1
100
AcDbSymbolTableRecord
100
AcDbBlockTableRecord
  2
*D10
  0
ENDTAB
  0
ENDSEC
  0
SECTION
  2
BLOCKS
  0
BLOCK
  5
20
330
1F
100
AcDbEntity
  8
0
100
AcDbBlockBegin
  2
*MODEL_SPACE
 70
     0
 10
0.0
 20
0.0
 30
0.0
  3
*MODEL_SPACE
  1

  0
ENDBLK
  5
21
330
1F
100
AcDbEntity
  8
0
100
AcDbBlockEnd
  0
BLOCK
  5
103
330
101
100
AcDbEntity
 67
     1
  8
0
100
AcDbBlockBegin
  2
*PAPER_SPACE
 70
     0
 10
0.0
 20
0.0
 30
0.0
  3
*PAPER_SPACE
  1

  0
ENDBLK
  5
104
330
101
100
AcDbEntity
 67
     1
  8
0
100
AcDbBlockEnd
  0
BLOCK
  5
5D
330
59
100
AcDbEntity
  8
0
100
AcDbBlockBegin
  2
_OPEN30
 70
     0
 10
0.0
 20
0.0
 30
0.0
  3
_OPEN30
  1

  0
LINE
  5
5A
330
59
100
AcDbEntity
  8
0
 62
     0
100
AcDbLine
 10
-1.0
 20
0.26794919
 30
0.0
 11
0.0
 21
0.0
 31
0.0
  0
LINE
  5
5B
330
59
100
AcDbEntity
  8
0
 62
     0
100
AcDbLine
 10
0.0
 20
0.0
 30
0.0
 11
-1.0
 21
-0.26794919
 31
0.0
  0
LINE
  5
5C
330
59
100
AcDbEntity
  8
0
 62
     0
100
AcDbLine
 10
0.0
 20
0.0
 30
0.0
 11
-1.0
 21
0.0
 31
0.0
  0
ENDBLK
  5
5E
330
59
100
AcDbEntity
  8
0
100
AcDbBlockEnd
  0
BLOCK
  5
66
330
64
100
AcDbEntity
  8
0
100
AcDbBlockBegin
  2
GENAXEH
 70
     0
 10
0.0
 20
0.0
 30
0.0
  3
GENAXEH
  1

  0
LINE
  5
65
330
64
100
AcDbEntity
  8
0
100
AcDbLine
 10
-1.0
 20
0.0
 30
0.0
 11
1.0
 21
0.0
 31
0.0
  0
ENDBLK
  5
67
330
64
100
AcDbEntity
  8
0
100
AcDbBlockEnd
  0
BLOCK
  5
4052
330
4048
100
AcDbEntity
  8
0
100
AcDbBlockBegin
  2
*D5
 70
     1
 10
0.0
 20
0.0
 30
0.0
  3
*D5
  1

  0
LINE
  5
5162
330
4048
100
AcDbEntity
  8
AM_5
100
AcDbLine
 10
-124.9999999999999
 20
-5.250000000000047
 30
0.0
 11
-124.9999999999999
 21
-43.9999999999999
 31
0.0
  0
LINE
  5
5163
330
4048
100
AcDbEntity
  8
AM_5
100
AcDbLine
 10
0.0000000000000006
 20
-1.0
 30
0.0
 11
-0.000000000000002
 21
-43.9999999999999
 31
0.0
  0
LINE
  5
5164
330
4048
100
AcDbEntity
  8
AM_5
100
AcDbLine
 10
-122.4999999999999
 20
-42.9999999999999
 30
0.0
 11
-2.500000000000001
 21
-42.9999999999999
 31
0.0
  0
INSERT
  5
5165
330
4048
100
AcDbEntity
  8
AM_5
100
AcDbBlockReference
  2
_OPEN30
 10
-124.9999999999999
 20
-42.9999999999999
 30
0.0
 41
2.5
 42
2.5
 43
2.5
 50
180.0
  0
INSERT
  5
5166
330
4048
100
AcDbEntity
  8
AM_5
100
AcDbBlockReference
  2
_OPEN30
 10
-0.000000000000002
 20
-42.9999999999999
 30
0.0
 41
2.5
 42
2.5
 43
2.5
  0
MTEXT
  5
5167
330
4048
100
AcDbEntity
  8
AM_5
 62
     2
100
AcDbMText
 10
-62.49999999999998
 20
-39.89999999999989
 30
0.0
 40
3.2
 41
0.0
 71
     5
 72
     1
  1
125
  7
ASAMI
1001
ACAD
1000
MTEXTBEGIN
1070
    73
1070
     1
1070
    44
1040
1.0
1070
    74
1070
     0
1000
MTEXTEND
  0
POINT
  5
5168
330
4048
100
AcDbEntity
  8
DEFPOINTS
 62
     0
100
AcDbPoint
 10
-124.9999999999999
 20
-4.250000000000047
 30
0.0
  0
POINT
  5
5169
330
4048
100
AcDbEntity
  8
DEFPOINTS
 62
     0
100
AcDbPoint
 10
0.0000000000000007
 20
-0.0000000000000005
 30
0.0
  0
POINT
  5
516A
330
4048
100
AcDbEntity
  8
DEFPOINTS
 62
     0
100
AcDbPoint
 10
-0.000000000000002
 20
-42.9999999999999
 30
0.0
  0
ENDBLK
  5
4053
330
4048
100
AcDbEntity
  8
0
100
AcDbBlockEnd
  0
BLOCK
  5
4135
330
412B
100
AcDbEntity
  8
0
100
AcDbBlockBegin
  2
*D6
 70
     1
 10
0.0
 20
0.0
 30
0.0
  3
*D6
  1

  0
LINE
  5
5174
330
412B
100
AcDbEntity
  8
AM_5
100
AcDbLine
 10
-0.0000000000000125
 20
-1.000000000000009
 30
0.0
 11
-0.0000000000000137
 21
-19.99999999999992
 31
0.0
  0
LINE
  5
5175
330
412B
100
AcDbEntity
  8
AM_5
100
AcDbLine
 10
-10.0000000000001
 20
-4.5
 30
0.0
 11
-10.0000000000001
 21
-19.99999999999992
 31
0.0
  0
LINE
  5
5176
330
412B
100
AcDbEntity
  8
AM_5
100
AcDbLine
 10
-2.500000000000013
 20
-18.99999999999992
 30
0.0
 11
-7.500000000000106
 21
-18.99999999999992
 31
0.0
  0
INSERT
  5
5177
330
412B
100
AcDbEntity
  8
AM_5
100
AcDbBlockReference
  2
_OPEN30
 10
-0.0000000000000136
 20
-18.99999999999992
 30
0.0
 41
2.5
 42
2.5
 43
2.5
  0
INSERT
  5
5178
330
412B
100
AcDbEntity
  8
AM_5
100
AcDbBlockReference
  2
_OPEN30
 10
-10.0000000000001
 20
-18.99999999999992
 30
0.0
 41
2.5
 42
2.5
 43
2.5
 50
180.0
  0
MTEXT
  5
5179
330
412B
100
AcDbEntity
  8
AM_5
 62
     2
100
AcDbMText
 10
-5.00000000000006
 20
-15.89999999999992
 30
0.0
 40
3.2
 41
0.0
 71
     5
 72
     1
  1
10
  7
ASAMI
1001
ACAD
1000
MTEXTBEGIN
1070
    73
1070
     1
1070
    44
1040
1.0
1070
    74
1070
     0
1000
MTEXTEND
  0
POINT
  5
517A
330
412B
100
AcDbEntity
  8
DEFPOINTS
 62
     0
100
AcDbPoint
 10
-0.0000000000000124
 20
-0.0000000000000097
 30
0.0
  0
POINT
  5
517B
330
412B
100
AcDbEntity
  8
DEFPOINTS
 62
     0
100
AcDbPoint
 10
-10.0000000000001
 20
-3.5
 30
0.0
  0
POINT
  5
517C
330
412B
100
AcDbEntity
  8
DEFPOINTS
 62
     0
100
AcDbPoint
 10
-10.0000000000001
 20
-18.99999999999992
 30
0.0
  0
ENDBLK
  5
4136
330
412B
100
AcDbEntity
  8
0
100
AcDbBlockEnd
  0
BLOCK
  5
42FF
330
42F5
100
AcDbEntity
  8
0
100
AcDbBlockBegin
  2
*D7
 70
     1
 10
0.0
 20
0.0
 30
0.0
  3
*D7
  1

  0
LINE
  5
5071
330
42F5
100
AcDbEntity
  8
AM_5
100
AcDbLine
 10
-2.50000000000007
 20
3.500000000000034
 30
0.0
 11
14.42392444799416
 21
3.50000000000003
 31
0.0
  0
LINE
  5
5072
330
42F5
100
AcDbEntity
  8
AM_5
100
AcDbLine
 10
-2.50000000000005
 20
-3.499999999999965
 30
0.0
 11
14.42392444799416
 21
-3.49999999999997
 31
0.0
  0
LINE
  5
5073
330
42F5
100
AcDbEntity
  8
AM_5
100
AcDbLine
 10
13.42392444799416
 20
6.000000000000031
 30
0.0
 11
13.42392444799416
 21
8.50000000000003
 31
0.0
  0
LINE
  5
5074
330
42F5
100
AcDbEntity
  8
AM_5
100
AcDbLine
 10
13.42392444799415
 20
-5.999999999999969
 30
0.0
 11
13.42392444799415
 21
-8.499999999999971
 31
0.0
  0
LINE
  5
5075
330
42F5
100
AcDbEntity
  8
AM_5
100
AcDbLine
 10
13.42392444799416
 20
3.50000000000003
 30
0.0
 11
13.42392444799416
 21
-3.49999999999997
 31
0.0
  0
INSERT
  5
5076
330
42F5
100
AcDbEntity
  8
AM_5
100
AcDbBlockReference
  2
_OPEN30
 10
13.42392444799416
 20
3.50000000000003
 30
0.0
 41
2.5
 42
2.5
 43
2.5
 50
270.0
  0
INSERT
  5
5077
330
42F5
100
AcDbEntity
  8
AM_5
100
AcDbBlockReference
  2
_OPEN30
 10
13.42392444799416
 20
-3.49999999999997
 30
0.0
 41
2.5
 42
2.5
 43
2.5
 50
90.0
  0
MTEXT
  5
5078
330
42F5
100
AcDbEntity
  8
AM_5
 62
     2
100
AcDbMText
 10
10.32392444799415
 20
0.0000000000000326
 30
0.0
 40
3.2
 41
0.0
 71
     5
 72
     1
  1
%%c7
  7
ASAMI
 11
0.0000000000000001
 21
1.0
 31
0.0
1001
ACAD
1000
MTEXTBEGIN
1070
    73
1070
     1
1070
    44
1040
1.0
1070
    74
1070
     0
1000
MTEXTEND
  0
POINT
  5
5079
330
42F5
100
AcDbEntity
  8
DEFPOINTS
 62
     0
100
AcDbPoint
 10
-3.50000000000007
 20
3.500000000000035
 30
0.0
  0
POINT
  5
507A
330
42F5
100
AcDbEntity
  8
DEFPOINTS
 62
     0
100
AcDbPoint
 10
-3.50000000000005
 20
-3.499999999999965
 30
0.0
  0
POINT
  5
507B
330
42F5
100
AcDbEntity
  8
DEFPOINTS
 62
     0
100
AcDbPoint
 10
13.42392444799416
 20
-3.49999999999997
 30
0.0
  0
ENDBLK
  5
4300
330
42F5
100
AcDbEntity
  8
0
100
AcDbBlockEnd
  0
BLOCK
  5
4C5B
330
4C50
100
AcDbEntity
  8
0
100
AcDbBlockBegin
  2
*D8
 70
     1
 10
0.0
 20
0.0
 30
0.0
  3
*D8
  1

  0
LINE
  5
5158
330
4C50
100
AcDbEntity
  8
AM_5
100
AcDbLine
 10
-125.2499999999999
 20
4.99999999999982
 30
0.0
 11
-139.9999999999999
 21
4.999999999999825
 31
0.0
  0
LINE
  5
5159
330
4C50
100
AcDbEntity
  8
AM_5
100
AcDbLine
 10
-125.2499999999999
 20
-5.00000000000008
 30
0.0
 11
-139.9999999999999
 21
-5.000000000000076
 31
0.0
  0
LINE
  5
515A
330
4C50
100
AcDbEntity
  8
AM_5
100
AcDbLine
 10
-138.9999999999999
 20
2.499999999999824
 30
0.0
 11
-138.9999999999999
 21
-2.500000000000076
 31
0.0
  0
INSERT
  5
515B
330
4C50
100
AcDbEntity
  8
AM_5
100
AcDbBlockReference
  2
_OPEN30
 10
-138.9999999999999
 20
4.999999999999825
 30
0.0
 41
2.5
 42
2.5
 43
2.5
 50
90.0
  0
INSERT
  5
515C
330
4C50
100
AcDbEntity
  8
AM_5
100
AcDbBlockReference
  2
_OPEN30
 10
-138.9999999999999
 20
-5.000000000000076
 30
0.0
 41
2.5
 42
2.5
 43
2.5
 50
270.0
  0
MTEXT
  5
515D
330
4C50
100
AcDbEntity
  8
AM_5
 62
     2
100
AcDbMText
 10
-142.0999999999999
 20
-0.0000000000001479
 30
0.0
 40
3.2
 41
0.0
 71
     5
 72
     1
  1
%%c10
  7
ASAMI
 11
0.0000000000000001
 21
1.0
 31
0.0
1001
ACAD
1000
MTEXTBEGIN
1070
    73
1070
     1
1070
    44
1040
1.0
1070
    74
1070
     0
1000
MTEXTEND
  0
POINT
  5
515E
330
4C50
100
AcDbEntity
  8
DEFPOINTS
 62
     0
100
AcDbPoint
 10
-124.2499999999999
 20
4.99999999999982
 30
0.0
  0
POINT
  5
515F
330
4C50
100
AcDbEntity
  8
DEFPOINTS
 62
     0
100
AcDbPoint
 10
-124.2499999999999
 20
-5.00000000000008
 30
0.0
  0
POINT
  5
5160
330
4C50
100
AcDbEntity
  8
DEFPOINTS
 62
     0
100
AcDbPoint
 10
-138.9999999999999
 20
-5.000000000000076
 30
0.0
  0
ENDBLK
  5
4C5C
330
4C50
100
AcDbEntity
  8
0
100
AcDbBlockEnd
  0
BLOCK
  5
4D80
330
4D76
100
AcDbEntity
  8
0
100
AcDbBlockBegin
  2
*D9
 70
     1
 10
0.0
 20
0.0
 30
0.0
  3
*D9
  1

  0
LINE
  5
516B
330
4D76
100
AcDbEntity
  8
AM_5
100
AcDbLine
 10
-0.0000000000000092
 20
-1.0
 30
0.0
 11
-0.0000000000000111
 21
-31.99999999999999
 31
0.0
  0
LINE
  5
516C
330
4D76
100
AcDbEntity
  8
AM_5
100
AcDbLine
 10
-44.99999999999998
 20
-4.499999999999998
 30
0.0
 11
-44.99999999999998
 21
-31.99999999999999
 31
0.0
  0
LINE
  5
516D
330
4D76
100
AcDbEntity
  8
AM_5
100
AcDbLine
 10
-2.500000000000011
 20
-30.99999999999999
 30
0.0
 11
-42.49999999999998
 21
-30.99999999999999
 31
0.0
  0
INSERT
  5
516E
330
4D76
100
AcDbEntity
  8
AM_5
100
AcDbBlockReference
  2
_OPEN30
 10
-0.000000000000011
 20
-30.99999999999999
 30
0.0
 41
2.5
 42
2.5
 43
2.5
  0
INSERT
  5
516F
330
4D76
100
AcDbEntity
  8
AM_5
100
AcDbBlockReference
  2
_OPEN30
 10
-44.99999999999998
 20
-30.99999999999999
 30
0.0
 41
2.5
 42
2.5
 43
2.5
 50
180.0
  0
MTEXT
  5
5170
330
4D76
100
AcDbEntity
  8
AM_5
 62
     2
100
AcDbMText
 10
-22.49999999999999
 20
-27.89999999999999
 30
0.0
 40
3.2
 41
0.0
 71
     5
 72
     1
  1
45
  7
ASAMI
1001
ACAD
1000
MTEXTBEGIN
1070
    73
1070
     1
1070
    44
1040
1.0
1070
    74
1070
     0
1000
MTEXTEND
  0
POINT
  5
5171
330
4D76
100
AcDbEntity
  8
DEFPOINTS
 62
     0
100
AcDbPoint
 10
-0.0000000000000091
 20
-0.0000000000000009
 30
0.0
  0
POINT
  5
5172
330
4D76
100
AcDbEntity
  8
DEFPOINTS
 62
     0
100
AcDbPoint
 10
-44.99999999999998
 20
-3.499999999999998
 30
0.0
  0
POINT
  5
5173
330
4D76
100
AcDbEntity
  8
DEFPOINTS
 62
     0
100
AcDbPoint
 10
-44.99999999999998
 20
-30.99999999999999
 30
0.0
  0
ENDBLK
  5
4D81
330
4D76
100
AcDbEntity
  8
0
100
AcDbBlockEnd
  0
BLOCK
  5
4E4D
330
4E47
100
AcDbEntity
  8
0
100
AcDbBlockBegin
  2
*D10
 70
     1
 10
0.0
 20
0.0
 30
0.0
  3
*D10
  1

  0
LINE
  5
5238
330
4E47
100
AcDbEntity
  8
AM_5
100
AcDbLine
 10
9.217198616518329
 20
-17.16416408257617
 30
0.0
 11
0.0647764753752687
 21
-4.773043943834963
 31
0.0
  0
MTEXT
  5
5239
330
4E47
100
AcDbEntity
  8
AM_5
 62
     2
100
AcDbMText
 10
7.877194662599217
 20
-10.13226466932162
 30
0.0
 40
3.2
 41
0.0
 71
     5
 72
     1
  1
R3.5
  7
ASAMI
 11
0.5941294125626097
 21
-0.8043694680481154
 31
0.0
  0
LINE
  5
523A
330
4E47
100
AcDbEntity
  8
AM_5
100
AcDbLine
 10
-3.500000000000395
 20
0.0531728644537346
 30
0.0
 11
-1.420547056031255
 21
-2.762120273714674
 31
0.0
  0
INSERT
  5
523B
330
4E47
100
AcDbEntity
  8
AM_5
100
AcDbBlockReference
  2
_OPEN30
 10
-1.420547056031255
 20
-2.762120273714674
 30
0.0
 41
2.5
 42
2.5
 43
2.5
 50
126.4505947496717
  0
POINT
  5
523C
330
4E47
100
AcDbEntity
  8
DEFPOINTS
 62
     0
100
AcDbPoint
 10
-1.420547056031255
 20
-2.762120273714674
 30
0.0
  0
POINT
  5
523D
330
4E47
100
AcDbEntity
  8
DEFPOINTS
 62
     0
100
AcDbPoint
 10
-3.500000000000395
 20
0.0531728644537346
 30
0.0
  0
ENDBLK
  5
4E4E
330
4E47
100
AcDbEntity
  8
0
100
AcDbBlockEnd
  0
ENDSEC
  0
SECTION
  2
ENTITIES
  0
TEXT
  5
1500
330
1F
100
AcDbEntity
  8
AM_6
100
AcDbText
 10
-85.35714285714282
 20
-66.10758120273596
 30
0.0
 40
5.0
  1
LSSB2070ZX
 72
     4
 11
-62.49999999999996
 21
-63.60758120273596
 31
0.0
100
AcDbText
  0
LINE
  5
3EE8
330
1F
100
AcDbEntity
  8
AM_7
  6
AM_ISO08W050X2
100
AcDbLine
 10
1.341626940564765
 20
0.0
 30
0.0
 11
-127.0561941299595
 21
-0.0000000000000888
 31
0.0
1001
GENIUS_GENODEF_13
1002
{
1000
HIER
1070
     0
1002
}
1002
{
1000
MANEDIT
1070
     0
1002
}
1002
{
1000
NOSEL
1070
     0
1002
}
1002
{
1000
BEHIND
1070
     0
1002
}
1002
{
1000
REACTOR
1002
}
1001
GENIUS_GENOBJ-N-CEN_13
1002
{
1000
OWNER
1000
GEN
1002
}
  0
DIMENSION
  5
4047
330
1F
100
AcDbEntity
  8
AM_5
100
AcDbDimension
  2
*D5
 10
-0.000000000000002
 20
-42.9999999999999
 30
0.0
 11
-62.49999999999998
 21
-39.89999999999989
 31
0.0
 70
    32
  1
<>
  3
AM_JIS
100
AcDbAlignedDimension
 13
-124.9999999999999
 23
-4.250000000000047
 33
0.0
 14
0.0000000000000007
 24
-0.0000000000000005
 34
0.0
 50
0.0000000000001132
100
AcDbRotatedDimension
1001
GENIUS_GENDTOL_13
1000

1000
h7
1000

1040
0.0
  0
DIMENSION
  5
412A
330
1F
100
AcDbEntity
  8
AM_5
100
AcDbDimension
  2
*D6
 10
-10.0000000000001
 20
-18.99999999999992
 30
0.0
 11
-5.00000000000006
 21
-15.89999999999992
 31
0.0
 70
    32
  1
<>
  3
AM_JIS
100
AcDbAlignedDimension
 13
-0.0000000000000124
 23
-0.0000000000000097
 33
0.0
 14
-10.0000000000001
 24
-3.5
 34
0.0
 50
0.0000000000001132
100
AcDbRotatedDimension
1001
GENIUS_GENDTOL_13
1000

1000
h7
1000

1040
0.0
  0
DIMENSION
  5
42F4
330
1F
100
AcDbEntity
  8
AM_5
100
AcDbDimension
  2
*D7
 10
13.42392444799416
 20
-3.49999999999997
 30
0.0
 11
13.42392444799416
 21
0.0000000000000323
 31
0.0
 70
   160
  1
%%c<>
  3
AM_JIS
100
AcDbAlignedDimension
 13
-3.50000000000007
 23
3.500000000000035
 33
0.0
 14
-3.50000000000005
 24
-3.499999999999965
 34
0.0
 50
90.0
100
AcDbRotatedDimension
1001
GENIUS_GENDTOL_13
1000

1000
h7
1000

1040
0.0
  0
LINE
  5
4699
330
1F
100
AcDbEntity
  8
AM_0
100
AcDbLine
 10
-44.99999999999963
 20
3.499999999999785
 30
0.0
 11
-49.12121612918184
 21
4.999999999999887
 31
0.0
  0
LINE
  5
469B
330
1F
100
AcDbEntity
  8
AM_0
100
AcDbLine
 10
-44.99999999999999
 20
-3.499999999999998
 30
0.0
 11
-49.12121612918191
 21
-4.999999999999997
 31
0.0
  0
LINE
  5
49A5
330
1F
100
AcDbEntity
  8
AM_0
100
AcDbLine
 10
-0.4900000000002607
 20
-0.1233432761785082
 30
0.0
 11
-3.485187573786317
 21
0.9721961541944768
 31
0.0
  0
LINE
  5
49A6
330
1F
100
AcDbEntity
  8
AM_0
100
AcDbLine
 10
-0.0000000000000696
 20
0.0000000000000348
 30
0.0
 11
-3.95704172938016
 21
2.398829063012564
 31
0.0
  0
ARC
  5
49A9
330
1F
100
AcDbEntity
  8
AM_0
100
AcDbCircle
 10
-3.630157475958499
 20
0.2857108579064274
 30
0.0
 40
3.493190358055122
100
AcDbArc
 50
277.2414871370329
 51
353.275209809053
  0
ARC
  5
49AA
330
1F
100
AcDbEntity
  8
AM_0
100
AcDbCircle
 10
-3.507471270767863
 20
0.056367782186307
 30
0.0
 40
3.507520299707264
100
AcDbArc
 50
272.8457346831731
 51
359.0791856423918
  0
ARC
  5
49AB
330
1F
100
AcDbEntity
  8
AM_11
100
AcDbCircle
 10
-3.50000000000007
 20
0.0000000000000348
 30
0.0
 40
3.5
100
AcDbArc
 50
270.0000000000003
 51
90.0
  0
ARC
  5
49AC
330
1F
100
AcDbEntity
  8
AM_0
100
AcDbCircle
 10
-3.466069040446043
 20
1.0073705564389
 30
0.0
 40
3.183630114314963
100
AcDbArc
 50
279.7983382966976
 51
339.1964458358692
  0
ARC
  5
49AD
330
1F
100
AcDbEntity
  8
AM_0
100
AcDbCircle
 10
-3.5074712707735
 20
-0.0563677821924569
 30
0.0
 40
3.507520299713264
100
AcDbArc
 50
0.9208143577263859
 51
87.15426531677421
  0
LINE
  5
49AE
330
1F
100
AcDbEntity
  8
AM_0
100
AcDbLine
 10
-0.0000000000000696
 20
0.0000000000000348
 30
0.0
 11
-0.1610000000000824
 21
-0.1233432761785131
 31
0.0
  0
LINE
  5
49AF
330
1F
100
AcDbEntity
  8
AM_0
100
AcDbLine
 10
-0.1610000000000824
 20
-0.1233432761785131
 30
0.0
 11
-0.4900000000002607
 21
-0.1233432761785082
 31
0.0
  0
LINE
  5
4B66
330
1F
100
AcDbEntity
  8
AM_0
100
AcDbLine
 10
-15.26666666666663
 20
3.499999999999946
 30
0.0
 11
-45.0
 21
3.499999999999924
 31
0.0
  0
LINE
  5
4B67
330
1F
100
AcDbEntity
  8
AM_0
100
AcDbLine
 10
-14.3362314311737
 20
-3.499999999999979
 30
0.0
 11
-44.99999999999999
 21
-3.499999999999998
 31
0.0
  0
LINE
  5
4B68
330
1F
100
AcDbEntity
  8
AM_0
100
AcDbLine
 10
-49.12121612918184
 20
-5.000000000000055
 30
0.0
 11
-49.12121612918184
 21
4.999999999999888
 31
0.0
  0
LINE
  5
4C4A
330
1F
100
AcDbEntity
  8
AM_0
100
AcDbLine
 10
-49.12121612918191
 20
-4.999999999999996
 30
0.0
 11
-124.2499999999999
 21
-5.000000000000046
 31
0.0
  0
LINE
  5
4C4D
330
1F
100
AcDbEntity
  8
AM_0
100
AcDbLine
 10
-124.9999999999999
 20
4.249999999999843
 30
0.0
 11
-124.9999999999999
 21
-4.250000000000047
 31
0.0
  0
LINE
  5
4C4E
330
1F
100
AcDbEntity
  8
AM_0
100
AcDbLine
 10
-124.2499999999999
 20
4.99999999999982
 30
0.0
 11
-124.2499999999999
 21
-5.00000000000008
 31
0.0
  0
DIMENSION
  5
4C4F
330
1F
100
AcDbEntity
  8
AM_5
100
AcDbDimension
  2
*D8
 10
-138.9999999999999
 20
-5.000000000000076
 30
0.0
 11
-138.9999999999999
 21
-0.0000000000001483
 31
0.0
 70
   160
  1
%%c<>
  3
AM_JIS
100
AcDbAlignedDimension
 13
-124.2499999999999
 23
4.99999999999982
 33
0.0
 14
-124.2499999999999
 24
-5.00000000000008
 34
0.0
 50
270.0
100
AcDbRotatedDimension
1001
GENIUS_GENDTOL_13
1000

1000
h7
1000

1040
0.0
  0
LINE
  5
4C5D
330
1F
100
AcDbEntity
  8
AM_0
100
AcDbLine
 10
-49.12121612918184
 20
4.999999999999888
 30
0.0
 11
-124.2499999999999
 21
4.999999999999844
 31
0.0
  0
LINE
  5
4C6A
330
1F
100
AcDbEntity
  8
AM_0
100
AcDbLine
 10
-124.9999999999999
 20
4.249999999999843
 30
0.0
 11
-124.2499999999999
 21
4.999999999999844
 31
0.0
1001
GENIUS_GENFIL_13
1070
     0
1040
0.75
1040
0.75
1040
20.0
1040
0.0
1002
{
1002
}
1001
GENIUS_GENODEF_13
1002
{
1000
HIER
1070
     0
1002
}
1002
{
1000
MANEDIT
1070
     0
1002
}
1002
{
1000
NOSEL
1070
     0
1002
}
1002
{
1000
BEHIND
1070
     0
1002
}
1002
{
1000
REACTOR
1002
}
1001
GENIUS_GENOBJ-N-CHA_13
1002
{
1000
OWNER
1000
GEN
1002
}
  0
LINE
  5
4C6D
330
1F
100
AcDbEntity
  8
AM_0
100
AcDbLine
 10
-124.9999999999999
 20
-4.250000000000047
 30
0.0
 11
-124.2499999999999
 21
-5.000000000000046
 31
0.0
1001
GENIUS_GENFIL_13
1070
     0
1040
0.75
1040
0.75
1040
20.0
1040
0.0
1002
{
1002
}
1001
GENIUS_GENODEF_13
1002
{
1000
HIER
1070
     0
1002
}
1002
{
1000
MANEDIT
1070
     0
1002
}
1002
{
1000
NOSEL
1070
     0
1002
}
1002
{
1000
BEHIND
1070
     0
1002
}
1002
{
1000
REACTOR
1002
}
1001
GENIUS_GENOBJ-N-CHA_13
1002
{
1000
OWNER
1000
GEN
1002
}
  0
LINE
  5
4CB9
330
1F
100
AcDbEntity
  8
AM_0
100
AcDbLine
 10
-45.0
 20
3.499999999999924
 30
0.0
 11
-44.99999999999999
 21
-3.499999999999998
 31
0.0
  0
DIMENSION
  5
4D75
330
1F
100
AcDbEntity
  8
AM_5
100
AcDbDimension
  2
*D9
 10
-44.99999999999998
 20
-30.99999999999999
 30
0.0
 11
-22.49999999999999
 21
-27.89999999999999
 31
0.0
 70
    32
  1
<>
  3
AM_JIS
100
AcDbAlignedDimension
 13
-0.0000000000000091
 23
-0.0000000000000009
 33
0.0
 14
-44.99999999999998
 24
-3.499999999999998
 34
0.0
 50
0.0000000000001641
100
AcDbRotatedDimension
1001
GENIUS_GENDTOL_13
1000

1000
h7
1000

1040
0.0
  0
DIMENSION
  5
4E46
330
1F
100
AcDbEntity
  8
AM_5
100
AcDbDimension
  2
*D10
 10
-3.500000000000395
 20
0.0531728644537346
 30
0.0
 11
7.877194662599217
 21
-10.13226466932162
 31
0.0
 70
    36
  1
<>
  3
AM_JIS$4
100
AcDbRadialDimension
 15
-1.420547056031255
 25
-2.762120273714674
 35
0.0
 40
0.0
1001
GENIUS_GENDTOL_13
1000

1000
h7
1000

1040
0.0
1001
ACAD
1000
DSTYLE
1002
{
1070
   287
1070
     3
1070
   271
1070
     3
1070
   288
1070
     1
1070
   289
1070
     3
1070
   172
1070
     1
1070
    74
1070
     0
1002
}
  0
LINE
  5
50AB
330
1F
100
AcDbEntity
  8
AM_0
100
AcDbLine
 10
-3.333333333293079
 20
-3.44682713554626
 30
0.0
 11
-3.189835318580426
 21
-3.179616727666263
 31
0.0
  0
LINE
  5
50AC
330
1F
100
AcDbEntity
  8
AM_0
100
AcDbLine
 10
-3.189835318580426
 20
-3.179616727666263
 30
0.0
 11
-3.333333333333702
 21
-2.642748216051888
 31
0.0
  0
ELLIPSE
  5
50AD
330
1F
100
AcDbEntity
  8
AM_0
100
AcDbEllipse
 10
-0.1367606085605739
 20
0.0328064891844527
 30
0.0
 11
0.0000000000000066
 21
3.639181543448641
 31
0.0
210
0.0
220
0.0
230
1.0
 40
0.9523809523809527
 41
1.309708023350011
 42
2.207143587037294
  0
POLYLINE
  5
50AE
330
1F
100
AcDbEntity
  8
AM_0
100
AcDb2dPolyline
 66
     1
 10
0.0
 20
0.0
 30
0.0
 70
     2
  0
VERTEX
  5
50AF
330
50AE
100
AcDbEntity
  8
AM_0
100
AcDbVertex
100
AcDb2dVertex
 10
-10.00000000000006
 20
-1.549544605872142
 30
0.0
 42
0.0167617469376757
  0
VERTEX
  5
50B0
330
50AE
100
AcDbEntity
  8
AM_0
100
AcDbVertex
100
AcDb2dVertex
 10
-10.760982116604
 20
-1.630740592114619
 30
0.0
 42
0.0257740858962584
 70
     1
  0
VERTEX
  5
50B1
330
50AE
100
AcDbEntity
  8
AM_0
100
AcDbVertex
100
AcDb2dVertex
 10
-11.25000000000006
 20
-1.727536750695457
 30
0.0
 42
0.0129062253880721
  0
VERTEX
  5
50B2
330
50AE
100
AcDbEntity
  8
AM_0
100
AcDbVertex
100
AcDb2dVertex
 10
-12.38748200638795
 20
-2.049966096488213
 30
0.0
 42
0.0322710141744365
 70
     1
  0
VERTEX
  5
50B3
330
50AE
100
AcDbEntity
  8
AM_0
100
AcDbVertex
100
AcDb2dVertex
 10
-12.82985147094162
 20
-2.221629184386074
 30
0.0
 42
0.066302819305777
  0
VERTEX
  5
50B4
330
50AE
100
AcDbEntity
  8
AM_0
100
AcDbVertex
100
AcDb2dVertex
 10
-13.13821221279529
 20
-2.420557497761688
 30
0.0
 42
0.141835538265495
 70
     1
  0
VERTEX
  5
50B5
330
50AE
100
AcDbEntity
  8
AM_0
100
AcDbVertex
100
AcDb2dVertex
 10
-13.23603413706954
 20
-2.568885594353621
 30
0.0
 42
0.3019338394559296
  0
VERTEX
  5
50B6
330
50AE
100
AcDbEntity
  8
AM_0
100
AcDbVertex
100
AcDb2dVertex
 10
-13.18230286237193
 20
-2.77877096100858
 30
0.0
 42
0.1448123473042558
 70
     1
  0
VERTEX
  5
50B7
330
50AE
100
AcDbEntity
  8
AM_0
100
AcDbVertex
100
AcDb2dVertex
 10
-12.81595408618666
 20
-2.957106498933654
 30
0.0
 42
0.0233293908839008
  0
VERTEX
  5
50B8
330
50AE
100
AcDbEntity
  8
AM_0
100
AcDbVertex
100
AcDb2dVertex
 10
-12.49303457713938
 20
-2.991071568980686
 30
0.0
 42
0.0065058132401841
 70
     1
  0
VERTEX
  5
50B9
330
50AE
100
AcDbEntity
  8
AM_0
100
AcDbVertex
100
AcDb2dVertex
 10
-11.33079500754016
 20
-3.040128978570697
 30
0.0
 42
0.0093933844226459
  0
VERTEX
  5
50BA
330
50AE
100
AcDbEntity
  8
AM_0
100
AcDbVertex
100
AcDb2dVertex
 10
-10.73950810225357
 20
-3.045331905617092
 30
0.0
 42
0.0075082457306975
 70
     1
  0
VERTEX
  5
50BB
330
50AE
100
AcDbEntity
  8
AM_0
100
AcDbVertex
100
AcDb2dVertex
 10
-10.00000000000006
 20
-3.025587647461076
 30
0.0
  0
SEQEND
  5
50BC
330
50AE
100
AcDbEntity
  8
AM_0
  0
ELLIPSE
  5
50BD
330
1F
100
AcDbEntity
  8
AM_0
100
AcDbEllipse
 10
-4.512466053963323
 20
10.81933941474424
 30
0.0
 11
0.000000000000008
 21
12.36239711986563
 31
0.0
210
0.0
220
0.0
230
1.0
 40
0.9523809523809518
 41
2.216026019442058
 42
2.656733663130509
  0
LINE
  5
50BE
330
1F
100
AcDbEntity
  8
AM_0
100
AcDbLine
 10
-10.00000000000006
 20
-0.1181762212419471
 30
0.0
 11
-10.00000000000006
 21
-1.549544605872137
 31
0.0
  0
LINE
  5
50BF
330
1F
100
AcDbEntity
  8
AM_11
100
AcDbLine
 10
-10.00000000000006
 20
-3.49999999999996
 30
0.0
 11
-10.00000000000006
 21
3.49999999999996
 31
0.0
  0
ELLIPSE
  5
50C0
330
1F
100
AcDbEntity
  8
AM_0
100
AcDbEllipse
 10
-16.69276825025625
 20
-23.6400377564314
 30
0.0
 11
-0.0000000000002643
 21
27.18131483453706
 31
0.0
210
0.0
220
0.0
230
1.0
 40
0.9523809523809545
 41
-0.2615085879125845
 42
-0.0551174625397957
  0
LINE
  5
50C1
330
1F
100
AcDbEntity
  8
AM_0
100
AcDbLine
 10
-10.00000000000018
 20
2.617140913987419
 30
0.0
 11
-3.957041729346571
 21
2.398829063014301
 31
0.0
  0
LINE
  5
50C2
330
1F
100
AcDbEntity
  8
AM_11
100
AcDbLine
 10
-10.0000000000001
 20
-3.5
 30
0.0
 11
-3.500000000000048
 21
-3.499999999999961
 31
0.0
  0
LINE
  5
50C3
330
1F
100
AcDbEntity
  8
AM_11
100
AcDbLine
 10
-3.50000000000007
 20
3.49999999999996
 30
0.0
 11
-10.0000000000001
 21
3.49999999999996
 31
0.0
  0
ELLIPSE
  5
50C4
330
1F
100
AcDbEntity
  8
AM_0
100
AcDbEllipse
 10
-16.4714346887966
 20
40.10213132287161
 30
0.0
 11
-0.000000000000427
 21
43.65973265923439
 31
0.0
210
0.0
220
0.0
230
1.0
 40
0.9523809523809511
 41
3.192966076267278
 42
3.359368648660752
  0
SPLINE
  5
50C5
330
1F
100
AcDbEntity
  8
AM_0
100
AcDbSpline
210
0.0
220
0.0
230
1.0
 70
     8
 71
     3
 72
     8
 73
     4
 74
     0
 42
0.0000000001
 43
0.0000000001
 40
1.794922859428793
 40
1.794922859428793
 40
1.794922859428793
 40
1.794922859428793
 40
12.18970013411803
 40
12.18970013411803
 40
12.18970013411803
 40
12.18970013411803
 10
-3.333333333331277
 20
-3.446827135542918
 30
0.0
 10
-5.615309847007353
 20
-3.245164441093817
 30
0.0
 10
-7.82065587162264
 20
-2.491077516105247
 30
0.0
 10
-10.00000000000014
 20
-1.549544605872097
 30
0.0
  0
SPLINE
  5
50C6
330
1F
100
AcDbEntity
  8
AM_0
100
AcDbSpline
210
0.0
220
0.0
230
1.0
 70
     8
 71
     3
 72
     8
 73
     4
 74
     0
 42
0.0000000001
 43
0.0000000001
 40
3.732786119440464
 40
3.732786119440464
 40
3.732786119440464
 40
3.732786119440464
 40
14.41150387863584
 40
14.41150387863584
 40
14.41150387863584
 40
14.41150387863584
 10
-3.189835318580426
 20
-3.179616727666422
 30
0.0
 10
-5.509615978380367
 20
-2.784243470177324
 30
0.0
 10
-7.762307097471829
 20
-1.890906254216622
 30
0.0
 10
-10.00000000000006
 20
-0.8862465994535455
 30
0.0
  0
SPLINE
  5
50C7
330
1F
100
AcDbEntity
  8
AM_0
100
AcDbSpline
210
0.0
220
0.0
230
1.0
 70
     8
 71
     3
 72
     8
 73
     4
 74
     0
 42
0.0000000001
 43
0.0000000001
 40
6.513172597598655
 40
6.513172597598655
 40
6.513172597598655
 40
6.513172597598655
 40
17.00040327533524
 40
17.00040327533524
 40
17.00040327533524
 40
17.00040327533524
 10
-3.3333333333334
 20
-2.642748216051888
 30
0.0
 10
-5.587654532972569
 20
-2.050704135050403
 30
0.0
 10
-7.794745418029257
 20
-1.091576242575928
 30
0.0
 10
-10.00000000000006
 20
-0.1181762212419471
 30
0.0
  0
SPLINE
  5
50C8
330
1F
100
AcDbEntity
  8
AM_0
100
AcDbSpline
210
0.0
220
0.0
230
1.0
 70
     8
 71
     3
 72
     8
 73
     4
 74
     0
 42
0.0000000001
 43
0.0000000001
 40
1.794922859432252
 40
1.794922859432252
 40
1.794922859432252
 40
1.794922859432252
 40
8.217791785374707
 40
8.217791785374707
 40
8.217791785374707
 40
8.217791785374707
 10
-3.333333333333394
 20
3.446827135542599
 30
0.0
 10
-4.743352581664174
 20
3.322220997337518
 30
0.0
 10
-6.124114860475009
 20
2.986703261505596
 30
0.0
 10
-7.487563830807996
 20
2.526375006631684
 30
0.0
  0
SPLINE
  5
50C9
330
1F
100
AcDbEntity
  8
AM_0
100
AcDbSpline
210
0.0
220
0.0
230
1.0
 70
     8
 71
     3
 72
     8
 73
     4
 74
     0
 42
0.0000000001
 43
0.0000000001
 40
0.0
 40
0.0
 40
0.0
 40
0.0
 40
1.510214902230575
 40
1.510214902230575
 40
1.510214902230575
 40
1.510214902230575
 10
-3.485187573786249
 20
0.9721961541944381
 30
0.0
 10
-3.906566909134336
 20
1.212312919890578
 30
0.0
 10
-4.435904812589338
 20
2.374284229756402
 30
0.0
 10
-3.957041729346268
 20
2.398829063014301
 30
0.0
  0
SPLINE
  5
50CA
330
1F
100
AcDbEntity
  8
AM_0
100
AcDbSpline
210
0.0
220
0.0
230
1.0
 70
     8
 71
     3
 72
     8
 73
     4
 74
     0
 42
0.0000000001
 43
0.0000000001
 40
0.0
 40
0.0
 40
0.0
 40
0.0
 40
1.235793619526408
 40
1.235793619526408
 40
1.235793619526408
 40
1.235793619526408
 10
-3.333333333333394
 20
3.446827135542599
 30
0.0
 10
-3.167896783220535
 20
3.073313121828326
 30
0.0
 10
-3.56754916520429
 20
2.448156078428119
 30
0.0
 10
-3.957041729379009
 20
2.398829063012709
 30
0.0
  0
SPLINE
  5
50CB
330
1F
100
AcDbEntity
  8
AM_0
100
AcDbSpline
210
0.0
220
0.0
230
1.0
 70
     8
 71
     3
 72
     9
 73
     5
 74
     0
 42
0.0000000001
 43
0.0000000001
 40
0.0
 40
0.0
 40
0.0
 40
0.0
 40
0.3136092281692695
 40
0.9342636672611535
 40
0.9342636672611535
 40
0.9342636672611535
 40
0.9342636672611535
 10
-2.924275938322419
 20
-2.129819418564903
 30
0.0
 10
-2.865861737832084
 20
-2.21447099646064
 30
0.0
 10
-2.613884867473564
 20
-2.51712753894556
 30
0.0
 10
-3.156102249442257
 20
-2.733141002893662
 30
0.0
 10
-3.3333333333334
 20
-2.642748216051888
 30
0.0
  0
VIEWPORT
  5
110
330
101
100
AcDbEntity
 67
     1
  8
0
100
AcDbViewport
 10
420.5
 20
297.0
 30
0.0
 40
948.9782706766916
 41
628.452
 68
     1
 69
     1
1001
ACAD
1000
MVIEW
1002
{
1070
    16
1010
0.0
1020
0.0
1030
0.0
1010
0.0
1020
0.0
1030
1.0
1040
0.0
1040
628.452
1040
420.5
1040
297.0
1040
50.0
1040
0.0
1040
0.0
1070
     0
1070
   100
1070
     1
1070
     1
1070
     0
1070
     0
1070
     0
1070
     0
1040
0.0
1040
0.0
1040
0.0
1040
10.0
1040
10.0
1040
10.0
1040
10.0
1070
     0
1002
{
1002
}
1002
}
  0
ENDSEC
  0
SECTION
  2
OBJECTS
  0
DICTIONARY
  5
C
330
0
100
AcDbDictionary
  3
ACAD_GROUP
350
D
  3
ACAD_LAYOUT
350
1A
  3
ACAD_MLINESTYLE
350
17
  3
ACAD_PLOTSETTINGS
350
19
  3
ACAD_PLOTSTYLENAME
350
E
  3
ACDBVARIABLEDICTIONARY
350
34
  3
ACMDICTIONARY
350
43
  3
AMG
350
2B
  3
AMGSNAPSETTINGS
350
6E
  3
ASE_INDEX_DICTIONARY
350
151A
  3
DWGPROPS
350
5202
  3
ACDBHEADERROUNDTRIPXREC
350
520E
  0
DICTIONARY
  5
74
330
1F
100
AcDbDictionary
280
     1
  3
ACAD_INDEX
360
5204
  3
ACAD_LAYOUTSELFREF
360
5231
  0
DICTIONARY
  5
5236
330
101
100
AcDbDictionary
280
     1
  3
ACAD_LAYOUTSELFREF
360
5237
  0
DICTIONARY
  5
D
102
{ACAD_REACTORS
330
C
102
}
330
C
100
AcDbDictionary
  0
DICTIONARY
  5
1A
102
{ACAD_REACTORS
330
C
102
}
330
C
100
AcDbDictionary
  0
DICTIONARY
  5
17
102
{ACAD_REACTORS
330
C
102
}
330
C
100
AcDbDictionary
  3
STANDARD
350
18
  0
DICTIONARY
  5
19
102
{ACAD_REACTORS
330
C
102
}
330
C
100
AcDbDictionary
  0
ACDBDICTIONARYWDFLT
  5
E
102
{ACAD_REACTORS
330
C
102
}
330
C
100
AcDbDictionary
281
     1
  3
Normal
350
F
100
AcDbDictionaryWithDefault
340
F
  0
DICTIONARY
  5
34
102
{ACAD_REACTORS
330
C
102
}
330
C
100
AcDbDictionary
  3
INDEXCTL
350
35
  3
SORTENTS
350
B5E
  0
DICTIONARY
  5
43
102
{ACAD_REACTORS
330
C
102
}
330
C
100
AcDbDictionary
  3
ACMSTDDICTIONARY
350
260
  0
DICTIONARY
  5
2B
102
{ACAD_REACTORS
330
C
102
}
330
C
100
AcDbDictionary
  3
ACMGSETTINGS
350
2C
  0
DICTIONARY
  5
6E
102
{ACAD_REACTORS
330
C
102
}
330
C
100
AcDbDictionary
  0
DICTIONARY
  5
151A
102
{ACAD_REACTORS
330
C
102
}
330
C
100
AcDbDictionary
  3
ASEBLOCKHIERARCHYINDEXRECORD
350
151C
1001
DCO15
1040
1471862535.906
  0
XRECORD
  5
5202
102
{ACAD_REACTORS
330
C
102
}
330
C
100
AcDbXrecord
  1
DWGPROPS COOKIE
  2

  3

  4

  6

  7

  8

  9

300
AmdtFileType=82
301
=
302
=
303
=
304
=
305
=
306
=
307
=
308
=
309
=
 40
0.1816064814814815
 41
2452838.430434386
 42
2452901.587630197
  1

 90
        1
  0
DICTIONARY
  5
520E
102
{ACAD_REACTORS
330
C
102
}
330
C
100
AcDbDictionary
  3
TSTACKALIGN
350
520F
  3
TSTACKSIZE
350
5210
  3
HYPERLINKBASE
350
5211
  3
STYLESHEET
350
5212
  3
LAYOUTDICT
350
5213
  3
PLOTSETDICT
350
5214
  3
PLOTSTYLNAMDICT
350
5215
  3
LWETCUNION
350
5216
  3
INSUNITS
350
5217
  3
CEPSNTYPE
350
5218
  3
FINGERPRINTGUID
350
5219
  3
VERSIONGUID
350
521A
  3
PSVPSCALE
350
521B
  3
DIMSTYLEDATA
350
521C
  3
PUCSORTHOREF
350
521D
  3
PUCSORTHOVIEW
350
521E
  3
PUCSBASE
350
521F
  3
PUCSORGTOP
350
5220
  3
PUCSORGBOTTOM
350
5221
  3
PUCSORGLEFT
350
5222
  3
PUCSORGRIGHT
350
5223
  3
PUCSORGFRONT
350
5224
  3
PUCSORGBACK
350
5225
  3
UCSORTHOREF
350
5226
  3
UCSORTHOVIEW
350
5227
  3
UCSBASE
350
5228
  3
UCSORGTOP
350
5229
  3
UCSORGBOTTOM
350
522A
  3
UCSORGLEFT
350
522B
  3
UCSORGRIGHT
350
522C
  3
UCSORGFRONT
350
522D
  3
UCSORGBACK
350
522E
  0
DICTIONARY
  5
5204
102
{ACAD_REACTORS
330
74
102
}
330
74
100
AcDbDictionary
  3
*A1
350
5205
  0
XRECORD
  5
5231
102
{ACAD_REACTORS
330
74
102
}
330
74
100
AcDbXrecord
340
1F
  0
XRECORD
  5
5237
102
{ACAD_REACTORS
330
5236
102
}
330
5236
100
AcDbXrecord
340
101
  0
MLINESTYLE
  5
18
102
{ACAD_REACTORS
330
17
102
}
330
17
100
AcDbMlineStyle
  2
STANDARD
 70
     0
  3

 62
   256
 51
90.0
 52
90.0
 71
     2
 49
0.5
 62
   256
  6
BYLAYER
 49
-0.5
 62
   256
  6
BYLAYER
  0
ACDBPLACEHOLDER
  5
F
102
{ACAD_REACTORS
330
E
102
}
330
E
100
AcDbPlaceHolder
280
     0
  0
DICTIONARYVAR
  5
35
102
{ACAD_REACTORS
330
34
102
}
330
34
100
DictionaryVariables
280
     0
  1
1
  0
DICTIONARYVAR
  5
B5E
102
{ACAD_REACTORS
330
34
102
}
330
34
100
DictionaryVariables
280
     0
  1
96
  0
DICTIONARY
  5
260
102
{ACAD_REACTORS
330
43
102
}
330
43
100
AcDbDictionary
  0
DICTIONARY
  5
2C
102
{ACAD_REACTORS
330
2B
102
}
330
2B
100
AcDbDictionary
  3
DWGSETTINGS
350
2D
  0
XRECORD
  5
151C
102
{ACAD_REACTORS
330
151A
102
}
330
151A
100
AcDbXrecord
330
0
330
0
330
0
330
0
330
0
330
0
330
0
330
0
  0
XRECORD
  5
520F
102
{ACAD_REACTORS
330
520E
102
}
330
520E
100
AcDbXrecord
 90
        1
  0
XRECORD
  5
5210
102
{ACAD_REACTORS
330
520E
102
}
330
520E
100
AcDbXrecord
 90
       70
  0
XRECORD
  5
5211
102
{ACAD_REACTORS
330
520E
102
}
330
520E
100
AcDbXrecord
  1

  0
XRECORD
  5
5212
102
{ACAD_REACTORS
330
520E
102
}
330
520E
100
AcDbXrecord
  1
ASAMI.ctb
  0
XRECORD
  5
5213
102
{ACAD_REACTORS
330
520E
102
}
330
520E
100
AcDbXrecord
340
1A
  0
XRECORD
  5
5214
102
{ACAD_REACTORS
330
520E
102
}
330
520E
100
AcDbXrecord
340
19
  0
XRECORD
  5
5215
102
{ACAD_REACTORS
330
520E
102
}
330
520E
100
AcDbXrecord
340
E
  0
XRECORD
  5
5216
102
{ACAD_REACTORS
330
520E
102
}
330
520E
100
AcDbXrecord
 90
    10781
  0
XRECORD
  5
5217
102
{ACAD_REACTORS
330
520E
102
}
330
520E
100
AcDbXrecord
 90
        4
  0
XRECORD
  5
5218
102
{ACAD_REACTORS
330
520E
102
}
330
520E
100
AcDbXrecord
 90
        0
  0
XRECORD
  5
5219
102
{ACAD_REACTORS
330
520E
102
}
330
520E
100
AcDbXrecord
  1
{AFB28963-8C59-40AE-9337-C84526B81ACE}
  0
XRECORD
  5
521A
102
{ACAD_REACTORS
330
520E
102
}
330
520E
100
AcDbXrecord
  1
{19AB94B5-9661-46EC-8277-E4EE2AB3DF91}
  0
XRECORD
  5
521B
102
{ACAD_REACTORS
330
520E
102
}
330
520E
100
AcDbXrecord
 40
0.0
  0
XRECORD
  5
521C
102
{ACAD_REACTORS
330
520E
102
}
330
520E
100
AcDbXrecord
1000
DSTYLE
1002
{
1070
    79
 70
     2
1070
   341
340
59
1070
   342
340
59
1070
   371
 70
    -1
1070
   372
 70
    -1
1002
}
  0
XRECORD
  5
521D
102
{ACAD_REACTORS
330
520E
102
}
330
520E
100
AcDbXrecord
340
0
  0
XRECORD
  5
521E
102
{ACAD_REACTORS
330
520E
102
}
330
520E
100
AcDbXrecord
 70
     0
  0
XRECORD
  5
521F
102
{ACAD_REACTORS
330
520E
102
}
330
520E
100
AcDbXrecord
340
0
  0
XRECORD
  5
5220
102
{ACAD_REACTORS
330
520E
102
}
330
520E
100
AcDbXrecord
 10
0.0
 20
0.0
 30
0.0
  0
XRECORD
  5
5221
102
{ACAD_REACTORS
330
520E
102
}
330
520E
100
AcDbXrecord
 10
0.0
 20
0.0
 30
0.0
  0
XRECORD
  5
5222
102
{ACAD_REACTORS
330
520E
102
}
330
520E
100
AcDbXrecord
 10
0.0
 20
0.0
 30
0.0
  0
XRECORD
  5
5223
102
{ACAD_REACTORS
330
520E
102
}
330
520E
100
AcDbXrecord
 10
0.0
 20
0.0
 30
0.0
  0
XRECORD
  5
5224
102
{ACAD_REACTORS
330
520E
102
}
330
520E
100
AcDbXrecord
 10
0.0
 20
0.0
 30
0.0
  0
XRECORD
  5
5225
102
{ACAD_REACTORS
330
520E
102
}
330
520E
100
AcDbXrecord
 10
0.0
 20
0.0
 30
0.0
  0
XRECORD
  5
5226
102
{ACAD_REACTORS
330
520E
102
}
330
520E
100
AcDbXrecord
340
0
  0
XRECORD
  5
5227
102
{ACAD_REACTORS
330
520E
102
}
330
520E
100
AcDbXrecord
 70
     0
  0
XRECORD
  5
5228
102
{ACAD_REACTORS
330
520E
102
}
330
520E
100
AcDbXrecord
340
0
  0
XRECORD
  5
5229
102
{ACAD_REACTORS
330
520E
102
}
330
520E
100
AcDbXrecord
 10
0.0
 20
0.0
 30
0.0
  0
XRECORD
  5
522A
102
{ACAD_REACTORS
330
520E
102
}
330
520E
100
AcDbXrecord
 10
0.0
 20
0.0
 30
0.0
  0
XRECORD
  5
522B
102
{ACAD_REACTORS
330
520E
102
}
330
520E
100
AcDbXrecord
 10
0.0
 20
0.0
 30
0.0
  0
XRECORD
  5
522C
102
{ACAD_REACTORS
330
520E
102
}
330
520E
100
AcDbXrecord
 10
0.0
 20
0.0
 30
0.0
  0
XRECORD
  5
522D
102
{ACAD_REACTORS
330
520E
102
}
330
520E
100
AcDbXrecord
 10
0.0
 20
0.0
 30
0.0
  0
XRECORD
  5
522E
102
{ACAD_REACTORS
330
520E
102
}
330
520E
100
AcDbXrecord
 10
0.0
 20
0.0
 30
0.0
  0
LAYER_INDEX
  5
5205
102
{ACAD_REACTORS
330
5204
102
}
330
5204
100
AcDbIndex
 40
2453152.434826088
100
AcDbLayerIndex
  8
0
360
5206
 90
        0
  8
AM_0
360
5207
 90
       36
  8
AM_11
360
5208
 90
        4
  8
AM_7
360
5209
 90
        1
  8
AM_5
360
520A
 90
        6
  8
Defpoints
360
520B
 90
        0
  8
AM_6
360
520C
 90
        1
  0
XRECORD
  5
2D
102
{ACAD_REACTORS
330
2C
102
}
330
2C
100
AcDbXrecord
  1
VERSION
140
15.0
  1
PRODUCT
  2
AutoCAD Mechanical 2000
  0
IDBUFFER
  5
5206
330
0
100
AcDbIdBuffer
  0
IDBUFFER
  5
5207
330
0
100
AcDbIdBuffer
330
4C5D
330
4C6A
330
4C6D
330
4CB9
330
50AB
330
50AC
330
50AD
330
50AE
330
50BD
330
50BE
330
50C0
330
50C1
330
50C4
330
50C5
330
50C6
330
50C7
330
50C8
330
50C9
330
50CA
330
50CB
330
4699
330
469B
330
49A5
330
49A6
330
49A9
330
49AA
330
49AC
330
49AD
330
49AE
330
49AF
330
4B66
330
4B67
330
4B68
330
4C4A
330
4C4D
330
4C4E
  0
IDBUFFER
  5
5208
330
0
100
AcDbIdBuffer
330
49AB
330
50BF
330
50C2
330
50C3
  0
IDBUFFER
  5
5209
330
0
100
AcDbIdBuffer
330
3EE8
  0
IDBUFFER
  5
520A
330
0
100
AcDbIdBuffer
330
4047
330
412A
330
42F4
330
4C4F
330
4D75
330
4E46
  0
IDBUFFER
  5
520B
330
0
100
AcDbIdBuffer
  0
IDBUFFER
  5
520C
330
0
100
AcDbIdBuffer
330
1500
  0
ENDSEC
  0
EOF
