  0
SECTION
  2
HEADER
  9
$ACADVER
  1
AC1014
  9
$ACADMAINTVER
 70
     9
  9
$DWGCODEPAGE
  3
ANSI_932
  9
$INSBASE
 10
0.0
 20
0.0
 30
0.0
  9
$EXTMIN
 10
-170.7561951299595
 20
-70.00884751807342
 30
-0.00000001
  9
$EXTMAX
 10
16.34162794056475
 20
7.999999999999856
 30
0.00000001
  9
$LIMMIN
 10
-174.4667332338367
 20
-87.56762019242831
  9
$LIMMAX
 10
22.61832184037109
 20
32.30107757754444
  9
$ORTHOMODE
 70
     0
  9
$REGENMODE
 70
     1
  9
$FILLMODE
 70
     1
  9
$QTEXTMODE
 70
     0
  9
$MIRRTEXT
 70
     0
  9
$DRAGMODE
 70
     2
  9
$LTSCALE
 40
1.0
  9
$OSMODE
 70
    55
  9
$ATTMODE
 70
     1
  9
$TEXTSIZE
 40
2.5
  9
$TRACEWID
 40
1.0
  9
$TEXTSTYLE
  7
STANDARD
  9
$CLAYER
  8
AM_0
  9
$CELTYPE
  6
BYLAYER
  9
$CECOLOR
 62
   256
  9
$CELTSCALE
 40
1.0
  9
$DELOBJ
 70
     1
  9
$DISPSILH
 70
     0
  9
$DIMSCALE
 40
1.0
  9
$DIMASZ
 40
2.5
  9
$DIMEXO
 40
1.0
  9
$DIMDLI
 40
12.0
  9
$DIMRND
 40
0.0
  9
$DIMDLE
 40
0.0
  9
$DIMEXE
 40
1.0
  9
$DIMTP
 40
0.1
  9
$DIMTM
 40
0.1
  9
$DIMTXT
 40
3.2
  9
$DIMCEN
 40
0.0
  9
$DIMTSZ
 40
0.0
  9
$DIMTOL
 70
     0
  9
$DIMLIM
 70
     0
  9
$DIMTIH
 70
     0
  9
$DIMTOH
 70
     0
  9
$DIMSE1
 70
     0
  9
$DIMSE2
 70
     0
  9
$DIMTAD
 70
     3
  9
$DIMZIN
 70
     8
  9
$DIMBLK
  1
OPEN30
  9
$DIMASO
 70
     1
  9
$DIMSHO
 70
     1
  9
$DIMPOST
  1

  9
$DIMAPOST
  1
"
  9
$DIMALT
 70
     0
  9
$DIMALTD
 70
     2
  9
$DIMALTF
 40
0.0393701
  9
$DIMLFAC
 40
1.0
  9
$DIMTOFL
 70
     1
  9
$DIMTVP
 40
0.0
  9
$DIMTIX
 70
     0
  9
$DIMSOXD
 70
     0
  9
$DIMSAH
 70
     0
  9
$DIMBLK1
  1

  9
$DIMBLK2
  1

  9
$DIMSTYLE
  2
AM_JIS
  9
$DIMCLRD
 70
   256
  9
$DIMCLRE
 70
   256
  9
$DIMCLRT
 70
     2
  9
$DIMTFAC
 40
0.71
  9
$DIMGAP
 40
1.5
  9
$DIMJUST
 70
     0
  9
$DIMSD1
 70
     0
  9
$DIMSD2
 70
     0
  9
$DIMTOLJ
 70
     0
  9
$DIMTZIN
 70
     0
  9
$DIMALTZ
 70
     0
  9
$DIMALTTZ
 70
     0
  9
$DIMFIT
 70
     3
  9
$DIMUPT
 70
     0
  9
$DIMUNIT
 70
     2
  9
$DIMDEC
 70
     3
  9
$DIMTDEC
 70
     3
  9
$DIMALTU
 70
     2
  9
$DIMALTTD
 70
     2
  9
$DIMTXSTY
  7
ASAMI
  9
$DIMAUNIT
 70
     0
  9
$LUNITS
 70
     2
  9
$LUPREC
 70
     2
  9
$SKETCHINC
 40
1.0
  9
$FILLETRAD
 40
2.5
  9
$AUNITS
 70
     0
  9
$AUPREC
 70
     0
  9
$MENU
  1
.
  9
$ELEVATION
 40
0.0
  9
$PELEVATION
 40
0.0
  9
$THICKNESS
 40
0.0
  9
$LIMCHECK
 70
     0
  9
$BLIPMODE
 70
     0
  9
$CHAMFERA
 40
1.0
  9
$CHAMFERB
 40
1.0
  9
$CHAMFERC
 40
20.0
  9
$CHAMFERD
 40
0.0
  9
$SKPOLY
 70
     0
  9
$TDCREATE
 40
2452838.430434386
  9
$TDUPDATE
 40
2453152.435421447
  9
$TDINDWG
 40
0.1611331713
  9
$TDUSRTIMER
 40
0.1611331713
  9
$USRTIMER
 70
     1
  9
$ANGBASE
 50
0.0
  9
$ANGDIR
 70
     0
  9
$PDMODE
 70
     0
  9
$PDSIZE
 40
0.0
  9
$PLINEWID
 40
0.0
  9
$COORDS
 70
     1
  9
$SPLFRAME
 70
     0
  9
$SPLINETYPE
 70
     6
  9
$SPLINESEGS
 70
     8
  9
$ATTDIA
 70
     1
  9
$ATTREQ
 70
     1
  9
$HANDLING
 70
 12289
  9
$HANDSEED
  5
4AB2
  9
$SURFTAB1
 70
     6
  9
$SURFTAB2
 70
     6
  9
$SURFTYPE
 70
     6
  9
$SURFU
 70
     6
  9
$SURFV
 70
     6
  9
$UCSNAME
  2

  9
$UCSORG
 10
0.0
 20
0.0
 30
0.0
  9
$UCSXDIR
 10
1.0
 20
0.0
 30
0.0
  9
$UCSYDIR
 10
0.0
 20
1.0
 30
0.0
  9
$PUCSNAME
  2

  9
$PUCSORG
 10
0.0
 20
0.0
 30
0.0
  9
$PUCSXDIR
 10
1.0
 20
0.0
 30
0.0
  9
$PUCSYDIR
 10
0.0
 20
1.0
 30
0.0
  9
$USERI1
 70
     0
  9
$USERI2
 70
     0
  9
$USERI3
 70
     0
  9
$USERI4
 70
     0
  9
$USERI5
 70
     0
  9
$USERR1
 40
0.0
  9
$USERR2
 40
0.0
  9
$USERR3
 40
0.0
  9
$USERR4
 40
0.0
  9
$USERR5
 40
0.0
  9
$WORLDVIEW
 70
     1
  9
$SHADEDGE
 70
     3
  9
$SHADEDIF
 70
    70
  9
$TILEMODE
 70
     1
  9
$MAXACTVP
 70
    64
  9
$PINSBASE
 10
0.0
 20
0.0
 30
0.0
  9
$PLIMCHECK
 70
     0
  9
$PEXTMIN
 10
1.000000000000000E+20
 20
1.000000000000000E+20
 30
1.000000000000000E+20
  9
$PEXTMAX
 10
-1.000000000000000E+20
 20
-1.000000000000000E+20
 30
-1.000000000000000E+20
  9
$PLIMMIN
 10
0.0
 20
0.0
  9
$PLIMMAX
 10
841.0
 20
594.0
  9
$UNITMODE
 70
     0
  9
$VISRETAIN
 70
     1
  9
$PLINEGEN
 70
     0
  9
$PSLTSCALE
 70
     0
  9
$TREEDEPTH
 70
  3020
  9
$PICKSTYLE
 70
     0
  9
$CMLSTYLE
  2
STANDARD
  9
$CMLJUST
 70
     0
  9
$CMLSCALE
 40
20.0
  9
$PROXYGRAPHICS
 70
     1
  9
$MEASUREMENT
 70
     1
  0
ENDSEC
  0
SECTION
  2
CLASSES
  0
CLASS
  1
ACDBDICTIONARYWDFLT
  2
AcDbDictionaryWithDefault
  3
AutoCAD 2000
 90
        0
280
     0
281
     0
  0
CLASS
  1
ACDBPLACEHOLDER
  2
AcDbPlaceHolder
  3
AutoCAD 2000
 90
        0
280
     0
281
     0
  0
CLASS
  1
LAYOUT
  2
AcDbLayout
  3
AutoCAD 2000
 90
        0
280
     0
281
     0
  0
CLASS
  1
AMGSETTINGSOBJ
  2
AmgSettingsObj
  3
"AcadM|Product Description: AutoCAD Mechanical 2000|Company: Autodesk"
 90
        0
280
     0
281
     0
  0
CLASS
  1
ACME_DOCUMENT
  2
AcMeDbDoc
  3
AcMeServices
 90
        0
280
     0
281
     0
  0
CLASS
  1
ACMESCOPE
  2
AcMeScope
  3
AcMeServices
 90
        0
280
     0
281
     0
  0
CLASS
  1
ACMECOMMANDHISTORY
  2
AcMeCommandHistory
  3
AcMeServices
 90
        0
280
     0
281
     0
  0
CLASS
  1
DICTIONARYVAR
  2
AcDbDictionaryVar
  3
AutoCAD 2000
 90
        0
280
     0
281
     0
  0
CLASS
  1
ACIMSYSVARMAN
  2
AcImSysVarManager
  3
AcMeServices
 90
        0
280
     0
281
     0
  0
CLASS
  1
ACIMREALSYSVAR
  2
AcImRealSysVar
  3
AcMeServices
 90
        0
280
     0
281
     0
  0
CLASS
  1
ACIMINTSYSVAR
  2
AcImIntSysVar
  3
AcMeServices
 90
        0
280
     0
281
     0
  0
CLASS
  1
ACMEDRAWINGMAN
  2
AcMeDrawingMan
  3
AcMeServices
 90
        0
280
     0
281
     0
  0
CLASS
  1
ACMEVIEW
  2
AcMeView
  3
AcMeServices
 90
        0
280
     0
281
     0
  0
CLASS
  1
ACDBENTITYCACHE
  2
AcMeEntityCache
  3
AcMeServices
 90
        0
280
     0
281
     0
  0
CLASS
  1
GSMANAGER
  2
AcMeGSManager
  3
AcMeServices
 90
        0
280
     0
281
     0
  0
CLASS
  1
AmdtInternalReactor
  2
AmdtInternalReactor
  3
AcMeServices
 90
        0
280
     0
281
     0
  0
CLASS
  1
ACMESTATEMGR
  2
AcMeStateMgr
  3
AcMeServices
 90
        0
280
     0
281
     0
  0
CLASS
  1
ACME_DATABASE
  2
AcMeDbDatabase
  3
AcMeServices
 90
        0
280
     0
281
     0
  0
CLASS
  1
ACRFINSADJUSTERMGR
  2
AcRfInsAdjusterMgr
  3
AcMeServices
 90
        0
280
     0
281
     0
  0
CLASS
  1
ACMDATADICTIONARY
  2
AcmDataDictionary
  3
"AcmSymBB|Product Description: AutoCAD Mechanical 2000|Company: Autodesk"
 90
        0
280
     0
281
     0
  0
CLASS
  1
ACMDATAENTRYBLOCK
  2
AcmDataEntryBlock
  3
"AcmSymBB|Product Description: AutoCAD Mechanical 2000|Company: Autodesk"
 90
        0
280
     0
281
     0
  0
CLASS
  1
AMGOBJPROPCFG
  2
AmgObjPropCfg
  3
"AmgLay|Product Description: AutoCAD Mechanical 2000|Company: Autodesk"
 90
        1
280
     0
281
     0
  0
CLASS
  1
ACAMGFILTERDAT
  2
AcAmgFilterDat
  3
"AcadM|Product Description: AutoCAD Mechanical 2000|Company: Autodesk"
 90
        0
280
     0
281
     0
  0
CLASS
  1
LAYER_INDEX
  2
AcDbLayerIndex
  3
AutoCAD 2000
 90
        0
280
     0
281
     0
  0
CLASS
  1
IDBUFFER
  2
AcDbIdBuffer
  3
AutoCAD 2000
 90
        0
280
     0
281
     0
  0
CLASS
  1
ACIMSTRSYSVAR
  2
AcImStrSysVar
  3
AcMeServices
 90
        0
280
     0
281
     0
  0
CLASS
  1
ACMSTANDARDJIS
  2
AcmStandardJIS
  3
"AcmSymBB|Product Description: AutoCAD Mechanical 2000|Company: Autodesk"
 90
        0
280
     0
281
     0
  0
CLASS
  1
ACMSURFSTANDARDJIS
  2
AcmSurfTextStdJIS
  3
"AcmSymBB|Product Description: AutoCAD Mechanical 2000|Company: Autodesk"
 90
        0
280
     0
281
     0
  0
CLASS
  1
ACMFCFSTANDARDJIS
  2
AcmFCFStdJIS
  3
"AcmSymBB|Product Description: AutoCAD Mechanical 2000|Company: Autodesk"
 90
        0
280
     0
281
     0
  0
CLASS
  1
ACMWELDSTANDARDJIS
  2
AcmWeldingStdJIS
  3
"AcmSymBB|Product Description: AutoCAD Mechanical 2000|Company: Autodesk"
 90
        0
280
     0
281
     0
  0
CLASS
  1
ACMIDSTANDARDJIS
  2
AcmIdStdJIS
  3
"AcmSymBB|Product Description: AutoCAD Mechanical 2000|Company: Autodesk"
 90
        0
280
     0
281
     0
  0
CLASS
  1
ACMDATUMSTANDARDJIS
  2
AcmDatumStdJIS
  3
"AcmSymBB|Product Description: AutoCAD Mechanical 2000|Company: Autodesk"
 90
        0
280
     0
281
     0
  0
CLASS
  1
ACMBOMSTANDARDJIS
  2
AcmBOMStdJIS
  3
"AcmSymBB|Product Description: AutoCAD Mechanical 2000|Company: Autodesk"
 90
        0
280
     0
281
     0
  0
CLASS
  1
ACMSTANDARDANSI
  2
AcmStandardANSI
  3
"AcmSymBB|Product Description: AutoCAD Mechanical 2000|Company: Autodesk"
 90
        0
280
     0
281
     0
  0
CLASS
  1
ACMSURFSTANDARDANSI
  2
AcmSurfTextStdANSI
  3
"AcmSymBB|Product Description: AutoCAD Mechanical 2000|Company: Autodesk"
 90
        0
280
     0
281
     0
  0
CLASS
  1
ACMFCFSTANDARDANSI
  2
AcmFCFStdANSI
  3
"AcmSymBB|Product Description: AutoCAD Mechanical 2000|Company: Autodesk"
 90
        0
280
     0
281
     0
  0
CLASS
  1
ACMWELDSTANDARDANSI
  2
AcmWeldingStdANSI
  3
"AcmSymBB|Product Description: AutoCAD Mechanical 2000|Company: Autodesk"
 90
        0
280
     0
281
     0
  0
CLASS
  1
ACMIDSTANDARDANSI
  2
AcmIdStdANSI
  3
"AcmSymBB|Product Description: AutoCAD Mechanical 2000|Company: Autodesk"
 90
        0
280
     0
281
     0
  0
CLASS
  1
ACMDATUMSTANDARDANSI
  2
AcmDatumStdANSI
  3
"AcmSymBB|Product Description: AutoCAD Mechanical 2000|Company: Autodesk"
 90
        0
280
     0
281
     0
  0
CLASS
  1
ACMBOMSTANDARDANSI
  2
AcmBOMStdANSI
  3
"AcmSymBB|Product Description: AutoCAD Mechanical 2000|Company: Autodesk"
 90
        0
280
     0
281
     0
  0
CLASS
  1
ACMSTANDARDBSI
  2
AcmStandardBSI
  3
"AcmSymBB|Product Description: AutoCAD Mechanical 2000|Company: Autodesk"
 90
        0
280
     0
281
     0
  0
CLASS
  1
ACMSURFSTANDARDBSI
  2
AcmSurfTextStdBSI
  3
"AcmSymBB|Product Description: AutoCAD Mechanical 2000|Company: Autodesk"
 90
        0
280
     0
281
     0
  0
CLASS
  1
ACMFCFSTANDARDBSI
  2
AcmFCFStdBSI
  3
"AcmSymBB|Product Description: AutoCAD Mechanical 2000|Company: Autodesk"
 90
        0
280
     0
281
     0
  0
CLASS
  1
ACMWELDSTANDARDBSI
  2
AcmWeldingStdBSI
  3
"AcmSymBB|Product Description: AutoCAD Mechanical 2000|Company: Autodesk"
 90
        0
280
     0
281
     0
  0
CLASS
  1
ACMIDSTANDARDBSI
  2
AcmIdStdBSI
  3
"AcmSymBB|Product Description: AutoCAD Mechanical 2000|Company: Autodesk"
 90
        0
280
     0
281
     0
  0
CLASS
  1
ACMDATUMSTANDARDBSI
  2
AcmDatumStdBSI
  3
"AcmSymBB|Product Description: AutoCAD Mechanical 2000|Company: Autodesk"
 90
        0
280
     0
281
     0
  0
CLASS
  1
ACMBOMSTANDARDBSI
  2
AcmBOMStdBSI
  3
"AcmSymBB|Product Description: AutoCAD Mechanical 2000|Company: Autodesk"
 90
        0
280
     0
281
     0
  0
CLASS
  1
LONG_TRANSACTION
  2
AcDbLongTransaction
  3
AutoCAD 2000
 90
        0
280
     0
281
     0
  0
CLASS
  1
LWPOLYLINE
  2
AcDbPolyline
  3
AutoCAD 2000
 90
        0
280
     0
281
     1
  0
CLASS
  1
HATCH
  2
AcDbHatch
  3
AutoCAD 2000
 90
        0
280
     0
281
     1
  0
CLASS
  1
XRECORD
  2
AcDbXrecord
  3
AutoCAD 2000
 90
        0
280
     0
281
     0
  0
ENDSEC
  0
SECTION
  2
TABLES
  0
TABLE
  2
VPORT
  5
8
330
0
100
AcDbSymbolTable
 70
     3
  0
VPORT
  5
4A81
330
8
100
AcDbSymbolTableRecord
100
AcDbViewportTableRecord
  2
*ACTIVE
 70
     0
 10
0.0
 20
0.0
 11
1.0
 21
1.0
 12
-77.20229893451445
 22
-31.00329782123244
 13
0.0
 23
0.0
 14
2.5
 24
2.5
 15
10.0
 25
10.0
 16
0.0
 26
0.0
 36
1.0
 17
0.0
 27
0.0
 37
0.0
 40
119.9933537760254
 41
1.56570841889117
 42
50.0
 43
0.0
 44
0.0
 50
0.0
 51
0.0
 71
     0
 72
   100
 73
     1
 74
     3
 75
     0
 76
     0
 77
     0
 78
     0
  0
ENDTAB
  0
TABLE
  2
LTYPE
  5
5
330
0
100
AcDbSymbolTable
 70
    10
  0
LTYPE
  5
14
330
5
100
AcDbSymbolTableRecord
100
AcDbLinetypeTableRecord
  2
BYBLOCK
 70
     0
  3

 72
    65
 73
     0
 40
0.0
  0
LTYPE
  5
15
330
5
100
AcDbSymbolTableRecord
100
AcDbLinetypeTableRecord
  2
BYLAYER
 70
     0
  3

 72
    65
 73
     0
 40
0.0
  0
LTYPE
  5
16
330
5
100
AcDbSymbolTableRecord
100
AcDbLinetypeTableRecord
  2
CONTINUOUS
 70
     0
  3
Solid line
 72
    65
 73
     0
 40
0.0
  0
LTYPE
  5
4B
330
5
100
AcDbSymbolTableRecord
100
AcDbLinetypeTableRecord
  2
AM_ISO02W050
 70
     0
  3
__ __ __ __ __ __ __ __ __ __ __ __ __ __ __
 72
    65
 73
     2
 40
7.5
 49
6.0
 74
     0
 49
-1.5
 74
     0
  0
LTYPE
  5
4C
330
5
100
AcDbSymbolTableRecord
100
AcDbLinetypeTableRecord
  2
AM_ISO08W050
 70
     0
  3
____ . ____ . ____ . ____ . ____ . ____ . ____
 72
    65
 73
     4
 40
18.0
 49
12.0
 74
     0
 49
-1.5
 74
     0
 49
3.0
 74
     0
 49
-1.5
 74
     0
  0
LTYPE
  5
4D
330
5
100
AcDbSymbolTableRecord
100
AcDbLinetypeTableRecord
  2
AM_ISO09W050
 70
     0
  3
_____ . . _____ . . _____ . . ____ .. ____
 72
    65
 73
     6
 40
22.5
 49
12.0
 74
     0
 49
-1.5
 74
     0
 49
3.0
 74
     0
 49
-1.5
 74
     0
 49
3.0
 74
     0
 49
-1.5
 74
     0
  0
LTYPE
  5
4E
330
5
100
AcDbSymbolTableRecord
100
AcDbLinetypeTableRecord
  2
AMCONSTR
 70
     0
  3
_______________________
 72
    65
 73
     2
 40
9999.0
 49
9999.0
 74
     0
 49
0.0
 74
     0
  0
LTYPE
  5
4F
330
5
100
AcDbSymbolTableRecord
100
AcDbLinetypeTableRecord
  2
AM_ISO02W050X2
 70
     0
  3
 _ _ _ _ _ _ _ _ _ _ _ _
 72
    65
 73
     2
 40
3.75
 49
3.0
 74
     0
 49
-0.75
 74
     0
  0
LTYPE
  5
50
330
5
100
AcDbSymbolTableRecord
100
AcDbLinetypeTableRecord
  2
AM_ISO08W050X2
 70
     0
  3
__ . __ . __ . __ . __ . __
 72
    65
 73
     4
 40
9.0
 49
6.0
 74
     0
 49
-0.75
 74
     0
 49
1.5
 74
     0
 49
-0.75
 74
     0
  0
LTYPE
  5
53
330
5
100
AcDbSymbolTableRecord
100
AcDbLinetypeTableRecord
  2
AMZIGZAG
 70
     0
  3
/\/-/\/-/\/-/\/-/\/-/\/
 72
    65
 73
     2
 40
11.00009999999999
 49
0.0001
 74
     4
 75
   135
340
52
 46
0.04
 50
0.0
 44
0.0
 45
0.0
 49
-11.0
 74
     0
  0
LTYPE
  5
166
330
5
100
AcDbSymbolTableRecord
100
AcDbLinetypeTableRecord
  2
ACJISTGL
 70
     0
  3
_ _ _ _ _
 72
    65
 73
     2
 40
3.0
 49
2.0
 74
     0
 49
-1.0
 74
     0
  0
LTYPE
  5
26A
330
5
100
AcDbSymbolTableRecord
100
AcDbLinetypeTableRecord
  2
ACJISTGB
 70
     0
  3
__ . . __ . .
 72
    65
 73
     6
 40
9.0
 49
4.0
 74
     0
 49
-1.0
 74
     0
 49
1.0
 74
     0
 49
-1.0
 74
     0
 49
1.0
 74
     0
 49
-1.0
 74
     0
  0
ENDTAB
  0
TABLE
  2
LAYER
  5
2
330
0
100
AcDbSymbolTable
 70
     7
  0
LAYER
  5
10
330
2
100
AcDbSymbolTableRecord
100
AcDbLayerTableRecord
  2
0
 70
     0
 62
     7
  6
CONTINUOUS
  0
LAYER
  5
3F9
330
2
100
AcDbSymbolTableRecord
100
AcDbLayerTableRecord
  2
AM_0
 70
     0
 62
     7
  6
CONTINUOUS
  0
LAYER
  5
BDD
330
2
100
AcDbSymbolTableRecord
100
AcDbLayerTableRecord
  2
AM_11
 70
     0
 62
     3
  6
AM_ISO09W050
  0
LAYER
  5
BDE
330
2
100
AcDbSymbolTableRecord
100
AcDbLayerTableRecord
  2
AM_7
 70
     0
 62
     4
  6
AM_ISO08W050
  0
LAYER
  5
BDF
330
2
100
AcDbSymbolTableRecord
100
AcDbLayerTableRecord
  2
AM_5
 70
     0
 62
     3
  6
CONTINUOUS
  0
LAYER
  5
BE0
330
2
100
AcDbSymbolTableRecord
100
AcDbLayerTableRecord
  2
DEFPOINTS
 70
     0
 62
     7
  6
CONTINUOUS
  0
LAYER
  5
14FF
330
2
100
AcDbSymbolTableRecord
100
AcDbLayerTableRecord
  2
AM_6
 70
     0
 62
     2
  6
CONTINUOUS
  0
ENDTAB
  0
TABLE
  2
STYLE
  5
3
330
0
100
AcDbSymbolTable
 70
     5
  0
STYLE
  5
11
330
3
100
AcDbSymbolTableRecord
100
AcDbTextStyleTableRecord
  2
STANDARD
 70
     0
 40
0.0
 41
1.0
 50
0.0
 71
     0
 42
2.5
  3
simplex.shx
  4
EXTFONT.SHX
  0
STYLE
  5
52
330
3
100
AcDbSymbolTableRecord
100
AcDbTextStyleTableRecord
  2

 70
     1
 40
0.0
 41
1.0
 50
0.0
 71
     0
 42
2.5
  3
ltypeshp.shx
  4

  0
STYLE
  5
6B
330
3
100
AcDbSymbolTableRecord
100
AcDbTextStyleTableRecord
  2
ASAMI
 70
     0
 40
0.0
 41
1.0
 50
0.0
 71
     0
 42
2.5
  3
simplex.shx
  4
EXTFONT.SHX
  0
STYLE
  5
262
330
3
100
AcDbSymbolTableRecord
100
AcDbTextStyleTableRecord
  2
ACJISTS
 70
     0
 40
1.0
 41
1.0
 50
0.0
 71
     0
 42
2.5
  3
simplex.shx
  4
bigfont.shx
  0
STYLE
  5
269
330
3
100
AcDbSymbolTableRecord
100
AcDbTextStyleTableRecord
  2
ACJISGDT
 70
     0
 40
0.0
 41
1.0
 50
0.0
 71
     0
 42
2.5
  3
amgdtans.shx
  4

  0
ENDTAB
  0
TABLE
  2
VIEW
  5
6
330
0
100
AcDbSymbolTable
 70
     0
  0
ENDTAB
  0
TABLE
  2
UCS
  5
7
330
0
100
AcDbSymbolTable
 70
     0
  0
ENDTAB
  0
TABLE
  2
APPID
  5
9
330
0
100
AcDbSymbolTable
 70
    14
  0
APPID
  5
12
330
9
100
AcDbSymbolTableRecord
100
AcDbRegAppTableRecord
  2
ACAD
 70
     0
  0
APPID
  5
30
330
9
100
AcDbSymbolTableRecord
100
AcDbRegAppTableRecord
  2
MCAD_NO_VIS
 70
     0
  0
APPID
  5
31
330
9
100
AcDbSymbolTableRecord
100
AcDbRegAppTableRecord
  2
ACAD_TEMP_GRAPHIC
 70
     0
  0
APPID
  5
2C2
330
9
100
AcDbSymbolTableRecord
100
AcDbRegAppTableRecord
  2
GENIUS_GENDTOL_13
 70
     0
  0
APPID
  5
339
330
9
100
AcDbSymbolTableRecord
100
AcDbRegAppTableRecord
  2
GENIUS_GENODEF_13
 70
     0
  0
APPID
  5
33A
330
9
100
AcDbSymbolTableRecord
100
AcDbRegAppTableRecord
  2
GENIUS_GENOBJ-N-RSBK_13
 70
     0
  0
APPID
  5
33B
330
9
100
AcDbSymbolTableRecord
100
AcDbRegAppTableRecord
  2
GENIUS_GENOBJ-N-LIB_13
 70
     0
  0
APPID
  5
33C
330
9
100
AcDbSymbolTableRecord
100
AcDbRegAppTableRecord
  2
GENIUS_GENSCALE_13
 70
     0
  0
APPID
  5
378
330
9
100
AcDbSymbolTableRecord
100
AcDbRegAppTableRecord
  2
GENIUS_GENDIMSH_14
 70
     0
  0
APPID
  5
BE1
330
9
100
AcDbSymbolTableRecord
100
AcDbRegAppTableRecord
  2
GENIUS_GENFIL_13
 70
     0
  0
APPID
  5
BE2
330
9
100
AcDbSymbolTableRecord
100
AcDbRegAppTableRecord
  2
GENIUS_GENOBJ-N-CHA_13
 70
     0
  0
APPID
  5
151B
330
9
100
AcDbSymbolTableRecord
100
AcDbRegAppTableRecord
  2
DCO15
 70
     0
  0
APPID
  5
1860
330
9
100
AcDbSymbolTableRecord
100
AcDbRegAppTableRecord
  2
GENIUS_GENOBJ-N-CEN_13
 70
     0
  0
APPID
  5
359C
330
9
100
AcDbSymbolTableRecord
100
AcDbRegAppTableRecord
  2
GENIUS_GENOBJ-N-FIL_13
 70
     0
  0
ENDTAB
  0
TABLE
  2
DIMSTYLE
  5
A
330
0
100
AcDbSymbolTable
 70
     8
  0
DIMSTYLE
105
58
102
{ACAD_REACTORS
330
4047
330
412A
330
42F4
330
458C
330
4817
102
}
330
A
100
AcDbSymbolTableRecord
100
AcDbDimStyleTableRecord
  2
AM_JIS
 70
     0
  3

  4
"
  5
OPEN30
  6

  7

 40
1.0
 41
2.5
 42
1.0
 43
12.0
 44
1.0
 45
0.0
 46
0.0
 47
0.1
 48
0.1
140
3.2
141
0.0
142
0.0
143
0.0393701
144
1.0
145
0.0
146
0.71
147
1.5
 71
     0
 72
     0
 73
     0
 74
     0
 75
     0
 76
     0
 77
     3
 78
     8
170
     0
171
     2
172
     1
173
     0
174
     0
175
     0
176
   256
177
   256
178
     2
270
     2
271
     3
272
     3
273
     2
274
     2
340
6B
275
     0
280
     0
281
     0
282
     0
283
     0
284
     0
285
     0
286
     0
287
     3
288
     0
  0
DIMSTYLE
105
5F
330
A
100
AcDbSymbolTableRecord
100
AcDbDimStyleTableRecord
  2
AM_JIS$3
 70
     0
  3

  4
"
  5
OPEN30
  6

  7

 40
1.0
 41
2.5
 42
1.0
 43
10.0
 44
1.0
 45
0.0
 46
0.0
 47
0.1
 48
0.1
140
3.2
141
0.0
142
0.0
143
0.0393701
144
1.0
145
0.0
146
0.71
147
1.5
 71
     0
 72
     0
 73
     0
 74
     1
 75
     0
 76
     0
 77
     3
 78
     8
170
     0
171
     2
172
     0
173
     0
174
     0
175
     0
176
   256
177
   256
178
     2
270
     2
271
     2
272
     3
273
     2
274
     2
340
6B
275
     0
280
     0
281
     0
282
     0
283
     0
284
     0
285
     0
286
     0
287
     0
288
     1
  0
DIMSTYLE
105
60
102
{ACAD_REACTORS
330
46C4
102
}
330
A
100
AcDbSymbolTableRecord
100
AcDbDimStyleTableRecord
  2
AM_JIS$4
 70
     0
  3

  4
"
  5
OPEN30
  6

  7

 40
1.0
 41
2.5
 42
1.0
 43
10.0
 44
1.0
 45
0.0
 46
0.0
 47
0.1
 48
0.1
140
3.2
141
0.0
142
0.0
143
0.0393701
144
1.0
145
0.0
146
0.71
147
1.5
 71
     0
 72
     0
 73
     0
 74
     1
 75
     0
 76
     0
 77
     3
 78
     8
170
     0
171
     2
172
     0
173
     0
174
     0
175
     0
176
   256
177
   256
178
     2
270
     2
271
     2
272
     3
273
     2
274
     2
340
6B
275
     0
280
     0
281
     0
282
     0
283
     0
284
     0
285
     0
286
     0
287
     0
288
     1
  0
DIMSTYLE
105
61
330
A
100
AcDbSymbolTableRecord
100
AcDbDimStyleTableRecord
  2
AM_JIS$6
 70
     0
  3

  4
"
  5
OPEN30
  6

  7

 40
1.0
 41
2.5
 42
1.0
 43
10.0
 44
1.0
 45
0.0
 46
0.0
 47
0.1
 48
0.1
140
3.2
141
0.0
142
0.0
143
0.0393701
144
1.0
145
0.0
146
0.71
147
1.5
 71
     0
 72
     0
 73
     0
 74
     0
 75
     0
 76
     0
 77
     0
 78
     8
170
     0
171
     2
172
     1
173
     0
174
     0
175
     0
176
   256
177
   256
178
     2
270
     2
271
     2
272
     2
273
     2
274
     2
340
6B
275
     0
280
     0
281
     0
282
     0
283
     0
284
     0
285
     0
286
     0
287
     3
288
     0
  0
DIMSTYLE
105
62
330
A
100
AcDbSymbolTableRecord
100
AcDbDimStyleTableRecord
  2
AM_JIS$7
 70
     0
  3

  4
"
  5
OPEN30
  6

  7

 40
1.0
 41
2.5
 42
1.0
 43
10.0
 44
1.0
 45
0.0
 46
0.0
 47
0.1
 48
0.1
140
3.2
141
0.0
142
0.0
143
0.0393701
144
1.0
145
0.0
146
0.71
147
1.5
 71
     0
 72
     0
 73
     0
 74
     0
 75
     0
 76
     0
 77
     3
 78
     8
170
     0
171
     2
172
     1
173
     0
174
     0
175
     0
176
   256
177
   256
178
     2
270
     2
271
     2
272
     3
273
     2
274
     2
340
6B
275
     0
280
     0
281
     0
282
     0
283
     0
284
     0
285
     0
286
     0
287
     3
288
     0
  0
DIMSTYLE
105
63
330
A
100
AcDbSymbolTableRecord
100
AcDbDimStyleTableRecord
  2
AM_JIS$SF
 70
     0
  3

  4
"
  5
OPEN30
  6

  7

 40
1.0
 41
2.5
 42
1.0
 43
10.0
 44
1.0
 45
0.0
 46
0.0
 47
0.1
 48
0.1
140
3.2
141
0.0
142
0.0
143
0.0393701
144
1.0
145
0.0
146
0.71
147
1.5
 71
     0
 72
     0
 73
     0
 74
     0
 75
     1
 76
     1
 77
     3
 78
     8
170
     0
171
     2
172
     1
173
     0
174
     0
175
     0
176
   256
177
   256
178
     2
270
     2
271
     2
272
     2
273
     2
274
     2
340
6B
275
     0
280
     0
281
     0
282
     0
283
     0
284
     0
285
     0
286
     0
287
     3
288
     0
  0
DIMSTYLE
105
68
330
A
100
AcDbSymbolTableRecord
100
AcDbDimStyleTableRecord
  2
AM_JIS$SH
 70
     0
  3

  4
"
  5

  6
GENAXEH
  7
OPEN30
 40
1.0
 41
2.5
 42
1.0
 43
10.0
 44
1.0
 45
0.0
 46
0.0
 47
0.1
 48
0.1
140
3.2
141
0.0
142
0.0
143
0.0393701
144
2.0
145
0.0
146
0.71
147
1.5
 71
     0
 72
     0
 73
     0
 74
     0
 75
     1
 76
     1
 77
     3
 78
     8
170
     0
171
     2
172
     1
173
     1
174
     0
175
     0
176
   256
177
   256
178
     2
270
     2
271
     2
272
     2
273
     2
274
     2
340
6B
275
     0
280
     0
281
     0
282
     0
283
     0
284
     0
285
     0
286
     0
287
     3
288
     0
  0
DIMSTYLE
105
B34
330
A
100
AcDbSymbolTableRecord
100
AcDbDimStyleTableRecord
  2
AM_JIS$2
 70
     0
  3

  4
"
  5
OPEN30
  6

  7

 40
1.0
 41
2.5
 42
1.0
 43
12.0
 44
1.0
 45
0.0
 46
0.0
 47
0.1
 48
0.1
140
3.2
141
0.0
142
0.0
143
0.0393701
144
1.0
145
0.0
146
0.71
147
1.5
 71
     0
 72
     0
 73
     0
 74
     0
 75
     0
 76
     0
 77
     3
 78
     8
170
     0
171
     2
172
     1
173
     0
174
     0
175
     0
176
   256
177
   256
178
     2
270
     2
271
     3
272
     3
273
     2
274
     2
340
6B
275
     0
280
     0
281
     0
282
     0
283
     0
284
     0
285
     0
286
     0
287
     3
288
     0
  0
ENDTAB
  0
TABLE
  2
BLOCK_RECORD
  5
1
330
0
100
AcDbSymbolTable
 70
    11
  0
BLOCK_RECORD
  5
1F
102
{ACAD_XDICTIONARY
360
74
102
}
330
1
100
AcDbSymbolTableRecord
100
AcDbBlockTableRecord
  2
*MODEL_SPACE
  0
BLOCK_RECORD
  5
101
102
{ACAD_XDICTIONARY
360
4AAA
102
}
330
1
100
AcDbSymbolTableRecord
100
AcDbBlockTableRecord
  2
*PAPER_SPACE
  0
BLOCK_RECORD
  5
59
330
1
100
AcDbSymbolTableRecord
100
AcDbBlockTableRecord
  2
_OPEN30
  0
BLOCK_RECORD
  5
64
330
1
100
AcDbSymbolTableRecord
100
AcDbBlockTableRecord
  2
GENAXEH
  0
BLOCK_RECORD
  5
4048
330
1
100
AcDbSymbolTableRecord
100
AcDbBlockTableRecord
  2
*D5
  0
BLOCK_RECORD
  5
412B
330
1
100
AcDbSymbolTableRecord
100
AcDbBlockTableRecord
  2
*D6
  0
BLOCK_RECORD
  5
42F5
330
1
100
AcDbSymbolTableRecord
100
AcDbBlockTableRecord
  2
*D7
  0
BLOCK_RECORD
  5
458D
330
1
100
AcDbSymbolTableRecord
100
AcDbBlockTableRecord
  2
*D8
  0
BLOCK_RECORD
  5
46C5
330
1
100
AcDbSymbolTableRecord
100
AcDbBlockTableRecord
  2
*D9
  0
BLOCK_RECORD
  5
4818
330
1
100
AcDbSymbolTableRecord
100
AcDbBlockTableRecord
  2
*D10
  0
ENDTAB
  0
ENDSEC
  0
SECTION
  2
BLOCKS
  0
BLOCK
  5
20
330
1F
100
AcDbEntity
  8
0
100
AcDbBlockBegin
  2
*MODEL_SPACE
 70
     0
 10
0.0
 20
0.0
 30
0.0
  3
*MODEL_SPACE
  1

  0
ENDBLK
  5
21
330
1F
100
AcDbEntity
  8
0
100
AcDbBlockEnd
  0
BLOCK
  5
103
330
101
100
AcDbEntity
 67
     1
  8
0
100
AcDbBlockBegin
  2
*PAPER_SPACE
 70
     0
 10
0.0
 20
0.0
 30
0.0
  3
*PAPER_SPACE
  1

  0
ENDBLK
  5
104
330
101
100
AcDbEntity
 67
     1
  8
0
100
AcDbBlockEnd
  0
BLOCK
  5
5D
330
59
100
AcDbEntity
  8
0
100
AcDbBlockBegin
  2
_OPEN30
 70
     0
 10
0.0
 20
0.0
 30
0.0
  3
_OPEN30
  1

  0
LINE
  5
5A
330
59
100
AcDbEntity
  8
0
 62
     0
100
AcDbLine
 10
-1.0
 20
0.26794919
 30
0.0
 11
0.0
 21
0.0
 31
0.0
  0
LINE
  5
5B
330
59
100
AcDbEntity
  8
0
 62
     0
100
AcDbLine
 10
0.0
 20
0.0
 30
0.0
 11
-1.0
 21
-0.26794919
 31
0.0
  0
LINE
  5
5C
330
59
100
AcDbEntity
  8
0
 62
     0
100
AcDbLine
 10
0.0
 20
0.0
 30
0.0
 11
-1.0
 21
0.0
 31
0.0
  0
ENDBLK
  5
5E
330
59
100
AcDbEntity
  8
0
100
AcDbBlockEnd
  0
BLOCK
  5
66
330
64
100
AcDbEntity
  8
0
100
AcDbBlockBegin
  2
GENAXEH
 70
     0
 10
0.0
 20
0.0
 30
0.0
  3
GENAXEH
  1

  0
LINE
  5
65
330
64
100
AcDbEntity
  8
0
100
AcDbLine
 10
-1.0
 20
0.0
 30
0.0
 11
1.0
 21
0.0
 31
0.0
  0
ENDBLK
  5
67
330
64
100
AcDbEntity
  8
0
100
AcDbBlockEnd
  0
BLOCK
  5
4052
330
4048
100
AcDbEntity
  8
0
100
AcDbBlockBegin
  2
*D5
 70
     1
 10
0.0
 20
0.0
 30
0.0
  3
*D5
  1

  0
LINE
  5
483F
330
4048
100
AcDbEntity
  8
AM_5
100
AcDbLine
 10
-150.0
 20
-7.999999999999985
 30
0.0
 11
-150.0
 21
-48.50884751807335
 31
0.0
  0
LINE
  5
4840
330
4048
100
AcDbEntity
  8
AM_5
100
AcDbLine
 10
0.0000000000000006
 20
-1.0
 30
0.0
 11
-0.0000000000000023
 21
-48.50884751807335
 31
0.0
  0
LINE
  5
4841
330
4048
100
AcDbEntity
  8
AM_5
100
AcDbLine
 10
-147.5
 20
-47.50884751807335
 30
0.0
 11
-2.500000000000002
 21
-47.50884751807335
 31
0.0
  0
INSERT
  5
4842
330
4048
100
AcDbEntity
  8
AM_5
100
AcDbBlockReference
  2
_OPEN30
 10
-150.0
 20
-47.50884751807335
 30
0.0
 41
2.5
 42
2.5
 43
2.5
 50
180.0
  0
INSERT
  5
4843
330
4048
100
AcDbEntity
  8
AM_5
100
AcDbBlockReference
  2
_OPEN30
 10
-0.0000000000000022
 20
-47.50884751807335
 30
0.0
 41
2.5
 42
2.5
 43
2.5
  0
MTEXT
  5
4844
330
4048
100
AcDbEntity
  8
AM_5
 62
     2
100
AcDbMText
 10
-75.0
 20
-44.40884751807335
 30
0.0
 40
3.2
 41
0.0
 71
     5
 72
     1
  1
150
  7
ASAMI
1001
ACAD
1000
MTEXTBEGIN
1070
    73
1070
     1
1070
    44
1040
1.0
1070
    74
1070
     0
1000
MTEXTEND
  0
POINT
  5
4845
330
4048
100
AcDbEntity
  8
DEFPOINTS
 62
     0
100
AcDbPoint
 10
-150.0
 20
-6.999999999999985
 30
0.0
  0
POINT
  5
4846
330
4048
100
AcDbEntity
  8
DEFPOINTS
 62
     0
100
AcDbPoint
 10
0.0000000000000007
 20
-0.0000000000000005
 30
0.0
  0
POINT
  5
4847
330
4048
100
AcDbEntity
  8
DEFPOINTS
 62
     0
100
AcDbPoint
 10
-0.0000000000000022
 20
-47.50884751807335
 30
0.0
  0
ENDBLK
  5
4053
330
4048
100
AcDbEntity
  8
0
100
AcDbBlockEnd
  0
BLOCK
  5
4135
330
412B
100
AcDbEntity
  8
0
100
AcDbBlockBegin
  2
*D6
 70
     1
 10
0.0
 20
0.0
 30
0.0
  3
*D6
  1

  0
LINE
  5
48CA
330
412B
100
AcDbEntity
  8
AM_5
100
AcDbLine
 10
-0.0000000000000143
 20
-1.000000000000011
 30
0.0
 11
-0.0000000000000157
 21
-24.50884751807341
 31
0.0
  0
LINE
  5
48CB
330
412B
100
AcDbEntity
  8
AM_5
100
AcDbLine
 10
-28.0
 20
-7.000000000000022
 30
0.0
 11
-28.0
 21
-24.50884751807341
 31
0.0
  0
LINE
  5
48CC
330
412B
100
AcDbEntity
  8
AM_5
100
AcDbLine
 10
-2.500000000000015
 20
-23.50884751807341
 30
0.0
 11
-25.5
 21
-23.50884751807341
 31
0.0
  0
INSERT
  5
48CD
330
412B
100
AcDbEntity
  8
AM_5
100
AcDbBlockReference
  2
_OPEN30
 10
-0.0000000000000157
 20
-23.50884751807341
 30
0.0
 41
2.5
 42
2.5
 43
2.5
  0
INSERT
  5
48CE
330
412B
100
AcDbEntity
  8
AM_5
100
AcDbBlockReference
  2
_OPEN30
 10
-28.0
 20
-23.50884751807341
 30
0.0
 41
2.5
 42
2.5
 43
2.5
 50
180.0
  0
MTEXT
  5
48CF
330
412B
100
AcDbEntity
  8
AM_5
 62
     2
100
AcDbMText
 10
-14.0
 20
-20.40884751807341
 30
0.0
 40
3.2
 41
0.0
 71
     5
 72
     1
  1
28
  7
ASAMI
1001
ACAD
1000
MTEXTBEGIN
1070
    73
1070
     1
1070
    44
1040
1.0
1070
    74
1070
     0
1000
MTEXTEND
  0
POINT
  5
48D0
330
412B
100
AcDbEntity
  8
DEFPOINTS
 62
     0
100
AcDbPoint
 10
-0.0000000000000142
 20
-0.0000000000000111
 30
0.0
  0
POINT
  5
48D1
330
412B
100
AcDbEntity
  8
DEFPOINTS
 62
     0
100
AcDbPoint
 10
-28.0
 20
-6.000000000000022
 30
0.0
  0
POINT
  5
48D2
330
412B
100
AcDbEntity
  8
DEFPOINTS
 62
     0
100
AcDbPoint
 10
-28.0
 20
-23.50884751807341
 30
0.0
  0
ENDBLK
  5
4136
330
412B
100
AcDbEntity
  8
0
100
AcDbBlockEnd
  0
BLOCK
  5
42FF
330
42F5
100
AcDbEntity
  8
0
100
AcDbBlockBegin
  2
*D7
 70
     1
 10
0.0
 20
0.0
 30
0.0
  3
*D7
  1

  0
LINE
  5
45DA
330
42F5
100
AcDbEntity
  8
AM_5
100
AcDbLine
 10
-5.000000000000006
 20
5.999999999999999
 30
0.0
 11
16.34162794056475
 21
5.999999999999992
 31
0.0
  0
LINE
  5
45DB
330
42F5
100
AcDbEntity
  8
AM_5
100
AcDbLine
 10
-5.0
 20
-6.0
 30
0.0
 11
16.34162794056475
 21
-6.000000000000007
 31
0.0
  0
LINE
  5
45DC
330
42F5
100
AcDbEntity
  8
AM_5
100
AcDbLine
 10
15.34162794056475
 20
3.499999999999993
 30
0.0
 11
15.34162794056475
 21
-3.500000000000006
 31
0.0
  0
INSERT
  5
45DD
330
42F5
100
AcDbEntity
  8
AM_5
100
AcDbBlockReference
  2
_OPEN30
 10
15.34162794056475
 20
5.999999999999993
 30
0.0
 41
2.5
 42
2.5
 43
2.5
 50
90.0
  0
INSERT
  5
45DE
330
42F5
100
AcDbEntity
  8
AM_5
100
AcDbBlockReference
  2
_OPEN30
 10
15.34162794056475
 20
-6.000000000000006
 30
0.0
 41
2.5
 42
2.5
 43
2.5
 50
270.0
  0
MTEXT
  5
45DF
330
42F5
100
AcDbEntity
  8
AM_5
 62
     2
100
AcDbMText
 10
12.24162794056475
 20
-0.0000000000000032
 30
0.0
 40
3.2
 41
0.0
 71
     5
 72
     1
  1
%%c12
  7
ASAMI
 11
0.0000000000000001
 21
1.0
 31
0.0
1001
ACAD
1000
MTEXTBEGIN
1070
    73
1070
     1
1070
    44
1040
1.0
1070
    74
1070
     0
1000
MTEXTEND
  0
POINT
  5
45E0
330
42F5
100
AcDbEntity
  8
DEFPOINTS
 62
     0
100
AcDbPoint
 10
-6.000000000000006
 20
6.0
 30
0.0
  0
POINT
  5
45E1
330
42F5
100
AcDbEntity
  8
DEFPOINTS
 62
     0
100
AcDbPoint
 10
-6.0
 20
-6.0
 30
0.0
  0
POINT
  5
45E2
330
42F5
100
AcDbEntity
  8
DEFPOINTS
 62
     0
100
AcDbPoint
 10
15.34162794056475
 20
-6.000000000000006
 30
0.0
  0
ENDBLK
  5
4300
330
42F5
100
AcDbEntity
  8
0
100
AcDbBlockEnd
  0
BLOCK
  5
4597
330
458D
100
AcDbEntity
  8
0
100
AcDbBlockBegin
  2
*D8
 70
     1
 10
0.0
 20
0.0
 30
0.0
  3
*D8
  1

  0
LINE
  5
45BC
330
458D
100
AcDbEntity
  8
AM_5
100
AcDbLine
 10
-149.9999999999999
 20
7.999999999999805
 30
0.0
 11
-167.0561951299595
 21
7.99999999999981
 31
0.0
  0
LINE
  5
45BD
330
458D
100
AcDbEntity
  8
AM_5
100
AcDbLine
 10
-149.9999999999999
 20
-8.000000000000014
 30
0.0
 11
-167.0561951299595
 21
-8.000000000000008
 31
0.0
  0
LINE
  5
45BE
330
458D
100
AcDbEntity
  8
AM_5
100
AcDbLine
 10
-166.0561951299595
 20
5.49999999999981
 30
0.0
 11
-166.0561951299595
 21
-5.500000000000008
 31
0.0
  0
INSERT
  5
45BF
330
458D
100
AcDbEntity
  8
AM_5
100
AcDbBlockReference
  2
_OPEN30
 10
-166.0561951299595
 20
7.99999999999981
 30
0.0
 41
2.5
 42
2.5
 43
2.5
 50
90.0
  0
INSERT
  5
45C0
330
458D
100
AcDbEntity
  8
AM_5
100
AcDbBlockReference
  2
_OPEN30
 10
-166.0561951299595
 20
-8.000000000000008
 30
0.0
 41
2.5
 42
2.5
 43
2.5
 50
270.0
  0
MTEXT
  5
45C1
330
458D
100
AcDbEntity
  8
AM_5
 62
     2
100
AcDbMText
 10
-169.1561951299595
 20
-0.0000000000001258
 30
0.0
 40
3.2
 41
0.0
 71
     5
 72
     1
  1
%%c16
  7
ASAMI
 11
0.0000000000000001
 21
1.0
 31
0.0
1001
ACAD
1000
MTEXTBEGIN
1070
    73
1070
     1
1070
    44
1040
1.0
1070
    74
1070
     0
1000
MTEXTEND
  0
POINT
  5
45C2
330
458D
100
AcDbEntity
  8
DEFPOINTS
 62
     0
100
AcDbPoint
 10
-148.9999999999999
 20
7.999999999999805
 30
0.0
  0
POINT
  5
45C3
330
458D
100
AcDbEntity
  8
DEFPOINTS
 62
     0
100
AcDbPoint
 10
-148.9999999999999
 20
-8.000000000000014
 30
0.0
  0
POINT
  5
45C4
330
458D
100
AcDbEntity
  8
DEFPOINTS
 62
     0
100
AcDbPoint
 10
-166.0561951299595
 20
-8.000000000000008
 30
0.0
  0
ENDBLK
  5
4598
330
458D
100
AcDbEntity
  8
0
100
AcDbBlockEnd
  0
BLOCK
  5
46CB
330
46C5
100
AcDbEntity
  8
0
100
AcDbBlockBegin
  2
*D9
 70
     1
 10
0.0
 20
0.0
 30
0.0
  3
*D9
  1

  0
LINE
  5
4AAC
330
46C5
100
AcDbEntity
  8
AM_5
100
AcDbLine
 10
7.371003376012534
 20
-15.78875338564607
 30
0.0
 11
-0.5252174430918606
 21
-6.410904342689076
 31
0.0
  0
MTEXT
  5
4AAD
330
46C5
100
AcDbEntity
  8
AM_5
 62
     2
100
AcDbMText
 10
7.107698853567919
 20
-10.66306648598932
 30
0.0
 40
3.2
 41
0.0
 71
     5
 72
     1
  1
R6
  7
ASAMI
 11
0.6440920655186694
 21
-0.7649479793658483
 31
0.0
  0
LINE
  5
4AAE
330
46C5
100
AcDbEntity
  8
AM_5
100
AcDbLine
 10
-6.000000000000547
 20
0.091153481920629
 30
0.0
 11
-2.135447606888533
 21
-4.498534394274456
 31
0.0
  0
INSERT
  5
4AAF
330
46C5
100
AcDbEntity
  8
AM_5
100
AcDbBlockReference
  2
_OPEN30
 10
-2.135447606888533
 20
-4.498534394274456
 30
0.0
 41
2.5
 42
2.5
 43
2.5
 50
130.0976357486276
  0
POINT
  5
4AB0
330
46C5
100
AcDbEntity
  8
DEFPOINTS
 62
     0
100
AcDbPoint
 10
-2.135447606888533
 20
-4.498534394274456
 30
0.0
  0
POINT
  5
4AB1
330
46C5
100
AcDbEntity
  8
DEFPOINTS
 62
     0
100
AcDbPoint
 10
-6.000000000000547
 20
0.091153481920629
 30
0.0
  0
ENDBLK
  5
46CC
330
46C5
100
AcDbEntity
  8
0
100
AcDbBlockEnd
  0
BLOCK
  5
4822
330
4818
100
AcDbEntity
  8
0
100
AcDbBlockBegin
  2
*D10
 70
     1
 10
0.0
 20
0.0
 30
0.0
  3
*D10
  1

  0
LINE
  5
48C1
330
4818
100
AcDbEntity
  8
AM_5
100
AcDbLine
 10
0.0000000000000008
 20
-0.9999999999999992
 30
0.0
 11
-0.0000000000000013
 21
-36.5088475180735
 31
0.0
  0
LINE
  5
48C2
330
4818
100
AcDbEntity
  8
AM_5
100
AcDbLine
 10
-74.99999999999997
 20
-7.000000000000057
 30
0.0
 11
-74.99999999999997
 21
-36.5088475180735
 31
0.0
  0
LINE
  5
48C3
330
4818
100
AcDbEntity
  8
AM_5
100
AcDbLine
 10
-2.500000000000001
 20
-35.5088475180735
 30
0.0
 11
-72.49999999999997
 21
-35.5088475180735
 31
0.0
  0
INSERT
  5
48C4
330
4818
100
AcDbEntity
  8
AM_5
100
AcDbBlockReference
  2
_OPEN30
 10
-0.0000000000000013
 20
-35.5088475180735
 30
0.0
 41
2.5
 42
2.5
 43
2.5
  0
INSERT
  5
48C5
330
4818
100
AcDbEntity
  8
AM_5
100
AcDbBlockReference
  2
_OPEN30
 10
-74.99999999999997
 20
-35.5088475180735
 30
0.0
 41
2.5
 42
2.5
 43
2.5
 50
180.0
  0
MTEXT
  5
48C6
330
4818
100
AcDbEntity
  8
AM_5
 62
     2
100
AcDbMText
 10
-37.49999999999998
 20
-32.4088475180735
 30
0.0
 40
3.2
 41
0.0
 71
     5
 72
     1
  1
75
  7
ASAMI
1001
ACAD
1000
MTEXTBEGIN
1070
    73
1070
     1
1070
    44
1040
1.0
1070
    74
1070
     0
1000
MTEXTEND
  0
POINT
  5
48C7
330
4818
100
AcDbEntity
  8
DEFPOINTS
 62
     0
100
AcDbPoint
 10
0.0000000000000009
 20
0.0000000000000008
 30
0.0
  0
POINT
  5
48C8
330
4818
100
AcDbEntity
  8
DEFPOINTS
 62
     0
100
AcDbPoint
 10
-74.99999999999997
 20
-6.000000000000057
 30
0.0
  0
POINT
  5
48C9
330
4818
100
AcDbEntity
  8
DEFPOINTS
 62
     0
100
AcDbPoint
 10
-74.99999999999997
 20
-35.5088475180735
 30
0.0
  0
ENDBLK
  5
4823
330
4818
100
AcDbEntity
  8
0
100
AcDbBlockEnd
  0
ENDSEC
  0
SECTION
  2
ENTITIES
  0
TEXT
  5
1500
330
1F
100
AcDbEntity
  8
AM_6
100
AcDbText
 10
-97.38095238095235
 20
-70.00884751807335
 30
0.0
 40
5.0
  1
LSSB2120ZX
 72
     4
 11
-74.99999999999997
 21
-67.50884751807335
 31
0.0
100
AcDbText
  0
LINE
  5
3EE8
330
1F
100
AcDbEntity
  8
AM_7
  6
AM_ISO08W050X2
100
AcDbLine
 10
1.341626940564765
 20
0.0
 30
0.0
 11
-152.0561941299595
 21
-0.0000000000000888
 31
0.0
1001
GENIUS_GENODEF_13
1002
{
1000
HIER
1070
     0
1002
}
1002
{
1000
MANEDIT
1070
     0
1002
}
1002
{
1000
NOSEL
1070
     0
1002
}
1002
{
1000
BEHIND
1070
     0
1002
}
1002
{
1000
REACTOR
1002
}
1001
GENIUS_GENOBJ-N-CEN_13
1002
{
1000
OWNER
1000
GEN
1002
}
  0
DIMENSION
  5
4047
330
1F
100
AcDbEntity
  8
AM_5
100
AcDbDimension
  2
*D5
 10
-0.0000000000000022
 20
-47.50884751807335
 30
0.0
 11
-75.0
 21
-44.40884751807335
 31
0.0
 70
    32
  1
<>
  3
AM_JIS
100
AcDbAlignedDimension
 13
-150.0
 23
-6.999999999999985
 33
0.0
 14
0.0000000000000007
 24
-0.0000000000000005
 34
0.0
 50
0.0000000000001132
100
AcDbRotatedDimension
1001
GENIUS_GENDTOL_13
1000

1000
h7
1000

1040
0.0
  0
DIMENSION
  5
412A
330
1F
100
AcDbEntity
  8
AM_5
100
AcDbDimension
  2
*D6
 10
-28.0
 20
-23.50884751807341
 30
0.0
 11
-14.0
 21
-20.40884751807341
 31
0.0
 70
    32
  1
<>
  3
AM_JIS
100
AcDbAlignedDimension
 13
-0.0000000000000142
 23
-0.0000000000000111
 33
0.0
 14
-28.0
 24
-6.000000000000022
 34
0.0
 50
0.0000000000001132
100
AcDbRotatedDimension
1001
GENIUS_GENDTOL_13
1000

1000
h7
1000

1040
0.0
  0
DIMENSION
  5
42F4
330
1F
100
AcDbEntity
  8
AM_5
100
AcDbDimension
  2
*D7
 10
15.34162794056475
 20
-6.000000000000006
 30
0.0
 11
12.24162794056475
 21
-0.0000000000000032
 31
0.0
 70
    32
  1
%%c<>
  3
AM_JIS
100
AcDbAlignedDimension
 13
-6.000000000000006
 23
6.0
 33
0.0
 14
-6.0
 24
-6.0
 34
0.0
 50
90.0
100
AcDbRotatedDimension
1001
GENIUS_GENDTOL_13
1000

1000
h7
1000

1040
0.0
  0
SPLINE
  5
44D2
330
1F
100
AcDbEntity
  8
AM_0
100
AcDbSpline
210
0.0
220
0.0
230
1.0
 70
     8
 71
     3
 72
     8
 73
     4
 74
     0
 42
0.0000000001
 43
0.0000000001
 40
1.794922859428793
 40
1.794922859428793
 40
1.794922859428793
 40
1.794922859428793
 40
17.5282628916844
 40
17.5282628916844
 40
17.5282628916844
 40
17.5282628916844
 10
-5.999999999996191
 20
-5.908846518073637
 30
0.0
 10
-12.21712237556421
 20
-5.385590162406707
 30
0.0
 10
-18.11824584195619
 20
-2.692795081203371
 30
0.0
 10
-24.01936930834873
 20
-0.0000000000000142
 30
0.0
  0
SPLINE
  5
44D3
330
1F
100
AcDbEntity
  8
AM_0
100
AcDbSpline
210
0.0
220
0.0
230
1.0
 70
     8
 71
     3
 72
     8
 73
     4
 74
     0
 42
0.0000000001
 43
0.0000000001
 40
3.732786119440464
 40
3.732786119440464
 40
3.732786119440464
 40
3.732786119440464
 40
17.48613721147548
 40
17.48613721147548
 40
17.48613721147548
 40
17.48613721147548
 10
-5.741703573444652
 20
-5.450771533142507
 30
0.0
 10
-11.11955562107306
 20
-4.577840529583689
 30
0.0
 10
-16.29709603781611
 20
-2.288920264791997
 30
0.0
 10
-21.47463645455919
 20
-0.0000000000000142
 30
0.0
  0
SPLINE
  5
44D4
330
1F
100
AcDbEntity
  8
AM_0
100
AcDbSpline
210
0.0
220
0.0
230
1.0
 70
     8
 71
     3
 72
     8
 73
     4
 74
     0
 42
0.0000000001
 43
0.0000000001
 40
6.513172597598655
 40
6.513172597598655
 40
6.513172597598655
 40
6.513172597598655
 40
17.4246383984571
 40
17.4246383984571
 40
17.4246383984571
 40
17.4246383984571
 10
-6.0
 20
-4.530425513231868
 30
0.0
 10
-10.22192559444866
 20
-3.47443619643419
 30
0.0
 10
-14.35181939377144
 20
-1.737218098217113
 30
0.0
 10
-18.48171319309422
 20
-0.0000000000000142
 30
0.0
  0
SPLINE
  5
44D5
330
1F
100
AcDbEntity
  8
AM_0
100
AcDbSpline
210
0.0
220
0.0
230
1.0
 70
     8
 71
     3
 72
     8
 73
     4
 74
     0
 42
0.0000000001
 43
0.0000000001
 40
1.794922859432252
 40
1.794922859432252
 40
1.794922859432252
 40
1.794922859432252
 40
8.217791785374707
 40
8.217791785374707
 40
8.217791785374707
 40
8.217791785374707
 10
-6.0
 20
5.908846518072962
 30
0.0
 10
-8.538034646995413
 20
5.695235995435652
 30
0.0
 10
-11.02340674885491
 20
5.120062734009508
 30
0.0
 10
-13.47761489545428
 20
4.330928582797085
 30
0.0
  0
SPLINE
  5
44D6
330
1F
100
AcDbEntity
  8
AM_0
100
AcDbSpline
210
0.0
220
0.0
230
1.0
 70
     8
 71
     3
 72
     8
 73
     4
 74
     2
 42
0.0000000001
 43
0.0000000001
 44
0.0000000001
 12
-0.8789112757303595
 22
0.4769852926391253
 32
0.0
 13
0.9988106394578338
 23
0.0487576302319227
 33
0.0
 40
0.0
 40
0.0
 40
0.0
 40
0.0
 40
2.588939832395281
 40
2.588939832395281
 40
2.588939832395281
 40
2.588939832395281
 10
-6.273337632815128
 20
1.666621978618962
 30
0.0
 10
-7.031820436441687
 20
2.078250719812346
 30
0.0
 10
-7.984628662660703
 20
4.070201536725192
 30
0.0
 10
-7.122675112823174
 20
4.112278393738733
 30
0.0
 11
-6.273337632815128
 21
1.666621978618962
 31
0.0
 11
-7.122675112823174
 21
4.112278393738733
 31
0.0
  0
SPLINE
  5
44D7
330
1F
100
AcDbEntity
  8
AM_0
100
AcDbSpline
210
0.0
220
0.0
230
1.0
 70
     8
 71
     3
 72
     8
 73
     4
 74
     2
 42
0.0000000001
 43
0.0000000001
 44
0.0000000001
 12
0.4216926876958768
 22
-0.906738814181806
 32
0.0
 13
-0.9928045895078733
 23
-0.119745760058983
 33
0.0
 40
0.0
 40
0.0
 40
0.0
 40
0.0
 40
2.118503347759559
 40
2.118503347759559
 40
2.118503347759559
 40
2.118503347759559
 10
-6.0
 20
5.908846518072962
 30
0.0
 10
-5.702214209796852
 20
5.268536780277066
 30
0.0
 10
-6.421588497367611
 20
4.196838991590994
 30
0.0
 10
-7.122675112882106
 20
4.112278393736005
 30
0.0
 11
-6.0
 21
5.908846518072962
 31
0.0
 11
-7.122675112882106
 21
4.112278393736005
 31
0.0
  0
SPLINE
  5
44D8
330
1F
100
AcDbEntity
  8
AM_0
100
AcDbSpline
210
0.0
220
0.0
230
1.0
 70
     8
 71
     3
 72
     9
 73
     5
 74
     3
 42
0.0000000001
 43
0.0000000001
 44
0.0000000001
 12
0.5867325161912584
 22
-0.8097808064185485
 32
0.0
 13
-0.8994987856269103
 23
0.4369232594583554
 33
0.0
 40
0.0
 40
0.0
 40
0.0
 40
0.0
 40
0.5376158197187455
 40
1.601594858161969
 40
1.601594858161969
 40
1.601594858161969
 40
1.601594858161969
 10
-5.263696688980246
 20
-3.651119003254187
 30
0.0
 10
-5.158551128097644
 20
-3.796235993932592
 30
0.0
 10
-4.704992761452297
 20
-4.315075781049585
 30
0.0
 10
-5.680984048995943
 20
-4.685384576389195
 30
0.0
 10
-6.0
 20
-4.530425513231868
 30
0.0
 11
-5.263696688980246
 21
-3.651119003254187
 31
0.0
 11
-5.015133109059576
 21
-4.127823226383036
 31
0.0
 11
-6.0
 21
-4.530425513231868
 31
0.0
  0
SPLINE
  5
44D9
330
1F
100
AcDbEntity
  8
AM_0
100
AcDbSpline
210
0.0
220
0.0
230
1.0
 70
     8
 71
     3
 72
     8
 73
     4
 74
     0
 42
0.0000000001
 43
0.0000000001
 40
15.41323093265439
 40
15.41323093265439
 40
15.41323093265439
 40
15.41323093265439
 40
17.52826289168434
 40
17.52826289168434
 40
17.52826289168434
 40
17.52826289168434
 10
-28.0
 20
1.766249852901765
 30
0.0
 10
-25.60594465725898
 20
0.7239845632504256
 30
0.0
 10
-24.81265698280386
 20
0.3619922816252057
 30
0.0
 10
-24.01936930834873
 20
-0.0000000000000142
 30
0.0
  0
SPLINE
  5
44DA
330
1F
100
AcDbEntity
  8
AM_0
100
AcDbSpline
210
0.0
220
0.0
230
1.0
 70
     8
 71
     3
 72
     8
 73
     4
 74
     0
 42
0.0000000001
 43
0.0000000001
 40
13.13061006920262
 40
13.13061006920262
 40
13.13061006920262
 40
13.13061006920262
 40
17.48613721147548
 40
17.48613721147548
 40
17.48613721147548
 40
17.48613721147548
 10
-27.99999999999998
 20
2.684081728525647
 30
0.0
 10
-24.75397072944706
 20
1.4497491226806
 30
0.0
 10
-23.11430359200258
 20
0.7248745613402861
 30
0.0
 10
-21.47463645455919
 20
-0.0000000000000142
 30
0.0
  0
SPLINE
  5
44DB
330
1F
100
AcDbEntity
  8
AM_0
100
AcDbSpline
210
0.0
220
0.0
230
1.0
 70
     8
 71
     3
 72
     8
 73
     4
 74
     0
 42
0.0000000001
 43
0.0000000001
 40
0.7484745895110383
 40
0.7484745895110383
 40
0.7484745895110383
 40
0.7484745895110383
 40
17.4246383984571
 40
17.4246383984571
 40
17.4246383984571
 40
17.4246383984571
 10
-38.21235989688794
 20
5.999999999999843
 30
0.0
 10
-31.10527574060235
 20
5.310035169693605
 30
0.0
 10
-24.79349446684828
 20
2.655017584846731
 30
0.0
 10
-18.48171319309422
 20
-0.0000000000000142
 30
0.0
  0
SPLINE
  5
44DC
330
1F
100
AcDbEntity
  8
AM_0
100
AcDbSpline
210
0.0
220
0.0
230
1.0
 70
     8
 71
     3
 72
     8
 73
     4
 74
     0
 42
0.0000000001
 43
0.0000000001
 40
0.0
 40
0.0
 40
0.0
 40
0.0
 40
4.656267981793611
 40
4.656267981793611
 40
4.656267981793611
 40
4.656267981793611
 10
-39.42396805271836
 20
-6.000000000000021
 30
0.0
 10
-36.77920600037741
 20
-5.548364946221433
 30
0.0
 10
-34.94346140836914
 20
-5.350265432419853
 30
0.0
 10
-33.12732782872972
 20
-5.007003194793945
 30
0.0
  0
ARC
  5
44DD
330
1F
100
AcDbEntity
  8
AM_0
100
AcDbCircle
 10
-0.2461690954089164
 20
0.0562396957447362
 30
0.0
 40
6.238596931626244
100
AcDbArc
 50
165.0407421323771
 51
216.4600123166024
  0
LINE
  5
44DE
330
1F
100
AcDbEntity
  8
AM_0
100
AcDbLine
 10
0.0
 20
0.0
 30
0.0
 11
-7.122675112823159
 21
4.112278393738733
 31
0.0
  0
LINE
  5
44DF
330
1F
100
AcDbEntity
  8
AM_0
100
AcDbLine
 10
-0.8400000000003302
 20
-0.2114456163060794
 30
0.0
 11
-6.273337632815128
 21
1.666621978618977
 31
0.0
  0
LINE
  5
44E0
330
1F
100
AcDbEntity
  8
AM_11
100
AcDbLine
 10
-28.0
 20
-6.000000000000015
 30
0.0
 11
-6.0
 21
-6.0
 31
0.0
  0
LINE
  5
44E2
330
1F
100
AcDbEntity
  8
AM_11
100
AcDbLine
 10
-6.0
 20
5.999999999999872
 30
0.0
 11
-27.99999999999998
 21
5.999999999999841
 31
0.0
  0
ARC
  5
44E3
330
1F
100
AcDbEntity
  8
AM_11
100
AcDbCircle
 10
-6.0
 20
0.0
 30
0.0
 40
6.0
100
AcDbArc
 50
270.0
 51
90.00000000000005
  0
ARC
  5
44E4
330
1F
100
AcDbEntity
  8
AM_0
100
AcDbCircle
 10
-6.000000000000554
 20
0.0911534819206281
 30
0.0
 40
6.0
100
AcDbArc
 50
270.0000000000782
 51
359.1295148788724
  0
ARC
  5
44E5
330
1F
100
AcDbEntity
  8
AM_0
100
AcDbCircle
 10
-6.164225372153126
 20
0.460600502968461
 30
0.0
 40
5.926452903693484
100
AcDbArc
 50
274.0883259404363
 51
353.4887846299623
  0
LINE
  5
44E7
330
1F
100
AcDbEntity
  8
AM_0
100
AcDbLine
 10
-0.2760000000000247
 20
-0.2114456163060794
 30
0.0
 11
-0.8400000000003302
 21
-0.2114456163060794
 31
0.0
  0
LINE
  5
44E8
330
1F
100
AcDbEntity
  8
AM_0
100
AcDbLine
 10
0.0
 20
0.0
 30
0.0
 11
-0.2760000000000247
 21
-0.2114456163060794
 31
0.0
  0
ARC
  5
44E9
330
1F
100
AcDbEntity
  8
AM_0
100
AcDbCircle
 10
-6.0
 20
-0.0911534819268951
 30
0.0
 40
6.0
100
AcDbArc
 50
0.870485121205805
 51
90.00000000000005
  0
ARC
  5
44EA
330
1F
100
AcDbEntity
  8
AM_0
100
AcDbCircle
 10
-5.806878658689498
 20
1.611908309773667
 30
0.0
 40
5.290983193121554
100
AcDbArc
 50
275.8924707062756
 51
339.8416840647174
  0
LINE
  5
44EB
330
1F
100
AcDbEntity
  8
AM_0
100
AcDbLine
 10
-5.999999999927425
 20
-5.908846518079371
 30
0.0
 11
-5.741703573444652
 21
-5.45077153314223
 31
0.0
  0
LINE
  5
44EC
330
1F
100
AcDbEntity
  8
AM_0
100
AcDbLine
 10
-5.741703573444652
 20
-5.45077153314223
 30
0.0
 11
-6.000000000000554
 21
-4.530425513231875
 31
0.0
  0
POLYLINE
  5
44EF
330
1F
100
AcDbEntity
  8
AM_0
100
AcDb2dPolyline
 66
     1
 10
0.0
 20
0.0
 30
0.0
 70
     2
  0
VERTEX
  5
44F0
330
44EF
100
AcDbEntity
  8
AM_0
100
AcDbVertex
100
AcDb2dVertex
 10
-27.99999999999998
 20
1.76624985290176
 30
0.0
 42
0.0166214393293279
  0
VERTEX
  5
44F1
330
44EF
100
AcDbEntity
  8
AM_0
100
AcDbVertex
100
AcDb2dVertex
 10
-30.23463034398374
 20
1.318947747946674
 30
0.0
 42
0.0266427629234881
 70
     1
  0
VERTEX
  5
44F2
330
44EF
100
AcDbEntity
  8
AM_0
100
AcDbVertex
100
AcDb2dVertex
 10
-31.6
 20
0.9203060123911601
 30
0.0
 42
0.0133310426104534
  0
VERTEX
  5
44F3
330
44EF
100
AcDbEntity
  8
AM_0
100
AcDbVertex
100
AcDb2dVertex
 10
-34.9855732712087
 20
-0.3695314532934102
 30
0.0
 42
0.0490966498745873
 70
     1
  0
VERTEX
  5
44F4
330
44EF
100
AcDbEntity
  8
AM_0
100
AcDbVertex
100
AcDb2dVertex
 10
-35.69076895012848
 20
-1.056484524744936
 30
0.0
 42
0.0606131752338264
  0
VERTEX
  5
44F5
330
44EF
100
AcDbEntity
  8
AM_0
100
AcDbVertex
100
AcDb2dVertex
 10
-36.74738221850792
 20
-1.834443783145763
 30
0.0
 42
0.1124288503526285
 70
     1
  0
VERTEX
  5
44F6
330
44EF
100
AcDbEntity
  8
AM_0
100
AcDbVertex
100
AcDb2dVertex
 10
-36.89076895012849
 20
-2.558658798572272
 30
0.0
 42
0.2320489978593618
  0
VERTEX
  5
44F7
330
44EF
100
AcDbEntity
  8
AM_0
100
AcDbVertex
100
AcDb2dVertex
 10
-36.71720369352432
 20
-2.876978533324182
 30
0.0
 42
0.0671524414269103
 70
     1
  0
VERTEX
  5
44F8
330
44EF
100
AcDbEntity
  8
AM_0
100
AcDbVertex
100
AcDb2dVertex
 10
-35.65876403914524
 20
-3.429997054813687
 30
0.0
 42
0.0706904262869981
  0
VERTEX
  5
44F9
330
44EF
100
AcDbEntity
  8
AM_0
100
AcDbVertex
100
AcDb2dVertex
 10
-34.9970392829429
 20
-3.811656032193502
 30
0.0
 42
0.015309379493102
 70
     1
  0
VERTEX
  5
44FA
330
44EF
100
AcDbEntity
  8
AM_0
100
AcDbVertex
100
AcDb2dVertex
 10
-31.56799508901675
 20
-4.620086042823606
 30
0.0
 42
0.0278025959802376
  0
VERTEX
  5
44FB
330
44EF
100
AcDbEntity
  8
AM_0
100
AcDbVertex
100
AcDb2dVertex
 10
-30.1557367895977
 20
-4.730476304891515
 30
0.0
 42
0.0182596520050883
 70
     1
  0
VERTEX
  5
44FC
330
44EF
100
AcDbEntity
  8
AM_0
100
AcDbVertex
100
AcDb2dVertex
 10
-28.0
 20
-4.830590634256719
 30
0.0
  0
SEQEND
  5
44FD
330
44EF
100
AcDbEntity
  8
AM_0
  0
LINE
  5
44FE
330
1F
100
AcDbEntity
  8
AM_0
100
AcDbLine
 10
-33.12732782873299
 20
-5.007003194794492
 30
0.0
 11
-13.47761489545428
 21
-4.330928582797525
 31
0.0
  0
LINE
  5
44FF
330
1F
100
AcDbEntity
  8
AM_0
100
AcDbLine
 10
-32.32154946772498
 20
4.979279314317082
 30
0.0
 11
-7.122675112823714
 21
4.112278393738733
 31
0.0
  0
LINE
  5
4500
330
1F
100
AcDbEntity
  8
AM_0
100
AcDbLine
 10
-28.0
 20
1.766249852901765
 30
0.0
 11
-27.99999999999998
 21
3.698971143264678
 31
0.0
  0
LINE
  5
4587
330
1F
100
AcDbEntity
  8
AM_0
100
AcDbLine
 10
-80.49495483890893
 20
-7.999999999999961
 30
0.0
 11
-148.9999999999999
 21
-8.000000000000014
 31
0.0
  0
LINE
  5
458A
330
1F
100
AcDbEntity
  8
AM_0
100
AcDbLine
 10
-148.9999999999999
 20
7.999999999999805
 30
0.0
 11
-148.9999999999999
 21
-8.000000000000035
 31
0.0
  0
LINE
  5
458B
330
1F
100
AcDbEntity
  8
AM_0
100
AcDbLine
 10
-149.9999999999999
 20
6.999999999999804
 30
0.0
 11
-149.9999999999999
 21
-7.000000000000014
 31
0.0
  0
DIMENSION
  5
458C
330
1F
100
AcDbEntity
  8
AM_5
100
AcDbDimension
  2
*D8
 10
-166.0561951299595
 20
-8.000000000000008
 30
0.0
 11
-169.1561951299595
 21
-0.0000000000001258
 31
0.0
 70
    32
  1
%%c<>
  3
AM_JIS
100
AcDbAlignedDimension
 13
-148.9999999999999
 23
7.999999999999805
 33
0.0
 14
-148.9999999999999
 24
-8.000000000000014
 34
0.0
 50
270.0
100
AcDbRotatedDimension
1001
GENIUS_GENDTOL_13
1000

1000
h7
1000

1040
0.0
  0
LINE
  5
4599
330
1F
100
AcDbEntity
  8
AM_0
100
AcDbLine
 10
-80.49495483890897
 20
7.999999999999855
 30
0.0
 11
-148.9999999999999
 21
7.999999999999805
 31
0.0
  0
LINE
  5
45A5
330
1F
100
AcDbEntity
  8
AM_0
100
AcDbLine
 10
-148.9999999999999
 20
7.999999999999805
 30
0.0
 11
-149.9999999999999
 21
6.999999999999804
 31
0.0
1001
GENIUS_GENFIL_13
1070
     0
1040
1.0
1040
1.0
1040
20.0
1040
0.0
1002
{
1002
}
1001
GENIUS_GENODEF_13
1002
{
1000
HIER
1070
     0
1002
}
1002
{
1000
MANEDIT
1070
     0
1002
}
1002
{
1000
NOSEL
1070
     0
1002
}
1002
{
1000
BEHIND
1070
     0
1002
}
1002
{
1000
REACTOR
1002
}
1001
GENIUS_GENOBJ-N-CHA_13
1002
{
1000
OWNER
1000
GEN
1002
}
  0
LINE
  5
45A8
330
1F
100
AcDbEntity
  8
AM_0
100
AcDbLine
 10
-149.9999999999999
 20
-7.000000000000014
 30
0.0
 11
-148.9999999999999
 21
-8.000000000000014
 31
0.0
1001
GENIUS_GENFIL_13
1070
     0
1040
1.0
1040
1.0
1040
20.0
1040
0.0
1002
{
1002
}
1001
GENIUS_GENODEF_13
1002
{
1000
HIER
1070
     0
1002
}
1002
{
1000
MANEDIT
1070
     0
1002
}
1002
{
1000
NOSEL
1070
     0
1002
}
1002
{
1000
BEHIND
1070
     0
1002
}
1002
{
1000
REACTOR
1002
}
1001
GENIUS_GENOBJ-N-CHA_13
1002
{
1000
OWNER
1000
GEN
1002
}
  0
LINE
  5
45CC
330
1F
100
AcDbEntity
  8
AM_0
100
AcDbLine
 10
-80.49495483890897
 20
7.999999999999856
 30
0.0
 11
-80.49495483890893
 21
-7.999999999999961
 31
0.0
  0
LINE
  5
45FF
330
1F
100
AcDbEntity
  8
AM_11
100
AcDbLine
 10
-27.99999999999998
 20
5.999999999999842
 30
0.0
 11
-28.0
 21
-6.000000000000022
 31
0.0
  0
LINE
  5
4698
330
1F
100
AcDbEntity
  8
AM_0
100
AcDbLine
 10
-38.21235989688787
 20
5.999999999999835
 30
0.0
 11
-74.99999999999997
 21
5.999999999999809
 31
0.0
  0
LINE
  5
4699
330
1F
100
AcDbEntity
  8
AM_0
100
AcDbLine
 10
-74.9999999999996
 20
5.999999999999807
 30
0.0
 11
-80.49495483890897
 21
7.999999999999856
 31
0.0
  0
LINE
  5
469A
330
1F
100
AcDbEntity
  8
AM_0
100
AcDbLine
 10
-39.42396805271842
 20
-6.000000000000031
 30
0.0
 11
-74.99999999999997
 21
-6.000000000000055
 31
0.0
  0
LINE
  5
469B
330
1F
100
AcDbEntity
  8
AM_0
100
AcDbLine
 10
-74.99999999999997
 20
-6.000000000000057
 30
0.0
 11
-80.49495483890893
 21
-7.999999999999962
 31
0.0
  0
LINE
  5
469C
330
1F
100
AcDbEntity
  8
AM_0
100
AcDbLine
 10
-74.99999999999997
 20
-6.000000000000057
 30
0.0
 11
-74.99999999999997
 21
5.999999999999807
 31
0.0
  0
DIMENSION
  5
46C4
330
1F
100
AcDbEntity
  8
AM_5
100
AcDbDimension
  2
*D9
 10
-6.000000000000547
 20
0.091153481920629
 30
0.0
 11
4.73636011753379
 21
-12.6597518890972
 31
0.0
 70
   164
  1
<>
  3
AM_JIS$4
100
AcDbRadialDimension
 15
-2.135447606888533
 25
-4.498534394274456
 35
0.0
 40
0.0
1001
GENIUS_GENDTOL_13
1000

1000
h7
1000

1040
0.0
1001
ACAD
1000
DSTYLE
1002
{
1070
   287
1070
     3
1070
   271
1070
     3
1070
   288
1070
     1
1070
   289
1070
     3
1070
   172
1070
     1
1070
    74
1070
     0
1002
}
  0
DIMENSION
  5
4817
330
1F
100
AcDbEntity
  8
AM_5
100
AcDbDimension
  2
*D10
 10
-74.99999999999997
 20
-35.5088475180735
 30
0.0
 11
-37.49999999999998
 21
-32.4088475180735
 31
0.0
 70
    32
  1
<>
  3
AM_JIS
100
AcDbAlignedDimension
 13
0.0000000000000009
 23
0.0000000000000008
 33
0.0
 14
-74.99999999999997
 24
-6.000000000000057
 34
0.0
 50
0.0000000000001132
100
AcDbRotatedDimension
1001
GENIUS_GENDTOL_13
1000

1000
h7
1000

1040
0.0
  0
VIEWPORT
  5
110
330
101
100
AcDbEntity
 67
     1
  8
0
100
AcDbViewport
 10
420.5
 20
297.0
 30
0.0
 40
948.9782706766916
 41
628.452
 68
     1
 69
     1
1001
ACAD
1000
MVIEW
1002
{
1070
    16
1010
0.0
1020
0.0
1030
0.0
1010
0.0
1020
0.0
1030
1.0
1040
0.0
1040
628.452
1040
420.5
1040
297.0
1040
50.0
1040
0.0
1040
0.0
1070
     0
1070
   100
1070
     1
1070
     1
1070
     0
1070
     0
1070
     0
1070
     0
1040
0.0
1040
0.0
1040
0.0
1040
10.0
1040
10.0
1040
10.0
1040
10.0
1070
     0
1002
{
1002
}
1002
}
  0
ENDSEC
  0
SECTION
  2
OBJECTS
  0
DICTIONARY
  5
C
330
0
100
AcDbDictionary
  3
ACAD_GROUP
350
D
  3
ACAD_LAYOUT
350
1A
  3
ACAD_MLINESTYLE
350
17
  3
ACAD_PLOTSETTINGS
350
19
  3
ACAD_PLOTSTYLENAME
350
E
  3
ACDBVARIABLEDICTIONARY
350
34
  3
ACMDICTIONARY
350
43
  3
AMG
350
2B
  3
AMGSNAPSETTINGS
350
6E
  3
ASE_INDEX_DICTIONARY
350
151A
  3
DWGPROPS
350
4A76
  3
ACDBHEADERROUNDTRIPXREC
350
4A82
  0
DICTIONARY
  5
74
330
1F
100
AcDbDictionary
280
     1
  3
ACAD_INDEX
360
4A78
  3
ACAD_LAYOUTSELFREF
360
4AA5
  0
DICTIONARY
  5
4AAA
330
101
100
AcDbDictionary
280
     1
  3
ACAD_LAYOUTSELFREF
360
4AAB
  0
DICTIONARY
  5
D
102
{ACAD_REACTORS
330
C
102
}
330
C
100
AcDbDictionary
  0
DICTIONARY
  5
1A
102
{ACAD_REACTORS
330
C
102
}
330
C
100
AcDbDictionary
  0
DICTIONARY
  5
17
102
{ACAD_REACTORS
330
C
102
}
330
C
100
AcDbDictionary
  3
STANDARD
350
18
  0
DICTIONARY
  5
19
102
{ACAD_REACTORS
330
C
102
}
330
C
100
AcDbDictionary
  0
ACDBDICTIONARYWDFLT
  5
E
102
{ACAD_REACTORS
330
C
102
}
330
C
100
AcDbDictionary
281
     1
  3
Normal
350
F
100
AcDbDictionaryWithDefault
340
F
  0
DICTIONARY
  5
34
102
{ACAD_REACTORS
330
C
102
}
330
C
100
AcDbDictionary
  3
INDEXCTL
350
35
  3
SORTENTS
350
B5E
  0
DICTIONARY
  5
43
102
{ACAD_REACTORS
330
C
102
}
330
C
100
AcDbDictionary
  3
ACMSTDDICTIONARY
350
260
  0
DICTIONARY
  5
2B
102
{ACAD_REACTORS
330
C
102
}
330
C
100
AcDbDictionary
  3
ACMGSETTINGS
350
2C
  0
DICTIONARY
  5
6E
102
{ACAD_REACTORS
330
C
102
}
330
C
100
AcDbDictionary
  0
DICTIONARY
  5
151A
102
{ACAD_REACTORS
330
C
102
}
330
C
100
AcDbDictionary
  3
ASEBLOCKHIERARCHYINDEXRECORD
350
151C
1001
DCO15
1040
1471862535.906
  0
XRECORD
  5
4A76
102
{ACAD_REACTORS
330
C
102
}
330
C
100
AcDbXrecord
  1
DWGPROPS COOKIE
  2

  3

  4

  6

  7

  8

  9

300
AmdtFileType=82
301
=
302
=
303
=
304
=
305
=
306
=
307
=
308
=
309
=
 40
0.1610152662037037
 41
2452838.430434386
 42
2452901.587182789
  1

 90
        1
  0
DICTIONARY
  5
4A82
102
{ACAD_REACTORS
330
C
102
}
330
C
100
AcDbDictionary
  3
TSTACKALIGN
350
4A83
  3
TSTACKSIZE
350
4A84
  3
HYPERLINKBASE
350
4A85
  3
STYLESHEET
350
4A86
  3
LAYOUTDICT
350
4A87
  3
PLOTSETDICT
350
4A88
  3
PLOTSTYLNAMDICT
350
4A89
  3
LWETCUNION
350
4A8A
  3
INSUNITS
350
4A8B
  3
CEPSNTYPE
350
4A8C
  3
FINGERPRINTGUID
350
4A8D
  3
VERSIONGUID
350
4A8E
  3
PSVPSCALE
350
4A8F
  3
DIMSTYLEDATA
350
4A90
  3
PUCSORTHOREF
350
4A91
  3
PUCSORTHOVIEW
350
4A92
  3
PUCSBASE
350
4A93
  3
PUCSORGTOP
350
4A94
  3
PUCSORGBOTTOM
350
4A95
  3
PUCSORGLEFT
350
4A96
  3
PUCSORGRIGHT
350
4A97
  3
PUCSORGFRONT
350
4A98
  3
PUCSORGBACK
350
4A99
  3
UCSORTHOREF
350
4A9A
  3
UCSORTHOVIEW
350
4A9B
  3
UCSBASE
350
4A9C
  3
UCSORGTOP
350
4A9D
  3
UCSORGBOTTOM
350
4A9E
  3
UCSORGLEFT
350
4A9F
  3
UCSORGRIGHT
350
4AA0
  3
UCSORGFRONT
350
4AA1
  3
UCSORGBACK
350
4AA2
  0
DICTIONARY
  5
4A78
102
{ACAD_REACTORS
330
74
102
}
330
74
100
AcDbDictionary
  3
*A1
350
4A79
  0
XRECORD
  5
4AA5
102
{ACAD_REACTORS
330
74
102
}
330
74
100
AcDbXrecord
340
1F
  0
XRECORD
  5
4AAB
102
{ACAD_REACTORS
330
4AAA
102
}
330
4AAA
100
AcDbXrecord
340
101
  0
MLINESTYLE
  5
18
102
{ACAD_REACTORS
330
17
102
}
330
17
100
AcDbMlineStyle
  2
STANDARD
 70
     0
  3

 62
   256
 51
90.0
 52
90.0
 71
     2
 49
0.5
 62
   256
  6
BYLAYER
 49
-0.5
 62
   256
  6
BYLAYER
  0
ACDBPLACEHOLDER
  5
F
102
{ACAD_REACTORS
330
E
102
}
330
E
100
AcDbPlaceHolder
280
     0
  0
DICTIONARYVAR
  5
35
102
{ACAD_REACTORS
330
34
102
}
330
34
100
DictionaryVariables
280
     0
  1
1
  0
DICTIONARYVAR
  5
B5E
102
{ACAD_REACTORS
330
34
102
}
330
34
100
DictionaryVariables
280
     0
  1
96
  0
DICTIONARY
  5
260
102
{ACAD_REACTORS
330
43
102
}
330
43
100
AcDbDictionary
  0
DICTIONARY
  5
2C
102
{ACAD_REACTORS
330
2B
102
}
330
2B
100
AcDbDictionary
  3
DWGSETTINGS
350
2D
  0
XRECORD
  5
151C
102
{ACAD_REACTORS
330
151A
102
}
330
151A
100
AcDbXrecord
330
0
330
0
330
0
330
0
330
0
330
0
330
0
330
0
  0
XRECORD
  5
4A83
102
{ACAD_REACTORS
330
4A82
102
}
330
4A82
100
AcDbXrecord
 90
        1
  0
XRECORD
  5
4A84
102
{ACAD_REACTORS
330
4A82
102
}
330
4A82
100
AcDbXrecord
 90
       70
  0
XRECORD
  5
4A85
102
{ACAD_REACTORS
330
4A82
102
}
330
4A82
100
AcDbXrecord
  1

  0
XRECORD
  5
4A86
102
{ACAD_REACTORS
330
4A82
102
}
330
4A82
100
AcDbXrecord
  1
ASAMI.ctb
  0
XRECORD
  5
4A87
102
{ACAD_REACTORS
330
4A82
102
}
330
4A82
100
AcDbXrecord
340
1A
  0
XRECORD
  5
4A88
102
{ACAD_REACTORS
330
4A82
102
}
330
4A82
100
AcDbXrecord
340
19
  0
XRECORD
  5
4A89
102
{ACAD_REACTORS
330
4A82
102
}
330
4A82
100
AcDbXrecord
340
E
  0
XRECORD
  5
4A8A
102
{ACAD_REACTORS
330
4A82
102
}
330
4A82
100
AcDbXrecord
 90
    10781
  0
XRECORD
  5
4A8B
102
{ACAD_REACTORS
330
4A82
102
}
330
4A82
100
AcDbXrecord
 90
        4
  0
XRECORD
  5
4A8C
102
{ACAD_REACTORS
330
4A82
102
}
330
4A82
100
AcDbXrecord
 90
        0
  0
XRECORD
  5
4A8D
102
{ACAD_REACTORS
330
4A82
102
}
330
4A82
100
AcDbXrecord
  1
{AFB28963-8C59-40AE-9337-C84526B81ACE}
  0
XRECORD
  5
4A8E
102
{ACAD_REACTORS
330
4A82
102
}
330
4A82
100
AcDbXrecord
  1
{13BB5CFF-7CC7-4386-9118-0DCF321A6655}
  0
XRECORD
  5
4A8F
102
{ACAD_REACTORS
330
4A82
102
}
330
4A82
100
AcDbXrecord
 40
0.0
  0
XRECORD
  5
4A90
102
{ACAD_REACTORS
330
4A82
102
}
330
4A82
100
AcDbXrecord
1000
DSTYLE
1002
{
1070
    79
 70
     2
1070
   341
340
59
1070
   342
340
59
1070
   371
 70
    -1
1070
   372
 70
    -1
1002
}
  0
XRECORD
  5
4A91
102
{ACAD_REACTORS
330
4A82
102
}
330
4A82
100
AcDbXrecord
340
0
  0
XRECORD
  5
4A92
102
{ACAD_REACTORS
330
4A82
102
}
330
4A82
100
AcDbXrecord
 70
     0
  0
XRECORD
  5
4A93
102
{ACAD_REACTORS
330
4A82
102
}
330
4A82
100
AcDbXrecord
340
0
  0
XRECORD
  5
4A94
102
{ACAD_REACTORS
330
4A82
102
}
330
4A82
100
AcDbXrecord
 10
0.0
 20
0.0
 30
0.0
  0
XRECORD
  5
4A95
102
{ACAD_REACTORS
330
4A82
102
}
330
4A82
100
AcDbXrecord
 10
0.0
 20
0.0
 30
0.0
  0
XRECORD
  5
4A96
102
{ACAD_REACTORS
330
4A82
102
}
330
4A82
100
AcDbXrecord
 10
0.0
 20
0.0
 30
0.0
  0
XRECORD
  5
4A97
102
{ACAD_REACTORS
330
4A82
102
}
330
4A82
100
AcDbXrecord
 10
0.0
 20
0.0
 30
0.0
  0
XRECORD
  5
4A98
102
{ACAD_REACTORS
330
4A82
102
}
330
4A82
100
AcDbXrecord
 10
0.0
 20
0.0
 30
0.0
  0
XRECORD
  5
4A99
102
{ACAD_REACTORS
330
4A82
102
}
330
4A82
100
AcDbXrecord
 10
0.0
 20
0.0
 30
0.0
  0
XRECORD
  5
4A9A
102
{ACAD_REACTORS
330
4A82
102
}
330
4A82
100
AcDbXrecord
340
0
  0
XRECORD
  5
4A9B
102
{ACAD_REACTORS
330
4A82
102
}
330
4A82
100
AcDbXrecord
 70
     0
  0
XRECORD
  5
4A9C
102
{ACAD_REACTORS
330
4A82
102
}
330
4A82
100
AcDbXrecord
340
0
  0
XRECORD
  5
4A9D
102
{ACAD_REACTORS
330
4A82
102
}
330
4A82
100
AcDbXrecord
 10
0.0
 20
0.0
 30
0.0
  0
XRECORD
  5
4A9E
102
{ACAD_REACTORS
330
4A82
102
}
330
4A82
100
AcDbXrecord
 10
0.0
 20
0.0
 30
0.0
  0
XRECORD
  5
4A9F
102
{ACAD_REACTORS
330
4A82
102
}
330
4A82
100
AcDbXrecord
 10
0.0
 20
0.0
 30
0.0
  0
XRECORD
  5
4AA0
102
{ACAD_REACTORS
330
4A82
102
}
330
4A82
100
AcDbXrecord
 10
0.0
 20
0.0
 30
0.0
  0
XRECORD
  5
4AA1
102
{ACAD_REACTORS
330
4A82
102
}
330
4A82
100
AcDbXrecord
 10
0.0
 20
0.0
 30
0.0
  0
XRECORD
  5
4AA2
102
{ACAD_REACTORS
330
4A82
102
}
330
4A82
100
AcDbXrecord
 10
0.0
 20
0.0
 30
0.0
  0
LAYER_INDEX
  5
4A79
102
{ACAD_REACTORS
330
4A78
102
}
330
4A78
100
AcDbIndex
 40
2453152.435421447
100
AcDbLayerIndex
  8
0
360
4A7A
 90
        0
  8
AM_0
360
4A7B
 90
       38
  8
AM_11
360
4A7C
 90
        4
  8
AM_7
360
4A7D
 90
        1
  8
AM_5
360
4A7E
 90
        6
  8
Defpoints
360
4A7F
 90
        0
  8
AM_6
360
4A80
 90
        1
  0
XRECORD
  5
2D
102
{ACAD_REACTORS
330
2C
102
}
330
2C
100
AcDbXrecord
  1
VERSION
140
15.0
  1
PRODUCT
  2
AutoCAD Mechanical 2000
  0
IDBUFFER
  5
4A7A
330
0
100
AcDbIdBuffer
  0
IDBUFFER
  5
4A7B
330
0
100
AcDbIdBuffer
330
44E7
330
44E8
330
44E9
330
44EA
330
44EB
330
44EC
330
44EF
330
44FE
330
44FF
330
4500
330
4587
330
458A
330
458B
330
4599
330
45A5
330
45A8
330
45CC
330
4698
330
4699
330
469A
330
469B
330
469C
330
44D2
330
44D3
330
44D4
330
44D5
330
44D6
330
44D7
330
44D8
330
44D9
330
44DA
330
44DB
330
44DC
330
44DD
330
44DE
330
44DF
330
44E4
330
44E5
  0
IDBUFFER
  5
4A7C
330
0
100
AcDbIdBuffer
330
44E0
330
44E2
330
44E3
330
45FF
  0
IDBUFFER
  5
4A7D
330
0
100
AcDbIdBuffer
330
3EE8
  0
IDBUFFER
  5
4A7E
330
0
100
AcDbIdBuffer
330
4047
330
412A
330
42F4
330
458C
330
46C4
330
4817
  0
IDBUFFER
  5
4A7F
330
0
100
AcDbIdBuffer
  0
IDBUFFER
  5
4A80
330
0
100
AcDbIdBuffer
330
1500
  0
ENDSEC
  0
EOF
