  0
SECTION
  2
HEADER
  9
$ACADVER
  1
AC1014
  9
$ACADMAINTVER
 70
     9
  9
$DWGCODEPAGE
  3
ANSI_932
  9
$INSBASE
 10
0.0
 20
0.0
 30
0.0
  9
$EXTMIN
 10
-69.35000000000006
 20
-39.36564934407759
 30
-0.00000001
  9
$EXTMAX
 10
7.500937428969166
 20
7.514285714282174
 30
0.00000001
  9
$LIMMIN
 10
-92.8599348595643
 20
-63.24116537334905
  9
$LIMMAX
 10
35.05283035967341
 20
20.22417384539648
  9
$ORTHOMODE
 70
     0
  9
$REGENMODE
 70
     1
  9
$FILLMODE
 70
     1
  9
$QTEXTMODE
 70
     0
  9
$MIRRTEXT
 70
     0
  9
$DRAGMODE
 70
     2
  9
$LTSCALE
 40
0.3
  9
$OSMODE
 70
    55
  9
$ATTMODE
 70
     1
  9
$TEXTSIZE
 40
2.5
  9
$TRACEWID
 40
1.0
  9
$TEXTSTYLE
  7
STANDARD
  9
$CLAYER
  8
AM_0
  9
$CELTYPE
  6
BYLAYER
  9
$CECOLOR
 62
   256
  9
$CELTSCALE
 40
1.0
  9
$DELOBJ
 70
     1
  9
$DISPSILH
 70
     0
  9
$DIMSCALE
 40
0.5
  9
$DIMASZ
 40
2.5
  9
$DIMEXO
 40
1.0
  9
$DIMDLI
 40
12.0
  9
$DIMRND
 40
0.0
  9
$DIMDLE
 40
0.0
  9
$DIMEXE
 40
1.0
  9
$DIMTP
 40
0.1
  9
$DIMTM
 40
0.1
  9
$DIMTXT
 40
3.2
  9
$DIMCEN
 40
0.0
  9
$DIMTSZ
 40
0.0
  9
$DIMTOL
 70
     0
  9
$DIMLIM
 70
     0
  9
$DIMTIH
 70
     0
  9
$DIMTOH
 70
     0
  9
$DIMSE1
 70
     0
  9
$DIMSE2
 70
     0
  9
$DIMTAD
 70
     3
  9
$DIMZIN
 70
     8
  9
$DIMBLK
  1
OPEN30
  9
$DIMASO
 70
     1
  9
$DIMSHO
 70
     1
  9
$DIMPOST
  1

  9
$DIMAPOST
  1
"
  9
$DIMALT
 70
     0
  9
$DIMALTD
 70
     2
  9
$DIMALTF
 40
0.0393701
  9
$DIMLFAC
 40
1.0
  9
$DIMTOFL
 70
     1
  9
$DIMTVP
 40
0.0
  9
$DIMTIX
 70
     0
  9
$DIMSOXD
 70
     0
  9
$DIMSAH
 70
     0
  9
$DIMBLK1
  1

  9
$DIMBLK2
  1

  9
$DIMSTYLE
  2
AM_JIS
  9
$DIMCLRD
 70
   256
  9
$DIMCLRE
 70
   256
  9
$DIMCLRT
 70
     2
  9
$DIMTFAC
 40
0.71
  9
$DIMGAP
 40
1.5
  9
$DIMJUST
 70
     0
  9
$DIMSD1
 70
     0
  9
$DIMSD2
 70
     0
  9
$DIMTOLJ
 70
     0
  9
$DIMTZIN
 70
     0
  9
$DIMALTZ
 70
     0
  9
$DIMALTTZ
 70
     0
  9
$DIMFIT
 70
     3
  9
$DIMUPT
 70
     0
  9
$DIMUNIT
 70
     2
  9
$DIMDEC
 70
     3
  9
$DIMTDEC
 70
     3
  9
$DIMALTU
 70
     2
  9
$DIMALTTD
 70
     2
  9
$DIMTXSTY
  7
ASAMI
  9
$DIMAUNIT
 70
     0
  9
$LUNITS
 70
     2
  9
$LUPREC
 70
     2
  9
$SKETCHINC
 40
1.0
  9
$FILLETRAD
 40
0.5
  9
$AUNITS
 70
     0
  9
$AUPREC
 70
     0
  9
$MENU
  1
.
  9
$ELEVATION
 40
0.0
  9
$PELEVATION
 40
0.0
  9
$THICKNESS
 40
0.0
  9
$LIMCHECK
 70
     0
  9
$BLIPMODE
 70
     0
  9
$CHAMFERA
 40
2.5
  9
$CHAMFERB
 40
2.5
  9
$CHAMFERC
 40
20.0
  9
$CHAMFERD
 40
0.0
  9
$SKPOLY
 70
     0
  9
$TDCREATE
 40
2452838.620506898
  9
$TDUPDATE
 40
2453151.891407141
  9
$TDINDWG
 40
0.3870068056
  9
$TDUSRTIMER
 40
0.3870068056
  9
$USRTIMER
 70
     1
  9
$ANGBASE
 50
0.0
  9
$ANGDIR
 70
     0
  9
$PDMODE
 70
     0
  9
$PDSIZE
 40
0.0
  9
$PLINEWID
 40
0.0
  9
$COORDS
 70
     1
  9
$SPLFRAME
 70
     0
  9
$SPLINETYPE
 70
     6
  9
$SPLINESEGS
 70
     8
  9
$ATTDIA
 70
     1
  9
$ATTREQ
 70
     1
  9
$HANDLING
 70
 12289
  9
$HANDSEED
  5
2C8D
  9
$SURFTAB1
 70
     6
  9
$SURFTAB2
 70
     6
  9
$SURFTYPE
 70
     6
  9
$SURFU
 70
     6
  9
$SURFV
 70
     6
  9
$UCSNAME
  2

  9
$UCSORG
 10
-0.0000000000000568
 20
-0.0000000000000036
 30
0.0
  9
$UCSXDIR
 10
1.0
 20
0.0
 30
0.0
  9
$UCSYDIR
 10
0.0
 20
1.0
 30
0.0
  9
$PUCSNAME
  2

  9
$PUCSORG
 10
0.0
 20
0.0
 30
0.0
  9
$PUCSXDIR
 10
1.0
 20
0.0
 30
0.0
  9
$PUCSYDIR
 10
0.0
 20
1.0
 30
0.0
  9
$USERI1
 70
     0
  9
$USERI2
 70
     0
  9
$USERI3
 70
     0
  9
$USERI4
 70
     0
  9
$USERI5
 70
     0
  9
$USERR1
 40
0.0
  9
$USERR2
 40
0.0
  9
$USERR3
 40
0.0
  9
$USERR4
 40
0.0
  9
$USERR5
 40
0.0
  9
$WORLDVIEW
 70
     1
  9
$SHADEDGE
 70
     3
  9
$SHADEDIF
 70
    70
  9
$TILEMODE
 70
     1
  9
$MAXACTVP
 70
    64
  9
$PINSBASE
 10
0.0
 20
0.0
 30
0.0
  9
$PLIMCHECK
 70
     0
  9
$PEXTMIN
 10
1.000000000000000E+20
 20
1.000000000000000E+20
 30
1.000000000000000E+20
  9
$PEXTMAX
 10
-1.000000000000000E+20
 20
-1.000000000000000E+20
 30
-1.000000000000000E+20
  9
$PLIMMIN
 10
0.0
 20
0.0
  9
$PLIMMAX
 10
841.0
 20
594.0
  9
$UNITMODE
 70
     0
  9
$VISRETAIN
 70
     1
  9
$PLINEGEN
 70
     0
  9
$PSLTSCALE
 70
     0
  9
$TREEDEPTH
 70
  3020
  9
$PICKSTYLE
 70
     0
  9
$CMLSTYLE
  2
STANDARD
  9
$CMLJUST
 70
     0
  9
$CMLSCALE
 40
20.0
  9
$PROXYGRAPHICS
 70
     1
  9
$MEASUREMENT
 70
     1
  0
ENDSEC
  0
SECTION
  2
CLASSES
  0
CLASS
  1
ACDBDICTIONARYWDFLT
  2
AcDbDictionaryWithDefault
  3
AutoCAD 2000
 90
        0
280
     0
281
     0
  0
CLASS
  1
ACDBPLACEHOLDER
  2
AcDbPlaceHolder
  3
AutoCAD 2000
 90
        0
280
     0
281
     0
  0
CLASS
  1
LAYOUT
  2
AcDbLayout
  3
AutoCAD 2000
 90
        0
280
     0
281
     0
  0
CLASS
  1
AMGSETTINGSOBJ
  2
AmgSettingsObj
  3
"AcadM|Product Description: AutoCAD Mechanical 2000|Company: Autodesk"
 90
        0
280
     0
281
     0
  0
CLASS
  1
ACME_DOCUMENT
  2
AcMeDbDoc
  3
AcMeServices
 90
        0
280
     0
281
     0
  0
CLASS
  1
ACMESCOPE
  2
AcMeScope
  3
AcMeServices
 90
        0
280
     0
281
     0
  0
CLASS
  1
ACMECOMMANDHISTORY
  2
AcMeCommandHistory
  3
AcMeServices
 90
        0
280
     0
281
     0
  0
CLASS
  1
DICTIONARYVAR
  2
AcDbDictionaryVar
  3
AutoCAD 2000
 90
        0
280
     0
281
     0
  0
CLASS
  1
ACIMSYSVARMAN
  2
AcImSysVarManager
  3
AcMeServices
 90
        0
280
     0
281
     0
  0
CLASS
  1
ACIMREALSYSVAR
  2
AcImRealSysVar
  3
AcMeServices
 90
        0
280
     0
281
     0
  0
CLASS
  1
ACIMINTSYSVAR
  2
AcImIntSysVar
  3
AcMeServices
 90
        0
280
     0
281
     0
  0
CLASS
  1
ACMEDRAWINGMAN
  2
AcMeDrawingMan
  3
AcMeServices
 90
        0
280
     0
281
     0
  0
CLASS
  1
ACMEVIEW
  2
AcMeView
  3
AcMeServices
 90
        0
280
     0
281
     0
  0
CLASS
  1
ACDBENTITYCACHE
  2
AcMeEntityCache
  3
AcMeServices
 90
        0
280
     0
281
     0
  0
CLASS
  1
GSMANAGER
  2
AcMeGSManager
  3
AcMeServices
 90
        0
280
     0
281
     0
  0
CLASS
  1
AmdtInternalReactor
  2
AmdtInternalReactor
  3
AcMeServices
 90
        0
280
     0
281
     0
  0
CLASS
  1
ACMESTATEMGR
  2
AcMeStateMgr
  3
AcMeServices
 90
        0
280
     0
281
     0
  0
CLASS
  1
ACME_DATABASE
  2
AcMeDbDatabase
  3
AcMeServices
 90
        0
280
     0
281
     0
  0
CLASS
  1
ACRFINSADJUSTERMGR
  2
AcRfInsAdjusterMgr
  3
AcMeServices
 90
        0
280
     0
281
     0
  0
CLASS
  1
ACMDATADICTIONARY
  2
AcmDataDictionary
  3
"AcmSymBB|Product Description: AutoCAD Mechanical 2000|Company: Autodesk"
 90
        0
280
     0
281
     0
  0
CLASS
  1
ACMDATAENTRYBLOCK
  2
AcmDataEntryBlock
  3
"AcmSymBB|Product Description: AutoCAD Mechanical 2000|Company: Autodesk"
 90
        0
280
     0
281
     0
  0
CLASS
  1
AMGOBJPROPCFG
  2
AmgObjPropCfg
  3
"AmgLay|Product Description: AutoCAD Mechanical 2000|Company: Autodesk"
 90
        1
280
     0
281
     0
  0
CLASS
  1
ACAMGFILTERDAT
  2
AcAmgFilterDat
  3
"AcadM|Product Description: AutoCAD Mechanical 2000|Company: Autodesk"
 90
        0
280
     0
281
     0
  0
CLASS
  1
LAYER_INDEX
  2
AcDbLayerIndex
  3
AutoCAD 2000
 90
        0
280
     0
281
     0
  0
CLASS
  1
IDBUFFER
  2
AcDbIdBuffer
  3
AutoCAD 2000
 90
        0
280
     0
281
     0
  0
CLASS
  1
ACIMSTRSYSVAR
  2
AcImStrSysVar
  3
AcMeServices
 90
        0
280
     0
281
     0
  0
CLASS
  1
ACMSTANDARDJIS
  2
AcmStandardJIS
  3
"AcmSymBB|Product Description: AutoCAD Mechanical 2000|Company: Autodesk"
 90
        0
280
     0
281
     0
  0
CLASS
  1
ACMSURFSTANDARDJIS
  2
AcmSurfTextStdJIS
  3
"AcmSymBB|Product Description: AutoCAD Mechanical 2000|Company: Autodesk"
 90
        0
280
     0
281
     0
  0
CLASS
  1
ACMFCFSTANDARDJIS
  2
AcmFCFStdJIS
  3
"AcmSymBB|Product Description: AutoCAD Mechanical 2000|Company: Autodesk"
 90
        0
280
     0
281
     0
  0
CLASS
  1
ACMWELDSTANDARDJIS
  2
AcmWeldingStdJIS
  3
"AcmSymBB|Product Description: AutoCAD Mechanical 2000|Company: Autodesk"
 90
        0
280
     0
281
     0
  0
CLASS
  1
ACMIDSTANDARDJIS
  2
AcmIdStdJIS
  3
"AcmSymBB|Product Description: AutoCAD Mechanical 2000|Company: Autodesk"
 90
        0
280
     0
281
     0
  0
CLASS
  1
ACMDATUMSTANDARDJIS
  2
AcmDatumStdJIS
  3
"AcmSymBB|Product Description: AutoCAD Mechanical 2000|Company: Autodesk"
 90
        0
280
     0
281
     0
  0
CLASS
  1
ACMBOMSTANDARDJIS
  2
AcmBOMStdJIS
  3
"AcmSymBB|Product Description: AutoCAD Mechanical 2000|Company: Autodesk"
 90
        0
280
     0
281
     0
  0
CLASS
  1
ACMSTANDARDANSI
  2
AcmStandardANSI
  3
"AcmSymBB|Product Description: AutoCAD Mechanical 2000|Company: Autodesk"
 90
        0
280
     0
281
     0
  0
CLASS
  1
ACMSURFSTANDARDANSI
  2
AcmSurfTextStdANSI
  3
"AcmSymBB|Product Description: AutoCAD Mechanical 2000|Company: Autodesk"
 90
        0
280
     0
281
     0
  0
CLASS
  1
ACMFCFSTANDARDANSI
  2
AcmFCFStdANSI
  3
"AcmSymBB|Product Description: AutoCAD Mechanical 2000|Company: Autodesk"
 90
        0
280
     0
281
     0
  0
CLASS
  1
ACMWELDSTANDARDANSI
  2
AcmWeldingStdANSI
  3
"AcmSymBB|Product Description: AutoCAD Mechanical 2000|Company: Autodesk"
 90
        0
280
     0
281
     0
  0
CLASS
  1
ACMIDSTANDARDANSI
  2
AcmIdStdANSI
  3
"AcmSymBB|Product Description: AutoCAD Mechanical 2000|Company: Autodesk"
 90
        0
280
     0
281
     0
  0
CLASS
  1
ACMDATUMSTANDARDANSI
  2
AcmDatumStdANSI
  3
"AcmSymBB|Product Description: AutoCAD Mechanical 2000|Company: Autodesk"
 90
        0
280
     0
281
     0
  0
CLASS
  1
ACMBOMSTANDARDANSI
  2
AcmBOMStdANSI
  3
"AcmSymBB|Product Description: AutoCAD Mechanical 2000|Company: Autodesk"
 90
        0
280
     0
281
     0
  0
CLASS
  1
ACMSTANDARDBSI
  2
AcmStandardBSI
  3
"AcmSymBB|Product Description: AutoCAD Mechanical 2000|Company: Autodesk"
 90
        0
280
     0
281
     0
  0
CLASS
  1
ACMSURFSTANDARDBSI
  2
AcmSurfTextStdBSI
  3
"AcmSymBB|Product Description: AutoCAD Mechanical 2000|Company: Autodesk"
 90
        0
280
     0
281
     0
  0
CLASS
  1
ACMFCFSTANDARDBSI
  2
AcmFCFStdBSI
  3
"AcmSymBB|Product Description: AutoCAD Mechanical 2000|Company: Autodesk"
 90
        0
280
     0
281
     0
  0
CLASS
  1
ACMWELDSTANDARDBSI
  2
AcmWeldingStdBSI
  3
"AcmSymBB|Product Description: AutoCAD Mechanical 2000|Company: Autodesk"
 90
        0
280
     0
281
     0
  0
CLASS
  1
ACMIDSTANDARDBSI
  2
AcmIdStdBSI
  3
"AcmSymBB|Product Description: AutoCAD Mechanical 2000|Company: Autodesk"
 90
        0
280
     0
281
     0
  0
CLASS
  1
ACMDATUMSTANDARDBSI
  2
AcmDatumStdBSI
  3
"AcmSymBB|Product Description: AutoCAD Mechanical 2000|Company: Autodesk"
 90
        0
280
     0
281
     0
  0
CLASS
  1
ACMBOMSTANDARDBSI
  2
AcmBOMStdBSI
  3
"AcmSymBB|Product Description: AutoCAD Mechanical 2000|Company: Autodesk"
 90
        0
280
     0
281
     0
  0
CLASS
  1
LONG_TRANSACTION
  2
AcDbLongTransaction
  3
AutoCAD 2000
 90
        0
280
     0
281
     0
  0
CLASS
  1
LWPOLYLINE
  2
AcDbPolyline
  3
AutoCAD 2000
 90
        0
280
     0
281
     1
  0
CLASS
  1
HATCH
  2
AcDbHatch
  3
AutoCAD 2000
 90
        0
280
     0
281
     1
  0
CLASS
  1
XRECORD
  2
AcDbXrecord
  3
AutoCAD 2000
 90
        0
280
     0
281
     0
  0
ENDSEC
  0
SECTION
  2
TABLES
  0
TABLE
  2
VPORT
  5
8
330
0
100
AcDbSymbolTable
 70
     3
  0
VPORT
  5
2C57
330
8
100
AcDbSymbolTableRecord
100
AcDbViewportTableRecord
  2
*ACTIVE
 70
     0
 10
0.0
 20
0.0
 11
1.0
 21
1.0
 12
-32.78651105690249
 22
-14.93724862023928
 13
0.0
 23
0.0
 14
2.5
 24
2.5
 15
10.0
 25
10.0
 16
0.0
 26
0.0
 36
1.0
 17
0.0
 27
0.0
 37
0.0
 40
129.2208231746285
 41
1.56570841889117
 42
50.0
 43
0.0
 44
0.0
 50
0.0
 51
0.0
 71
     0
 72
   100
 73
     1
 74
     3
 75
     0
 76
     0
 77
     0
 78
     0
  0
ENDTAB
  0
TABLE
  2
LTYPE
  5
5
330
0
100
AcDbSymbolTable
 70
    10
  0
LTYPE
  5
14
330
5
100
AcDbSymbolTableRecord
100
AcDbLinetypeTableRecord
  2
BYBLOCK
 70
     0
  3

 72
    65
 73
     0
 40
0.0
  0
LTYPE
  5
15
330
5
100
AcDbSymbolTableRecord
100
AcDbLinetypeTableRecord
  2
BYLAYER
 70
     0
  3

 72
    65
 73
     0
 40
0.0
  0
LTYPE
  5
16
330
5
100
AcDbSymbolTableRecord
100
AcDbLinetypeTableRecord
  2
CONTINUOUS
 70
     0
  3
Solid line
 72
    65
 73
     0
 40
0.0
  0
LTYPE
  5
4B
330
5
100
AcDbSymbolTableRecord
100
AcDbLinetypeTableRecord
  2
AM_ISO02W050
 70
     0
  3
__ __ __ __ __ __ __ __ __ __ __ __ __ __ __
 72
    65
 73
     2
 40
7.5
 49
6.0
 74
     0
 49
-1.5
 74
     0
  0
LTYPE
  5
4C
330
5
100
AcDbSymbolTableRecord
100
AcDbLinetypeTableRecord
  2
AM_ISO08W050
 70
     0
  3
____ . ____ . ____ . ____ . ____ . ____ . ____
 72
    65
 73
     4
 40
18.0
 49
12.0
 74
     0
 49
-1.5
 74
     0
 49
3.0
 74
     0
 49
-1.5
 74
     0
  0
LTYPE
  5
4D
330
5
100
AcDbSymbolTableRecord
100
AcDbLinetypeTableRecord
  2
AM_ISO09W050
 70
     0
  3
_____ . . _____ . . _____ . . ____ .. ____
 72
    65
 73
     6
 40
22.5
 49
12.0
 74
     0
 49
-1.5
 74
     0
 49
3.0
 74
     0
 49
-1.5
 74
     0
 49
3.0
 74
     0
 49
-1.5
 74
     0
  0
LTYPE
  5
4E
330
5
100
AcDbSymbolTableRecord
100
AcDbLinetypeTableRecord
  2
AMCONSTR
 70
     0
  3
_______________________
 72
    65
 73
     2
 40
9999.0
 49
9999.0
 74
     0
 49
0.0
 74
     0
  0
LTYPE
  5
4F
330
5
100
AcDbSymbolTableRecord
100
AcDbLinetypeTableRecord
  2
AM_ISO02W050X2
 70
     0
  3
 _ _ _ _ _ _ _ _ _ _ _ _
 72
    65
 73
     2
 40
3.75
 49
3.0
 74
     0
 49
-0.75
 74
     0
  0
LTYPE
  5
50
330
5
100
AcDbSymbolTableRecord
100
AcDbLinetypeTableRecord
  2
AM_ISO08W050X2
 70
     0
  3
__ . __ . __ . __ . __ . __
 72
    65
 73
     4
 40
9.0
 49
6.0
 74
     0
 49
-0.75
 74
     0
 49
1.5
 74
     0
 49
-0.75
 74
     0
  0
LTYPE
  5
53
330
5
100
AcDbSymbolTableRecord
100
AcDbLinetypeTableRecord
  2
AMZIGZAG
 70
     0
  3
/\/-/\/-/\/-/\/-/\/-/\/
 72
    65
 73
     2
 40
11.00009999999999
 49
0.0001
 74
     4
 75
   135
340
52
 46
0.04
 50
0.0
 44
0.0
 45
0.0
 49
-11.0
 74
     0
  0
LTYPE
  5
166
330
5
100
AcDbSymbolTableRecord
100
AcDbLinetypeTableRecord
  2
ACJISTGL
 70
     0
  3
_ _ _ _ _
 72
    65
 73
     2
 40
3.0
 49
2.0
 74
     0
 49
-1.0
 74
     0
  0
LTYPE
  5
26A
330
5
100
AcDbSymbolTableRecord
100
AcDbLinetypeTableRecord
  2
ACJISTGB
 70
     0
  3
__ . . __ . .
 72
    65
 73
     6
 40
9.0
 49
4.0
 74
     0
 49
-1.0
 74
     0
 49
1.0
 74
     0
 49
-1.0
 74
     0
 49
1.0
 74
     0
 49
-1.0
 74
     0
  0
ENDTAB
  0
TABLE
  2
LAYER
  5
2
330
0
100
AcDbSymbolTable
 70
     8
  0
LAYER
  5
10
330
2
100
AcDbSymbolTableRecord
100
AcDbLayerTableRecord
  2
0
 70
     0
 62
     7
  6
CONTINUOUS
  0
LAYER
  5
3F9
330
2
100
AcDbSymbolTableRecord
100
AcDbLayerTableRecord
  2
AM_0
 70
     0
 62
     7
  6
CONTINUOUS
  0
LAYER
  5
BD6
330
2
100
AcDbSymbolTableRecord
100
AcDbLayerTableRecord
  2
AM_11
 70
     0
 62
     3
  6
AM_ISO09W050
  0
LAYER
  5
BD7
330
2
100
AcDbSymbolTableRecord
100
AcDbLayerTableRecord
  2
AM_7
 70
     0
 62
     4
  6
AM_ISO08W050
  0
LAYER
  5
BD8
330
2
100
AcDbSymbolTableRecord
100
AcDbLayerTableRecord
  2
AM_5
 70
     0
 62
     3
  6
CONTINUOUS
  0
LAYER
  5
BD9
330
2
100
AcDbSymbolTableRecord
100
AcDbLayerTableRecord
  2
DEFPOINTS
 70
     0
 62
     7
  6
CONTINUOUS
  0
LAYER
  5
BDA
330
2
100
AcDbSymbolTableRecord
100
AcDbLayerTableRecord
  2
AM_6
 70
     0
 62
     2
  6
CONTINUOUS
  0
LAYER
  5
1F9B
330
2
100
AcDbSymbolTableRecord
100
AcDbLayerTableRecord
  2
AM_CL
 70
     0
 62
     1
  6
AMCONSTR
  0
ENDTAB
  0
TABLE
  2
STYLE
  5
3
330
0
100
AcDbSymbolTable
 70
     5
  0
STYLE
  5
11
330
3
100
AcDbSymbolTableRecord
100
AcDbTextStyleTableRecord
  2
STANDARD
 70
     0
 40
0.0
 41
1.0
 50
0.0
 71
     0
 42
2.5
  3
simplex.shx
  4
EXTFONT.SHX
  0
STYLE
  5
52
330
3
100
AcDbSymbolTableRecord
100
AcDbTextStyleTableRecord
  2

 70
     1
 40
0.0
 41
1.0
 50
0.0
 71
     0
 42
2.5
  3
ltypeshp.shx
  4

  0
STYLE
  5
6B
330
3
100
AcDbSymbolTableRecord
100
AcDbTextStyleTableRecord
  2
ASAMI
 70
     0
 40
0.0
 41
1.0
 50
0.0
 71
     0
 42
2.5
  3
simplex.shx
  4
EXTFONT.SHX
  0
STYLE
  5
262
330
3
100
AcDbSymbolTableRecord
100
AcDbTextStyleTableRecord
  2
ACJISTS
 70
     0
 40
1.0
 41
1.0
 50
0.0
 71
     0
 42
2.5
  3
simplex.shx
  4
bigfont.shx
  0
STYLE
  5
269
330
3
100
AcDbSymbolTableRecord
100
AcDbTextStyleTableRecord
  2
ACJISGDT
 70
     0
 40
0.0
 41
1.0
 50
0.0
 71
     0
 42
2.5
  3
amgdtans.shx
  4

  0
ENDTAB
  0
TABLE
  2
VIEW
  5
6
330
0
100
AcDbSymbolTable
 70
     0
  0
ENDTAB
  0
TABLE
  2
UCS
  5
7
330
0
100
AcDbSymbolTable
 70
     0
  0
ENDTAB
  0
TABLE
  2
APPID
  5
9
330
0
100
AcDbSymbolTable
 70
    13
  0
APPID
  5
12
330
9
100
AcDbSymbolTableRecord
100
AcDbRegAppTableRecord
  2
ACAD
 70
     0
  0
APPID
  5
30
330
9
100
AcDbSymbolTableRecord
100
AcDbRegAppTableRecord
  2
MCAD_NO_VIS
 70
     0
  0
APPID
  5
31
330
9
100
AcDbSymbolTableRecord
100
AcDbRegAppTableRecord
  2
ACAD_TEMP_GRAPHIC
 70
     0
  0
APPID
  5
2C2
330
9
100
AcDbSymbolTableRecord
100
AcDbRegAppTableRecord
  2
GENIUS_GENDTOL_13
 70
     0
  0
APPID
  5
339
330
9
100
AcDbSymbolTableRecord
100
AcDbRegAppTableRecord
  2
GENIUS_GENODEF_13
 70
     0
  0
APPID
  5
33A
330
9
100
AcDbSymbolTableRecord
100
AcDbRegAppTableRecord
  2
GENIUS_GENOBJ-N-RSBK_13
 70
     0
  0
APPID
  5
33B
330
9
100
AcDbSymbolTableRecord
100
AcDbRegAppTableRecord
  2
GENIUS_GENOBJ-N-LIB_13
 70
     0
  0
APPID
  5
33C
330
9
100
AcDbSymbolTableRecord
100
AcDbRegAppTableRecord
  2
GENIUS_GENSCALE_13
 70
     0
  0
APPID
  5
378
330
9
100
AcDbSymbolTableRecord
100
AcDbRegAppTableRecord
  2
GENIUS_GENDIMSH_14
 70
     0
  0
APPID
  5
BDB
330
9
100
AcDbSymbolTableRecord
100
AcDbRegAppTableRecord
  2
GENIUS_GENOBJ-N-CEN_13
 70
     0
  0
APPID
  5
BDC
330
9
100
AcDbSymbolTableRecord
100
AcDbRegAppTableRecord
  2
GENIUS_GENFIL_13
 70
     0
  0
APPID
  5
BDD
330
9
100
AcDbSymbolTableRecord
100
AcDbRegAppTableRecord
  2
GENIUS_GENOBJ-N-FIL_13
 70
     0
  0
APPID
  5
12AD
330
9
100
AcDbSymbolTableRecord
100
AcDbRegAppTableRecord
  2
GENIUS_GENOREF_13
 70
     0
  0
ENDTAB
  0
TABLE
  2
DIMSTYLE
  5
A
330
0
100
AcDbSymbolTable
 70
     8
  0
DIMSTYLE
105
58
102
{ACAD_REACTORS
330
194C
330
195B
330
212A
330
213B
330
21E0
102
}
330
A
100
AcDbSymbolTableRecord
100
AcDbDimStyleTableRecord
  2
AM_JIS
 70
     0
  3

  4
"
  5
OPEN30
  6

  7

 40
0.5
 41
2.5
 42
1.0
 43
12.0
 44
1.0
 45
0.0
 46
0.0
 47
0.1
 48
0.1
140
3.2
141
0.0
142
0.0
143
0.0393701
144
1.0
145
0.0
146
0.71
147
1.5
 71
     0
 72
     0
 73
     0
 74
     0
 75
     0
 76
     0
 77
     3
 78
     8
170
     0
171
     2
172
     1
173
     0
174
     0
175
     0
176
   256
177
   256
178
     2
270
     2
271
     3
272
     3
273
     2
274
     2
340
6B
275
     0
280
     0
281
     0
282
     0
283
     0
284
     0
285
     0
286
     0
287
     3
288
     0
  0
DIMSTYLE
105
5F
330
A
100
AcDbSymbolTableRecord
100
AcDbDimStyleTableRecord
  2
AM_JIS$3
 70
     0
  3

  4
"
  5
OPEN30
  6

  7

 40
0.5
 41
2.5
 42
1.0
 43
10.0
 44
1.0
 45
0.0
 46
0.0
 47
0.1
 48
0.1
140
3.2
141
0.0
142
0.0
143
0.0393701
144
1.0
145
0.0
146
0.71
147
1.5
 71
     0
 72
     0
 73
     0
 74
     1
 75
     0
 76
     0
 77
     3
 78
     8
170
     0
171
     2
172
     0
173
     0
174
     0
175
     0
176
   256
177
   256
178
     2
270
     2
271
     2
272
     3
273
     2
274
     2
340
6B
275
     0
280
     0
281
     0
282
     0
283
     0
284
     0
285
     0
286
     0
287
     0
288
     1
  0
DIMSTYLE
105
60
102
{ACAD_REACTORS
330
1EF8
102
}
330
A
100
AcDbSymbolTableRecord
100
AcDbDimStyleTableRecord
  2
AM_JIS$4
 70
     0
  3

  4
"
  5
OPEN30
  6

  7

 40
0.5
 41
2.5
 42
1.0
 43
10.0
 44
1.0
 45
0.0
 46
0.0
 47
0.1
 48
0.1
140
3.2
141
0.0
142
0.0
143
0.0393701
144
1.0
145
0.0
146
0.71
147
1.5
 71
     0
 72
     0
 73
     0
 74
     1
 75
     0
 76
     0
 77
     3
 78
     8
170
     0
171
     2
172
     0
173
     0
174
     0
175
     0
176
   256
177
   256
178
     2
270
     2
271
     2
272
     3
273
     2
274
     2
340
6B
275
     0
280
     0
281
     0
282
     0
283
     0
284
     0
285
     0
286
     0
287
     0
288
     1
  0
DIMSTYLE
105
61
330
A
100
AcDbSymbolTableRecord
100
AcDbDimStyleTableRecord
  2
AM_JIS$6
 70
     0
  3

  4
"
  5
OPEN30
  6

  7

 40
0.5
 41
2.5
 42
1.0
 43
10.0
 44
1.0
 45
0.0
 46
0.0
 47
0.1
 48
0.1
140
3.2
141
0.0
142
0.0
143
0.0393701
144
1.0
145
0.0
146
0.71
147
1.5
 71
     0
 72
     0
 73
     0
 74
     0
 75
     0
 76
     0
 77
     0
 78
     8
170
     0
171
     2
172
     1
173
     0
174
     0
175
     0
176
   256
177
   256
178
     2
270
     2
271
     2
272
     2
273
     2
274
     2
340
6B
275
     0
280
     0
281
     0
282
     0
283
     0
284
     0
285
     0
286
     0
287
     3
288
     0
  0
DIMSTYLE
105
62
330
A
100
AcDbSymbolTableRecord
100
AcDbDimStyleTableRecord
  2
AM_JIS$7
 70
     0
  3

  4
"
  5
OPEN30
  6

  7

 40
0.5
 41
2.5
 42
1.0
 43
10.0
 44
1.0
 45
0.0
 46
0.0
 47
0.1
 48
0.1
140
3.2
141
0.0
142
0.0
143
0.0393701
144
1.0
145
0.0
146
0.71
147
1.5
 71
     0
 72
     0
 73
     0
 74
     0
 75
     0
 76
     0
 77
     3
 78
     8
170
     0
171
     2
172
     1
173
     0
174
     0
175
     0
176
   256
177
   256
178
     2
270
     2
271
     2
272
     3
273
     2
274
     2
340
6B
275
     0
280
     0
281
     0
282
     0
283
     0
284
     0
285
     0
286
     0
287
     3
288
     0
  0
DIMSTYLE
105
63
330
A
100
AcDbSymbolTableRecord
100
AcDbDimStyleTableRecord
  2
AM_JIS$SF
 70
     0
  3

  4
"
  5
OPEN30
  6

  7

 40
0.5
 41
2.5
 42
1.0
 43
10.0
 44
1.0
 45
0.0
 46
0.0
 47
0.1
 48
0.1
140
3.2
141
0.0
142
0.0
143
0.0393701
144
1.0
145
0.0
146
0.71
147
1.5
 71
     0
 72
     0
 73
     0
 74
     0
 75
     1
 76
     1
 77
     3
 78
     8
170
     0
171
     2
172
     1
173
     0
174
     0
175
     0
176
   256
177
   256
178
     2
270
     2
271
     2
272
     2
273
     2
274
     2
340
6B
275
     0
280
     0
281
     0
282
     0
283
     0
284
     0
285
     0
286
     0
287
     3
288
     0
  0
DIMSTYLE
105
68
330
A
100
AcDbSymbolTableRecord
100
AcDbDimStyleTableRecord
  2
AM_JIS$SH
 70
     0
  3

  4
"
  5

  6
GENAXEH
  7
OPEN30
 40
0.5
 41
2.5
 42
1.0
 43
10.0
 44
1.0
 45
0.0
 46
0.0
 47
0.1
 48
0.1
140
3.2
141
0.0
142
0.0
143
0.0393701
144
2.0
145
0.0
146
0.71
147
1.5
 71
     0
 72
     0
 73
     0
 74
     0
 75
     1
 76
     1
 77
     3
 78
     8
170
     0
171
     2
172
     1
173
     1
174
     0
175
     0
176
   256
177
   256
178
     2
270
     2
271
     2
272
     2
273
     2
274
     2
340
6B
275
     0
280
     0
281
     0
282
     0
283
     0
284
     0
285
     0
286
     0
287
     3
288
     0
  0
DIMSTYLE
105
B34
102
{ACAD_REACTORS
330
2A4A
102
}
330
A
100
AcDbSymbolTableRecord
100
AcDbDimStyleTableRecord
  2
AM_JIS$2
 70
     0
  3

  4
"
  5
OPEN30
  6

  7

 40
0.5
 41
2.5
 42
1.0
 43
12.0
 44
1.0
 45
0.0
 46
0.0
 47
0.1
 48
0.1
140
3.2
141
0.0
142
0.0
143
0.0393701
144
1.0
145
0.0
146
0.71
147
1.5
 71
     0
 72
     0
 73
     0
 74
     0
 75
     0
 76
     0
 77
     3
 78
     8
170
     0
171
     2
172
     1
173
     0
174
     0
175
     0
176
   256
177
   256
178
     2
270
     2
271
     3
272
     3
273
     2
274
     2
340
6B
275
     0
280
     0
281
     0
282
     0
283
     0
284
     0
285
     0
286
     0
287
     3
288
     0
  0
ENDTAB
  0
TABLE
  2
BLOCK_RECORD
  5
1
330
0
100
AcDbSymbolTable
 70
    12
  0
BLOCK_RECORD
  5
1F
102
{ACAD_XDICTIONARY
360
74
102
}
330
1
100
AcDbSymbolTableRecord
100
AcDbBlockTableRecord
  2
*MODEL_SPACE
  0
BLOCK_RECORD
  5
101
102
{ACAD_XDICTIONARY
360
2C80
102
}
330
1
100
AcDbSymbolTableRecord
100
AcDbBlockTableRecord
  2
*PAPER_SPACE
  0
BLOCK_RECORD
  5
59
330
1
100
AcDbSymbolTableRecord
100
AcDbBlockTableRecord
  2
_OPEN30
  0
BLOCK_RECORD
  5
64
330
1
100
AcDbSymbolTableRecord
100
AcDbBlockTableRecord
  2
GENAXEH
  0
BLOCK_RECORD
  5
194D
330
1
100
AcDbSymbolTableRecord
100
AcDbBlockTableRecord
  2
*D5
  0
BLOCK_RECORD
  5
195C
330
1
100
AcDbSymbolTableRecord
100
AcDbBlockTableRecord
  2
*D6
  0
BLOCK_RECORD
  5
1EF9
330
1
100
AcDbSymbolTableRecord
100
AcDbBlockTableRecord
  2
*D7
  0
BLOCK_RECORD
  5
212B
330
1
100
AcDbSymbolTableRecord
100
AcDbBlockTableRecord
  2
*D8
  0
BLOCK_RECORD
  5
213C
330
1
100
AcDbSymbolTableRecord
100
AcDbBlockTableRecord
  2
*D9
  0
BLOCK_RECORD
  5
21E1
330
1
100
AcDbSymbolTableRecord
100
AcDbBlockTableRecord
  2
*D10
  0
BLOCK_RECORD
  5
2A4B
330
1
100
AcDbSymbolTableRecord
100
AcDbBlockTableRecord
  2
*D11
  0
ENDTAB
  0
ENDSEC
  0
SECTION
  2
BLOCKS
  0
BLOCK
  5
20
330
1F
100
AcDbEntity
  8
0
100
AcDbBlockBegin
  2
*MODEL_SPACE
 70
     0
 10
0.0
 20
0.0
 30
0.0
  3
*MODEL_SPACE
  1

  0
ENDBLK
  5
21
330
1F
100
AcDbEntity
  8
0
100
AcDbBlockEnd
  0
BLOCK
  5
103
330
101
100
AcDbEntity
 67
     1
  8
0
100
AcDbBlockBegin
  2
*PAPER_SPACE
 70
     0
 10
0.0
 20
0.0
 30
0.0
  3
*PAPER_SPACE
  1

  0
ENDBLK
  5
104
330
101
100
AcDbEntity
 67
     1
  8
0
100
AcDbBlockEnd
  0
BLOCK
  5
5D
330
59
100
AcDbEntity
  8
0
100
AcDbBlockBegin
  2
_OPEN30
 70
     0
 10
0.0
 20
0.0
 30
0.0
  3
_OPEN30
  1

  0
LINE
  5
5A
330
59
100
AcDbEntity
  8
0
 62
     0
100
AcDbLine
 10
-1.0
 20
0.26794919
 30
0.0
 11
0.0
 21
0.0
 31
0.0
  0
LINE
  5
5B
330
59
100
AcDbEntity
  8
0
 62
     0
100
AcDbLine
 10
0.0
 20
0.0
 30
0.0
 11
-1.0
 21
-0.26794919
 31
0.0
  0
LINE
  5
5C
330
59
100
AcDbEntity
  8
0
 62
     0
100
AcDbLine
 10
0.0
 20
0.0
 30
0.0
 11
-1.0
 21
0.0
 31
0.0
  0
ENDBLK
  5
5E
330
59
100
AcDbEntity
  8
0
100
AcDbBlockEnd
  0
BLOCK
  5
66
330
64
100
AcDbEntity
  8
0
100
AcDbBlockBegin
  2
GENAXEH
 70
     0
 10
0.0
 20
0.0
 30
0.0
  3
GENAXEH
  1

  0
LINE
  5
65
330
64
100
AcDbEntity
  8
0
100
AcDbLine
 10
-1.0
 20
0.0
 30
0.0
 11
1.0
 21
0.0
 31
0.0
  0
ENDBLK
  5
67
330
64
100
AcDbEntity
  8
0
100
AcDbBlockEnd
  0
BLOCK
  5
1959
330
194D
100
AcDbEntity
  8
0
100
AcDbBlockBegin
  2
*D5
 70
     1
 10
0.0
 20
0.0
 30
0.0
  3
*D5
  1

  0
LINE
  5
2C0D
330
194D
100
AcDbEntity
  8
AM_5
100
AcDbLine
 10
-0.4990621308153676
 20
-1.00000000000048
 30
0.0
 11
7.500937428969164
 21
-1.000000000000482
 31
0.0
  0
LINE
  5
2C0E
330
194D
100
AcDbEntity
  8
AM_5
100
AcDbLine
 10
-0.4990621308153674
 20
0.9999999999964632
 30
0.0
 11
7.500937428969166
 21
0.9999999999964609
 31
0.0
  0
LINE
  5
2C0F
330
194D
100
AcDbEntity
  8
AM_5
100
AcDbLine
 10
7.000937428969164
 20
-2.250000000000483
 30
0.0
 11
7.000937428969164
 21
-3.500000000000483
 31
0.0
  0
LINE
  5
2C10
330
194D
100
AcDbEntity
  8
AM_5
100
AcDbLine
 10
7.000937428969166
 20
2.249999999996461
 30
0.0
 11
7.000937428969167
 21
7.514285714282174
 31
0.0
  0
LINE
  5
2C11
330
194D
100
AcDbEntity
  8
AM_5
100
AcDbLine
 10
7.000937428969165
 20
-1.000000000000482
 30
0.0
 11
7.000937428969165
 21
0.9999999999964611
 31
0.0
  0
INSERT
  5
2C12
330
194D
100
AcDbEntity
  8
AM_5
100
AcDbBlockReference
  2
_OPEN30
 10
7.000937428969165
 20
-1.000000000000482
 30
0.0
 41
1.25
 42
1.25
 43
1.25
 50
90.0
  0
INSERT
  5
2C13
330
194D
100
AcDbEntity
  8
AM_5
100
AcDbBlockReference
  2
_OPEN30
 10
7.000937428969165
 20
0.9999999999964611
 30
0.0
 41
1.25
 42
1.25
 43
1.25
 50
270.0
  0
MTEXT
  5
2C14
330
194D
100
AcDbEntity
  8
AM_5
 62
     2
100
AcDbMText
 10
5.450937428969165
 20
5.507142857139319
 30
0.0
 40
1.6
 41
0.0
 71
     5
 72
     1
  1
%%c2
  7
ASAMI
 11
0.0000000000000001
 21
1.0
 31
0.0
1001
ACAD
1000
MTEXTBEGIN
1070
    73
1070
     1
1070
    44
1040
1.0
1070
    74
1070
     0
1000
MTEXTEND
  0
POINT
  5
2C15
330
194D
100
AcDbEntity
  8
DEFPOINTS
 62
     0
100
AcDbPoint
 10
-0.9990621308153675
 20
-1.00000000000048
 30
0.0
  0
POINT
  5
2C16
330
194D
100
AcDbEntity
  8
DEFPOINTS
 62
     0
100
AcDbPoint
 10
-0.9990621308153674
 20
0.9999999999964634
 30
0.0
  0
POINT
  5
2C17
330
194D
100
AcDbEntity
  8
DEFPOINTS
 62
     0
100
AcDbPoint
 10
7.000937428969165
 20
0.9999999999964611
 30
0.0
  0
ENDBLK
  5
195A
330
194D
100
AcDbEntity
  8
0
100
AcDbBlockEnd
  0
BLOCK
  5
1968
330
195C
100
AcDbEntity
  8
0
100
AcDbBlockBegin
  2
*D6
 70
     1
 10
0.0
 20
0.0
 30
0.0
  3
*D6
  1

  0
LINE
  5
2C2C
330
195C
100
AcDbEntity
  8
AM_5
100
AcDbLine
 10
-5.000000000000015
 20
-1.455801455484561
 30
0.0
 11
-5.000000000000016
 21
-10.8750000000001
 31
0.0
  0
LINE
  5
2C2D
330
195C
100
AcDbEntity
  8
AM_5
100
AcDbLine
 10
-0.0000000000000569
 20
-0.5056795556493649
 30
0.0
 11
-0.0000000000000575
 21
-10.8750000000001
 31
0.0
  0
LINE
  5
2C2E
330
195C
100
AcDbEntity
  8
AM_5
100
AcDbLine
 10
-3.750000000000016
 20
-10.3750000000001
 30
0.0
 11
-1.250000000000057
 21
-10.3750000000001
 31
0.0
  0
INSERT
  5
2C2F
330
195C
100
AcDbEntity
  8
AM_5
100
AcDbBlockReference
  2
_OPEN30
 10
-5.000000000000016
 20
-10.3750000000001
 30
0.0
 41
1.25
 42
1.25
 43
1.25
 50
180.0
  0
INSERT
  5
2C30
330
195C
100
AcDbEntity
  8
AM_5
100
AcDbBlockReference
  2
_OPEN30
 10
-0.0000000000000575
 20
-10.3750000000001
 30
0.0
 41
1.25
 42
1.25
 43
1.25
  0
MTEXT
  5
2C31
330
195C
100
AcDbEntity
  8
AM_5
 62
     2
100
AcDbMText
 10
-2.500000000000037
 20
-8.825000000000107
 30
0.0
 40
1.6
 41
0.0
 71
     5
 72
     1
  1
5
  7
ASAMI
1001
ACAD
1000
MTEXTBEGIN
1070
    73
1070
     1
1070
    44
1040
1.0
1070
    74
1070
     0
1000
MTEXTEND
  0
POINT
  5
2C32
330
195C
100
AcDbEntity
  8
DEFPOINTS
 62
     0
100
AcDbPoint
 10
-5.000000000000015
 20
-0.9558014554845613
 30
0.0
  0
POINT
  5
2C33
330
195C
100
AcDbEntity
  8
DEFPOINTS
 62
     0
100
AcDbPoint
 10
-0.0000000000000568
 20
-0.0056795556493648
 30
0.0
  0
POINT
  5
2C34
330
195C
100
AcDbEntity
  8
DEFPOINTS
 62
     0
100
AcDbPoint
 10
-0.0000000000000575
 20
-10.3750000000001
 30
0.0
  0
ENDBLK
  5
1969
330
195C
100
AcDbEntity
  8
0
100
AcDbBlockEnd
  0
BLOCK
  5
1F00
330
1EF9
100
AcDbEntity
  8
0
100
AcDbBlockBegin
  2
*D7
 70
     1
 10
0.0
 20
0.0
 30
0.0
  3
*D7
  1

  0
LINE
  5
2C08
330
1EF9
100
AcDbEntity
  8
AM_5
100
AcDbLine
 10
0.1951839203461068
 20
-1.906902296728811
 30
0.0
 11
4.99617942126621
 21
-9.572851318193233
 31
0.0
  0
INSERT
  5
2C09
330
1EF9
100
AcDbEntity
  8
AM_5
100
AcDbBlockReference
  2
_OPEN30
 10
-0.4682861080779671
 20
-0.8475121318778445
 30
0.0
 41
1.25
 42
1.25
 43
1.25
 50
122.0579025639659
  0
MTEXT
  5
2C0A
330
1EF9
100
AcDbEntity
  8
AM_5
 62
     2
100
AcDbMText
 10
4.678318831975737
 20
-6.145057620428148
 30
0.0
 40
1.6
 41
0.0
 71
     5
 72
     1
  1
R1.0
  7
ASAMI
 11
0.5307760227392589
 21
-0.8475121318807735
 31
0.0
1001
ACAD
1000
MTEXTBEGIN
1070
    73
1070
     1
1070
    44
1040
1.0
1070
    74
1070
     0
1000
MTEXTEND
  0
POINT
  5
2C0B
330
1EF9
100
AcDbEntity
  8
DEFPOINTS
 62
     0
100
AcDbPoint
 10
-0.4682861080779671
 20
-0.8475121318778445
 30
0.0
  0
POINT
  5
2C0C
330
1EF9
100
AcDbEntity
  8
DEFPOINTS
 62
     0
100
AcDbPoint
 10
-0.9990621308153684
 20
-0.0000000000000365
 30
0.0
  0
ENDBLK
  5
1F01
330
1EF9
100
AcDbEntity
  8
0
100
AcDbBlockEnd
  0
BLOCK
  5
2135
330
212B
100
AcDbEntity
  8
0
100
AcDbBlockBegin
  2
*D8
 70
     1
 10
0.0
 20
0.0
 30
0.0
  3
*D8
  1

  0
LINE
  5
2BE4
330
212B
100
AcDbEntity
  8
AM_5
100
AcDbLine
 10
-60.00000000000007
 20
-2.750000000000006
 30
0.0
 11
-60.00000000000007
 21
-22.87499999999998
 31
0.0
  0
LINE
  5
2BE5
330
212B
100
AcDbEntity
  8
AM_5
100
AcDbLine
 10
-0.0000000000000569
 20
-0.5000000000000023
 30
0.0
 11
-0.0000000000000582
 21
-22.87499999999998
 31
0.0
  0
LINE
  5
2BE6
330
212B
100
AcDbEntity
  8
AM_5
100
AcDbLine
 10
-58.75000000000007
 20
-22.37499999999998
 30
0.0
 11
-1.250000000000058
 21
-22.37499999999998
 31
0.0
  0
INSERT
  5
2BE7
330
212B
100
AcDbEntity
  8
AM_5
100
AcDbBlockReference
  2
_OPEN30
 10
-60.00000000000007
 20
-22.37499999999998
 30
0.0
 41
1.25
 42
1.25
 43
1.25
 50
180.0
  0
INSERT
  5
2BE8
330
212B
100
AcDbEntity
  8
AM_5
100
AcDbBlockReference
  2
_OPEN30
 10
-0.0000000000000582
 20
-22.37499999999998
 30
0.0
 41
1.25
 42
1.25
 43
1.25
  0
MTEXT
  5
2BE9
330
212B
100
AcDbEntity
  8
AM_5
 62
     2
100
AcDbMText
 10
-30.00000000000006
 20
-20.82499999999998
 30
0.0
 40
1.6
 41
0.0
 71
     5
 72
     1
  1
60
  7
ASAMI
1001
ACAD
1000
MTEXTBEGIN
1070
    73
1070
     1
1070
    44
1040
1.0
1070
    74
1070
     0
1000
MTEXTEND
  0
POINT
  5
2BEA
330
212B
100
AcDbEntity
  8
DEFPOINTS
 62
     0
100
AcDbPoint
 10
-60.00000000000007
 20
-2.250000000000006
 30
0.0
  0
POINT
  5
2BEB
330
212B
100
AcDbEntity
  8
DEFPOINTS
 62
     0
100
AcDbPoint
 10
-0.0000000000000568
 20
-0.0000000000000022
 30
0.0
  0
POINT
  5
2BEC
330
212B
100
AcDbEntity
  8
DEFPOINTS
 62
     0
100
AcDbPoint
 10
-0.0000000000000582
 20
-22.37499999999998
 30
0.0
  0
ENDBLK
  5
2136
330
212B
100
AcDbEntity
  8
0
100
AcDbBlockEnd
  0
BLOCK
  5
2148
330
213C
100
AcDbEntity
  8
0
100
AcDbBlockBegin
  2
*D9
 70
     1
 10
0.0
 20
0.0
 30
0.0
  3
*D9
  1

  0
LINE
  5
2BA3
330
213C
100
AcDbEntity
  8
AM_5
100
AcDbLine
 10
-60.00000000000007
 20
-3.000000000000006
 30
0.0
 11
-67.50000000000007
 21
-3.000000000000003
 31
0.0
  0
LINE
  5
2BA4
330
213C
100
AcDbEntity
  8
AM_5
100
AcDbLine
 10
-60.00000000000007
 20
2.999999999999998
 30
0.0
 11
-67.50000000000007
 21
3.0
 31
0.0
  0
LINE
  5
2BA5
330
213C
100
AcDbEntity
  8
AM_5
100
AcDbLine
 10
-67.00000000000007
 20
-4.250000000000004
 30
0.0
 11
-67.00000000000007
 21
-5.500000000000004
 31
0.0
  0
LINE
  5
2BA6
330
213C
100
AcDbEntity
  8
AM_5
100
AcDbLine
 10
-67.00000000000007
 20
4.25
 30
0.0
 11
-67.00000000000007
 21
5.5
 31
0.0
  0
LINE
  5
2BA7
330
213C
100
AcDbEntity
  8
AM_5
100
AcDbLine
 10
-67.00000000000007
 20
-3.000000000000003
 30
0.0
 11
-67.00000000000007
 21
3.0
 31
0.0
  0
INSERT
  5
2BA8
330
213C
100
AcDbEntity
  8
AM_5
100
AcDbBlockReference
  2
_OPEN30
 10
-67.00000000000007
 20
-3.000000000000003
 30
0.0
 41
1.25
 42
1.25
 43
1.25
 50
90.0
  0
INSERT
  5
2BA9
330
213C
100
AcDbEntity
  8
AM_5
100
AcDbBlockReference
  2
_OPEN30
 10
-67.00000000000007
 20
3.0
 30
0.0
 41
1.25
 42
1.25
 43
1.25
 50
270.0
  0
MTEXT
  5
2BAA
330
213C
100
AcDbEntity
  8
AM_5
 62
     2
100
AcDbMText
 10
-68.55000000000007
 20
-0.0000000000000184
 30
0.0
 40
1.6
 41
0.0
 71
     5
 72
     1
  1
%%c6
  7
ASAMI
 11
0.0000000000000001
 21
1.0
 31
0.0
1001
ACAD
1000
MTEXTBEGIN
1070
    73
1070
     1
1070
    44
1040
1.0
1070
    74
1070
     0
1000
MTEXTEND
  0
POINT
  5
2BAB
330
213C
100
AcDbEntity
  8
DEFPOINTS
 62
     0
100
AcDbPoint
 10
-59.50000000000007
 20
-3.000000000000006
 30
0.0
  0
POINT
  5
2BAC
330
213C
100
AcDbEntity
  8
DEFPOINTS
 62
     0
100
AcDbPoint
 10
-59.50000000000007
 20
2.999999999999998
 30
0.0
  0
POINT
  5
2BAD
330
213C
100
AcDbEntity
  8
DEFPOINTS
 62
     0
100
AcDbPoint
 10
-67.00000000000007
 20
3.0
 30
0.0
  0
ENDBLK
  5
2149
330
213C
100
AcDbEntity
  8
0
100
AcDbBlockEnd
  0
BLOCK
  5
21EB
330
21E1
100
AcDbEntity
  8
0
100
AcDbBlockBegin
  2
*D10
 70
     1
 10
0.0
 20
0.0
 30
0.0
  3
*D10
  1

  0
LINE
  5
2BFF
330
21E1
100
AcDbEntity
  8
AM_5
100
AcDbLine
 10
-19.99953106540948
 20
-2.644535187966032
 30
0.0
 11
-19.99953106540948
 21
-16.87500000000005
 31
0.0
  0
LINE
  5
2C00
330
21E1
100
AcDbEntity
  8
AM_5
100
AcDbLine
 10
-0.0000000000000569
 20
-0.5000000000000023
 30
0.0
 11
-0.0000000000000579
 21
-16.87500000000005
 31
0.0
  0
LINE
  5
2C01
330
21E1
100
AcDbEntity
  8
AM_5
100
AcDbLine
 10
-18.74953106540948
 20
-16.37500000000005
 30
0.0
 11
-1.250000000000057
 21
-16.37500000000005
 31
0.0
  0
INSERT
  5
2C02
330
21E1
100
AcDbEntity
  8
AM_5
100
AcDbBlockReference
  2
_OPEN30
 10
-19.99953106540948
 20
-16.37500000000005
 30
0.0
 41
1.25
 42
1.25
 43
1.25
 50
180.0
  0
INSERT
  5
2C03
330
21E1
100
AcDbEntity
  8
AM_5
100
AcDbBlockReference
  2
_OPEN30
 10
-0.0000000000000578
 20
-16.37500000000005
 30
0.0
 41
1.25
 42
1.25
 43
1.25
  0
MTEXT
  5
2C04
330
21E1
100
AcDbEntity
  8
AM_5
 62
     2
100
AcDbMText
 10
-9.99976553270477
 20
-14.82500000000005
 30
0.0
 40
1.6
 41
0.0
 71
     5
 72
     1
  1
20
  7
ASAMI
1001
ACAD
1000
MTEXTBEGIN
1070
    73
1070
     1
1070
    44
1040
1.0
1070
    74
1070
     0
1000
MTEXTEND
  0
POINT
  5
2C05
330
21E1
100
AcDbEntity
  8
DEFPOINTS
 62
     0
100
AcDbPoint
 10
-19.99953106540948
 20
-2.144535187966032
 30
0.0
  0
POINT
  5
2C06
330
21E1
100
AcDbEntity
  8
DEFPOINTS
 62
     0
100
AcDbPoint
 10
-0.0000000000000568
 20
-0.0000000000000022
 30
0.0
  0
POINT
  5
2C07
330
21E1
100
AcDbEntity
  8
DEFPOINTS
 62
     0
100
AcDbPoint
 10
-0.0000000000000578
 20
-16.37500000000005
 30
0.0
  0
ENDBLK
  5
21EC
330
21E1
100
AcDbEntity
  8
0
100
AcDbBlockEnd
  0
BLOCK
  5
2A5B
330
2A4B
100
AcDbEntity
  8
0
100
AcDbBlockBegin
  2
*D11
 70
     1
 10
0.0
 20
0.0
 30
0.0
  3
*D11
  1

  0
ARC
  5
2C82
330
2A4B
100
AcDbEntity
  8
AM_5
100
AcDbCircle
 10
4.512618298154377
 20
-0.0000000000000024
 30
0.0
 40
20.60592400773098
100
AcDbArc
 50
173.0475614390039
 51
176.5237807195019
  0
ARC
  5
2C83
330
2A4B
100
AcDbEntity
  8
AM_5
100
AcDbCircle
 10
4.512618298154377
 20
-0.0000000000000024
 30
0.0
 40
20.60592400773098
100
AcDbArc
 50
188.476219280498
 51
191.952438560996
  0
ARC
  5
2C84
330
2A4B
100
AcDbEntity
  8
AM_5
100
AcDbCircle
 10
4.512618298154377
 20
-0.0000000000000024
 30
0.0
 40
20.60592400773098
100
AcDbArc
 50
180.0
 51
185.0
  0
INSERT
  5
2C85
330
2A4B
100
AcDbEntity
  8
AM_5
100
AcDbBlockReference
  2
_OPEN30
 10
-16.09330570957661
 20
0.0000000000000031
 30
0.0
 41
1.25
 42
1.25
 43
1.25
 50
268.2618903597509
  0
INSERT
  5
2C86
330
2A4B
100
AcDbEntity
  8
AM_5
100
AcDbBlockReference
  2
_OPEN30
 10
-16.01489394762864
 20
-1.79592461189559
 30
0.0
 41
1.25
 42
1.25
 43
1.25
 50
96.73810964024902
  0
MTEXT
  5
2C87
330
2A4B
100
AcDbEntity
  8
AM_5
 62
     2
100
AcDbMText
 10
-12.78631600716766
 20
-3.594855580337479
 30
0.0
 40
1.6
 41
0.0
 71
     5
 72
     1
  1
5°
  7
ASAMI
  0
POINT
  5
2C88
330
2A4B
100
AcDbEntity
  8
DEFPOINTS
 62
     0
100
AcDbPoint
 10
-16.08458837511896
 20
-0.5993175042067725
 30
0.0
  0
POINT
  5
2C89
330
2A4B
100
AcDbEntity
  8
DEFPOINTS
 62
     0
100
AcDbPoint
 10
-19.99953106540949
 20
-2.144535187966033
 30
0.0
  0
POINT
  5
2C8A
330
2A4B
100
AcDbEntity
  8
DEFPOINTS
 62
     0
100
AcDbPoint
 10
-62.38487321524643
 20
-0.0000000000000053
 30
0.0
  0
POINT
  5
2C8B
330
2A4B
100
AcDbEntity
  8
DEFPOINTS
 62
     0
100
AcDbPoint
 10
1.329529889074521
 20
-0.0000000000000036
 30
0.0
  0
POINT
  5
2C8C
330
2A4B
100
AcDbEntity
  8
DEFPOINTS
 62
     0
100
AcDbPoint
 10
-6.999531776987804
 20
-1.007182624384057
 30
0.0
  0
ENDBLK
  5
2A5C
330
2A4B
100
AcDbEntity
  8
0
100
AcDbBlockEnd
  0
ENDSEC
  0
SECTION
  2
ENTITIES
  0
LINE
  5
C50
330
1F
100
AcDbEntity
  8
AM_7
100
AcDbLine
 10
-62.38487321524641
 20
-0.0000000000000036
 30
0.0
 11
1.32952988907452
 21
-0.0000000000000036
 31
0.0
1001
GENIUS_GENODEF_13
1002
{
1000
HIER
1070
     0
1002
}
1002
{
1000
MANEDIT
1070
     0
1002
}
1002
{
1000
NOSEL
1070
     0
1002
}
1002
{
1000
BEHIND
1070
     0
1002
}
1002
{
1000
REACTOR
1002
}
1001
GENIUS_GENOBJ-N-CEN_13
1002
{
1000
OWNER
1000
GEN
1002
}
  0
TEXT
  5
C58
330
1F
100
AcDbEntity
  8
AM_6
100
AcDbText
 10
-45.71428571428577
 20
-39.36564934407758
 30
0.0
 40
2.5
  1
PSNB2020ZX-50
 50
0.0000000000002036
 72
     4
 11
-30.00000000000006
 21
-38.11564934407752
 31
0.0
100
AcDbText
  0
DIMENSION
  5
194C
330
1F
100
AcDbEntity
  8
AM_5
100
AcDbDimension
  2
*D5
 10
7.000937428969165
 20
0.9999999999964611
 30
0.0
 11
5.450937428969165
 21
5.507142857139319
 31
0.0
 70
    32
  1
%%c<>
  3
AM_JIS
100
AcDbAlignedDimension
 13
-0.9990621308153675
 23
-1.00000000000048
 33
0.0
 14
-0.9990621308153674
 24
0.9999999999964634
 34
0.0
 50
90.00000000000003
100
AcDbRotatedDimension
1001
ACAD
1000
DSTYLE
1002
{
1070
    48
1040
0.05
1070
    47
1040
0.0
1070
   274
1070
     1
1070
   272
1070
     2
1002
}
1001
GENIUS_GENDTOL_13
1000

1000
H7
1000

1040
0.0
  0
DIMENSION
  5
195B
330
1F
100
AcDbEntity
  8
AM_5
100
AcDbDimension
  2
*D6
 10
-0.0000000000000575
 20
-10.3750000000001
 30
0.0
 11
-2.500000000000037
 21
-8.825000000000107
 31
0.0
 70
    32
  1
<>
  3
AM_JIS
100
AcDbAlignedDimension
 13
-5.000000000000015
 23
-0.9558014554845613
 33
0.0
 14
-0.0000000000000568
 24
-0.0056795556493648
 34
0.0
 50
359.9999999999988
100
AcDbRotatedDimension
1001
GENIUS_GENDTOL_13
1000

1000
H7
1000

1040
0.0
  0
LINE
  5
1C97
330
1F
100
AcDbEntity
  8
AM_11
 48
0.4
100
AcDbLine
 10
-5.000000000000015
 20
1.000000000003462
 30
0.0
 11
-5.000000000000015
 21
-0.9999999999965375
 31
0.0
  0
ARC
  5
1C9A
330
1F
100
AcDbEntity
  8
AM_11
100
AcDbCircle
 10
-0.9999999999965499
 20
-0.0000000000000771
 30
0.0
 40
0.9999999999965002
100
AcDbArc
 50
270.0
 51
90.0
  0
LINE
  5
1CA1
330
1F
100
AcDbEntity
  8
AM_11
100
AcDbLine
 10
-5.000000000000015
 20
-0.9999999999965373
 30
0.0
 11
-0.9990621308153675
 21
-0.9999999999965373
 31
0.0
1001
GENIUS_GENODEF_13
1002
{
1000
HIER
1070
     0
1002
}
1002
{
1000
MANEDIT
1070
     0
1002
}
1002
{
1000
NOSEL
1070
     0
1002
}
1002
{
1000
BEHIND
1070
     0
1002
}
1002
{
1000
REACTOR
1002
}
1001
GENIUS_GENOBJ-N-CEN_13
1002
{
1000
OWNER
1000
GEN
1002
}
  0
LINE
  5
1CB1
330
1F
100
AcDbEntity
  8
AM_11
100
AcDbLine
 10
-5.000000000000015
 20
1.000000000003462
 30
0.0
 11
-0.9990621308153675
 21
1.000000000003462
 31
0.0
1001
GENIUS_GENODEF_13
1002
{
1000
HIER
1070
     0
1002
}
1002
{
1000
MANEDIT
1070
     0
1002
}
1002
{
1000
NOSEL
1070
     0
1002
}
1002
{
1000
BEHIND
1070
     0
1002
}
1002
{
1000
REACTOR
1002
}
1001
GENIUS_GENOBJ-N-CEN_13
1002
{
1000
OWNER
1000
GEN
1002
}
  0
DIMENSION
  5
1EF8
330
1F
100
AcDbEntity
  8
AM_5
100
AcDbDimension
  2
*D7
 10
-0.9990621308153684
 20
-0.0000000000000365
 30
0.0
 11
3.364675027560538
 21
-6.967760455673999
 31
0.0
 70
   164
  1
<>
  3
AM_JIS$4
100
AcDbRadialDimension
 15
-0.4682861080779671
 25
-0.8475121318778445
 35
0.0
 40
0.0
1001
GENIUS_GENDTOL_13
1000

1000
h7
1000

1040
0.0
1001
ACAD
1000
DSTYLE
1002
{
1070
    78
1070
     0
1070
   271
1070
     1
1070
   288
1070
     1
1070
   289
1070
     0
1070
    74
1070
     0
1002
}
  0
LINE
  5
2062
330
1F
100
AcDbEntity
  8
AM_0
100
AcDbLine
 10
-6.999531065409485
 20
0.9977000812865384
 30
0.0
 11
-6.999531065409485
 21
-1.007182574625653
 31
0.0
  0
LINE
  5
206E
330
1F
100
AcDbEntity
  8
AM_0
100
AcDbLine
 10
-6.999531065409485
 20
0.9977000812865377
 30
0.0
 11
-5.698126449357837
 21
0.9977000812865377
 31
0.0
  0
LINE
  5
2070
330
1F
100
AcDbEntity
  8
AM_0
100
AcDbLine
 10
-6.999531065409485
 20
-1.007209824399439
 30
0.0
 11
-5.697754243004432
 21
-1.007209824399439
 31
0.0
  0
LINE
  5
2128
330
1F
100
AcDbEntity
  8
AM_0
100
AcDbLine
 10
-59.50000000000007
 20
2.999999999999993
 30
0.0
 11
-20.80000000000006
 21
2.999999999999993
 31
0.0
1001
GENIUS_GENODEF_13
1002
{
1000
HIER
1070
     0
1002
}
1002
{
1000
MANEDIT
1070
     0
1002
}
1002
{
1000
NOSEL
1070
     0
1002
}
1002
{
1000
BEHIND
1070
     0
1002
}
1002
{
1000
REACTOR
1002
}
1001
GENIUS_GENOBJ-N-CEN_13
1002
{
1000
OWNER
1000
GEN
1002
}
  0
LINE
  5
2129
330
1F
100
AcDbEntity
  8
AM_0
100
AcDbLine
 10
-59.50000000000007
 20
-3.000000000000006
 30
0.0
 11
-20.80000000000006
 21
-3.000000000000006
 31
0.0
1001
GENIUS_GENODEF_13
1002
{
1000
HIER
1070
     0
1002
}
1002
{
1000
MANEDIT
1070
     0
1002
}
1002
{
1000
NOSEL
1070
     0
1002
}
1002
{
1000
BEHIND
1070
     0
1002
}
1002
{
1000
REACTOR
1002
}
1001
GENIUS_GENOBJ-N-CEN_13
1002
{
1000
OWNER
1000
GEN
1002
}
  0
DIMENSION
  5
212A
330
1F
100
AcDbEntity
  8
AM_5
100
AcDbDimension
  2
*D8
 10
-0.0000000000000582
 20
-22.37499999999998
 30
0.0
 11
-30.00000000000006
 21
-20.82499999999998
 31
0.0
 70
    32
  1
<>
  3
AM_JIS
100
AcDbAlignedDimension
 13
-60.00000000000007
 23
-2.250000000000006
 33
0.0
 14
-0.0000000000000568
 24
-0.0000000000000022
 34
0.0
 50
0.0000000000003053
100
AcDbRotatedDimension
1001
GENIUS_GENDTOL_13
1000

1000
H7
1000

1040
0.0
  0
LINE
  5
2137
330
1F
100
AcDbEntity
  8
AM_0
100
AcDbLine
 10
-60.00000000000007
 20
2.249999999999993
 30
0.0
 11
-59.50000000000007
 21
2.999999999999993
 31
0.0
1001
GENIUS_GENFIL_13
1070
     0
1040
0.5
1040
0.5
1040
0.4999999999999716
1040
45.0
1002
{
1002
}
  0
LINE
  5
2138
330
1F
100
AcDbEntity
  8
AM_0
100
AcDbLine
 10
-60.00000000000007
 20
-2.250000000000006
 30
0.0
 11
-59.50000000000007
 21
-3.000000000000006
 31
0.0
1001
GENIUS_GENFIL_13
1070
     0
1040
0.5
1040
0.5
1040
0.4999999999999716
1040
45.00000000000036
1002
{
1002
}
  0
LINE
  5
2139
330
1F
100
AcDbEntity
  8
0
100
AcDbLine
 10
-59.50000000000007
 20
-3.000000000000006
 30
0.0
 11
-59.50000000000007
 21
2.999999999999993
 31
0.0
  0
LINE
  5
213A
330
1F
100
AcDbEntity
  8
AM_0
100
AcDbLine
 10
-60.00000000000007
 20
-2.250000000000006
 30
0.0
 11
-60.00000000000007
 21
2.249999999999993
 31
0.0
  0
DIMENSION
  5
213B
330
1F
100
AcDbEntity
  8
AM_5
100
AcDbDimension
  2
*D9
 10
-67.00000000000007
 20
3.0
 30
0.0
 11
-67.00000000000007
 21
-0.0000000000000186
 31
0.0
 70
   160
  1
%%c<>
  3
AM_JIS
100
AcDbAlignedDimension
 13
-59.50000000000007
 23
-3.000000000000006
 33
0.0
 14
-59.50000000000007
 24
2.999999999999998
 34
0.0
 50
270.0
100
AcDbRotatedDimension
1001
ACAD
1000
DSTYLE
1002
{
1070
    48
1040
0.1
1070
    47
1040
0.1
1070
   274
1070
     2
1070
   272
1070
     3
1002
}
1001
GENIUS_GENDTOL_13
1000

1000
h6
1000

1040
0.0
  0
LINE
  5
2165
330
1F
100
AcDbEntity
  8
AM_0
100
AcDbLine
 10
-20.80000000000006
 20
-3.000000000000006
 30
0.0
 11
-20.80000000000006
 21
2.999999999999993
 31
0.0
  0
LINE
  5
2167
330
1F
100
AcDbEntity
  8
AM_0
100
AcDbLine
 10
-20.80000000000006
 20
-3.000000000000006
 30
0.0
 11
-19.99953106540948
 21
-2.1995310654094
 31
0.0
  0
LINE
  5
2169
330
1F
100
AcDbEntity
  8
AM_0
100
AcDbLine
 10
-19.99953106540948
 20
-2.144535187966032
 30
0.0
 11
-6.999531776987803
 21
-1.007182624384057
 31
0.0
1001
GENIUS_GENODEF_13
1002
{
1000
HIER
1070
     0
1002
}
1002
{
1000
MANEDIT
1070
     0
1002
}
1002
{
1000
NOSEL
1070
     0
1002
}
1002
{
1000
BEHIND
1070
     0
1002
}
1002
{
1000
REACTOR
1002
}
1001
GENIUS_GENOBJ-N-CEN_13
1002
{
1000
OWNER
1000
GEN
1002
}
  0
LINE
  5
21C6
330
1F
100
AcDbEntity
  8
AM_0
100
AcDbLine
 10
-19.99953106540949
 20
2.138715188345698
 30
0.0
 11
-6.999467234040135
 21
1.001356977987488
 31
0.0
1001
GENIUS_GENODEF_13
1002
{
1000
HIER
1070
     0
1002
}
1002
{
1000
MANEDIT
1070
     0
1002
}
1002
{
1000
NOSEL
1070
     0
1002
}
1002
{
1000
BEHIND
1070
     0
1002
}
1002
{
1000
REACTOR
1002
}
1001
GENIUS_GENOBJ-N-CEN_13
1002
{
1000
OWNER
1000
GEN
1002
}
  0
LINE
  5
21C7
330
1F
100
AcDbEntity
  8
AM_0
100
AcDbLine
 10
-20.80000000000006
 20
2.999999999999999
 30
0.0
 11
-19.99953106540949
 21
2.199531065409425
 31
0.0
  0
DIMENSION
  5
21E0
330
1F
100
AcDbEntity
  8
AM_5
100
AcDbDimension
  2
*D10
 10
-0.0000000000000578
 20
-16.37500000000005
 30
0.0
 11
-9.99976553270477
 21
-14.82500000000005
 31
0.0
 70
    32
  1
<>
  3
AM_JIS
100
AcDbAlignedDimension
 13
-19.99953106540948
 23
-2.144535187966032
 33
0.0
 14
-0.0000000000000568
 24
-0.0000000000000022
 34
0.0
 50
0.0000000000001132
100
AcDbRotatedDimension
1001
GENIUS_GENDTOL_13
1000

1000
h7
1000

1040
0.0
1001
ACAD
1000
DSTYLE
1002
{
1070
   271
1070
     1
1002
}
  0
LINE
  5
2597
330
1F
100
AcDbEntity
  8
AM_0
100
AcDbLine
 10
-6.682831263349592
 20
0.5629617711884971
 30
0.0
 11
-5.698126449357837
 21
0.9952587533274009
 31
0.0
  0
SPLINE
  5
259A
330
1F
100
AcDbEntity
  8
AM_0
100
AcDbSpline
210
0.0
220
0.0
230
1.0
 70
     8
 71
     3
 72
     8
 73
     4
 74
     0
 42
0.0000000001
 43
0.0000000001
 40
4.071346735624547
 40
4.071346735624547
 40
4.071346735624547
 40
4.071346735624547
 40
6.816591828337566
 40
6.816591828337566
 40
6.816591828337566
 40
6.816591828337566
 10
-5.697754243004432
 20
-0.8345947337591201
 30
0.0
 10
-6.029858820977403
 20
-0.6051363078368511
 30
0.0
 10
-6.356822415196838
 20
-0.4259240037681391
 30
0.0
 10
-6.682831263349592
 20
-0.2413466431164808
 30
0.0
  0
SPLINE
  5
259C
330
1F
100
AcDbEntity
  8
AM_0
100
AcDbSpline
210
0.0
220
0.0
230
1.0
 70
     8
 71
     3
 72
     8
 73
     4
 74
     0
 42
0.0000000001
 43
0.0000000001
 40
3.359485258353905
 40
3.359485258353905
 40
3.359485258353905
 40
3.359485258353905
 40
7.218994763998551
 40
7.218994763998551
 40
7.218994763998551
 40
7.218994763998551
 10
-6.682831263349592
 20
0.5629617710354871
 30
0.0
 10
-6.199373497416713
 20
0.4135843682677692
 30
0.0
 10
-5.72434189999324
 20
0.2044215482292877
 30
0.0
 10
-5.249310302569766
 20
-0.0047412718092137
 30
0.0
  0
SPLINE
  5
259E
330
1F
100
AcDbEntity
  8
AM_0
100
AcDbSpline
210
0.0
220
0.0
230
1.0
 70
     8
 71
     3
 72
     8
 73
     4
 74
     2
 42
0.0000000001
 43
0.0000000001
 44
0.0000000001
 12
-1.0
 22
0.0000000000000001
 32
0.0
 40
0.0
 40
0.0
 40
0.0
 40
0.0
 40
2.830978339219308
 40
2.830978339219308
 40
2.830978339219308
 40
2.830978339219308
 10
-2.528611255914455
 20
-0.7871957782549306
 30
0.0
 10
-3.472270702320891
 20
-0.7871957782549305
 30
0.0
 10
-4.360790502445375
 20
-0.3959685250320472
 30
0.0
 10
-5.249310302569859
 20
-0.004741271809164
 30
0.0
 11
-2.528611255914455
 21
-0.7871957782549306
 31
0.0
 11
-5.249310302569859
 21
-0.004741271809164
 31
0.0
  0
SPLINE
  5
25A0
330
1F
100
AcDbEntity
  8
AM_0
100
AcDbSpline
210
0.0
220
0.0
230
1.0
 70
     8
 71
     3
 72
     8
 73
     4
 74
     2
 42
0.0000000001
 43
0.0000000001
 44
0.0000000001
 12
1.0
 22
-0.0000000000000002
 32
0.0
 40
0.0
 40
0.0
 40
0.0
 40
0.0
 40
2.897999309858686
 40
2.897999309858686
 40
2.897999309858686
 40
2.897999309858686
 10
-5.698126449357835
 20
0.9952587533274009
 30
0.0
 10
-4.73212667940494
 20
0.9952587533274005
 30
0.0
 10
-3.855126564386127
 20
0.4952587533291524
 30
0.0
 10
-2.978126449367315
 20
-0.0047412466690961
 30
0.0
 11
-5.698126449357835
 21
0.9952587533274009
 31
0.0
 11
-2.978126449367315
 21
-0.0047412466690961
 31
0.0
  0
SPLINE
  5
25A1
330
1F
100
AcDbEntity
  8
AM_0
100
AcDbSpline
210
0.0
220
0.0
230
1.0
 70
     8
 71
     3
 72
     8
 73
     4
 74
     2
 42
0.0000000001
 43
0.0000000001
 44
0.0000000001
 12
0.9998476951563912
 22
0.0174524064372833
 32
0.0
 40
0.0
 40
0.0
 40
0.0
 40
0.0
 40
3.107835512726138
 40
3.107835512726138
 40
3.107835512726138
 40
3.107835512726138
 10
-5.047510418355305
 20
0.9226220077854957
 30
0.0
 10
-4.011723026913834
 20
0.9407017439549354
 30
0.0
 10
-3.045752661735495
 20
0.4703508719774583
 30
0.0
 10
-2.079782296557156
 20
-0.000000000000019
 30
0.0
 11
-5.047510418355305
 21
0.9226220077854957
 31
0.0
 11
-2.079782296557156
 21
-0.000000000000019
 31
0.0
  0
LINE
  5
25A2
330
1F
100
AcDbEntity
  8
AM_0
100
AcDbLine
 10
-2.28596136829416
 20
-0.7739646352363442
 30
0.0
 11
-4.27665032114998
 21
-0.8434810252888146
 31
0.0
  0
SPLINE
  5
25A3
330
1F
100
AcDbEntity
  8
AM_0
100
AcDbSpline
210
0.0
220
0.0
230
1.0
 70
     8
 71
     3
 72
     8
 73
     4
 74
     0
 42
0.0000000001
 43
0.0000000001
 40
0.0
 40
0.0
 40
0.0
 40
0.0
 40
1.389839699216864
 40
1.389839699216864
 40
1.389839699216864
 40
1.389839699216864
 10
-5.352352606642596
 20
-0.9655520729892234
 30
0.0
 10
-5.170674214562693
 20
-0.9655520729892234
 30
0.0
 10
-4.991933697474826
 20
-0.9484103731119592
 30
0.0
 10
-4.815576102235914
 20
-0.9173649736980468
 30
0.0
  0
SPLINE
  5
25A6
330
1F
100
AcDbEntity
  8
AM_0
100
AcDbSpline
210
0.0
220
0.0
230
1.0
 70
     8
 71
     3
 72
     8
 73
     4
 74
     0
 42
0.0000000001
 43
0.0000000001
 40
0.0
 40
0.0
 40
0.0
 40
0.0
 40
1.293721832890842
 40
1.293721832890842
 40
1.293721832890842
 40
1.293721832890842
 10
-5.697754243004431
 20
-1.004741271949183
 30
0.0
 10
-5.528640277897024
 20
-1.004741271949183
 30
0.0
 10
-5.362252099337559
 20
-0.9894241111099095
 30
0.0
 10
-5.198112622088969
 20
-0.9614707004945348
 30
0.0
  0
SPLINE
  5
25AE
330
1F
100
AcDbEntity
  8
AM_0
100
AcDbSpline
210
0.0
220
0.0
230
1.0
 70
     8
 71
     3
 72
     8
 73
     4
 74
     0
 42
0.0000000001
 43
0.0000000001
 40
0.0
 40
0.0
 40
0.0
 40
0.0
 40
1.748655602797241
 40
1.748655602797241
 40
1.748655602797241
 40
1.748655602797241
 10
-4.950585255670439
 20
-0.9156149244732864
 30
0.0
 10
-4.722002823900282
 20
-0.9156149244732864
 30
0.0
 10
-4.49769850216041
 20
-0.88949002335409
 30
0.0
 10
-4.276650321150071
 20
-0.8434810252888146
 30
0.0
  0
SPLINE
  5
25AF
330
1F
100
AcDbEntity
  8
AM_0
100
AcDbSpline
210
0.0
220
0.0
230
1.0
 70
     8
 71
     3
 72
     8
 73
     4
 74
     0
 42
0.0000000001
 43
0.0000000001
 40
0.0
 40
0.0
 40
0.0
 40
0.0
 40
2.238610194515266
 40
2.238610194515266
 40
2.238610194515266
 40
2.238610194515266
 10
-2.529080190504985
 20
-0.7824545315858535
 30
0.0
 10
-2.23645140686719
 20
-0.7824545315858535
 30
0.0
 10
-1.949124962059131
 20
-0.7448333352985847
 30
0.0
 10
-1.665456600869739
 20
-0.6812572752664158
 30
0.0
  0
LINE
  5
25B0
330
1F
100
AcDbEntity
  8
AM_0
100
AcDbLine
 10
-4.07087526063566
 20
0.8435523215128123
 30
0.0
 11
-1.389017640383159
 21
0.8129141918069558
 31
0.0
  0
ARC
  5
25B1
330
1F
100
AcDbEntity
  8
AM_0
100
AcDbCircle
 10
-2.064929418234977
 20
-1.965484213492229
 30
0.0
 40
2.850800185172429
100
AcDbArc
 50
43.5865880745465
 51
77.03581367599419
  0
LINE
  5
25B2
330
1F
100
AcDbEntity
  8
AM_0
100
AcDbLine
 10
-0.8409812643390715
 20
0.2458075159746636
 30
0.0
 11
-0.1613999999994753
 21
-0.071086431925527
 31
0.0
  0
ARC
  5
25B3
330
1F
100
AcDbEntity
  8
AM_0
100
AcDbCircle
 10
-0.9956021020391439
 20
-0.0936827327118172
 30
0.0
 40
0.9999999999965009
100
AcDbArc
 50
5.375507822153728
 51
90.25198180382437
  0
SPLINE
  5
25B4
330
1F
100
AcDbEntity
  8
AM_0
100
AcDbSpline
210
0.0
220
0.0
230
1.0
 70
     8
 71
     3
 72
     8
 73
     4
 74
     0
 42
0.0000000001
 43
0.0000000001
 40
3.790408995970492
 40
3.790408995970492
 40
3.790408995970492
 40
3.790408995970492
 40
5.485524909568358
 40
5.485524909568358
 40
5.485524909568358
 40
5.485524909568358
 10
-0.9999999999938758
 20
0.9063075964847323
 30
0.0
 10
-1.108273055013406
 20
0.8797082093484528
 30
0.0
 10
-1.215646717421415
 20
0.8480560351409446
 30
0.0
 10
-1.322263476329745
 20
0.8121515775946429
 30
0.0
  0
SPLINE
  5
25B5
330
1F
100
AcDbEntity
  8
AM_0
100
AcDbSpline
210
0.0
220
0.0
230
1.0
 70
     8
 71
     3
 72
     8
 73
     4
 74
     2
 42
0.0000000001
 43
0.0000000001
 44
0.0000000001
 12
0.6039933128154179
 22
-0.7969893839156561
 32
0.0
 40
0.0
 40
0.0
 40
0.0
 40
0.0
 40
0.4000713093579938
 40
0.4000713093579938
 40
0.4000713093579938
 40
0.4000713093579938
 10
-0.9999999999937905
 20
0.9063075964847323
 30
0.0
 10
-0.9194532014932782
 20
0.8000234010288799
 30
0.0
 10
-1.154235420938219
 20
0.8064687964179178
 30
0.0
 10
-1.389017640383159
 20
0.8129141918069558
 30
0.0
 11
-0.9999999999937905
 21
0.9063075964847323
 31
0.0
 11
-1.389017640383159
 21
0.8129141918069558
 31
0.0
  0
SPLINE
  5
25B6
330
1F
100
AcDbEntity
  8
AM_0
100
AcDbSpline
210
0.0
220
0.0
230
1.0
 70
     8
 71
     3
 72
     8
 73
     4
 74
     2
 42
0.0000000001
 43
0.0000000001
 44
0.0000000001
 12
-0.9063077870366493
 22
0.4226182617407013
 32
0.0
 13
0.9900295272873
 23
-0.1408599840241551
 33
0.0
 40
0.0
 40
0.0
 40
0.0
 40
0.0
 40
0.7773442099208507
 40
0.7773442099208507
 40
0.7773442099208507
 40
0.7773442099208507
 10
-0.8519578160821488
 20
0.2509259661125563
 30
0.0
 10
-1.086795519635188
 20
0.3604325857028725
 30
0.0
 10
-1.645548880612405
 20
0.8494130894705293
 30
0.0
 10
-1.389017640383252
 20
0.8129141918069558
 30
0.0
 11
-0.8519578160821488
 21
0.2509259661125563
 31
0.0
 11
-1.389017640383252
 21
0.8129141918069558
 31
0.0
  0
LINE
  5
25B8
330
1F
100
AcDbEntity
  8
AM_0
100
AcDbLine
 10
-0.0000000000000498
 20
-0.0000000000000109
 30
0.0
 11
-0.1613999999994753
 21
-0.071086431925527
 31
0.0
  0
SPLINE
  5
25B9
330
1F
100
AcDbEntity
  8
AM_0
100
AcDbSpline
210
0.0
220
0.0
230
1.0
 70
     8
 71
     3
 72
     8
 73
     4
 74
     2
 42
0.0000000001
 43
0.0000000001
 44
0.0000000001
 12
-0.0000000000000001
 22
-1.0
 32
0.0
 13
-1.0
 23
0.0000000000000001
 33
0.0
 40
0.0
 40
0.0
 40
0.0
 40
0.0
 40
0.1750953291138902
 40
0.1750953291138902
 40
0.1750953291138902
 40
0.1750953291138902
 10
-0.7386664588618011
 20
-0.4872905779697922
 30
0.0
 10
-0.7386664588618011
 20
-0.5456556876744222
 30
0.0
 10
-0.8245085981799126
 20
-0.5866014213193202
 30
0.0
 10
-0.8828737078845428
 20
-0.5866014213193202
 30
0.0
 11
-0.7386664588618011
 21
-0.4872905779697922
 31
0.0
 11
-0.8828737078845428
 21
-0.5866014213193202
 31
0.0
  0
ARC
  5
25BB
330
1F
100
AcDbEntity
  8
AM_0
100
AcDbCircle
 10
-0.1148256812965591
 20
-0.0265354375895844
 30
0.0
 40
0.7755466556822844
100
AcDbArc
 50
159.4415606715376
 51
216.4487634976257
  0
ARC
  5
25BC
330
1F
100
AcDbEntity
  8
AM_0
100
AcDbCircle
 10
-0.9956021020391439
 20
0.0936827327117295
 30
0.0
 40
0.9999999999965009
100
AcDbArc
 50
269.7480181961756
 51
354.6244921778462
  0
SPLINE
  5
25BE
330
1F
100
AcDbEntity
  8
AM_0
100
AcDbSpline
210
0.0
220
0.0
230
1.0
 70
     8
 71
     3
 72
     8
 73
     4
 74
     2
 42
0.0000000001
 43
0.0000000001
 44
0.0000000001
 12
0.0000000000000001
 22
1.0
 32
0.0
 40
0.0
 40
0.0
 40
0.0
 40
0.0
 40
0.3404858392685237
 40
0.3404858392685237
 40
0.3404858392685237
 40
0.3404858392685237
 10
-0.9999999999964266
 20
-0.9063075964841308
 30
0.0
 10
-0.9999999999964266
 20
-0.7928123167279563
 30
0.0
 10
-0.9414368539404845
 20
-0.6897068690236382
 30
0.0
 10
-0.8828737078845428
 20
-0.5866014213193202
 30
0.0
 11
-0.9999999999964266
 21
-0.9063075964841308
 31
0.0
 11
-0.8828737078845428
 21
-0.5866014213193202
 31
0.0
  0
SPLINE
  5
25C0
330
1F
100
AcDbEntity
  8
AM_0
100
AcDbSpline
210
0.0
220
0.0
230
1.0
 70
     8
 71
     3
 72
     8
 73
     4
 74
     0
 42
0.0000000001
 43
0.0000000001
 40
7.981245920543044
 40
7.981245920543044
 40
7.981245920543044
 40
7.981245920543044
 40
14.43905044399483
 40
14.43905044399483
 40
14.43905044399483
 40
14.43905044399483
 10
-0.8828737078845428
 20
-0.5866014213193202
 30
0.0
 10
-1.286341817283635
 20
-0.4200788637072654
 30
0.0
 10
-1.683062056920399
 20
-0.2100394318536635
 30
0.0
 10
-2.079782296557156
 20
-0.000000000000019
 30
0.0
  0
SPLINE
  5
25C1
330
1F
100
AcDbEntity
  8
AM_0
100
AcDbSpline
210
0.0
220
0.0
230
1.0
 70
     8
 71
     3
 72
     8
 73
     4
 74
     0
 42
0.0000000001
 43
0.0000000001
 40
3.7904089959839
 40
3.7904089959839
 40
3.7904089959839
 40
3.7904089959839
 40
14.48999654934396
 40
14.48999654934396
 40
14.48999654934396
 40
14.48999654934396
 10
-0.9999999999964266
 20
-0.9063075964841308
 30
0.0
 10
-1.683420539299249
 20
-0.7384120152745885
 30
0.0
 10
-2.331007961628594
 20
-0.3692060076373073
 30
0.0
 10
-2.978595383957846
 20
-0.000000000000019
 30
0.0
  0
ARC
  5
25C2
330
1F
100
AcDbEntity
  8
AM_0
100
AcDbCircle
 10
-0.8563213698366503
 20
0.2843246611729905
 30
0.0
 40
0.7805336349920849
100
AcDbArc
 50
278.6696104128123
 51
332.9129476995508
  0
LINE
  5
25E7
330
1F
100
AcDbEntity
  8
AM_0
100
AcDbLine
 10
-6.682459056996187
 20
-0.2415573736831016
 30
0.0
 11
-5.697754243004432
 21
0.1907396084558023
 31
0.0
  0
SPLINE
  5
2657
330
1F
100
AcDbEntity
  8
AM_0
100
AcDbSpline
210
0.0
220
0.0
230
1.0
 70
     8
 71
     3
 72
     8
 73
     4
 74
     0
 42
0.0000000001
 43
0.0000000001
 40
0.0
 40
0.0
 40
0.0
 40
0.0
 40
1.943319591907458
 40
1.943319591907458
 40
1.943319591907458
 40
1.943319591907458
 10
-4.950116321079909
 20
-0.92282472359262
 30
0.0
 10
-5.20414502593999
 20
-0.92282472359262
 30
0.0
 10
-5.452890107570287
 20
-0.8905595098766321
 30
0.0
 10
-5.697754243004432
 20
-0.8345947337593829
 30
0.0
  0
LINE
  5
265B
330
1F
100
AcDbEntity
  8
AM_0
100
AcDbLine
 10
-5.697754243004432
 20
-0.8345947337591201
 30
0.0
 11
-5.697754243004432
 21
-1.007209824399439
 31
0.0
  0
LINE
  5
2A3B
330
1F
100
AcDbEntity
  8
AM_0
100
AcDbLine
 10
-19.99953106540949
 20
2.199531065409425
 30
0.0
 11
-19.99953106540948
 21
-2.1995310654094
 31
0.0
  0
DIMENSION
  5
2A4A
330
1F
100
AcDbEntity
  8
AM_5
100
AcDbDimension
  2
*D11
 10
-6.999531776987803
 20
-1.007182624384057
 30
0.0
 11
-15.46466104122158
 21
-4.151436894642815
 31
0.0
 70
   162
  1
<>
  3
AM_JIS$2
100
AcDb2LineAngularDimension
 13
-62.38487321524641
 23
-0.0000000000000036
 33
0.0
 14
1.329529889074521
 24
-0.0000000000000036
 34
0.0
 15
-19.99953106540948
 25
-2.144535187966032
 35
0.0
 16
-16.08458837511896
 26
-0.5993175042067725
 36
0.0
1001
GENIUS_GENDTOL_13
1000

1000
h7
1000

1040
0.0
1001
ACAD
1000
DSTYLE
1002
{
1070
   287
1070
     4
1070
   179
1070
     3
1070
   279
1070
     1
1002
}
  0
VIEWPORT
  5
110
330
101
100
AcDbEntity
 67
     1
  8
0
100
AcDbViewport
 10
420.5
 20
297.0
 30
0.0
 40
948.9782706766916
 41
628.452
 68
     1
 69
     1
1001
ACAD
1000
MVIEW
1002
{
1070
    16
1010
0.0
1020
0.0
1030
0.0
1010
0.0
1020
0.0
1030
1.0
1040
0.0
1040
628.452
1040
420.5
1040
297.0
1040
50.0
1040
0.0
1040
0.0
1070
     0
1070
   100
1070
     1
1070
     1
1070
     0
1070
     0
1070
     0
1070
     0
1040
0.0
1040
0.0
1040
0.0
1040
10.0
1040
10.0
1040
10.0
1040
10.0
1070
     0
1002
{
1002
}
1002
}
  0
ENDSEC
  0
SECTION
  2
OBJECTS
  0
DICTIONARY
  5
C
330
0
100
AcDbDictionary
  3
ACAD_GROUP
350
D
  3
ACAD_LAYOUT
350
1A
  3
ACAD_MLINESTYLE
350
17
  3
ACAD_PLOTSETTINGS
350
19
  3
ACAD_PLOTSTYLENAME
350
E
  3
ACDBVARIABLEDICTIONARY
350
34
  3
ACMDICTIONARY
350
43
  3
AMG
350
2B
  3
AMGSNAPSETTINGS
350
6E
  3
DWGPROPS
350
2C4B
  3
ACDBHEADERROUNDTRIPXREC
350
2C58
  0
DICTIONARY
  5
74
330
1F
100
AcDbDictionary
280
     1
  3
ACAD_INDEX
360
2C4D
  3
ACAD_LAYOUTSELFREF
360
2C7B
  0
DICTIONARY
  5
2C80
330
101
100
AcDbDictionary
280
     1
  3
ACAD_LAYOUTSELFREF
360
2C81
  0
DICTIONARY
  5
D
102
{ACAD_REACTORS
330
C
102
}
330
C
100
AcDbDictionary
  0
DICTIONARY
  5
1A
102
{ACAD_REACTORS
330
C
102
}
330
C
100
AcDbDictionary
  0
DICTIONARY
  5
17
102
{ACAD_REACTORS
330
C
102
}
330
C
100
AcDbDictionary
  3
STANDARD
350
18
  0
DICTIONARY
  5
19
102
{ACAD_REACTORS
330
C
102
}
330
C
100
AcDbDictionary
  0
ACDBDICTIONARYWDFLT
  5
E
102
{ACAD_REACTORS
330
C
102
}
330
C
100
AcDbDictionary
281
     1
  3
Normal
350
F
100
AcDbDictionaryWithDefault
340
F
  0
DICTIONARY
  5
34
102
{ACAD_REACTORS
330
C
102
}
330
C
100
AcDbDictionary
  3
INDEXCTL
350
35
  3
SORTENTS
350
B5E
  0
DICTIONARY
  5
43
102
{ACAD_REACTORS
330
C
102
}
330
C
100
AcDbDictionary
  3
ACMSTDDICTIONARY
350
260
  0
DICTIONARY
  5
2B
102
{ACAD_REACTORS
330
C
102
}
330
C
100
AcDbDictionary
  3
ACMGSETTINGS
350
2C
  0
DICTIONARY
  5
6E
102
{ACAD_REACTORS
330
C
102
}
330
C
100
AcDbDictionary
  0
XRECORD
  5
2C4B
102
{ACAD_REACTORS
330
C
102
}
330
C
100
AcDbXrecord
  1
DWGPROPS COOKIE
  2

  3

  4

  6

  7

  8

  9

300
AmdtFileType=82
301
=
302
=
303
=
304
=
305
=
306
=
307
=
308
=
309
=
 40
0.3867449305555555
 41
2452838.620506898
 42
2453045.546492916
  1

 90
        1
  0
DICTIONARY
  5
2C58
102
{ACAD_REACTORS
330
C
102
}
330
C
100
AcDbDictionary
  3
TSTACKALIGN
350
2C59
  3
TSTACKSIZE
350
2C5A
  3
HYPERLINKBASE
350
2C5B
  3
STYLESHEET
350
2C5C
  3
LAYOUTDICT
350
2C5D
  3
PLOTSETDICT
350
2C5E
  3
PLOTSTYLNAMDICT
350
2C5F
  3
LWETCUNION
350
2C60
  3
INSUNITS
350
2C61
  3
CEPSNTYPE
350
2C62
  3
FINGERPRINTGUID
350
2C63
  3
VERSIONGUID
350
2C64
  3
PSVPSCALE
350
2C65
  3
DIMSTYLEDATA
350
2C66
  3
PUCSORTHOREF
350
2C67
  3
PUCSORTHOVIEW
350
2C68
  3
PUCSBASE
350
2C69
  3
PUCSORGTOP
350
2C6A
  3
PUCSORGBOTTOM
350
2C6B
  3
PUCSORGLEFT
350
2C6C
  3
PUCSORGRIGHT
350
2C6D
  3
PUCSORGFRONT
350
2C6E
  3
PUCSORGBACK
350
2C6F
  3
UCSORTHOREF
350
2C70
  3
UCSORTHOVIEW
350
2C71
  3
UCSBASE
350
2C72
  3
UCSORGTOP
350
2C73
  3
UCSORGBOTTOM
350
2C74
  3
UCSORGLEFT
350
2C75
  3
UCSORGRIGHT
350
2C76
  3
UCSORGFRONT
350
2C77
  3
UCSORGBACK
350
2C78
  0
DICTIONARY
  5
2C4D
102
{ACAD_REACTORS
330
74
102
}
330
74
100
AcDbDictionary
  3
*A1
350
2C4E
  0
XRECORD
  5
2C7B
102
{ACAD_REACTORS
330
74
102
}
330
74
100
AcDbXrecord
340
1F
  0
XRECORD
  5
2C81
102
{ACAD_REACTORS
330
2C80
102
}
330
2C80
100
AcDbXrecord
340
101
  0
MLINESTYLE
  5
18
102
{ACAD_REACTORS
330
17
102
}
330
17
100
AcDbMlineStyle
  2
STANDARD
 70
     0
  3

 62
   256
 51
90.0
 52
90.0
 71
     2
 49
0.5
 62
   256
  6
BYLAYER
 49
-0.5
 62
   256
  6
BYLAYER
  0
ACDBPLACEHOLDER
  5
F
102
{ACAD_REACTORS
330
E
102
}
330
E
100
AcDbPlaceHolder
280
     0
  0
DICTIONARYVAR
  5
35
102
{ACAD_REACTORS
330
34
102
}
330
34
100
DictionaryVariables
280
     0
  1
1
  0
DICTIONARYVAR
  5
B5E
102
{ACAD_REACTORS
330
34
102
}
330
34
100
DictionaryVariables
280
     0
  1
96
  0
DICTIONARY
  5
260
102
{ACAD_REACTORS
330
43
102
}
330
43
100
AcDbDictionary
  0
DICTIONARY
  5
2C
102
{ACAD_REACTORS
330
2B
102
}
330
2B
100
AcDbDictionary
  3
DWGSETTINGS
350
2D
  0
XRECORD
  5
2C59
102
{ACAD_REACTORS
330
2C58
102
}
330
2C58
100
AcDbXrecord
 90
        1
  0
XRECORD
  5
2C5A
102
{ACAD_REACTORS
330
2C58
102
}
330
2C58
100
AcDbXrecord
 90
       70
  0
XRECORD
  5
2C5B
102
{ACAD_REACTORS
330
2C58
102
}
330
2C58
100
AcDbXrecord
  1

  0
XRECORD
  5
2C5C
102
{ACAD_REACTORS
330
2C58
102
}
330
2C58
100
AcDbXrecord
  1
ASAMI.ctb
  0
XRECORD
  5
2C5D
102
{ACAD_REACTORS
330
2C58
102
}
330
2C58
100
AcDbXrecord
340
1A
  0
XRECORD
  5
2C5E
102
{ACAD_REACTORS
330
2C58
102
}
330
2C58
100
AcDbXrecord
340
19
  0
XRECORD
  5
2C5F
102
{ACAD_REACTORS
330
2C58
102
}
330
2C58
100
AcDbXrecord
340
E
  0
XRECORD
  5
2C60
102
{ACAD_REACTORS
330
2C58
102
}
330
2C58
100
AcDbXrecord
 90
    10781
  0
XRECORD
  5
2C61
102
{ACAD_REACTORS
330
2C58
102
}
330
2C58
100
AcDbXrecord
 90
        4
  0
XRECORD
  5
2C62
102
{ACAD_REACTORS
330
2C58
102
}
330
2C58
100
AcDbXrecord
 90
        0
  0
XRECORD
  5
2C63
102
{ACAD_REACTORS
330
2C58
102
}
330
2C58
100
AcDbXrecord
  1
{AFB28963-8C59-40AE-9337-C84526B81ACE}
  0
XRECORD
  5
2C64
102
{ACAD_REACTORS
330
2C58
102
}
330
2C58
100
AcDbXrecord
  1
{33B53489-0ED6-4CC5-9300-DF9EBD4105F2}
  0
XRECORD
  5
2C65
102
{ACAD_REACTORS
330
2C58
102
}
330
2C58
100
AcDbXrecord
 40
0.0
  0
XRECORD
  5
2C66
102
{ACAD_REACTORS
330
2C58
102
}
330
2C58
100
AcDbXrecord
1000
DSTYLE
1002
{
1070
    79
 70
     2
1070
   341
340
59
1070
   342
340
59
1070
   371
 70
    -1
1070
   372
 70
    -1
1002
}
  0
XRECORD
  5
2C67
102
{ACAD_REACTORS
330
2C58
102
}
330
2C58
100
AcDbXrecord
340
0
  0
XRECORD
  5
2C68
102
{ACAD_REACTORS
330
2C58
102
}
330
2C58
100
AcDbXrecord
 70
     0
  0
XRECORD
  5
2C69
102
{ACAD_REACTORS
330
2C58
102
}
330
2C58
100
AcDbXrecord
340
0
  0
XRECORD
  5
2C6A
102
{ACAD_REACTORS
330
2C58
102
}
330
2C58
100
AcDbXrecord
 10
0.0
 20
0.0
 30
0.0
  0
XRECORD
  5
2C6B
102
{ACAD_REACTORS
330
2C58
102
}
330
2C58
100
AcDbXrecord
 10
0.0
 20
0.0
 30
0.0
  0
XRECORD
  5
2C6C
102
{ACAD_REACTORS
330
2C58
102
}
330
2C58
100
AcDbXrecord
 10
0.0
 20
0.0
 30
0.0
  0
XRECORD
  5
2C6D
102
{ACAD_REACTORS
330
2C58
102
}
330
2C58
100
AcDbXrecord
 10
0.0
 20
0.0
 30
0.0
  0
XRECORD
  5
2C6E
102
{ACAD_REACTORS
330
2C58
102
}
330
2C58
100
AcDbXrecord
 10
0.0
 20
0.0
 30
0.0
  0
XRECORD
  5
2C6F
102
{ACAD_REACTORS
330
2C58
102
}
330
2C58
100
AcDbXrecord
 10
0.0
 20
0.0
 30
0.0
  0
XRECORD
  5
2C70
102
{ACAD_REACTORS
330
2C58
102
}
330
2C58
100
AcDbXrecord
340
0
  0
XRECORD
  5
2C71
102
{ACAD_REACTORS
330
2C58
102
}
330
2C58
100
AcDbXrecord
 70
     0
  0
XRECORD
  5
2C72
102
{ACAD_REACTORS
330
2C58
102
}
330
2C58
100
AcDbXrecord
340
0
  0
XRECORD
  5
2C73
102
{ACAD_REACTORS
330
2C58
102
}
330
2C58
100
AcDbXrecord
 10
0.0
 20
0.0
 30
0.0
  0
XRECORD
  5
2C74
102
{ACAD_REACTORS
330
2C58
102
}
330
2C58
100
AcDbXrecord
 10
0.0
 20
0.0
 30
0.0
  0
XRECORD
  5
2C75
102
{ACAD_REACTORS
330
2C58
102
}
330
2C58
100
AcDbXrecord
 10
0.0
 20
0.0
 30
0.0
  0
XRECORD
  5
2C76
102
{ACAD_REACTORS
330
2C58
102
}
330
2C58
100
AcDbXrecord
 10
0.0
 20
0.0
 30
0.0
  0
XRECORD
  5
2C77
102
{ACAD_REACTORS
330
2C58
102
}
330
2C58
100
AcDbXrecord
 10
0.0
 20
0.0
 30
0.0
  0
XRECORD
  5
2C78
102
{ACAD_REACTORS
330
2C58
102
}
330
2C58
100
AcDbXrecord
 10
0.0
 20
0.0
 30
0.0
  0
LAYER_INDEX
  5
2C4E
102
{ACAD_REACTORS
330
2C4D
102
}
330
2C4D
100
AcDbIndex
 40
2453151.891407141
100
AcDbLayerIndex
  8
0
360
2C4F
 90
        1
  8
AM_0
360
2C50
 90
       43
  8
AM_11
360
2C51
 90
        4
  8
AM_7
360
2C52
 90
        1
  8
AM_5
360
2C53
 90
        7
  8
Defpoints
360
2C54
 90
        0
  8
AM_6
360
2C55
 90
        1
  8
AM_CL
360
2C56
 90
        0
  0
XRECORD
  5
2D
102
{ACAD_REACTORS
330
2C
102
}
330
2C
100
AcDbXrecord
  1
VERSION
140
15.0
  1
PRODUCT
  2
AutoCAD Mechanical 2000
  0
IDBUFFER
  5
2C4F
330
0
100
AcDbIdBuffer
330
2139
  0
IDBUFFER
  5
2C50
330
0
100
AcDbIdBuffer
330
259E
330
25A0
330
25A1
330
25A2
330
25A3
330
25A6
330
25AE
330
25AF
330
25B0
330
25B1
330
25B2
330
25B3
330
25B4
330
25B5
330
25B6
330
25B8
330
25B9
330
25BB
330
25BC
330
25BE
330
25C0
330
25C1
330
25C2
330
25E7
330
2657
330
265B
330
2A3B
330
2062
330
206E
330
2070
330
2128
330
2129
330
2137
330
2138
330
213A
330
2165
330
2167
330
2169
330
21C6
330
21C7
330
2597
330
259A
330
259C
  0
IDBUFFER
  5
2C51
330
0
100
AcDbIdBuffer
330
1C97
330
1C9A
330
1CA1
330
1CB1
  0
IDBUFFER
  5
2C52
330
0
100
AcDbIdBuffer
330
C50
  0
IDBUFFER
  5
2C53
330
0
100
AcDbIdBuffer
330
194C
330
195B
330
1EF8
330
212A
330
213B
330
21E0
330
2A4A
  0
IDBUFFER
  5
2C54
330
0
100
AcDbIdBuffer
  0
IDBUFFER
  5
2C55
330
0
100
AcDbIdBuffer
330
C58
  0
IDBUFFER
  5
2C56
330
0
100
AcDbIdBuffer
  0
ENDSEC
  0
EOF
