  0
SECTION
  2
HEADER
  9
$ACADVER
  1
AC1014
  9
$ACADMAINTVER
 70
     9
  9
$DWGCODEPAGE
  3
ANSI_932
  9
$INSBASE
 10
0.0
 20
0.0
 30
0.0
  9
$EXTMIN
 10
-108.5773098228695
 20
-33.62500000000003
 30
-0.00000001
  9
$EXTMAX
 10
7.501406143453765
 20
8.01428571428042
 30
0.00000001
  9
$LIMMIN
 10
-107.5612171461325
 20
-56.53452050794109
  9
$LIMMAX
 10
18.91909074222775
 20
20.04497862210632
  9
$ORTHOMODE
 70
     0
  9
$REGENMODE
 70
     1
  9
$FILLMODE
 70
     1
  9
$QTEXTMODE
 70
     0
  9
$MIRRTEXT
 70
     0
  9
$DRAGMODE
 70
     2
  9
$LTSCALE
 40
0.3
  9
$OSMODE
 70
    55
  9
$ATTMODE
 70
     1
  9
$TEXTSIZE
 40
2.5
  9
$TRACEWID
 40
1.0
  9
$TEXTSTYLE
  7
STANDARD
  9
$CLAYER
  8
AM_0
  9
$CELTYPE
  6
BYLAYER
  9
$CECOLOR
 62
   256
  9
$CELTSCALE
 40
1.0
  9
$DELOBJ
 70
     1
  9
$DISPSILH
 70
     0
  9
$DIMSCALE
 40
0.5
  9
$DIMASZ
 40
2.5
  9
$DIMEXO
 40
1.0
  9
$DIMDLI
 40
12.0
  9
$DIMRND
 40
0.0
  9
$DIMDLE
 40
0.0
  9
$DIMEXE
 40
1.0
  9
$DIMTP
 40
0.1
  9
$DIMTM
 40
0.1
  9
$DIMTXT
 40
3.2
  9
$DIMCEN
 40
0.0
  9
$DIMTSZ
 40
0.0
  9
$DIMTOL
 70
     0
  9
$DIMLIM
 70
     0
  9
$DIMTIH
 70
     0
  9
$DIMTOH
 70
     0
  9
$DIMSE1
 70
     0
  9
$DIMSE2
 70
     0
  9
$DIMTAD
 70
     3
  9
$DIMZIN
 70
     8
  9
$DIMBLK
  1
OPEN30
  9
$DIMASO
 70
     1
  9
$DIMSHO
 70
     1
  9
$DIMPOST
  1

  9
$DIMAPOST
  1
"
  9
$DIMALT
 70
     0
  9
$DIMALTD
 70
     2
  9
$DIMALTF
 40
0.0393701
  9
$DIMLFAC
 40
1.0
  9
$DIMTOFL
 70
     1
  9
$DIMTVP
 40
0.0
  9
$DIMTIX
 70
     0
  9
$DIMSOXD
 70
     0
  9
$DIMSAH
 70
     0
  9
$DIMBLK1
  1

  9
$DIMBLK2
  1

  9
$DIMSTYLE
  2
AM_JIS
  9
$DIMCLRD
 70
   256
  9
$DIMCLRE
 70
   256
  9
$DIMCLRT
 70
     2
  9
$DIMTFAC
 40
0.71
  9
$DIMGAP
 40
1.5
  9
$DIMJUST
 70
     0
  9
$DIMSD1
 70
     0
  9
$DIMSD2
 70
     0
  9
$DIMTOLJ
 70
     0
  9
$DIMTZIN
 70
     0
  9
$DIMALTZ
 70
     0
  9
$DIMALTTZ
 70
     0
  9
$DIMFIT
 70
     3
  9
$DIMUPT
 70
     0
  9
$DIMUNIT
 70
     2
  9
$DIMDEC
 70
     3
  9
$DIMTDEC
 70
     3
  9
$DIMALTU
 70
     2
  9
$DIMALTTD
 70
     2
  9
$DIMTXSTY
  7
ASAMI
  9
$DIMAUNIT
 70
     0
  9
$LUNITS
 70
     2
  9
$LUPREC
 70
     2
  9
$SKETCHINC
 40
1.0
  9
$FILLETRAD
 40
0.5
  9
$AUNITS
 70
     0
  9
$AUPREC
 70
     0
  9
$MENU
  1
.
  9
$ELEVATION
 40
0.0
  9
$PELEVATION
 40
0.0
  9
$THICKNESS
 40
0.0
  9
$LIMCHECK
 70
     0
  9
$BLIPMODE
 70
     0
  9
$CHAMFERA
 40
2.5
  9
$CHAMFERB
 40
2.5
  9
$CHAMFERC
 40
20.0
  9
$CHAMFERD
 40
0.0
  9
$SKPOLY
 70
     0
  9
$TDCREATE
 40
2452838.620506898
  9
$TDUPDATE
 40
2453151.891699930
  9
$TDINDWG
 40
0.3553659028
  9
$TDUSRTIMER
 40
0.3553659028
  9
$USRTIMER
 70
     1
  9
$ANGBASE
 50
0.0
  9
$ANGDIR
 70
     0
  9
$PDMODE
 70
     0
  9
$PDSIZE
 40
0.0
  9
$PLINEWID
 40
0.0
  9
$COORDS
 70
     1
  9
$SPLFRAME
 70
     0
  9
$SPLINETYPE
 70
     6
  9
$SPLINESEGS
 70
     8
  9
$ATTDIA
 70
     1
  9
$ATTREQ
 70
     1
  9
$HANDLING
 70
 12289
  9
$HANDSEED
  5
2A88
  9
$SURFTAB1
 70
     6
  9
$SURFTAB2
 70
     6
  9
$SURFTYPE
 70
     6
  9
$SURFU
 70
     6
  9
$SURFV
 70
     6
  9
$UCSNAME
  2

  9
$UCSORG
 10
-0.0000000000000568
 20
-0.0000000000000036
 30
0.0
  9
$UCSXDIR
 10
1.0
 20
0.0
 30
0.0
  9
$UCSYDIR
 10
0.0
 20
1.0
 30
0.0
  9
$PUCSNAME
  2

  9
$PUCSORG
 10
0.0
 20
0.0
 30
0.0
  9
$PUCSXDIR
 10
1.0
 20
0.0
 30
0.0
  9
$PUCSYDIR
 10
0.0
 20
1.0
 30
0.0
  9
$USERI1
 70
     0
  9
$USERI2
 70
     0
  9
$USERI3
 70
     0
  9
$USERI4
 70
     0
  9
$USERI5
 70
     0
  9
$USERR1
 40
0.0
  9
$USERR2
 40
0.0
  9
$USERR3
 40
0.0
  9
$USERR4
 40
0.0
  9
$USERR5
 40
0.0
  9
$WORLDVIEW
 70
     1
  9
$SHADEDGE
 70
     3
  9
$SHADEDIF
 70
    70
  9
$TILEMODE
 70
     1
  9
$MAXACTVP
 70
    64
  9
$PINSBASE
 10
0.0
 20
0.0
 30
0.0
  9
$PLIMCHECK
 70
     0
  9
$PEXTMIN
 10
1.000000000000000E+20
 20
1.000000000000000E+20
 30
1.000000000000000E+20
  9
$PEXTMAX
 10
-1.000000000000000E+20
 20
-1.000000000000000E+20
 30
-1.000000000000000E+20
  9
$PLIMMIN
 10
0.0
 20
0.0
  9
$PLIMMAX
 10
841.0
 20
594.0
  9
$UNITMODE
 70
     0
  9
$VISRETAIN
 70
     1
  9
$PLINEGEN
 70
     0
  9
$PSLTSCALE
 70
     0
  9
$TREEDEPTH
 70
  3020
  9
$PICKSTYLE
 70
     0
  9
$CMLSTYLE
  2
STANDARD
  9
$CMLJUST
 70
     0
  9
$CMLSCALE
 40
20.0
  9
$PROXYGRAPHICS
 70
     1
  9
$MEASUREMENT
 70
     1
  0
ENDSEC
  0
SECTION
  2
CLASSES
  0
CLASS
  1
ACDBDICTIONARYWDFLT
  2
AcDbDictionaryWithDefault
  3
AutoCAD 2000
 90
        0
280
     0
281
     0
  0
CLASS
  1
ACDBPLACEHOLDER
  2
AcDbPlaceHolder
  3
AutoCAD 2000
 90
        0
280
     0
281
     0
  0
CLASS
  1
LAYOUT
  2
AcDbLayout
  3
AutoCAD 2000
 90
        0
280
     0
281
     0
  0
CLASS
  1
AMGSETTINGSOBJ
  2
AmgSettingsObj
  3
"AcadM|Product Description: AutoCAD Mechanical 2000|Company: Autodesk"
 90
        0
280
     0
281
     0
  0
CLASS
  1
ACME_DOCUMENT
  2
AcMeDbDoc
  3
AcMeServices
 90
        0
280
     0
281
     0
  0
CLASS
  1
ACMESCOPE
  2
AcMeScope
  3
AcMeServices
 90
        0
280
     0
281
     0
  0
CLASS
  1
ACMECOMMANDHISTORY
  2
AcMeCommandHistory
  3
AcMeServices
 90
        0
280
     0
281
     0
  0
CLASS
  1
DICTIONARYVAR
  2
AcDbDictionaryVar
  3
AutoCAD 2000
 90
        0
280
     0
281
     0
  0
CLASS
  1
ACIMSYSVARMAN
  2
AcImSysVarManager
  3
AcMeServices
 90
        0
280
     0
281
     0
  0
CLASS
  1
ACIMREALSYSVAR
  2
AcImRealSysVar
  3
AcMeServices
 90
        0
280
     0
281
     0
  0
CLASS
  1
ACIMINTSYSVAR
  2
AcImIntSysVar
  3
AcMeServices
 90
        0
280
     0
281
     0
  0
CLASS
  1
ACMEDRAWINGMAN
  2
AcMeDrawingMan
  3
AcMeServices
 90
        0
280
     0
281
     0
  0
CLASS
  1
ACMEVIEW
  2
AcMeView
  3
AcMeServices
 90
        0
280
     0
281
     0
  0
CLASS
  1
ACDBENTITYCACHE
  2
AcMeEntityCache
  3
AcMeServices
 90
        0
280
     0
281
     0
  0
CLASS
  1
GSMANAGER
  2
AcMeGSManager
  3
AcMeServices
 90
        0
280
     0
281
     0
  0
CLASS
  1
AmdtInternalReactor
  2
AmdtInternalReactor
  3
AcMeServices
 90
        0
280
     0
281
     0
  0
CLASS
  1
ACMESTATEMGR
  2
AcMeStateMgr
  3
AcMeServices
 90
        0
280
     0
281
     0
  0
CLASS
  1
ACME_DATABASE
  2
AcMeDbDatabase
  3
AcMeServices
 90
        0
280
     0
281
     0
  0
CLASS
  1
ACRFINSADJUSTERMGR
  2
AcRfInsAdjusterMgr
  3
AcMeServices
 90
        0
280
     0
281
     0
  0
CLASS
  1
ACMDATADICTIONARY
  2
AcmDataDictionary
  3
"AcmSymBB|Product Description: AutoCAD Mechanical 2000|Company: Autodesk"
 90
        0
280
     0
281
     0
  0
CLASS
  1
ACMDATAENTRYBLOCK
  2
AcmDataEntryBlock
  3
"AcmSymBB|Product Description: AutoCAD Mechanical 2000|Company: Autodesk"
 90
        0
280
     0
281
     0
  0
CLASS
  1
AMGOBJPROPCFG
  2
AmgObjPropCfg
  3
"AmgLay|Product Description: AutoCAD Mechanical 2000|Company: Autodesk"
 90
        1
280
     0
281
     0
  0
CLASS
  1
ACAMGFILTERDAT
  2
AcAmgFilterDat
  3
"AcadM|Product Description: AutoCAD Mechanical 2000|Company: Autodesk"
 90
        0
280
     0
281
     0
  0
CLASS
  1
LAYER_INDEX
  2
AcDbLayerIndex
  3
AutoCAD 2000
 90
        0
280
     0
281
     0
  0
CLASS
  1
IDBUFFER
  2
AcDbIdBuffer
  3
AutoCAD 2000
 90
        0
280
     0
281
     0
  0
CLASS
  1
ACIMSTRSYSVAR
  2
AcImStrSysVar
  3
AcMeServices
 90
        0
280
     0
281
     0
  0
CLASS
  1
ACMSTANDARDJIS
  2
AcmStandardJIS
  3
"AcmSymBB|Product Description: AutoCAD Mechanical 2000|Company: Autodesk"
 90
        0
280
     0
281
     0
  0
CLASS
  1
ACMSURFSTANDARDJIS
  2
AcmSurfTextStdJIS
  3
"AcmSymBB|Product Description: AutoCAD Mechanical 2000|Company: Autodesk"
 90
        0
280
     0
281
     0
  0
CLASS
  1
ACMFCFSTANDARDJIS
  2
AcmFCFStdJIS
  3
"AcmSymBB|Product Description: AutoCAD Mechanical 2000|Company: Autodesk"
 90
        0
280
     0
281
     0
  0
CLASS
  1
ACMWELDSTANDARDJIS
  2
AcmWeldingStdJIS
  3
"AcmSymBB|Product Description: AutoCAD Mechanical 2000|Company: Autodesk"
 90
        0
280
     0
281
     0
  0
CLASS
  1
ACMIDSTANDARDJIS
  2
AcmIdStdJIS
  3
"AcmSymBB|Product Description: AutoCAD Mechanical 2000|Company: Autodesk"
 90
        0
280
     0
281
     0
  0
CLASS
  1
ACMDATUMSTANDARDJIS
  2
AcmDatumStdJIS
  3
"AcmSymBB|Product Description: AutoCAD Mechanical 2000|Company: Autodesk"
 90
        0
280
     0
281
     0
  0
CLASS
  1
ACMBOMSTANDARDJIS
  2
AcmBOMStdJIS
  3
"AcmSymBB|Product Description: AutoCAD Mechanical 2000|Company: Autodesk"
 90
        0
280
     0
281
     0
  0
CLASS
  1
ACMSTANDARDANSI
  2
AcmStandardANSI
  3
"AcmSymBB|Product Description: AutoCAD Mechanical 2000|Company: Autodesk"
 90
        0
280
     0
281
     0
  0
CLASS
  1
ACMSURFSTANDARDANSI
  2
AcmSurfTextStdANSI
  3
"AcmSymBB|Product Description: AutoCAD Mechanical 2000|Company: Autodesk"
 90
        0
280
     0
281
     0
  0
CLASS
  1
ACMFCFSTANDARDANSI
  2
AcmFCFStdANSI
  3
"AcmSymBB|Product Description: AutoCAD Mechanical 2000|Company: Autodesk"
 90
        0
280
     0
281
     0
  0
CLASS
  1
ACMWELDSTANDARDANSI
  2
AcmWeldingStdANSI
  3
"AcmSymBB|Product Description: AutoCAD Mechanical 2000|Company: Autodesk"
 90
        0
280
     0
281
     0
  0
CLASS
  1
ACMIDSTANDARDANSI
  2
AcmIdStdANSI
  3
"AcmSymBB|Product Description: AutoCAD Mechanical 2000|Company: Autodesk"
 90
        0
280
     0
281
     0
  0
CLASS
  1
ACMDATUMSTANDARDANSI
  2
AcmDatumStdANSI
  3
"AcmSymBB|Product Description: AutoCAD Mechanical 2000|Company: Autodesk"
 90
        0
280
     0
281
     0
  0
CLASS
  1
ACMBOMSTANDARDANSI
  2
AcmBOMStdANSI
  3
"AcmSymBB|Product Description: AutoCAD Mechanical 2000|Company: Autodesk"
 90
        0
280
     0
281
     0
  0
CLASS
  1
ACMSTANDARDBSI
  2
AcmStandardBSI
  3
"AcmSymBB|Product Description: AutoCAD Mechanical 2000|Company: Autodesk"
 90
        0
280
     0
281
     0
  0
CLASS
  1
ACMSURFSTANDARDBSI
  2
AcmSurfTextStdBSI
  3
"AcmSymBB|Product Description: AutoCAD Mechanical 2000|Company: Autodesk"
 90
        0
280
     0
281
     0
  0
CLASS
  1
ACMFCFSTANDARDBSI
  2
AcmFCFStdBSI
  3
"AcmSymBB|Product Description: AutoCAD Mechanical 2000|Company: Autodesk"
 90
        0
280
     0
281
     0
  0
CLASS
  1
ACMWELDSTANDARDBSI
  2
AcmWeldingStdBSI
  3
"AcmSymBB|Product Description: AutoCAD Mechanical 2000|Company: Autodesk"
 90
        0
280
     0
281
     0
  0
CLASS
  1
ACMIDSTANDARDBSI
  2
AcmIdStdBSI
  3
"AcmSymBB|Product Description: AutoCAD Mechanical 2000|Company: Autodesk"
 90
        0
280
     0
281
     0
  0
CLASS
  1
ACMDATUMSTANDARDBSI
  2
AcmDatumStdBSI
  3
"AcmSymBB|Product Description: AutoCAD Mechanical 2000|Company: Autodesk"
 90
        0
280
     0
281
     0
  0
CLASS
  1
ACMBOMSTANDARDBSI
  2
AcmBOMStdBSI
  3
"AcmSymBB|Product Description: AutoCAD Mechanical 2000|Company: Autodesk"
 90
        0
280
     0
281
     0
  0
CLASS
  1
LONG_TRANSACTION
  2
AcDbLongTransaction
  3
AutoCAD 2000
 90
        0
280
     0
281
     0
  0
CLASS
  1
LWPOLYLINE
  2
AcDbPolyline
  3
AutoCAD 2000
 90
        0
280
     0
281
     1
  0
CLASS
  1
HATCH
  2
AcDbHatch
  3
AutoCAD 2000
 90
        0
280
     0
281
     1
  0
CLASS
  1
XRECORD
  2
AcDbXrecord
  3
AutoCAD 2000
 90
        0
280
     0
281
     0
  0
ENDSEC
  0
SECTION
  2
TABLES
  0
TABLE
  2
VPORT
  5
8
330
0
100
AcDbSymbolTable
 70
     3
  0
VPORT
  5
2A52
330
8
100
AcDbSymbolTableRecord
100
AcDbViewportTableRecord
  2
*ACTIVE
 70
     0
 10
0.0
 20
0.0
 11
1.0
 21
1.0
 12
-27.00520043675401
 22
-18.02689041415928
 13
0.0
 23
0.0
 14
2.5
 24
2.5
 15
10.0
 25
10.0
 16
0.0
 26
0.0
 36
1.0
 17
0.0
 27
0.0
 37
0.0
 40
136.6578940411452
 41
1.56570841889117
 42
50.0
 43
0.0
 44
0.0
 50
0.0
 51
0.0
 71
     0
 72
   100
 73
     1
 74
     3
 75
     0
 76
     0
 77
     0
 78
     0
  0
ENDTAB
  0
TABLE
  2
LTYPE
  5
5
330
0
100
AcDbSymbolTable
 70
    10
  0
LTYPE
  5
14
330
5
100
AcDbSymbolTableRecord
100
AcDbLinetypeTableRecord
  2
BYBLOCK
 70
     0
  3

 72
    65
 73
     0
 40
0.0
  0
LTYPE
  5
15
330
5
100
AcDbSymbolTableRecord
100
AcDbLinetypeTableRecord
  2
BYLAYER
 70
     0
  3

 72
    65
 73
     0
 40
0.0
  0
LTYPE
  5
16
330
5
100
AcDbSymbolTableRecord
100
AcDbLinetypeTableRecord
  2
CONTINUOUS
 70
     0
  3
Solid line
 72
    65
 73
     0
 40
0.0
  0
LTYPE
  5
4B
330
5
100
AcDbSymbolTableRecord
100
AcDbLinetypeTableRecord
  2
AM_ISO02W050
 70
     0
  3
__ __ __ __ __ __ __ __ __ __ __ __ __ __ __
 72
    65
 73
     2
 40
7.5
 49
6.0
 74
     0
 49
-1.5
 74
     0
  0
LTYPE
  5
4C
330
5
100
AcDbSymbolTableRecord
100
AcDbLinetypeTableRecord
  2
AM_ISO08W050
 70
     0
  3
____ . ____ . ____ . ____ . ____ . ____ . ____
 72
    65
 73
     4
 40
18.0
 49
12.0
 74
     0
 49
-1.5
 74
     0
 49
3.0
 74
     0
 49
-1.5
 74
     0
  0
LTYPE
  5
4D
330
5
100
AcDbSymbolTableRecord
100
AcDbLinetypeTableRecord
  2
AM_ISO09W050
 70
     0
  3
_____ . . _____ . . _____ . . ____ .. ____
 72
    65
 73
     6
 40
22.5
 49
12.0
 74
     0
 49
-1.5
 74
     0
 49
3.0
 74
     0
 49
-1.5
 74
     0
 49
3.0
 74
     0
 49
-1.5
 74
     0
  0
LTYPE
  5
4E
330
5
100
AcDbSymbolTableRecord
100
AcDbLinetypeTableRecord
  2
AMCONSTR
 70
     0
  3
_______________________
 72
    65
 73
     2
 40
9999.0
 49
9999.0
 74
     0
 49
0.0
 74
     0
  0
LTYPE
  5
4F
330
5
100
AcDbSymbolTableRecord
100
AcDbLinetypeTableRecord
  2
AM_ISO02W050X2
 70
     0
  3
 _ _ _ _ _ _ _ _ _ _ _ _
 72
    65
 73
     2
 40
3.75
 49
3.0
 74
     0
 49
-0.75
 74
     0
  0
LTYPE
  5
50
330
5
100
AcDbSymbolTableRecord
100
AcDbLinetypeTableRecord
  2
AM_ISO08W050X2
 70
     0
  3
__ . __ . __ . __ . __ . __
 72
    65
 73
     4
 40
9.0
 49
6.0
 74
     0
 49
-0.75
 74
     0
 49
1.5
 74
     0
 49
-0.75
 74
     0
  0
LTYPE
  5
53
330
5
100
AcDbSymbolTableRecord
100
AcDbLinetypeTableRecord
  2
AMZIGZAG
 70
     0
  3
/\/-/\/-/\/-/\/-/\/-/\/
 72
    65
 73
     2
 40
11.00009999999999
 49
0.0001
 74
     4
 75
   135
340
52
 46
0.04
 50
0.0
 44
0.0
 45
0.0
 49
-11.0
 74
     0
  0
LTYPE
  5
166
330
5
100
AcDbSymbolTableRecord
100
AcDbLinetypeTableRecord
  2
ACJISTGL
 70
     0
  3
_ _ _ _ _
 72
    65
 73
     2
 40
3.0
 49
2.0
 74
     0
 49
-1.0
 74
     0
  0
LTYPE
  5
26A
330
5
100
AcDbSymbolTableRecord
100
AcDbLinetypeTableRecord
  2
ACJISTGB
 70
     0
  3
__ . . __ . .
 72
    65
 73
     6
 40
9.0
 49
4.0
 74
     0
 49
-1.0
 74
     0
 49
1.0
 74
     0
 49
-1.0
 74
     0
 49
1.0
 74
     0
 49
-1.0
 74
     0
  0
ENDTAB
  0
TABLE
  2
LAYER
  5
2
330
0
100
AcDbSymbolTable
 70
     8
  0
LAYER
  5
10
330
2
100
AcDbSymbolTableRecord
100
AcDbLayerTableRecord
  2
0
 70
     0
 62
     7
  6
CONTINUOUS
  0
LAYER
  5
3F9
330
2
100
AcDbSymbolTableRecord
100
AcDbLayerTableRecord
  2
AM_0
 70
     0
 62
     7
  6
CONTINUOUS
  0
LAYER
  5
BD6
330
2
100
AcDbSymbolTableRecord
100
AcDbLayerTableRecord
  2
AM_11
 70
     0
 62
     3
  6
AM_ISO09W050
  0
LAYER
  5
BD7
330
2
100
AcDbSymbolTableRecord
100
AcDbLayerTableRecord
  2
AM_7
 70
     0
 62
     4
  6
AM_ISO08W050
  0
LAYER
  5
BD8
330
2
100
AcDbSymbolTableRecord
100
AcDbLayerTableRecord
  2
AM_5
 70
     0
 62
     3
  6
CONTINUOUS
  0
LAYER
  5
BD9
330
2
100
AcDbSymbolTableRecord
100
AcDbLayerTableRecord
  2
DEFPOINTS
 70
     0
 62
     7
  6
CONTINUOUS
  0
LAYER
  5
BDA
330
2
100
AcDbSymbolTableRecord
100
AcDbLayerTableRecord
  2
AM_6
 70
     0
 62
     2
  6
CONTINUOUS
  0
LAYER
  5
1F9B
330
2
100
AcDbSymbolTableRecord
100
AcDbLayerTableRecord
  2
AM_CL
 70
     0
 62
     1
  6
AMCONSTR
  0
ENDTAB
  0
TABLE
  2
STYLE
  5
3
330
0
100
AcDbSymbolTable
 70
     5
  0
STYLE
  5
11
330
3
100
AcDbSymbolTableRecord
100
AcDbTextStyleTableRecord
  2
STANDARD
 70
     0
 40
0.0
 41
1.0
 50
0.0
 71
     0
 42
2.5
  3
simplex.shx
  4
EXTFONT.SHX
  0
STYLE
  5
52
330
3
100
AcDbSymbolTableRecord
100
AcDbTextStyleTableRecord
  2

 70
     1
 40
0.0
 41
1.0
 50
0.0
 71
     0
 42
2.5
  3
ltypeshp.shx
  4

  0
STYLE
  5
6B
330
3
100
AcDbSymbolTableRecord
100
AcDbTextStyleTableRecord
  2
ASAMI
 70
     0
 40
0.0
 41
1.0
 50
0.0
 71
     0
 42
2.5
  3
simplex.shx
  4
EXTFONT.SHX
  0
STYLE
  5
262
330
3
100
AcDbSymbolTableRecord
100
AcDbTextStyleTableRecord
  2
ACJISTS
 70
     0
 40
1.0
 41
1.0
 50
0.0
 71
     0
 42
2.5
  3
simplex.shx
  4
bigfont.shx
  0
STYLE
  5
269
330
3
100
AcDbSymbolTableRecord
100
AcDbTextStyleTableRecord
  2
ACJISGDT
 70
     0
 40
0.0
 41
1.0
 50
0.0
 71
     0
 42
2.5
  3
amgdtans.shx
  4

  0
ENDTAB
  0
TABLE
  2
VIEW
  5
6
330
0
100
AcDbSymbolTable
 70
     0
  0
ENDTAB
  0
TABLE
  2
UCS
  5
7
330
0
100
AcDbSymbolTable
 70
     0
  0
ENDTAB
  0
TABLE
  2
APPID
  5
9
330
0
100
AcDbSymbolTable
 70
    13
  0
APPID
  5
12
330
9
100
AcDbSymbolTableRecord
100
AcDbRegAppTableRecord
  2
ACAD
 70
     0
  0
APPID
  5
30
330
9
100
AcDbSymbolTableRecord
100
AcDbRegAppTableRecord
  2
MCAD_NO_VIS
 70
     0
  0
APPID
  5
31
330
9
100
AcDbSymbolTableRecord
100
AcDbRegAppTableRecord
  2
ACAD_TEMP_GRAPHIC
 70
     0
  0
APPID
  5
2C2
330
9
100
AcDbSymbolTableRecord
100
AcDbRegAppTableRecord
  2
GENIUS_GENDTOL_13
 70
     0
  0
APPID
  5
339
330
9
100
AcDbSymbolTableRecord
100
AcDbRegAppTableRecord
  2
GENIUS_GENODEF_13
 70
     0
  0
APPID
  5
33A
330
9
100
AcDbSymbolTableRecord
100
AcDbRegAppTableRecord
  2
GENIUS_GENOBJ-N-RSBK_13
 70
     0
  0
APPID
  5
33B
330
9
100
AcDbSymbolTableRecord
100
AcDbRegAppTableRecord
  2
GENIUS_GENOBJ-N-LIB_13
 70
     0
  0
APPID
  5
33C
330
9
100
AcDbSymbolTableRecord
100
AcDbRegAppTableRecord
  2
GENIUS_GENSCALE_13
 70
     0
  0
APPID
  5
378
330
9
100
AcDbSymbolTableRecord
100
AcDbRegAppTableRecord
  2
GENIUS_GENDIMSH_14
 70
     0
  0
APPID
  5
BDB
330
9
100
AcDbSymbolTableRecord
100
AcDbRegAppTableRecord
  2
GENIUS_GENOBJ-N-CEN_13
 70
     0
  0
APPID
  5
BDC
330
9
100
AcDbSymbolTableRecord
100
AcDbRegAppTableRecord
  2
GENIUS_GENFIL_13
 70
     0
  0
APPID
  5
BDD
330
9
100
AcDbSymbolTableRecord
100
AcDbRegAppTableRecord
  2
GENIUS_GENOBJ-N-FIL_13
 70
     0
  0
APPID
  5
12AD
330
9
100
AcDbSymbolTableRecord
100
AcDbRegAppTableRecord
  2
GENIUS_GENOREF_13
 70
     0
  0
ENDTAB
  0
TABLE
  2
DIMSTYLE
  5
A
330
0
100
AcDbSymbolTable
 70
     8
  0
DIMSTYLE
105
58
102
{ACAD_REACTORS
330
194C
330
195B
330
212A
330
213B
330
21E0
102
}
330
A
100
AcDbSymbolTableRecord
100
AcDbDimStyleTableRecord
  2
AM_JIS
 70
     0
  3

  4
"
  5
OPEN30
  6

  7

 40
0.5
 41
2.5
 42
1.0
 43
12.0
 44
1.0
 45
0.0
 46
0.0
 47
0.1
 48
0.1
140
3.2
141
0.0
142
0.0
143
0.0393701
144
1.0
145
0.0
146
0.71
147
1.5
 71
     0
 72
     0
 73
     0
 74
     0
 75
     0
 76
     0
 77
     3
 78
     8
170
     0
171
     2
172
     1
173
     0
174
     0
175
     0
176
   256
177
   256
178
     2
270
     2
271
     3
272
     3
273
     2
274
     2
340
6B
275
     0
280
     0
281
     0
282
     0
283
     0
284
     0
285
     0
286
     0
287
     3
288
     0
  0
DIMSTYLE
105
5F
330
A
100
AcDbSymbolTableRecord
100
AcDbDimStyleTableRecord
  2
AM_JIS$3
 70
     0
  3

  4
"
  5
OPEN30
  6

  7

 40
0.5
 41
2.5
 42
1.0
 43
10.0
 44
1.0
 45
0.0
 46
0.0
 47
0.1
 48
0.1
140
3.2
141
0.0
142
0.0
143
0.0393701
144
1.0
145
0.0
146
0.71
147
1.5
 71
     0
 72
     0
 73
     0
 74
     1
 75
     0
 76
     0
 77
     3
 78
     8
170
     0
171
     2
172
     0
173
     0
174
     0
175
     0
176
   256
177
   256
178
     2
270
     2
271
     2
272
     3
273
     2
274
     2
340
6B
275
     0
280
     0
281
     0
282
     0
283
     0
284
     0
285
     0
286
     0
287
     0
288
     1
  0
DIMSTYLE
105
60
102
{ACAD_REACTORS
330
1EF8
102
}
330
A
100
AcDbSymbolTableRecord
100
AcDbDimStyleTableRecord
  2
AM_JIS$4
 70
     0
  3

  4
"
  5
OPEN30
  6

  7

 40
0.5
 41
2.5
 42
1.0
 43
10.0
 44
1.0
 45
0.0
 46
0.0
 47
0.1
 48
0.1
140
3.2
141
0.0
142
0.0
143
0.0393701
144
1.0
145
0.0
146
0.71
147
1.5
 71
     0
 72
     0
 73
     0
 74
     1
 75
     0
 76
     0
 77
     3
 78
     8
170
     0
171
     2
172
     0
173
     0
174
     0
175
     0
176
   256
177
   256
178
     2
270
     2
271
     2
272
     3
273
     2
274
     2
340
6B
275
     0
280
     0
281
     0
282
     0
283
     0
284
     0
285
     0
286
     0
287
     0
288
     1
  0
DIMSTYLE
105
61
330
A
100
AcDbSymbolTableRecord
100
AcDbDimStyleTableRecord
  2
AM_JIS$6
 70
     0
  3

  4
"
  5
OPEN30
  6

  7

 40
0.5
 41
2.5
 42
1.0
 43
10.0
 44
1.0
 45
0.0
 46
0.0
 47
0.1
 48
0.1
140
3.2
141
0.0
142
0.0
143
0.0393701
144
1.0
145
0.0
146
0.71
147
1.5
 71
     0
 72
     0
 73
     0
 74
     0
 75
     0
 76
     0
 77
     0
 78
     8
170
     0
171
     2
172
     1
173
     0
174
     0
175
     0
176
   256
177
   256
178
     2
270
     2
271
     2
272
     2
273
     2
274
     2
340
6B
275
     0
280
     0
281
     0
282
     0
283
     0
284
     0
285
     0
286
     0
287
     3
288
     0
  0
DIMSTYLE
105
62
330
A
100
AcDbSymbolTableRecord
100
AcDbDimStyleTableRecord
  2
AM_JIS$7
 70
     0
  3

  4
"
  5
OPEN30
  6

  7

 40
0.5
 41
2.5
 42
1.0
 43
10.0
 44
1.0
 45
0.0
 46
0.0
 47
0.1
 48
0.1
140
3.2
141
0.0
142
0.0
143
0.0393701
144
1.0
145
0.0
146
0.71
147
1.5
 71
     0
 72
     0
 73
     0
 74
     0
 75
     0
 76
     0
 77
     3
 78
     8
170
     0
171
     2
172
     1
173
     0
174
     0
175
     0
176
   256
177
   256
178
     2
270
     2
271
     2
272
     3
273
     2
274
     2
340
6B
275
     0
280
     0
281
     0
282
     0
283
     0
284
     0
285
     0
286
     0
287
     3
288
     0
  0
DIMSTYLE
105
63
330
A
100
AcDbSymbolTableRecord
100
AcDbDimStyleTableRecord
  2
AM_JIS$SF
 70
     0
  3

  4
"
  5
OPEN30
  6

  7

 40
0.5
 41
2.5
 42
1.0
 43
10.0
 44
1.0
 45
0.0
 46
0.0
 47
0.1
 48
0.1
140
3.2
141
0.0
142
0.0
143
0.0393701
144
1.0
145
0.0
146
0.71
147
1.5
 71
     0
 72
     0
 73
     0
 74
     0
 75
     1
 76
     1
 77
     3
 78
     8
170
     0
171
     2
172
     1
173
     0
174
     0
175
     0
176
   256
177
   256
178
     2
270
     2
271
     2
272
     2
273
     2
274
     2
340
6B
275
     0
280
     0
281
     0
282
     0
283
     0
284
     0
285
     0
286
     0
287
     3
288
     0
  0
DIMSTYLE
105
68
330
A
100
AcDbSymbolTableRecord
100
AcDbDimStyleTableRecord
  2
AM_JIS$SH
 70
     0
  3

  4
"
  5

  6
GENAXEH
  7
OPEN30
 40
0.5
 41
2.5
 42
1.0
 43
10.0
 44
1.0
 45
0.0
 46
0.0
 47
0.1
 48
0.1
140
3.2
141
0.0
142
0.0
143
0.0393701
144
2.0
145
0.0
146
0.71
147
1.5
 71
     0
 72
     0
 73
     0
 74
     0
 75
     1
 76
     1
 77
     3
 78
     8
170
     0
171
     2
172
     1
173
     1
174
     0
175
     0
176
   256
177
   256
178
     2
270
     2
271
     2
272
     2
273
     2
274
     2
340
6B
275
     0
280
     0
281
     0
282
     0
283
     0
284
     0
285
     0
286
     0
287
     3
288
     0
  0
DIMSTYLE
105
B34
102
{ACAD_REACTORS
330
277B
102
}
330
A
100
AcDbSymbolTableRecord
100
AcDbDimStyleTableRecord
  2
AM_JIS$2
 70
     0
  3

  4
"
  5
OPEN30
  6

  7

 40
0.5
 41
2.5
 42
1.0
 43
12.0
 44
1.0
 45
0.0
 46
0.0
 47
0.1
 48
0.1
140
3.2
141
0.0
142
0.0
143
0.0393701
144
1.0
145
0.0
146
0.71
147
1.5
 71
     0
 72
     0
 73
     0
 74
     0
 75
     0
 76
     0
 77
     3
 78
     8
170
     0
171
     2
172
     1
173
     0
174
     0
175
     0
176
   256
177
   256
178
     2
270
     2
271
     3
272
     3
273
     2
274
     2
340
6B
275
     0
280
     0
281
     0
282
     0
283
     0
284
     0
285
     0
286
     0
287
     3
288
     0
  0
ENDTAB
  0
TABLE
  2
BLOCK_RECORD
  5
1
330
0
100
AcDbSymbolTable
 70
    12
  0
BLOCK_RECORD
  5
1F
102
{ACAD_XDICTIONARY
360
74
102
}
330
1
100
AcDbSymbolTableRecord
100
AcDbBlockTableRecord
  2
*MODEL_SPACE
  0
BLOCK_RECORD
  5
101
102
{ACAD_XDICTIONARY
360
2A7B
102
}
330
1
100
AcDbSymbolTableRecord
100
AcDbBlockTableRecord
  2
*PAPER_SPACE
  0
BLOCK_RECORD
  5
59
330
1
100
AcDbSymbolTableRecord
100
AcDbBlockTableRecord
  2
_OPEN30
  0
BLOCK_RECORD
  5
64
330
1
100
AcDbSymbolTableRecord
100
AcDbBlockTableRecord
  2
GENAXEH
  0
BLOCK_RECORD
  5
194D
330
1
100
AcDbSymbolTableRecord
100
AcDbBlockTableRecord
  2
*D5
  0
BLOCK_RECORD
  5
195C
330
1
100
AcDbSymbolTableRecord
100
AcDbBlockTableRecord
  2
*D6
  0
BLOCK_RECORD
  5
1EF9
330
1
100
AcDbSymbolTableRecord
100
AcDbBlockTableRecord
  2
*D7
  0
BLOCK_RECORD
  5
212B
330
1
100
AcDbSymbolTableRecord
100
AcDbBlockTableRecord
  2
*D8
  0
BLOCK_RECORD
  5
213C
330
1
100
AcDbSymbolTableRecord
100
AcDbBlockTableRecord
  2
*D9
  0
BLOCK_RECORD
  5
21E1
330
1
100
AcDbSymbolTableRecord
100
AcDbBlockTableRecord
  2
*D10
  0
BLOCK_RECORD
  5
277C
330
1
100
AcDbSymbolTableRecord
100
AcDbBlockTableRecord
  2
*D11
  0
ENDTAB
  0
ENDSEC
  0
SECTION
  2
BLOCKS
  0
BLOCK
  5
20
330
1F
100
AcDbEntity
  8
0
100
AcDbBlockBegin
  2
*MODEL_SPACE
 70
     0
 10
0.0
 20
0.0
 30
0.0
  3
*MODEL_SPACE
  1

  0
ENDBLK
  5
21
330
1F
100
AcDbEntity
  8
0
100
AcDbBlockEnd
  0
BLOCK
  5
103
330
101
100
AcDbEntity
 67
     1
  8
0
100
AcDbBlockBegin
  2
*PAPER_SPACE
 70
     0
 10
0.0
 20
0.0
 30
0.0
  3
*PAPER_SPACE
  1

  0
ENDBLK
  5
104
330
101
100
AcDbEntity
 67
     1
  8
0
100
AcDbBlockEnd
  0
BLOCK
  5
5D
330
59
100
AcDbEntity
  8
0
100
AcDbBlockBegin
  2
_OPEN30
 70
     0
 10
0.0
 20
0.0
 30
0.0
  3
_OPEN30
  1

  0
LINE
  5
5A
330
59
100
AcDbEntity
  8
0
 62
     0
100
AcDbLine
 10
-1.0
 20
0.26794919
 30
0.0
 11
0.0
 21
0.0
 31
0.0
  0
LINE
  5
5B
330
59
100
AcDbEntity
  8
0
 62
     0
100
AcDbLine
 10
0.0
 20
0.0
 30
0.0
 11
-1.0
 21
-0.26794919
 31
0.0
  0
LINE
  5
5C
330
59
100
AcDbEntity
  8
0
 62
     0
100
AcDbLine
 10
0.0
 20
0.0
 30
0.0
 11
-1.0
 21
0.0
 31
0.0
  0
ENDBLK
  5
5E
330
59
100
AcDbEntity
  8
0
100
AcDbBlockEnd
  0
BLOCK
  5
66
330
64
100
AcDbEntity
  8
0
100
AcDbBlockBegin
  2
GENAXEH
 70
     0
 10
0.0
 20
0.0
 30
0.0
  3
GENAXEH
  1

  0
LINE
  5
65
330
64
100
AcDbEntity
  8
0
100
AcDbLine
 10
-1.0
 20
0.0
 30
0.0
 11
1.0
 21
0.0
 31
0.0
  0
ENDBLK
  5
67
330
64
100
AcDbEntity
  8
0
100
AcDbBlockEnd
  0
BLOCK
  5
1959
330
194D
100
AcDbEntity
  8
0
100
AcDbBlockBegin
  2
*D5
 70
     1
 10
0.0
 20
0.0
 30
0.0
  3
*D5
  1

  0
LINE
  5
2A01
330
194D
100
AcDbEntity
  8
AM_5
100
AcDbLine
 10
-0.9985931962230333
 20
-1.500000000000706
 30
0.0
 11
7.501406143453764
 21
-1.500000000000709
 31
0.0
  0
LINE
  5
2A02
330
194D
100
AcDbEntity
  8
AM_5
100
AcDbLine
 10
-0.9985931962230333
 20
1.499999999994709
 30
0.0
 11
7.501406143453765
 21
1.499999999994706
 31
0.0
  0
LINE
  5
2A03
330
194D
100
AcDbEntity
  8
AM_5
100
AcDbLine
 10
7.001406143453764
 20
-2.750000000000709
 30
0.0
 11
7.001406143453764
 21
-4.000000000000708
 31
0.0
  0
LINE
  5
2A04
330
194D
100
AcDbEntity
  8
AM_5
100
AcDbLine
 10
7.001406143453766
 20
2.749999999994706
 30
0.0
 11
7.001406143453767
 21
8.01428571428042
 31
0.0
  0
LINE
  5
2A05
330
194D
100
AcDbEntity
  8
AM_5
100
AcDbLine
 10
7.001406143453765
 20
-1.500000000000708
 30
0.0
 11
7.001406143453765
 21
1.499999999994707
 31
0.0
  0
INSERT
  5
2A06
330
194D
100
AcDbEntity
  8
AM_5
100
AcDbBlockReference
  2
_OPEN30
 10
7.001406143453765
 20
-1.500000000000708
 30
0.0
 41
1.25
 42
1.25
 43
1.25
 50
90.0
  0
INSERT
  5
2A07
330
194D
100
AcDbEntity
  8
AM_5
100
AcDbBlockReference
  2
_OPEN30
 10
7.001406143453765
 20
1.499999999994707
 30
0.0
 41
1.25
 42
1.25
 43
1.25
 50
270.0
  0
MTEXT
  5
2A08
330
194D
100
AcDbEntity
  8
AM_5
 62
     2
100
AcDbMText
 10
5.451406143453764
 20
6.007142857137566
 30
0.0
 40
1.6
 41
0.0
 71
     5
 72
     1
  1
%%c3
  7
ASAMI
 11
0.0000000000000001
 21
1.0
 31
0.0
1001
ACAD
1000
MTEXTBEGIN
1070
    73
1070
     1
1070
    44
1040
1.0
1070
    74
1070
     0
1000
MTEXTEND
  0
POINT
  5
2A09
330
194D
100
AcDbEntity
  8
DEFPOINTS
 62
     0
100
AcDbPoint
 10
-1.498593196223033
 20
-1.500000000000706
 30
0.0
  0
POINT
  5
2A0A
330
194D
100
AcDbEntity
  8
DEFPOINTS
 62
     0
100
AcDbPoint
 10
-1.498593196223033
 20
1.499999999994709
 30
0.0
  0
POINT
  5
2A0B
330
194D
100
AcDbEntity
  8
DEFPOINTS
 62
     0
100
AcDbPoint
 10
7.001406143453765
 20
1.499999999994707
 30
0.0
  0
ENDBLK
  5
195A
330
194D
100
AcDbEntity
  8
0
100
AcDbBlockEnd
  0
BLOCK
  5
1968
330
195C
100
AcDbEntity
  8
0
100
AcDbBlockBegin
  2
*D6
 70
     1
 10
0.0
 20
0.0
 30
0.0
  3
*D6
  1

  0
LINE
  5
2A27
330
195C
100
AcDbEntity
  8
AM_5
100
AcDbLine
 10
-7.999500000000007
 20
-1.985776259992063
 30
0.0
 11
-7.999500000000008
 21
-10.87500000000018
 31
0.0
  0
LINE
  5
2A28
330
195C
100
AcDbEntity
  8
AM_5
100
AcDbLine
 10
-0.0000000000000569
 20
-0.5085193334740455
 30
0.0
 11
-0.0000000000000575
 21
-10.87500000000018
 31
0.0
  0
LINE
  5
2A29
330
195C
100
AcDbEntity
  8
AM_5
100
AcDbLine
 10
-6.749500000000008
 20
-10.37500000000018
 30
0.0
 11
-1.250000000000057
 21
-10.37500000000018
 31
0.0
  0
INSERT
  5
2A2A
330
195C
100
AcDbEntity
  8
AM_5
100
AcDbBlockReference
  2
_OPEN30
 10
-7.999500000000008
 20
-10.37500000000018
 30
0.0
 41
1.25
 42
1.25
 43
1.25
 50
180.0
  0
INSERT
  5
2A2B
330
195C
100
AcDbEntity
  8
AM_5
100
AcDbBlockReference
  2
_OPEN30
 10
-0.0000000000000575
 20
-10.37500000000018
 30
0.0
 41
1.25
 42
1.25
 43
1.25
  0
MTEXT
  5
2A2C
330
195C
100
AcDbEntity
  8
AM_5
 62
     2
100
AcDbMText
 10
-3.999750000000032
 20
-8.82500000000018
 30
0.0
 40
1.6
 41
0.0
 71
     5
 72
     1
  1
8
  7
ASAMI
1001
ACAD
1000
MTEXTBEGIN
1070
    73
1070
     1
1070
    44
1040
1.0
1070
    74
1070
     0
1000
MTEXTEND
  0
POINT
  5
2A2D
330
195C
100
AcDbEntity
  8
DEFPOINTS
 62
     0
100
AcDbPoint
 10
-7.999500000000007
 20
-1.485776259992063
 30
0.0
  0
POINT
  5
2A2E
330
195C
100
AcDbEntity
  8
DEFPOINTS
 62
     0
100
AcDbPoint
 10
-0.0000000000000568
 20
-0.0085193334740455
 30
0.0
  0
POINT
  5
2A2F
330
195C
100
AcDbEntity
  8
DEFPOINTS
 62
     0
100
AcDbPoint
 10
-0.0000000000000575
 20
-10.37500000000018
 30
0.0
  0
ENDBLK
  5
1969
330
195C
100
AcDbEntity
  8
0
100
AcDbBlockEnd
  0
BLOCK
  5
1F00
330
1EF9
100
AcDbEntity
  8
0
100
AcDbBlockBegin
  2
*D7
 70
     1
 10
0.0
 20
0.0
 30
0.0
  3
*D7
  1

  0
LINE
  5
29FC
330
1EF9
100
AcDbEntity
  8
AM_5
100
AcDbLine
 10
0.0538989276877264
 20
-2.269860833876466
 30
0.0
 11
5.297747394920175
 21
-9.936763661422178
 31
0.0
  0
INSERT
  5
29FD
330
1EF9
100
AcDbEntity
  8
AM_5
100
AcDbBlockReference
  2
_OPEN30
 10
-0.6517793104548762
 20
-1.238105909385213
 30
0.0
 41
1.25
 42
1.25
 43
1.25
 50
124.3705340065254
  0
MTEXT
  5
29FE
330
1EF9
100
AcDbEntity
  8
AM_5
 62
     2
100
AcDbMText
 10
4.841827109971044
 20
-6.52458815561448
 30
0.0
 40
1.6
 41
0.0
 71
     5
 72
     1
  1
R1.5
  7
ASAMI
 11
0.5645425905140817
 21
-0.825403939593003
 31
0.0
1001
ACAD
1000
MTEXTBEGIN
1070
    73
1070
     1
1070
    44
1040
1.0
1070
    74
1070
     0
1000
MTEXTEND
  0
POINT
  5
29FF
330
1EF9
100
AcDbEntity
  8
DEFPOINTS
 62
     0
100
AcDbPoint
 10
-0.6517793104548762
 20
-1.238105909385213
 30
0.0
  0
POINT
  5
2A00
330
1EF9
100
AcDbEntity
  8
DEFPOINTS
 62
     0
100
AcDbPoint
 10
-1.498593196223034
 20
-0.000000000000041
 30
0.0
  0
ENDBLK
  5
1F01
330
1EF9
100
AcDbEntity
  8
0
100
AcDbBlockEnd
  0
BLOCK
  5
2135
330
212B
100
AcDbEntity
  8
0
100
AcDbBlockBegin
  2
*D8
 70
     1
 10
0.0
 20
0.0
 30
0.0
  3
*D8
  1

  0
LINE
  5
29D3
330
212B
100
AcDbEntity
  8
AM_5
100
AcDbLine
 10
-90.00000000000007
 20
-2.750000000000006
 30
0.0
 11
-90.00000000000007
 21
-22.87499999999997
 31
0.0
  0
LINE
  5
29D4
330
212B
100
AcDbEntity
  8
AM_5
100
AcDbLine
 10
-0.0000000000000569
 20
-0.5000000000000023
 30
0.0
 11
-0.0000000000000582
 21
-22.87499999999997
 31
0.0
  0
LINE
  5
29D5
330
212B
100
AcDbEntity
  8
AM_5
100
AcDbLine
 10
-88.75000000000007
 20
-22.37499999999998
 30
0.0
 11
-1.250000000000058
 21
-22.37499999999998
 31
0.0
  0
INSERT
  5
29D6
330
212B
100
AcDbEntity
  8
AM_5
100
AcDbBlockReference
  2
_OPEN30
 10
-90.00000000000007
 20
-22.37499999999998
 30
0.0
 41
1.25
 42
1.25
 43
1.25
 50
180.0
  0
INSERT
  5
29D7
330
212B
100
AcDbEntity
  8
AM_5
100
AcDbBlockReference
  2
_OPEN30
 10
-0.0000000000000582
 20
-22.37499999999998
 30
0.0
 41
1.25
 42
1.25
 43
1.25
  0
MTEXT
  5
29D8
330
212B
100
AcDbEntity
  8
AM_5
 62
     2
100
AcDbMText
 10
-45.00000000000006
 20
-20.82499999999997
 30
0.0
 40
1.6
 41
0.0
 71
     5
 72
     1
  1
90
  7
ASAMI
1001
ACAD
1000
MTEXTBEGIN
1070
    73
1070
     1
1070
    44
1040
1.0
1070
    74
1070
     0
1000
MTEXTEND
  0
POINT
  5
29D9
330
212B
100
AcDbEntity
  8
DEFPOINTS
 62
     0
100
AcDbPoint
 10
-90.00000000000007
 20
-2.250000000000006
 30
0.0
  0
POINT
  5
29DA
330
212B
100
AcDbEntity
  8
DEFPOINTS
 62
     0
100
AcDbPoint
 10
-0.0000000000000568
 20
-0.0000000000000022
 30
0.0
  0
POINT
  5
29DB
330
212B
100
AcDbEntity
  8
DEFPOINTS
 62
     0
100
AcDbPoint
 10
-0.0000000000000582
 20
-22.37499999999998
 30
0.0
  0
ENDBLK
  5
2136
330
212B
100
AcDbEntity
  8
0
100
AcDbBlockEnd
  0
BLOCK
  5
2148
330
213C
100
AcDbEntity
  8
0
100
AcDbBlockBegin
  2
*D9
 70
     1
 10
0.0
 20
0.0
 30
0.0
  3
*D9
  1

  0
LINE
  5
2958
330
213C
100
AcDbEntity
  8
AM_5
100
AcDbLine
 10
-90.00000000000007
 20
-3.000000000000006
 30
0.0
 11
-97.50000000000007
 21
-3.000000000000003
 31
0.0
  0
LINE
  5
2959
330
213C
100
AcDbEntity
  8
AM_5
100
AcDbLine
 10
-90.00000000000007
 20
2.999999999999998
 30
0.0
 11
-97.50000000000007
 21
3.0
 31
0.0
  0
LINE
  5
295A
330
213C
100
AcDbEntity
  8
AM_5
100
AcDbLine
 10
-97.00000000000008
 20
-4.250000000000004
 30
0.0
 11
-97.00000000000008
 21
-5.500000000000004
 31
0.0
  0
LINE
  5
295B
330
213C
100
AcDbEntity
  8
AM_5
100
AcDbLine
 10
-97.00000000000008
 20
4.25
 30
0.0
 11
-97.00000000000008
 21
5.5
 31
0.0
  0
LINE
  5
295C
330
213C
100
AcDbEntity
  8
AM_5
100
AcDbLine
 10
-97.00000000000008
 20
-3.000000000000003
 30
0.0
 11
-97.00000000000008
 21
3.0
 31
0.0
  0
INSERT
  5
295D
330
213C
100
AcDbEntity
  8
AM_5
100
AcDbBlockReference
  2
_OPEN30
 10
-97.00000000000008
 20
-3.000000000000003
 30
0.0
 41
1.25
 42
1.25
 43
1.25
 50
90.0
  0
INSERT
  5
295E
330
213C
100
AcDbEntity
  8
AM_5
100
AcDbBlockReference
  2
_OPEN30
 10
-97.00000000000008
 20
3.0
 30
0.0
 41
1.25
 42
1.25
 43
1.25
 50
270.0
  0
MTEXT
  5
295F
330
213C
100
AcDbEntity
  8
AM_5
 62
     2
100
AcDbMText
 10
-98.55000000000007
 20
-0.0000000000000189
 30
0.0
 40
1.6
 41
0.0
 71
     5
 72
     1
  1
%%c6
  7
ASAMI
 11
0.0000000000000001
 21
1.0
 31
0.0
1001
ACAD
1000
MTEXTBEGIN
1070
    73
1070
     1
1070
    44
1040
1.0
1070
    74
1070
     0
1000
MTEXTEND
  0
POINT
  5
2960
330
213C
100
AcDbEntity
  8
DEFPOINTS
 62
     0
100
AcDbPoint
 10
-89.50000000000008
 20
-3.000000000000006
 30
0.0
  0
POINT
  5
2961
330
213C
100
AcDbEntity
  8
DEFPOINTS
 62
     0
100
AcDbPoint
 10
-89.50000000000008
 20
2.999999999999998
 30
0.0
  0
POINT
  5
2962
330
213C
100
AcDbEntity
  8
DEFPOINTS
 62
     0
100
AcDbPoint
 10
-97.00000000000008
 20
3.0
 30
0.0
  0
ENDBLK
  5
2149
330
213C
100
AcDbEntity
  8
0
100
AcDbBlockEnd
  0
BLOCK
  5
21EB
330
21E1
100
AcDbEntity
  8
0
100
AcDbBlockBegin
  2
*D10
 70
     1
 10
0.0
 20
0.0
 30
0.0
  3
*D10
  1

  0
LINE
  5
29F3
330
21E1
100
AcDbEntity
  8
AM_5
100
AcDbLine
 10
-50.02075245616141
 20
-3.045679605337387
 30
0.0
 11
-50.02075245616141
 21
-16.87500000000004
 31
0.0
  0
LINE
  5
29F4
330
21E1
100
AcDbEntity
  8
AM_5
100
AcDbLine
 10
-0.0000000000000569
 20
-0.5000000000000023
 30
0.0
 11
-0.0000000000000579
 21
-16.87500000000004
 31
0.0
  0
LINE
  5
29F5
330
21E1
100
AcDbEntity
  8
AM_5
100
AcDbLine
 10
-48.77075245616141
 20
-16.37500000000004
 30
0.0
 11
-1.250000000000057
 21
-16.37500000000004
 31
0.0
  0
INSERT
  5
29F6
330
21E1
100
AcDbEntity
  8
AM_5
100
AcDbBlockReference
  2
_OPEN30
 10
-50.02075245616141
 20
-16.37500000000004
 30
0.0
 41
1.25
 42
1.25
 43
1.25
 50
180.0
  0
INSERT
  5
29F7
330
21E1
100
AcDbEntity
  8
AM_5
100
AcDbBlockReference
  2
_OPEN30
 10
-0.0000000000000578
 20
-16.37500000000004
 30
0.0
 41
1.25
 42
1.25
 43
1.25
  0
MTEXT
  5
29F8
330
21E1
100
AcDbEntity
  8
AM_5
 62
     2
100
AcDbMText
 10
-25.01037622808073
 20
-14.82500000000004
 30
0.0
 40
1.6
 41
0.0
 71
     5
 72
     1
  1
50
  7
ASAMI
1001
ACAD
1000
MTEXTBEGIN
1070
    73
1070
     1
1070
    44
1040
1.0
1070
    74
1070
     0
1000
MTEXTEND
  0
POINT
  5
29F9
330
21E1
100
AcDbEntity
  8
DEFPOINTS
 62
     0
100
AcDbPoint
 10
-50.02075245616141
 20
-2.545679605337387
 30
0.0
  0
POINT
  5
29FA
330
21E1
100
AcDbEntity
  8
DEFPOINTS
 62
     0
100
AcDbPoint
 10
-0.0000000000000568
 20
-0.0000000000000022
 30
0.0
  0
POINT
  5
29FB
330
21E1
100
AcDbEntity
  8
DEFPOINTS
 62
     0
100
AcDbPoint
 10
-0.0000000000000578
 20
-16.37500000000004
 30
0.0
  0
ENDBLK
  5
21EC
330
21E1
100
AcDbEntity
  8
0
100
AcDbBlockEnd
  0
BLOCK
  5
278C
330
277C
100
AcDbEntity
  8
0
100
AcDbBlockBegin
  2
*D11
 70
     1
 10
0.0
 20
0.0
 30
0.0
  3
*D11
  1

  0
ARC
  5
2A7D
330
277C
100
AcDbEntity
  8
AM_5
100
AcDbCircle
 10
47.19482953553342
 20
-0.0000000000000036
 30
0.0
 40
71.24882385237137
100
AcDbArc
 50
177.9895628007533
 51
178.9947814003767
  0
ARC
  5
2A7E
330
277C
100
AcDbEntity
  8
AM_5
100
AcDbCircle
 10
47.19482953553342
 20
-0.0000000000000036
 30
0.0
 40
71.24882385237137
100
AcDbArc
 50
182.5052185996233
 51
183.5104371992466
  0
ARC
  5
2A7F
330
277C
100
AcDbEntity
  8
AM_5
100
AcDbCircle
 10
47.19482953553342
 20
-0.0000000000000036
 30
0.0
 40
71.24882385237137
100
AcDbArc
 50
180.0
 51
181.4999999999999
  0
INSERT
  5
2A80
330
277C
100
AcDbEntity
  8
AM_5
100
AcDbBlockReference
  2
_OPEN30
 10
-24.05399431683794
 20
-0.0000000000000011
 30
0.0
 41
1.25
 42
1.25
 43
1.25
 50
269.4973907001882
  0
INSERT
  5
2A81
330
277C
100
AcDbEntity
  8
AM_5
100
AcDbBlockReference
  2
_OPEN30
 10
-24.02957912438282
 20
-1.865076778980296
 30
0.0
 41
1.25
 42
1.25
 43
1.25
 50
92.00260929981167
  0
MTEXT
  5
2A82
330
277C
100
AcDbEntity
  8
AM_5
 62
     2
100
AcDbMText
 10
-19.78766997213956
 20
-5.144526296753848
 30
0.0
 40
1.6
 41
0.0
 71
     5
 72
     1
  1
1°30'
  7
ASAMI
  0
POINT
  5
2A83
330
277C
100
AcDbEntity
  8
DEFPOINTS
 62
     0
100
AcDbPoint
 10
-24.05128137994424
 20
-0.6217553905651359
 30
0.0
  0
POINT
  5
2A84
330
277C
100
AcDbEntity
  8
DEFPOINTS
 62
     0
100
AcDbPoint
 10
-30.01435121393456
 20
-2.02179355152675
 30
0.0
  0
POINT
  5
2A85
330
277C
100
AcDbEntity
  8
DEFPOINTS
 62
     0
100
AcDbPoint
 10
-108.5773098228695
 20
-0.0000000000000036
 30
0.0
  0
POINT
  5
2A86
330
277C
100
AcDbEntity
  8
DEFPOINTS
 62
     0
100
AcDbPoint
 10
1.99429483361181
 20
-0.0000000000000035
 30
0.0
  0
POINT
  5
2A87
330
277C
100
AcDbEntity
  8
DEFPOINTS
 62
     0
100
AcDbPoint
 10
-10.49929766772142
 20
-1.510773889947129
 30
0.0
  0
ENDBLK
  5
278D
330
277C
100
AcDbEntity
  8
0
100
AcDbBlockEnd
  0
ENDSEC
  0
SECTION
  2
ENTITIES
  0
LINE
  5
C50
330
1F
100
AcDbEntity
  8
AM_7
100
AcDbLine
 10
-92.38487321524642
 20
-0.0000000000000036
 30
0.0
 11
1.32952988907452
 21
-0.0000000000000036
 31
0.0
1001
GENIUS_GENODEF_13
1002
{
1000
HIER
1070
     0
1002
}
1002
{
1000
MANEDIT
1070
     0
1002
}
1002
{
1000
NOSEL
1070
     0
1002
}
1002
{
1000
BEHIND
1070
     0
1002
}
1002
{
1000
REACTOR
1002
}
1001
GENIUS_GENOBJ-N-CEN_13
1002
{
1000
OWNER
1000
GEN
1002
}
  0
TEXT
  5
C58
330
1F
100
AcDbEntity
  8
AM_6
100
AcDbText
 10
-60.47619047619053
 20
-33.62500000000003
 30
0.0
 40
2.5
  1
PSNB2030ZX-15
 50
0.0000000000002036
 72
     4
 11
-45.00000000000006
 21
-32.37499999999998
 31
0.0
100
AcDbText
  0
DIMENSION
  5
194C
330
1F
100
AcDbEntity
  8
AM_5
100
AcDbDimension
  2
*D5
 10
7.001406143453765
 20
1.499999999994707
 30
0.0
 11
5.451406143453764
 21
6.007142857137566
 31
0.0
 70
    32
  1
%%c<>
  3
AM_JIS
100
AcDbAlignedDimension
 13
-1.498593196223033
 23
-1.500000000000706
 33
0.0
 14
-1.498593196223033
 24
1.499999999994709
 34
0.0
 50
90.00000000000003
100
AcDbRotatedDimension
1001
ACAD
1000
DSTYLE
1002
{
1070
    48
1040
0.05
1070
    47
1040
0.0
1070
   274
1070
     1
1070
   272
1070
     2
1002
}
1001
GENIUS_GENDTOL_13
1000

1000
H7
1000

1040
0.0
  0
DIMENSION
  5
195B
330
1F
100
AcDbEntity
  8
AM_5
100
AcDbDimension
  2
*D6
 10
-0.0000000000000575
 20
-10.37500000000018
 30
0.0
 11
-3.999750000000032
 21
-8.82500000000018
 31
0.0
 70
    32
  1
<>
  3
AM_JIS
100
AcDbAlignedDimension
 13
-7.999500000000007
 23
-1.485776259992063
 33
0.0
 14
-0.0000000000000568
 24
-0.0085193334740455
 34
0.0
 50
359.9999999999988
100
AcDbRotatedDimension
1001
GENIUS_GENDTOL_13
1000

1000
H7
1000

1040
0.0
  0
LINE
  5
1C97
330
1F
100
AcDbEntity
  8
AM_11
 48
0.4
100
AcDbLine
 10
-7.999500000000006
 20
1.500000000005208
 30
0.0
 11
-7.999500000000006
 21
-1.499999999994791
 31
0.0
  0
ARC
  5
1C9A
330
1F
100
AcDbEntity
  8
AM_11
100
AcDbCircle
 10
-1.499999999994817
 20
0.0000000000000081
 30
0.0
 40
1.49999999999475
100
AcDbArc
 50
270.0
 51
90.0
  0
LINE
  5
1CA1
330
1F
100
AcDbEntity
  8
AM_11
100
AcDbLine
 10
-7.999500000000006
 20
-1.499999999994791
 30
0.0
 11
-1.498593196223033
 21
-1.499999999994791
 31
0.0
1001
GENIUS_GENODEF_13
1002
{
1000
HIER
1070
     0
1002
}
1002
{
1000
MANEDIT
1070
     0
1002
}
1002
{
1000
NOSEL
1070
     0
1002
}
1002
{
1000
BEHIND
1070
     0
1002
}
1002
{
1000
REACTOR
1002
}
1001
GENIUS_GENOBJ-N-CEN_13
1002
{
1000
OWNER
1000
GEN
1002
}
  0
LINE
  5
1CB1
330
1F
100
AcDbEntity
  8
AM_11
100
AcDbLine
 10
-7.998500000000007
 20
1.500000000005208
 30
0.0
 11
-1.498593196223033
 21
1.500000000005208
 31
0.0
1001
GENIUS_GENODEF_13
1002
{
1000
HIER
1070
     0
1002
}
1002
{
1000
MANEDIT
1070
     0
1002
}
1002
{
1000
NOSEL
1070
     0
1002
}
1002
{
1000
BEHIND
1070
     0
1002
}
1002
{
1000
REACTOR
1002
}
1001
GENIUS_GENOBJ-N-CEN_13
1002
{
1000
OWNER
1000
GEN
1002
}
  0
DIMENSION
  5
1EF8
330
1F
100
AcDbEntity
  8
AM_5
100
AcDbDimension
  2
*D7
 10
-1.498593196223034
 20
-0.000000000000041
 30
0.0
 11
3.562451003601889
 21
-7.399629170911308
 31
0.0
 70
   164
  1
<>
  3
AM_JIS$4
100
AcDbRadialDimension
 15
-0.6517793104548762
 25
-1.238105909385213
 35
0.0
 40
0.0
1001
ACAD
1000
DSTYLE
1002
{
1070
   271
1070
     3
1070
   288
1070
     1
1070
   289
1070
     0
1070
    74
1070
     0
1002
}
1001
GENIUS_GENDTOL_13
1000

1000
h7
1000

1040
0.0
  0
LINE
  5
2062
330
1F
100
AcDbEntity
  8
AM_0
100
AcDbLine
 10
-10.4992965981142
 20
1.496550121929808
 30
0.0
 11
-10.4992965981142
 21
0.9240302980500423
 31
0.0
  0
LINE
  5
2128
330
1F
100
AcDbEntity
  8
AM_0
100
AcDbLine
 10
-89.50000000000008
 20
2.999999999999993
 30
0.0
 11
-50.40000000000007
 21
2.999999999999993
 31
0.0
1001
GENIUS_GENODEF_13
1002
{
1000
HIER
1070
     0
1002
}
1002
{
1000
MANEDIT
1070
     0
1002
}
1002
{
1000
NOSEL
1070
     0
1002
}
1002
{
1000
BEHIND
1070
     0
1002
}
1002
{
1000
REACTOR
1002
}
1001
GENIUS_GENOBJ-N-CEN_13
1002
{
1000
OWNER
1000
GEN
1002
}
  0
LINE
  5
2129
330
1F
100
AcDbEntity
  8
AM_0
100
AcDbLine
 10
-89.50000000000008
 20
-3.000000000000006
 30
0.0
 11
-50.40000000000007
 21
-3.000000000000006
 31
0.0
1001
GENIUS_GENODEF_13
1002
{
1000
HIER
1070
     0
1002
}
1002
{
1000
MANEDIT
1070
     0
1002
}
1002
{
1000
NOSEL
1070
     0
1002
}
1002
{
1000
BEHIND
1070
     0
1002
}
1002
{
1000
REACTOR
1002
}
1001
GENIUS_GENOBJ-N-CEN_13
1002
{
1000
OWNER
1000
GEN
1002
}
  0
DIMENSION
  5
212A
330
1F
100
AcDbEntity
  8
AM_5
100
AcDbDimension
  2
*D8
 10
-0.0000000000000582
 20
-22.37499999999998
 30
0.0
 11
-45.00000000000006
 21
-20.82499999999997
 31
0.0
 70
    32
  1
<>
  3
AM_JIS
100
AcDbAlignedDimension
 13
-90.00000000000007
 23
-2.250000000000006
 33
0.0
 14
-0.0000000000000568
 24
-0.0000000000000022
 34
0.0
 50
0.0000000000003053
100
AcDbRotatedDimension
1001
GENIUS_GENDTOL_13
1000

1000
H7
1000

1040
0.0
  0
LINE
  5
2137
330
1F
100
AcDbEntity
  8
AM_0
100
AcDbLine
 10
-90.00000000000007
 20
2.249999999999993
 30
0.0
 11
-89.50000000000008
 21
2.999999999999993
 31
0.0
1001
GENIUS_GENFIL_13
1070
     0
1040
0.5
1040
0.5
1040
0.4999999999999716
1040
45.0
1002
{
1002
}
  0
LINE
  5
2138
330
1F
100
AcDbEntity
  8
AM_0
100
AcDbLine
 10
-90.00000000000007
 20
-2.250000000000006
 30
0.0
 11
-89.50000000000008
 21
-3.000000000000006
 31
0.0
1001
GENIUS_GENFIL_13
1070
     0
1040
0.5
1040
0.5
1040
0.4999999999999716
1040
45.00000000000036
1002
{
1002
}
  0
LINE
  5
2139
330
1F
100
AcDbEntity
  8
0
100
AcDbLine
 10
-89.50000000000008
 20
-3.000000000000006
 30
0.0
 11
-89.50000000000008
 21
2.999999999999993
 31
0.0
  0
LINE
  5
213A
330
1F
100
AcDbEntity
  8
AM_0
100
AcDbLine
 10
-90.00000000000007
 20
-2.250000000000006
 30
0.0
 11
-90.00000000000007
 21
2.249999999999993
 31
0.0
  0
DIMENSION
  5
213B
330
1F
100
AcDbEntity
  8
AM_5
100
AcDbDimension
  2
*D9
 10
-97.00000000000008
 20
3.0
 30
0.0
 11
-97.00000000000008
 21
-0.0000000000000191
 31
0.0
 70
   160
  1
%%c<>
  3
AM_JIS
100
AcDbAlignedDimension
 13
-89.50000000000008
 23
-3.000000000000006
 33
0.0
 14
-89.50000000000008
 24
2.999999999999998
 34
0.0
 50
270.0
100
AcDbRotatedDimension
1001
ACAD
1000
DSTYLE
1002
{
1070
    48
1040
0.1
1070
    47
1040
0.1
1070
   274
1070
     2
1070
   272
1070
     3
1002
}
1001
GENIUS_GENDTOL_13
1000

1000
h6
1000

1040
0.0
  0
LINE
  5
2165
330
1F
100
AcDbEntity
  8
AM_0
100
AcDbLine
 10
-50.40000000000007
 20
-3.000000000000006
 30
0.0
 11
-50.40000000000007
 21
2.999999999999993
 31
0.0
  0
LINE
  5
2167
330
1F
100
AcDbEntity
  8
AM_0
100
AcDbLine
 10
-50.40000000000007
 20
-3.000000000000006
 30
0.0
 11
-50.02075245616141
 21
-2.620752456161347
 31
0.0
  0
LINE
  5
2169
330
1F
100
AcDbEntity
  8
AM_0
100
AcDbLine
 10
-50.02075245616141
 20
-2.545679605337387
 30
0.0
 11
-10.49929766772142
 21
-1.51077388994713
 31
0.0
1001
GENIUS_GENODEF_13
1002
{
1000
HIER
1070
     0
1002
}
1002
{
1000
MANEDIT
1070
     0
1002
}
1002
{
1000
NOSEL
1070
     0
1002
}
1002
{
1000
BEHIND
1070
     0
1002
}
1002
{
1000
REACTOR
1002
}
1001
GENIUS_GENOBJ-N-CEN_13
1002
{
1000
OWNER
1000
GEN
1002
}
  0
LINE
  5
21C6
330
1F
100
AcDbEntity
  8
AM_0
100
AcDbLine
 10
-50.02075245616141
 20
2.531455865328716
 30
0.0
 11
-10.4992965981142
 21
1.496550121929808
 31
0.0
1001
GENIUS_GENODEF_13
1002
{
1000
HIER
1070
     0
1002
}
1002
{
1000
MANEDIT
1070
     0
1002
}
1002
{
1000
NOSEL
1070
     0
1002
}
1002
{
1000
BEHIND
1070
     0
1002
}
1002
{
1000
REACTOR
1002
}
1001
GENIUS_GENOBJ-N-CEN_13
1002
{
1000
OWNER
1000
GEN
1002
}
  0
LINE
  5
21C7
330
1F
100
AcDbEntity
  8
AM_0
100
AcDbLine
 10
-50.40000000000007
 20
2.999999999999999
 30
0.0
 11
-50.02075245616141
 21
2.620752456161329
 31
0.0
  0
DIMENSION
  5
21E0
330
1F
100
AcDbEntity
  8
AM_5
100
AcDbDimension
  2
*D10
 10
-0.0000000000000578
 20
-16.37500000000004
 30
0.0
 11
-25.01037622808073
 21
-14.82500000000004
 31
0.0
 70
    32
  1
<>
  3
AM_JIS
100
AcDbAlignedDimension
 13
-50.02075245616141
 23
-2.545679605337387
 33
0.0
 14
-0.0000000000000568
 24
-0.0000000000000022
 34
0.0
 50
0.0000000000001132
100
AcDbRotatedDimension
1001
GENIUS_GENDTOL_13
1000

1000
h7
1000

1040
0.0
1001
ACAD
1000
DSTYLE
1002
{
1070
   271
1070
     1
1002
}
  0
ARC
  5
25B1
330
1F
100
AcDbEntity
  8
AM_0
100
AcDbCircle
 10
-3.097394127352451
 20
-2.948226320238336
 30
0.0
 40
4.276200277758651
100
AcDbArc
 50
43.58658807454651
 51
77.03581367599415
  0
LINE
  5
25B2
330
1F
100
AcDbEntity
  8
AM_0
100
AcDbLine
 10
-1.261471896508589
 20
0.3687112739620097
 30
0.0
 11
-0.2420999999991951
 21
-0.1066296478882763
 31
0.0
  0
ARC
  5
25B3
330
1F
100
AcDbEntity
  8
AM_0
100
AcDbCircle
 10
-1.493403153058697
 20
-0.1405240990677116
 30
0.0
 40
1.499999999994751
100
AcDbArc
 50
5.375507822153728
 51
90.25198180382437
  0
SPLINE
  5
25B4
330
1F
100
AcDbEntity
  8
AM_0
100
AcDbSpline
210
0.0
220
0.0
230
1.0
 70
     8
 71
     3
 72
     8
 73
     4
 74
     0
 42
0.0000000001
 43
0.0000000001
 40
3.790408995970492
 40
3.790408995970492
 40
3.790408995970492
 40
3.790408995970492
 40
5.485524909568358
 40
5.485524909568358
 40
5.485524909568358
 40
5.485524909568358
 10
-1.499999999990795
 20
1.359461394727112
 30
0.0
 10
-1.662409582520092
 20
1.319562314022693
 30
0.0
 10
-1.823470076132104
 20
1.27208405271143
 30
0.0
 10
-1.9833952144946
 20
1.218227366391978
 30
0.0
  0
SPLINE
  5
25B5
330
1F
100
AcDbEntity
  8
AM_0
100
AcDbSpline
210
0.0
220
0.0
230
1.0
 70
     8
 71
     3
 72
     8
 73
     4
 74
     2
 42
0.0000000001
 43
0.0000000001
 44
0.0000000001
 12
0.6039933128154179
 22
-0.7969893839156561
 32
0.0
 40
0.0
 40
0.0
 40
0.0
 40
0.0
 40
0.6001069640369903
 40
0.6001069640369903
 40
0.6001069640369903
 40
0.6001069640369903
 10
-1.499999999990667
 20
1.359461394727112
 30
0.0
 10
-1.379179802239899
 20
1.200035101543333
 30
0.0
 10
-1.73135313140731
 20
1.209703194626891
 30
0.0
 10
-2.083526460574721
 20
1.219371287710447
 30
0.0
 11
-1.499999999990667
 21
1.359461394727112
 31
0.0
 11
-2.083526460574721
 21
1.219371287710447
 31
0.0
  0
SPLINE
  5
25B6
330
1F
100
AcDbEntity
  8
AM_0
100
AcDbSpline
210
0.0
220
0.0
230
1.0
 70
     8
 71
     3
 72
     8
 73
     4
 74
     2
 42
0.0000000001
 43
0.0000000001
 44
0.0000000001
 12
-0.9063077870366491
 22
0.4226182617407012
 32
0.0
 13
0.9900295272873002
 23
-0.1408599840241551
 33
0.0
 40
0.0
 40
0.0
 40
0.0
 40
0.0
 40
1.166016314881275
 40
1.166016314881275
 40
1.166016314881275
 40
1.166016314881275
 10
-1.277936724123205
 20
0.3763889491688487
 30
0.0
 10
-1.630193279452764
 20
0.5406488785543229
 30
0.0
 10
-2.468323320918589
 20
1.274119634205808
 30
0.0
 10
-2.08352646057486
 20
1.219371287710447
 30
0.0
 11
-1.277936724123205
 21
0.3763889491688487
 31
0.0
 11
-2.08352646057486
 21
1.219371287710447
 31
0.0
  0
LINE
  5
25B8
330
1F
100
AcDbEntity
  8
AM_0
100
AcDbLine
 10
-0.0000000000000568
 20
-0.0000000000000022
 30
0.0
 11
-0.2420999999991951
 21
-0.1066296478882763
 31
0.0
  0
SPLINE
  5
25B9
330
1F
100
AcDbEntity
  8
AM_0
100
AcDbSpline
210
0.0
220
0.0
230
1.0
 70
     8
 71
     3
 72
     8
 73
     4
 74
     2
 42
0.0000000001
 43
0.0000000001
 44
0.0000000001
 12
-0.0000000000000001
 22
-1.0
 32
0.0
 13
-1.0
 23
0.0000000000000001
 33
0.0
 40
0.0
 40
0.0
 40
0.0
 40
0.0
 40
0.2626429936708353
 40
0.2626429936708353
 40
0.2626429936708353
 40
0.2626429936708353
 10
-1.107999688292683
 20
-0.7309358669546741
 30
0.0
 10
-1.107999688292683
 20
-0.818483531511619
 30
0.0
 10
-1.236762897269851
 20
-0.8799021319789661
 30
0.0
 10
-1.324310561826796
 20
-0.8799021319789661
 30
0.0
 11
-1.107999688292683
 21
-0.7309358669546741
 31
0.0
 11
-1.324310561826796
 21
-0.8799021319789661
 31
0.0
  0
ARC
  5
25BB
330
1F
100
AcDbEntity
  8
AM_0
100
AcDbCircle
 10
-0.1722385219448208
 20
-0.0398031563843625
 30
0.0
 40
1.163319983523426
100
AcDbArc
 50
159.4415606715376
 51
216.4487634976257
  0
ARC
  5
25BC
330
1F
100
AcDbEntity
  8
AM_0
100
AcDbCircle
 10
-1.493403153058697
 20
0.1405240990676083
 30
0.0
 40
1.499999999994751
100
AcDbArc
 50
269.7480181961756
 51
354.6244921778462
  0
SPLINE
  5
25BE
330
1F
100
AcDbEntity
  8
AM_0
100
AcDbSpline
210
0.0
220
0.0
230
1.0
 70
     8
 71
     3
 72
     8
 73
     4
 74
     2
 42
0.0000000001
 43
0.0000000001
 44
0.0000000001
 12
0.0000000000000001
 22
1.0
 32
0.0
 40
0.0
 40
0.0
 40
0.0
 40
0.0
 40
0.5107287589030865
 40
0.5107287589030865
 40
0.5107287589030865
 40
0.5107287589030865
 10
-1.499999999997406
 20
-1.359461394725482
 30
0.0
 10
-1.499999999997406
 20
-1.18921847509112
 30
0.0
 10
-1.412155280912101
 20
-1.034560303535043
 30
0.0
 10
-1.324310561826796
 20
-0.8799021319789661
 30
0.0
 11
-1.499999999997406
 21
-1.359461394725482
 31
0.0
 11
-1.324310561826796
 21
-0.8799021319789661
 31
0.0
  0
ARC
  5
25C2
330
1F
100
AcDbEntity
  8
AM_0
100
AcDbCircle
 10
-1.284482054754957
 20
0.4264869917595
 30
0.0
 40
1.170800452488127
100
AcDbArc
 50
278.6696104128123
 51
332.9129476995508
  0
DIMENSION
  5
277B
330
1F
100
AcDbEntity
  8
AM_5
100
AcDbDimension
  2
*D11
 10
-10.49929766772142
 20
-1.51077388994713
 30
0.0
 11
-23.81419162222273
 21
-5.453779410112638
 31
0.0
 70
   162
  1
<>
  3
AM_JIS$2
100
AcDb2LineAngularDimension
 13
-108.5773098228695
 23
-0.0000000000000036
 33
0.0
 14
1.99429483361181
 24
-0.0000000000000036
 34
0.0
 15
-30.01435121393457
 25
-2.021793551526751
 35
0.0
 16
-24.05128137994424
 26
-0.6217553905651359
 36
0.0
1001
GENIUS_GENDTOL_13
1000

1000
h7
1000

1040
0.0
1001
ACAD
1000
DSTYLE
1002
{
1070
   287
1070
     4
1070
   271
1070
     1
1070
   275
1070
     1
1070
   179
1070
     1
1070
   279
1070
     1
1002
}
  0
LINE
  5
28FE
330
1F
100
AcDbEntity
  8
AM_0
100
AcDbLine
 10
-6.513494159913956
 20
1.265328482269232
 30
0.0
 11
-2.222521967509953
 21
1.219371287710447
 31
0.0
  0
SPLINE
  5
28FF
330
1F
100
AcDbEntity
  8
AM_0
100
AcDbSpline
210
0.0
220
0.0
230
1.0
 70
     8
 71
     3
 72
     8
 73
     4
 74
     0
 42
0.0000000001
 43
0.0000000001
 40
0.0
 40
0.0
 40
0.0
 40
0.0
 40
4.331715133183233
 40
4.331715133183233
 40
4.331715133183233
 40
4.331715133183233
 10
-8.074450726565828
 20
1.383686300463118
 30
0.0
 10
-6.16624003280941
 20
1.408885918154732
 30
0.0
 10
-4.746992725098879
 20
0.7044429590773593
 30
0.0
 10
-3.327745417388348
 20
-0.0000000000000143
 30
0.0
  0
SPLINE
  5
2900
330
1F
100
AcDbEntity
  8
AM_0
100
AcDbSpline
210
0.0
220
0.0
230
1.0
 70
     8
 71
     3
 72
     8
 73
     4
 74
     0
 42
0.0000000001
 43
0.0000000001
 40
0.0
 40
0.0
 40
0.0
 40
0.0
 40
4.346998964788029
 40
4.346998964788029
 40
4.346998964788029
 40
4.346998964788029
 10
-9.117142955328477
 20
1.492888129991102
 30
0.0
 10
-7.571543323403844
 20
1.492888129991102
 30
0.0
 10
-6.168343139373745
 20
0.7428881299937303
 30
0.0
 10
-4.765142955343645
 20
-0.0071118700036424
 30
0.0
  0
SPLINE
  5
2902
330
1F
100
AcDbEntity
  8
AM_0
100
AcDbSpline
210
0.0
220
0.0
230
1.0
 70
     8
 71
     3
 72
     8
 73
     4
 74
     0
 42
0.0000000001
 43
0.0000000001
 40
0.0
 40
0.0
 40
0.0
 40
0.0
 40
2.238610194515266
 40
2.238610194515266
 40
2.238610194515266
 40
2.238610194515266
 10
-4.046622047704874
 20
-1.173681797378766
 30
0.0
 10
-3.578415993884402
 20
-1.173681797378766
 30
0.0
 10
-3.118693682191508
 20
-1.117250002947862
 30
0.0
 10
-2.664824304288481
 20
-1.021885912899609
 30
0.0
  0
SPLINE
  5
2903
330
1F
100
AcDbEntity
  8
AM_0
100
AcDbSpline
210
0.0
220
0.0
230
1.0
 70
     8
 71
     3
 72
     8
 73
     4
 74
     0
 42
0.0000000001
 43
0.0000000001
 40
7.981245920543044
 40
7.981245920543044
 40
7.981245920543044
 40
7.981245920543044
 40
14.43905044399483
 40
14.43905044399483
 40
14.43905044399483
 40
14.43905044399483
 10
-1.324310561826796
 20
-0.8799021319789659
 30
0.0
 10
-2.058240650550715
 20
-0.6301182955608838
 30
0.0
 10
-2.692993033969537
 20
-0.315059147780481
 30
0.0
 10
-3.327745417388348
 20
-0.0000000000000143
 30
0.0
  0
SPLINE
  5
2904
330
1F
100
AcDbEntity
  8
AM_0
100
AcDbSpline
210
0.0
220
0.0
230
1.0
 70
     8
 71
     3
 72
     8
 73
     4
 74
     0
 42
0.0000000001
 43
0.0000000001
 40
3.7904089959839
 40
3.7904089959839
 40
3.7904089959839
 40
3.7904089959839
 40
14.48999654934396
 40
14.48999654934396
 40
14.48999654934396
 40
14.48999654934396
 10
-1.499999999997406
 20
-1.359461394725482
 30
0.0
 10
-2.693566605775697
 20
-1.107618022911868
 30
0.0
 10
-3.729706481502648
 20
-0.5538090114559467
 30
0.0
 10
-4.765846357229452
 20
-0.0000000000000143
 30
0.0
  0
SPLINE
  5
2906
330
1F
100
AcDbEntity
  8
AM_0
100
AcDbSpline
210
0.0
220
0.0
230
1.0
 70
     8
 71
     3
 72
     8
 73
     4
 74
     0
 42
0.0000000001
 43
0.0000000001
 40
0.0
 40
0.0
 40
0.0
 40
0.0
 40
1.943319591907458
 40
1.943319591907458
 40
1.943319591907458
 40
1.943319591907458
 10
-7.920326750083796
 20
-1.384237085388928
 30
0.0
 10
-8.326772677859926
 20
-1.384237085388928
 30
0.0
 10
-8.724764808468401
 20
-1.335839264814946
 30
0.0
 10
-9.116547425163032
 20
-1.251892100639072
 30
0.0
  0
SPLINE
  5
2907
330
1F
100
AcDbEntity
  8
AM_0
100
AcDbSpline
210
0.0
220
0.0
230
1.0
 70
     8
 71
     3
 72
     8
 73
     4
 74
     0
 42
0.0000000001
 43
0.0000000001
 40
0.0
 40
0.0
 40
0.0
 40
0.0
 40
1.389839699216864
 40
1.389839699216864
 40
1.389839699216864
 40
1.389839699216864
 10
-8.563904806984094
 20
-1.448328109483833
 30
0.0
 10
-8.273219379656252
 20
-1.448328109483833
 30
0.0
 10
-7.987234552315663
 20
-1.422615559667937
 30
0.0
 10
-7.705062399933404
 20
-1.376047460547068
 30
0.0
  0
SPLINE
  5
2908
330
1F
100
AcDbEntity
  8
AM_0
100
AcDbSpline
210
0.0
220
0.0
230
1.0
 70
     8
 71
     3
 72
     8
 73
     4
 74
     0
 42
0.0000000001
 43
0.0000000001
 40
0.0
 40
0.0
 40
0.0
 40
0.0
 40
1.748655602797241
 40
1.748655602797241
 40
1.748655602797241
 40
1.748655602797241
 10
-7.921030151969602
 20
-1.373422386709915
 30
0.0
 10
-7.555298261137351
 20
-1.373422386709915
 30
0.0
 10
-7.196411346353555
 20
-1.33423503503112
 30
0.0
 10
-6.842734256737013
 20
-1.265221537933207
 30
0.0
  0
SPLINE
  5
2909
330
1F
100
AcDbEntity
  8
AM_0
100
AcDbSpline
210
0.0
220
0.0
230
1.0
 70
     8
 71
     3
 72
     8
 73
     4
 74
     0
 42
0.0000000001
 43
0.0000000001
 40
0.0
 40
0.0
 40
0.0
 40
0.0
 40
4.246467508828962
 40
4.246467508828962
 40
4.246467508828962
 40
4.246467508828962
 10
-4.046622047704874
 20
-1.173681797378766
 30
0.0
 10
-5.556477161955172
 20
-1.173681797378765
 30
0.0
 10
-6.978108842154346
 20
-0.5868409175444409
 30
0.0
 10
-8.399740522353521
 20
-0.000000037710116
 30
0.0
  0
LINE
  5
290A
330
1F
100
AcDbEntity
  8
AM_0
100
AcDbLine
 10
-3.657631932167555
 20
-1.160946952854502
 30
0.0
 11
-6.842734256736867
 21
-1.265221537933207
 31
0.0
  0
LINE
  5
290B
330
1F
100
AcDbEntity
  8
AM_0
100
AcDbLine
 10
-10.4992965981142
 20
-1.510814736599157
 30
0.0
 11
-9.116547425163032
 21
-1.510814736599157
 31
0.0
  0
LINE
  5
290C
330
1F
100
AcDbEntity
  8
AM_0
100
AcDbLine
 10
-9.116547425163032
 20
-1.251892100638678
 30
0.0
 11
-9.116547425163032
 21
-1.510814736599157
 31
0.0
  0
SPLINE
  5
290D
330
1F
100
AcDbEntity
  8
AM_0
100
AcDbSpline
210
0.0
220
0.0
230
1.0
 70
     8
 71
     3
 72
     8
 73
     4
 74
     0
 42
0.0000000001
 43
0.0000000001
 40
0.0
 40
0.0
 40
0.0
 40
0.0
 40
1.293721832890842
 40
1.293721832890842
 40
1.293721832890842
 40
1.293721832890842
 10
-9.11654742516303
 20
-1.507111907923773
 30
0.0
 10
-8.845965080991179
 20
-1.507111907923773
 30
0.0
 10
-8.579743995296034
 20
-1.484136166664862
 30
0.0
 10
-8.317120831698293
 20
-1.4422060507418
 30
0.0
  0
LINE
  5
290E
330
1F
100
AcDbEntity
  8
AM_0
100
AcDbLine
 10
-10.69207512754984
 20
-0.3623360605246506
 30
0.0
 11
-9.116547425163032
 21
0.2861094126837052
 31
0.0
  0
SPLINE
  5
290F
330
1F
100
AcDbEntity
  8
AM_0
100
AcDbSpline
210
0.0
220
0.0
230
1.0
 70
     8
 71
     3
 72
     8
 73
     4
 74
     0
 42
0.0000000001
 43
0.0000000001
 40
4.071346735624547
 40
4.071346735624547
 40
4.071346735624547
 40
4.071346735624547
 40
6.816591828337566
 40
6.816591828337566
 40
6.816591828337566
 40
6.816591828337566
 10
-9.116547425163032
 20
-1.251892100639082
 30
0.0
 10
-9.647914749919786
 20
-0.9077044617552747
 30
0.0
 10
-10.17105650067088
 20
-0.6388860056522069
 30
0.0
 10
-10.69267065771528
 20
-0.3620199646747194
 30
0.0
  0
LINE
  5
2910
330
1F
100
AcDbEntity
  8
AM_0
100
AcDbLine
 10
-10.4992965981142
 20
1.496550121929808
 30
0.0
 11
-9.11714295532848
 21
1.496550121929808
 31
0.0
  0
SPLINE
  5
2911
330
1F
100
AcDbEntity
  8
AM_0
100
AcDbSpline
210
0.0
220
0.0
230
1.0
 70
     8
 71
     3
 72
     8
 73
     4
 74
     0
 42
0.0000000001
 43
0.0000000001
 40
3.359485258353905
 40
3.359485258353905
 40
3.359485258353905
 40
3.359485258353905
 40
7.218994763998551
 40
7.218994763998551
 40
7.218994763998551
 40
7.218994763998551
 10
-10.69267065771528
 20
0.8444426565532323
 30
0.0
 10
-9.919138232222682
 20
0.6203765524016556
 30
0.0
 10
-9.159087676345125
 20
0.3066323223439334
 30
0.0
 10
-8.399037120467568
 20
-0.0071119077138188
 30
0.0
  0
LINE
  5
2912
330
1F
100
AcDbEntity
  8
AM_0
100
AcDbLine
 10
-10.69267065771528
 20
0.8444426567827473
 30
0.0
 11
-9.11714295532848
 21
1.492888129991103
 31
0.0
  0
LINE
  5
2974
330
1F
100
AcDbEntity
  8
AM_0
100
AcDbLine
 10
-50.02075245616141
 20
-2.620752456161347
 30
0.0
 11
-50.02075245616141
 21
2.620752456161329
 31
0.0
  0
LINE
  5
29DE
330
1F
100
AcDbEntity
  8
AM_0
100
AcDbLine
 10
-10.4992965981142
 20
0.7865281351804457
 30
0.0
 11
-10.4992965981142
 21
-0.2829935237003672
 31
0.0
  0
LINE
  5
29DF
330
1F
100
AcDbEntity
  8
AM_0
100
AcDbLine
 10
-10.4992965981142
 20
-0.464175235668245
 30
0.0
 11
-10.4992965981142
 21
-1.510814736599157
 31
0.0
  0
VIEWPORT
  5
110
330
101
100
AcDbEntity
 67
     1
  8
0
100
AcDbViewport
 10
420.5
 20
297.0
 30
0.0
 40
948.9782706766916
 41
628.452
 68
     1
 69
     1
1001
ACAD
1000
MVIEW
1002
{
1070
    16
1010
0.0
1020
0.0
1030
0.0
1010
0.0
1020
0.0
1030
1.0
1040
0.0
1040
628.452
1040
420.5
1040
297.0
1040
50.0
1040
0.0
1040
0.0
1070
     0
1070
   100
1070
     1
1070
     1
1070
     0
1070
     0
1070
     0
1070
     0
1040
0.0
1040
0.0
1040
0.0
1040
10.0
1040
10.0
1040
10.0
1040
10.0
1070
     0
1002
{
1002
}
1002
}
  0
ENDSEC
  0
SECTION
  2
OBJECTS
  0
DICTIONARY
  5
C
330
0
100
AcDbDictionary
  3
ACAD_GROUP
350
D
  3
ACAD_LAYOUT
350
1A
  3
ACAD_MLINESTYLE
350
17
  3
ACAD_PLOTSETTINGS
350
19
  3
ACAD_PLOTSTYLENAME
350
E
  3
ACDBVARIABLEDICTIONARY
350
34
  3
ACMDICTIONARY
350
43
  3
AMG
350
2B
  3
AMGSNAPSETTINGS
350
6E
  3
DWGPROPS
350
2A46
  3
ACDBHEADERROUNDTRIPXREC
350
2A53
  0
DICTIONARY
  5
74
330
1F
100
AcDbDictionary
280
     1
  3
ACAD_INDEX
360
2A48
  3
ACAD_LAYOUTSELFREF
360
2A76
  0
DICTIONARY
  5
2A7B
330
101
100
AcDbDictionary
280
     1
  3
ACAD_LAYOUTSELFREF
360
2A7C
  0
DICTIONARY
  5
D
102
{ACAD_REACTORS
330
C
102
}
330
C
100
AcDbDictionary
  0
DICTIONARY
  5
1A
102
{ACAD_REACTORS
330
C
102
}
330
C
100
AcDbDictionary
  0
DICTIONARY
  5
17
102
{ACAD_REACTORS
330
C
102
}
330
C
100
AcDbDictionary
  3
STANDARD
350
18
  0
DICTIONARY
  5
19
102
{ACAD_REACTORS
330
C
102
}
330
C
100
AcDbDictionary
  0
ACDBDICTIONARYWDFLT
  5
E
102
{ACAD_REACTORS
330
C
102
}
330
C
100
AcDbDictionary
281
     1
  3
Normal
350
F
100
AcDbDictionaryWithDefault
340
F
  0
DICTIONARY
  5
34
102
{ACAD_REACTORS
330
C
102
}
330
C
100
AcDbDictionary
  3
INDEXCTL
350
35
  3
SORTENTS
350
B5E
  0
DICTIONARY
  5
43
102
{ACAD_REACTORS
330
C
102
}
330
C
100
AcDbDictionary
  3
ACMSTDDICTIONARY
350
260
  0
DICTIONARY
  5
2B
102
{ACAD_REACTORS
330
C
102
}
330
C
100
AcDbDictionary
  3
ACMGSETTINGS
350
2C
  0
DICTIONARY
  5
6E
102
{ACAD_REACTORS
330
C
102
}
330
C
100
AcDbDictionary
  0
XRECORD
  5
2A46
102
{ACAD_REACTORS
330
C
102
}
330
C
100
AcDbXrecord
  1
DWGPROPS COOKIE
  2

  3

  4

  6

  7

  8

  9

300
AmdtFileType=82
301
=
302
=
303
=
304
=
305
=
306
=
307
=
308
=
309
=
 40
0.3551103587962963
 41
2452838.620506898
 42
2453045.546509143
  1

 90
        1
  0
DICTIONARY
  5
2A53
102
{ACAD_REACTORS
330
C
102
}
330
C
100
AcDbDictionary
  3
TSTACKALIGN
350
2A54
  3
TSTACKSIZE
350
2A55
  3
HYPERLINKBASE
350
2A56
  3
STYLESHEET
350
2A57
  3
LAYOUTDICT
350
2A58
  3
PLOTSETDICT
350
2A59
  3
PLOTSTYLNAMDICT
350
2A5A
  3
LWETCUNION
350
2A5B
  3
INSUNITS
350
2A5C
  3
CEPSNTYPE
350
2A5D
  3
FINGERPRINTGUID
350
2A5E
  3
VERSIONGUID
350
2A5F
  3
PSVPSCALE
350
2A60
  3
DIMSTYLEDATA
350
2A61
  3
PUCSORTHOREF
350
2A62
  3
PUCSORTHOVIEW
350
2A63
  3
PUCSBASE
350
2A64
  3
PUCSORGTOP
350
2A65
  3
PUCSORGBOTTOM
350
2A66
  3
PUCSORGLEFT
350
2A67
  3
PUCSORGRIGHT
350
2A68
  3
PUCSORGFRONT
350
2A69
  3
PUCSORGBACK
350
2A6A
  3
UCSORTHOREF
350
2A6B
  3
UCSORTHOVIEW
350
2A6C
  3
UCSBASE
350
2A6D
  3
UCSORGTOP
350
2A6E
  3
UCSORGBOTTOM
350
2A6F
  3
UCSORGLEFT
350
2A70
  3
UCSORGRIGHT
350
2A71
  3
UCSORGFRONT
350
2A72
  3
UCSORGBACK
350
2A73
  0
DICTIONARY
  5
2A48
102
{ACAD_REACTORS
330
74
102
}
330
74
100
AcDbDictionary
  3
*A1
350
2A49
  0
XRECORD
  5
2A76
102
{ACAD_REACTORS
330
74
102
}
330
74
100
AcDbXrecord
340
1F
  0
XRECORD
  5
2A7C
102
{ACAD_REACTORS
330
2A7B
102
}
330
2A7B
100
AcDbXrecord
340
101
  0
MLINESTYLE
  5
18
102
{ACAD_REACTORS
330
17
102
}
330
17
100
AcDbMlineStyle
  2
STANDARD
 70
     0
  3

 62
   256
 51
90.0
 52
90.0
 71
     2
 49
0.5
 62
   256
  6
BYLAYER
 49
-0.5
 62
   256
  6
BYLAYER
  0
ACDBPLACEHOLDER
  5
F
102
{ACAD_REACTORS
330
E
102
}
330
E
100
AcDbPlaceHolder
280
     0
  0
DICTIONARYVAR
  5
35
102
{ACAD_REACTORS
330
34
102
}
330
34
100
DictionaryVariables
280
     0
  1
1
  0
DICTIONARYVAR
  5
B5E
102
{ACAD_REACTORS
330
34
102
}
330
34
100
DictionaryVariables
280
     0
  1
96
  0
DICTIONARY
  5
260
102
{ACAD_REACTORS
330
43
102
}
330
43
100
AcDbDictionary
  0
DICTIONARY
  5
2C
102
{ACAD_REACTORS
330
2B
102
}
330
2B
100
AcDbDictionary
  3
DWGSETTINGS
350
2D
  0
XRECORD
  5
2A54
102
{ACAD_REACTORS
330
2A53
102
}
330
2A53
100
AcDbXrecord
 90
        1
  0
XRECORD
  5
2A55
102
{ACAD_REACTORS
330
2A53
102
}
330
2A53
100
AcDbXrecord
 90
       70
  0
XRECORD
  5
2A56
102
{ACAD_REACTORS
330
2A53
102
}
330
2A53
100
AcDbXrecord
  1

  0
XRECORD
  5
2A57
102
{ACAD_REACTORS
330
2A53
102
}
330
2A53
100
AcDbXrecord
  1
ASAMI.ctb
  0
XRECORD
  5
2A58
102
{ACAD_REACTORS
330
2A53
102
}
330
2A53
100
AcDbXrecord
340
1A
  0
XRECORD
  5
2A59
102
{ACAD_REACTORS
330
2A53
102
}
330
2A53
100
AcDbXrecord
340
19
  0
XRECORD
  5
2A5A
102
{ACAD_REACTORS
330
2A53
102
}
330
2A53
100
AcDbXrecord
340
E
  0
XRECORD
  5
2A5B
102
{ACAD_REACTORS
330
2A53
102
}
330
2A53
100
AcDbXrecord
 90
    10781
  0
XRECORD
  5
2A5C
102
{ACAD_REACTORS
330
2A53
102
}
330
2A53
100
AcDbXrecord
 90
        4
  0
XRECORD
  5
2A5D
102
{ACAD_REACTORS
330
2A53
102
}
330
2A53
100
AcDbXrecord
 90
        0
  0
XRECORD
  5
2A5E
102
{ACAD_REACTORS
330
2A53
102
}
330
2A53
100
AcDbXrecord
  1
{AFB28963-8C59-40AE-9337-C84526B81ACE}
  0
XRECORD
  5
2A5F
102
{ACAD_REACTORS
330
2A53
102
}
330
2A53
100
AcDbXrecord
  1
{72158103-A84B-4F72-AA6E-235EC5A6559D}
  0
XRECORD
  5
2A60
102
{ACAD_REACTORS
330
2A53
102
}
330
2A53
100
AcDbXrecord
 40
0.0
  0
XRECORD
  5
2A61
102
{ACAD_REACTORS
330
2A53
102
}
330
2A53
100
AcDbXrecord
1000
DSTYLE
1002
{
1070
    79
 70
     2
1070
   341
340
59
1070
   342
340
59
1070
   371
 70
    -1
1070
   372
 70
    -1
1002
}
  0
XRECORD
  5
2A62
102
{ACAD_REACTORS
330
2A53
102
}
330
2A53
100
AcDbXrecord
340
0
  0
XRECORD
  5
2A63
102
{ACAD_REACTORS
330
2A53
102
}
330
2A53
100
AcDbXrecord
 70
     0
  0
XRECORD
  5
2A64
102
{ACAD_REACTORS
330
2A53
102
}
330
2A53
100
AcDbXrecord
340
0
  0
XRECORD
  5
2A65
102
{ACAD_REACTORS
330
2A53
102
}
330
2A53
100
AcDbXrecord
 10
0.0
 20
0.0
 30
0.0
  0
XRECORD
  5
2A66
102
{ACAD_REACTORS
330
2A53
102
}
330
2A53
100
AcDbXrecord
 10
0.0
 20
0.0
 30
0.0
  0
XRECORD
  5
2A67
102
{ACAD_REACTORS
330
2A53
102
}
330
2A53
100
AcDbXrecord
 10
0.0
 20
0.0
 30
0.0
  0
XRECORD
  5
2A68
102
{ACAD_REACTORS
330
2A53
102
}
330
2A53
100
AcDbXrecord
 10
0.0
 20
0.0
 30
0.0
  0
XRECORD
  5
2A69
102
{ACAD_REACTORS
330
2A53
102
}
330
2A53
100
AcDbXrecord
 10
0.0
 20
0.0
 30
0.0
  0
XRECORD
  5
2A6A
102
{ACAD_REACTORS
330
2A53
102
}
330
2A53
100
AcDbXrecord
 10
0.0
 20
0.0
 30
0.0
  0
XRECORD
  5
2A6B
102
{ACAD_REACTORS
330
2A53
102
}
330
2A53
100
AcDbXrecord
340
0
  0
XRECORD
  5
2A6C
102
{ACAD_REACTORS
330
2A53
102
}
330
2A53
100
AcDbXrecord
 70
     0
  0
XRECORD
  5
2A6D
102
{ACAD_REACTORS
330
2A53
102
}
330
2A53
100
AcDbXrecord
340
0
  0
XRECORD
  5
2A6E
102
{ACAD_REACTORS
330
2A53
102
}
330
2A53
100
AcDbXrecord
 10
0.0
 20
0.0
 30
0.0
  0
XRECORD
  5
2A6F
102
{ACAD_REACTORS
330
2A53
102
}
330
2A53
100
AcDbXrecord
 10
0.0
 20
0.0
 30
0.0
  0
XRECORD
  5
2A70
102
{ACAD_REACTORS
330
2A53
102
}
330
2A53
100
AcDbXrecord
 10
0.0
 20
0.0
 30
0.0
  0
XRECORD
  5
2A71
102
{ACAD_REACTORS
330
2A53
102
}
330
2A53
100
AcDbXrecord
 10
0.0
 20
0.0
 30
0.0
  0
XRECORD
  5
2A72
102
{ACAD_REACTORS
330
2A53
102
}
330
2A53
100
AcDbXrecord
 10
0.0
 20
0.0
 30
0.0
  0
XRECORD
  5
2A73
102
{ACAD_REACTORS
330
2A53
102
}
330
2A53
100
AcDbXrecord
 10
0.0
 20
0.0
 30
0.0
  0
LAYER_INDEX
  5
2A49
102
{ACAD_REACTORS
330
2A48
102
}
330
2A48
100
AcDbIndex
 40
2453151.89169993
100
AcDbLayerIndex
  8
0
360
2A4A
 90
        1
  8
AM_0
360
2A4B
 90
       45
  8
AM_11
360
2A4C
 90
        4
  8
AM_7
360
2A4D
 90
        1
  8
AM_5
360
2A4E
 90
        7
  8
Defpoints
360
2A4F
 90
        0
  8
AM_6
360
2A50
 90
        1
  8
AM_CL
360
2A51
 90
        0
  0
XRECORD
  5
2D
102
{ACAD_REACTORS
330
2C
102
}
330
2C
100
AcDbXrecord
  1
VERSION
140
15.0
  1
PRODUCT
  2
AutoCAD Mechanical 2000
  0
IDBUFFER
  5
2A4A
330
0
100
AcDbIdBuffer
330
2139
  0
IDBUFFER
  5
2A4B
330
0
100
AcDbIdBuffer
330
25B6
330
25B8
330
25B9
330
25BB
330
25BC
330
25BE
330
25C2
330
28FE
330
28FF
330
2900
330
2902
330
2903
330
2904
330
2906
330
2907
330
2908
330
2909
330
290A
330
290B
330
290C
330
290D
330
290E
330
290F
330
2910
330
2911
330
2912
330
2974
330
29DE
330
29DF
330
2062
330
2128
330
2129
330
2137
330
2138
330
213A
330
2165
330
2167
330
2169
330
21C6
330
21C7
330
25B1
330
25B2
330
25B3
330
25B4
330
25B5
  0
IDBUFFER
  5
2A4C
330
0
100
AcDbIdBuffer
330
1C97
330
1C9A
330
1CA1
330
1CB1
  0
IDBUFFER
  5
2A4D
330
0
100
AcDbIdBuffer
330
C50
  0
IDBUFFER
  5
2A4E
330
0
100
AcDbIdBuffer
330
194C
330
195B
330
1EF8
330
212A
330
213B
330
21E0
330
277B
  0
IDBUFFER
  5
2A4F
330
0
100
AcDbIdBuffer
  0
IDBUFFER
  5
2A50
330
0
100
AcDbIdBuffer
330
C58
  0
IDBUFFER
  5
2A51
330
0
100
AcDbIdBuffer
  0
ENDSEC
  0
EOF
