  0
SECTION
  2
HEADER
  9
$ACADVER
  1
AC1014
  9
$ACADMAINTVER
 70
     9
  9
$DWGCODEPAGE
  3
ANSI_932
  9
$INSBASE
 10
0.0
 20
0.0
 30
0.0
  9
$EXTMIN
 10
-131.5742128522181
 20
-56.50000100999879
 30
-0.00000001
  9
$EXTMAX
 10
18.41045000536965
 20
8.172165659420549
 30
0.00000001
  9
$LIMMIN
 10
-171.1362938126725
 20
-90.82782648900053
  9
$LIMMAX
 10
53.70339046466597
 20
42.64172656426808
  9
$ORTHOMODE
 70
     0
  9
$REGENMODE
 70
     1
  9
$FILLMODE
 70
     1
  9
$QTEXTMODE
 70
     0
  9
$MIRRTEXT
 70
     0
  9
$DRAGMODE
 70
     2
  9
$LTSCALE
 40
0.3
  9
$OSMODE
 70
    55
  9
$ATTMODE
 70
     1
  9
$TEXTSIZE
 40
2.5
  9
$TRACEWID
 40
1.0
  9
$TEXTSTYLE
  7
STANDARD
  9
$CLAYER
  8
AM_0
  9
$CELTYPE
  6
BYLAYER
  9
$CECOLOR
 62
   256
  9
$CELTSCALE
 40
1.0
  9
$DELOBJ
 70
     1
  9
$DISPSILH
 70
     0
  9
$DIMSCALE
 40
1.0
  9
$DIMASZ
 40
2.5
  9
$DIMEXO
 40
1.0
  9
$DIMDLI
 40
12.0
  9
$DIMRND
 40
0.0
  9
$DIMDLE
 40
0.0
  9
$DIMEXE
 40
1.0
  9
$DIMTP
 40
0.1
  9
$DIMTM
 40
0.1
  9
$DIMTXT
 40
3.2
  9
$DIMCEN
 40
0.0
  9
$DIMTSZ
 40
0.0
  9
$DIMTOL
 70
     0
  9
$DIMLIM
 70
     0
  9
$DIMTIH
 70
     0
  9
$DIMTOH
 70
     0
  9
$DIMSE1
 70
     0
  9
$DIMSE2
 70
     0
  9
$DIMTAD
 70
     3
  9
$DIMZIN
 70
     8
  9
$DIMBLK
  1
OPEN30
  9
$DIMASO
 70
     1
  9
$DIMSHO
 70
     1
  9
$DIMPOST
  1

  9
$DIMAPOST
  1
"
  9
$DIMALT
 70
     0
  9
$DIMALTD
 70
     2
  9
$DIMALTF
 40
0.0393701
  9
$DIMLFAC
 40
1.0
  9
$DIMTOFL
 70
     1
  9
$DIMTVP
 40
0.0
  9
$DIMTIX
 70
     0
  9
$DIMSOXD
 70
     0
  9
$DIMSAH
 70
     0
  9
$DIMBLK1
  1

  9
$DIMBLK2
  1

  9
$DIMSTYLE
  2
AM_JIS
  9
$DIMCLRD
 70
   256
  9
$DIMCLRE
 70
   256
  9
$DIMCLRT
 70
     2
  9
$DIMTFAC
 40
0.71
  9
$DIMGAP
 40
1.5
  9
$DIMJUST
 70
     0
  9
$DIMSD1
 70
     0
  9
$DIMSD2
 70
     0
  9
$DIMTOLJ
 70
     0
  9
$DIMTZIN
 70
     0
  9
$DIMALTZ
 70
     0
  9
$DIMALTTZ
 70
     0
  9
$DIMFIT
 70
     3
  9
$DIMUPT
 70
     0
  9
$DIMUNIT
 70
     2
  9
$DIMDEC
 70
     3
  9
$DIMTDEC
 70
     3
  9
$DIMALTU
 70
     2
  9
$DIMALTTD
 70
     2
  9
$DIMTXSTY
  7
ASAMI
  9
$DIMAUNIT
 70
     0
  9
$LUNITS
 70
     2
  9
$LUPREC
 70
     2
  9
$SKETCHINC
 40
1.0
  9
$FILLETRAD
 40
0.5
  9
$AUNITS
 70
     0
  9
$AUPREC
 70
     0
  9
$MENU
  1
.
  9
$ELEVATION
 40
0.0
  9
$PELEVATION
 40
0.0
  9
$THICKNESS
 40
0.0
  9
$LIMCHECK
 70
     0
  9
$BLIPMODE
 70
     0
  9
$CHAMFERA
 40
2.5
  9
$CHAMFERB
 40
2.5
  9
$CHAMFERC
 40
20.0
  9
$CHAMFERD
 40
0.0
  9
$SKPOLY
 70
     0
  9
$TDCREATE
 40
2452838.620506898
  9
$TDUPDATE
 40
2453151.886770694
  9
$TDINDWG
 40
0.5352732292
  9
$TDUSRTIMER
 40
0.5352732292
  9
$USRTIMER
 70
     1
  9
$ANGBASE
 50
0.0
  9
$ANGDIR
 70
     0
  9
$PDMODE
 70
     0
  9
$PDSIZE
 40
0.0
  9
$PLINEWID
 40
0.0
  9
$COORDS
 70
     1
  9
$SPLFRAME
 70
     0
  9
$SPLINETYPE
 70
     6
  9
$SPLINESEGS
 70
     8
  9
$ATTDIA
 70
     1
  9
$ATTREQ
 70
     1
  9
$HANDLING
 70
 12289
  9
$HANDSEED
  5
3BC7
  9
$SURFTAB1
 70
     6
  9
$SURFTAB2
 70
     6
  9
$SURFTYPE
 70
     6
  9
$SURFU
 70
     6
  9
$SURFV
 70
     6
  9
$UCSNAME
  2

  9
$UCSORG
 10
-0.0000000000000568
 20
-0.0000000000000036
 30
0.0
  9
$UCSXDIR
 10
1.0
 20
0.0
 30
0.0
  9
$UCSYDIR
 10
0.0
 20
1.0
 30
0.0
  9
$PUCSNAME
  2

  9
$PUCSORG
 10
0.0
 20
0.0
 30
0.0
  9
$PUCSXDIR
 10
1.0
 20
0.0
 30
0.0
  9
$PUCSYDIR
 10
0.0
 20
1.0
 30
0.0
  9
$USERI1
 70
     0
  9
$USERI2
 70
     0
  9
$USERI3
 70
     0
  9
$USERI4
 70
     0
  9
$USERI5
 70
     0
  9
$USERR1
 40
0.0
  9
$USERR2
 40
0.0
  9
$USERR3
 40
0.0
  9
$USERR4
 40
0.0
  9
$USERR5
 40
0.0
  9
$WORLDVIEW
 70
     1
  9
$SHADEDGE
 70
     3
  9
$SHADEDIF
 70
    70
  9
$TILEMODE
 70
     1
  9
$MAXACTVP
 70
    64
  9
$PINSBASE
 10
0.0
 20
0.0
 30
0.0
  9
$PLIMCHECK
 70
     0
  9
$PEXTMIN
 10
1.000000000000000E+20
 20
1.000000000000000E+20
 30
1.000000000000000E+20
  9
$PEXTMAX
 10
-1.000000000000000E+20
 20
-1.000000000000000E+20
 30
-1.000000000000000E+20
  9
$PLIMMIN
 10
0.0
 20
0.0
  9
$PLIMMAX
 10
841.0
 20
594.0
  9
$UNITMODE
 70
     0
  9
$VISRETAIN
 70
     1
  9
$PLINEGEN
 70
     0
  9
$PSLTSCALE
 70
     0
  9
$TREEDEPTH
 70
  3020
  9
$PICKSTYLE
 70
     0
  9
$CMLSTYLE
  2
STANDARD
  9
$CMLJUST
 70
     0
  9
$CMLSCALE
 40
20.0
  9
$PROXYGRAPHICS
 70
     1
  9
$MEASUREMENT
 70
     1
  0
ENDSEC
  0
SECTION
  2
CLASSES
  0
CLASS
  1
ACDBDICTIONARYWDFLT
  2
AcDbDictionaryWithDefault
  3
AutoCAD 2000
 90
        0
280
     0
281
     0
  0
CLASS
  1
ACDBPLACEHOLDER
  2
AcDbPlaceHolder
  3
AutoCAD 2000
 90
        0
280
     0
281
     0
  0
CLASS
  1
LAYOUT
  2
AcDbLayout
  3
AutoCAD 2000
 90
        0
280
     0
281
     0
  0
CLASS
  1
AMGSETTINGSOBJ
  2
AmgSettingsObj
  3
"AcadM|Product Description: AutoCAD Mechanical 2000|Company: Autodesk"
 90
        0
280
     0
281
     0
  0
CLASS
  1
ACME_DOCUMENT
  2
AcMeDbDoc
  3
AcMeServices
 90
        0
280
     0
281
     0
  0
CLASS
  1
ACMESCOPE
  2
AcMeScope
  3
AcMeServices
 90
        0
280
     0
281
     0
  0
CLASS
  1
ACMECOMMANDHISTORY
  2
AcMeCommandHistory
  3
AcMeServices
 90
        0
280
     0
281
     0
  0
CLASS
  1
DICTIONARYVAR
  2
AcDbDictionaryVar
  3
AutoCAD 2000
 90
        0
280
     0
281
     0
  0
CLASS
  1
ACIMSYSVARMAN
  2
AcImSysVarManager
  3
AcMeServices
 90
        0
280
     0
281
     0
  0
CLASS
  1
ACIMREALSYSVAR
  2
AcImRealSysVar
  3
AcMeServices
 90
        0
280
     0
281
     0
  0
CLASS
  1
ACIMINTSYSVAR
  2
AcImIntSysVar
  3
AcMeServices
 90
        0
280
     0
281
     0
  0
CLASS
  1
ACMEDRAWINGMAN
  2
AcMeDrawingMan
  3
AcMeServices
 90
        0
280
     0
281
     0
  0
CLASS
  1
ACMEVIEW
  2
AcMeView
  3
AcMeServices
 90
        0
280
     0
281
     0
  0
CLASS
  1
ACDBENTITYCACHE
  2
AcMeEntityCache
  3
AcMeServices
 90
        0
280
     0
281
     0
  0
CLASS
  1
GSMANAGER
  2
AcMeGSManager
  3
AcMeServices
 90
        0
280
     0
281
     0
  0
CLASS
  1
AmdtInternalReactor
  2
AmdtInternalReactor
  3
AcMeServices
 90
        0
280
     0
281
     0
  0
CLASS
  1
ACMESTATEMGR
  2
AcMeStateMgr
  3
AcMeServices
 90
        0
280
     0
281
     0
  0
CLASS
  1
ACME_DATABASE
  2
AcMeDbDatabase
  3
AcMeServices
 90
        0
280
     0
281
     0
  0
CLASS
  1
ACRFINSADJUSTERMGR
  2
AcRfInsAdjusterMgr
  3
AcMeServices
 90
        0
280
     0
281
     0
  0
CLASS
  1
ACMDATADICTIONARY
  2
AcmDataDictionary
  3
"AcmSymBB|Product Description: AutoCAD Mechanical 2000|Company: Autodesk"
 90
        0
280
     0
281
     0
  0
CLASS
  1
ACMDATAENTRYBLOCK
  2
AcmDataEntryBlock
  3
"AcmSymBB|Product Description: AutoCAD Mechanical 2000|Company: Autodesk"
 90
        0
280
     0
281
     0
  0
CLASS
  1
AMGOBJPROPCFG
  2
AmgObjPropCfg
  3
"AmgLay|Product Description: AutoCAD Mechanical 2000|Company: Autodesk"
 90
        1
280
     0
281
     0
  0
CLASS
  1
ACAMGFILTERDAT
  2
AcAmgFilterDat
  3
"AcadM|Product Description: AutoCAD Mechanical 2000|Company: Autodesk"
 90
        0
280
     0
281
     0
  0
CLASS
  1
LAYER_INDEX
  2
AcDbLayerIndex
  3
AutoCAD 2000
 90
        0
280
     0
281
     0
  0
CLASS
  1
IDBUFFER
  2
AcDbIdBuffer
  3
AutoCAD 2000
 90
        0
280
     0
281
     0
  0
CLASS
  1
ACIMSTRSYSVAR
  2
AcImStrSysVar
  3
AcMeServices
 90
        0
280
     0
281
     0
  0
CLASS
  1
ACMSTANDARDJIS
  2
AcmStandardJIS
  3
"AcmSymBB|Product Description: AutoCAD Mechanical 2000|Company: Autodesk"
 90
        0
280
     0
281
     0
  0
CLASS
  1
ACMSURFSTANDARDJIS
  2
AcmSurfTextStdJIS
  3
"AcmSymBB|Product Description: AutoCAD Mechanical 2000|Company: Autodesk"
 90
        0
280
     0
281
     0
  0
CLASS
  1
ACMFCFSTANDARDJIS
  2
AcmFCFStdJIS
  3
"AcmSymBB|Product Description: AutoCAD Mechanical 2000|Company: Autodesk"
 90
        0
280
     0
281
     0
  0
CLASS
  1
ACMWELDSTANDARDJIS
  2
AcmWeldingStdJIS
  3
"AcmSymBB|Product Description: AutoCAD Mechanical 2000|Company: Autodesk"
 90
        0
280
     0
281
     0
  0
CLASS
  1
ACMIDSTANDARDJIS
  2
AcmIdStdJIS
  3
"AcmSymBB|Product Description: AutoCAD Mechanical 2000|Company: Autodesk"
 90
        0
280
     0
281
     0
  0
CLASS
  1
ACMDATUMSTANDARDJIS
  2
AcmDatumStdJIS
  3
"AcmSymBB|Product Description: AutoCAD Mechanical 2000|Company: Autodesk"
 90
        0
280
     0
281
     0
  0
CLASS
  1
ACMBOMSTANDARDJIS
  2
AcmBOMStdJIS
  3
"AcmSymBB|Product Description: AutoCAD Mechanical 2000|Company: Autodesk"
 90
        0
280
     0
281
     0
  0
CLASS
  1
ACMSTANDARDANSI
  2
AcmStandardANSI
  3
"AcmSymBB|Product Description: AutoCAD Mechanical 2000|Company: Autodesk"
 90
        0
280
     0
281
     0
  0
CLASS
  1
ACMSURFSTANDARDANSI
  2
AcmSurfTextStdANSI
  3
"AcmSymBB|Product Description: AutoCAD Mechanical 2000|Company: Autodesk"
 90
        0
280
     0
281
     0
  0
CLASS
  1
ACMFCFSTANDARDANSI
  2
AcmFCFStdANSI
  3
"AcmSymBB|Product Description: AutoCAD Mechanical 2000|Company: Autodesk"
 90
        0
280
     0
281
     0
  0
CLASS
  1
ACMWELDSTANDARDANSI
  2
AcmWeldingStdANSI
  3
"AcmSymBB|Product Description: AutoCAD Mechanical 2000|Company: Autodesk"
 90
        0
280
     0
281
     0
  0
CLASS
  1
ACMIDSTANDARDANSI
  2
AcmIdStdANSI
  3
"AcmSymBB|Product Description: AutoCAD Mechanical 2000|Company: Autodesk"
 90
        0
280
     0
281
     0
  0
CLASS
  1
ACMDATUMSTANDARDANSI
  2
AcmDatumStdANSI
  3
"AcmSymBB|Product Description: AutoCAD Mechanical 2000|Company: Autodesk"
 90
        0
280
     0
281
     0
  0
CLASS
  1
ACMBOMSTANDARDANSI
  2
AcmBOMStdANSI
  3
"AcmSymBB|Product Description: AutoCAD Mechanical 2000|Company: Autodesk"
 90
        0
280
     0
281
     0
  0
CLASS
  1
ACMSTANDARDBSI
  2
AcmStandardBSI
  3
"AcmSymBB|Product Description: AutoCAD Mechanical 2000|Company: Autodesk"
 90
        0
280
     0
281
     0
  0
CLASS
  1
ACMSURFSTANDARDBSI
  2
AcmSurfTextStdBSI
  3
"AcmSymBB|Product Description: AutoCAD Mechanical 2000|Company: Autodesk"
 90
        0
280
     0
281
     0
  0
CLASS
  1
ACMFCFSTANDARDBSI
  2
AcmFCFStdBSI
  3
"AcmSymBB|Product Description: AutoCAD Mechanical 2000|Company: Autodesk"
 90
        0
280
     0
281
     0
  0
CLASS
  1
ACMWELDSTANDARDBSI
  2
AcmWeldingStdBSI
  3
"AcmSymBB|Product Description: AutoCAD Mechanical 2000|Company: Autodesk"
 90
        0
280
     0
281
     0
  0
CLASS
  1
ACMIDSTANDARDBSI
  2
AcmIdStdBSI
  3
"AcmSymBB|Product Description: AutoCAD Mechanical 2000|Company: Autodesk"
 90
        0
280
     0
281
     0
  0
CLASS
  1
ACMDATUMSTANDARDBSI
  2
AcmDatumStdBSI
  3
"AcmSymBB|Product Description: AutoCAD Mechanical 2000|Company: Autodesk"
 90
        0
280
     0
281
     0
  0
CLASS
  1
ACMBOMSTANDARDBSI
  2
AcmBOMStdBSI
  3
"AcmSymBB|Product Description: AutoCAD Mechanical 2000|Company: Autodesk"
 90
        0
280
     0
281
     0
  0
CLASS
  1
LONG_TRANSACTION
  2
AcDbLongTransaction
  3
AutoCAD 2000
 90
        0
280
     0
281
     0
  0
CLASS
  1
LWPOLYLINE
  2
AcDbPolyline
  3
AutoCAD 2000
 90
        0
280
     0
281
     1
  0
CLASS
  1
HATCH
  2
AcDbHatch
  3
AutoCAD 2000
 90
        0
280
     0
281
     1
  0
CLASS
  1
XRECORD
  2
AcDbXrecord
  3
AutoCAD 2000
 90
        0
280
     0
281
     0
  0
ENDSEC
  0
SECTION
  2
TABLES
  0
TABLE
  2
VPORT
  5
8
330
0
100
AcDbSymbolTable
 70
     3
  0
VPORT
  5
3B9C
330
8
100
AcDbSymbolTableRecord
100
AcDbViewportTableRecord
  2
*ACTIVE
 70
     0
 10
0.0
 20
0.0
 11
1.0
 21
1.0
 12
-56.58078977926763
 22
-24.16433008316195
 13
0.0
 23
0.0
 14
2.5
 24
2.5
 15
10.0
 25
10.0
 16
0.0
 26
0.0
 36
1.0
 17
0.0
 27
0.0
 37
0.0
 40
96.18682037855354
 41
1.56570841889117
 42
50.0
 43
0.0
 44
0.0
 50
0.0
 51
0.0
 71
     0
 72
   100
 73
     1
 74
     3
 75
     0
 76
     0
 77
     0
 78
     0
  0
ENDTAB
  0
TABLE
  2
LTYPE
  5
5
330
0
100
AcDbSymbolTable
 70
    10
  0
LTYPE
  5
14
330
5
100
AcDbSymbolTableRecord
100
AcDbLinetypeTableRecord
  2
BYBLOCK
 70
     0
  3

 72
    65
 73
     0
 40
0.0
  0
LTYPE
  5
15
330
5
100
AcDbSymbolTableRecord
100
AcDbLinetypeTableRecord
  2
BYLAYER
 70
     0
  3

 72
    65
 73
     0
 40
0.0
  0
LTYPE
  5
16
330
5
100
AcDbSymbolTableRecord
100
AcDbLinetypeTableRecord
  2
CONTINUOUS
 70
     0
  3
Solid line
 72
    65
 73
     0
 40
0.0
  0
LTYPE
  5
4B
330
5
100
AcDbSymbolTableRecord
100
AcDbLinetypeTableRecord
  2
AM_ISO02W050
 70
     0
  3
__ __ __ __ __ __ __ __ __ __ __ __ __ __ __
 72
    65
 73
     2
 40
7.5
 49
6.0
 74
     0
 49
-1.5
 74
     0
  0
LTYPE
  5
4C
330
5
100
AcDbSymbolTableRecord
100
AcDbLinetypeTableRecord
  2
AM_ISO08W050
 70
     0
  3
____ . ____ . ____ . ____ . ____ . ____ . ____
 72
    65
 73
     4
 40
18.0
 49
12.0
 74
     0
 49
-1.5
 74
     0
 49
3.0
 74
     0
 49
-1.5
 74
     0
  0
LTYPE
  5
4D
330
5
100
AcDbSymbolTableRecord
100
AcDbLinetypeTableRecord
  2
AM_ISO09W050
 70
     0
  3
_____ . . _____ . . _____ . . ____ .. ____
 72
    65
 73
     6
 40
22.5
 49
12.0
 74
     0
 49
-1.5
 74
     0
 49
3.0
 74
     0
 49
-1.5
 74
     0
 49
3.0
 74
     0
 49
-1.5
 74
     0
  0
LTYPE
  5
4E
330
5
100
AcDbSymbolTableRecord
100
AcDbLinetypeTableRecord
  2
AMCONSTR
 70
     0
  3
_______________________
 72
    65
 73
     2
 40
9999.0
 49
9999.0
 74
     0
 49
0.0
 74
     0
  0
LTYPE
  5
4F
330
5
100
AcDbSymbolTableRecord
100
AcDbLinetypeTableRecord
  2
AM_ISO02W050X2
 70
     0
  3
 _ _ _ _ _ _ _ _ _ _ _ _
 72
    65
 73
     2
 40
3.75
 49
3.0
 74
     0
 49
-0.75
 74
     0
  0
LTYPE
  5
50
330
5
100
AcDbSymbolTableRecord
100
AcDbLinetypeTableRecord
  2
AM_ISO08W050X2
 70
     0
  3
__ . __ . __ . __ . __ . __
 72
    65
 73
     4
 40
9.0
 49
6.0
 74
     0
 49
-0.75
 74
     0
 49
1.5
 74
     0
 49
-0.75
 74
     0
  0
LTYPE
  5
53
330
5
100
AcDbSymbolTableRecord
100
AcDbLinetypeTableRecord
  2
AMZIGZAG
 70
     0
  3
/\/-/\/-/\/-/\/-/\/-/\/
 72
    65
 73
     2
 40
11.00009999999999
 49
0.0001
 74
     4
 75
   135
340
52
 46
0.04
 50
0.0
 44
0.0
 45
0.0
 49
-11.0
 74
     0
  0
LTYPE
  5
166
330
5
100
AcDbSymbolTableRecord
100
AcDbLinetypeTableRecord
  2
ACJISTGL
 70
     0
  3
_ _ _ _ _
 72
    65
 73
     2
 40
3.0
 49
2.0
 74
     0
 49
-1.0
 74
     0
  0
LTYPE
  5
26A
330
5
100
AcDbSymbolTableRecord
100
AcDbLinetypeTableRecord
  2
ACJISTGB
 70
     0
  3
__ . . __ . .
 72
    65
 73
     6
 40
9.0
 49
4.0
 74
     0
 49
-1.0
 74
     0
 49
1.0
 74
     0
 49
-1.0
 74
     0
 49
1.0
 74
     0
 49
-1.0
 74
     0
  0
ENDTAB
  0
TABLE
  2
LAYER
  5
2
330
0
100
AcDbSymbolTable
 70
     8
  0
LAYER
  5
10
330
2
100
AcDbSymbolTableRecord
100
AcDbLayerTableRecord
  2
0
 70
     0
 62
     7
  6
CONTINUOUS
  0
LAYER
  5
3F9
330
2
100
AcDbSymbolTableRecord
100
AcDbLayerTableRecord
  2
AM_0
 70
     0
 62
     7
  6
CONTINUOUS
  0
LAYER
  5
BD6
330
2
100
AcDbSymbolTableRecord
100
AcDbLayerTableRecord
  2
AM_11
 70
     0
 62
     3
  6
AM_ISO09W050
  0
LAYER
  5
BD7
330
2
100
AcDbSymbolTableRecord
100
AcDbLayerTableRecord
  2
AM_7
 70
     0
 62
     4
  6
AM_ISO08W050
  0
LAYER
  5
BD8
330
2
100
AcDbSymbolTableRecord
100
AcDbLayerTableRecord
  2
AM_5
 70
     0
 62
     3
  6
CONTINUOUS
  0
LAYER
  5
BD9
330
2
100
AcDbSymbolTableRecord
100
AcDbLayerTableRecord
  2
DEFPOINTS
 70
     0
 62
     7
  6
CONTINUOUS
  0
LAYER
  5
BDA
330
2
100
AcDbSymbolTableRecord
100
AcDbLayerTableRecord
  2
AM_6
 70
     0
 62
     2
  6
CONTINUOUS
  0
LAYER
  5
2398
330
2
100
AcDbSymbolTableRecord
100
AcDbLayerTableRecord
  2
AM_CL
 70
     0
 62
     1
  6
AMCONSTR
  0
ENDTAB
  0
TABLE
  2
STYLE
  5
3
330
0
100
AcDbSymbolTable
 70
     5
  0
STYLE
  5
11
330
3
100
AcDbSymbolTableRecord
100
AcDbTextStyleTableRecord
  2
STANDARD
 70
     0
 40
0.0
 41
1.0
 50
0.0
 71
     0
 42
2.5
  3
simplex.shx
  4
EXTFONT.SHX
  0
STYLE
  5
52
330
3
100
AcDbSymbolTableRecord
100
AcDbTextStyleTableRecord
  2

 70
     1
 40
0.0
 41
1.0
 50
0.0
 71
     0
 42
2.5
  3
ltypeshp.shx
  4

  0
STYLE
  5
6B
330
3
100
AcDbSymbolTableRecord
100
AcDbTextStyleTableRecord
  2
ASAMI
 70
     0
 40
0.0
 41
1.0
 50
0.0
 71
     0
 42
2.5
  3
simplex.shx
  4
EXTFONT.SHX
  0
STYLE
  5
262
330
3
100
AcDbSymbolTableRecord
100
AcDbTextStyleTableRecord
  2
ACJISTS
 70
     0
 40
1.0
 41
1.0
 50
0.0
 71
     0
 42
2.5
  3
simplex.shx
  4
bigfont.shx
  0
STYLE
  5
269
330
3
100
AcDbSymbolTableRecord
100
AcDbTextStyleTableRecord
  2
ACJISGDT
 70
     0
 40
0.0
 41
1.0
 50
0.0
 71
     0
 42
2.5
  3
amgdtans.shx
  4

  0
ENDTAB
  0
TABLE
  2
VIEW
  5
6
330
0
100
AcDbSymbolTable
 70
     0
  0
ENDTAB
  0
TABLE
  2
UCS
  5
7
330
0
100
AcDbSymbolTable
 70
     0
  0
ENDTAB
  0
TABLE
  2
APPID
  5
9
330
0
100
AcDbSymbolTable
 70
    14
  0
APPID
  5
12
330
9
100
AcDbSymbolTableRecord
100
AcDbRegAppTableRecord
  2
ACAD
 70
     0
  0
APPID
  5
30
330
9
100
AcDbSymbolTableRecord
100
AcDbRegAppTableRecord
  2
MCAD_NO_VIS
 70
     0
  0
APPID
  5
31
330
9
100
AcDbSymbolTableRecord
100
AcDbRegAppTableRecord
  2
ACAD_TEMP_GRAPHIC
 70
     0
  0
APPID
  5
2C2
330
9
100
AcDbSymbolTableRecord
100
AcDbRegAppTableRecord
  2
GENIUS_GENDTOL_13
 70
     0
  0
APPID
  5
339
330
9
100
AcDbSymbolTableRecord
100
AcDbRegAppTableRecord
  2
GENIUS_GENODEF_13
 70
     0
  0
APPID
  5
33A
330
9
100
AcDbSymbolTableRecord
100
AcDbRegAppTableRecord
  2
GENIUS_GENOBJ-N-RSBK_13
 70
     0
  0
APPID
  5
33B
330
9
100
AcDbSymbolTableRecord
100
AcDbRegAppTableRecord
  2
GENIUS_GENOBJ-N-LIB_13
 70
     0
  0
APPID
  5
33C
330
9
100
AcDbSymbolTableRecord
100
AcDbRegAppTableRecord
  2
GENIUS_GENSCALE_13
 70
     0
  0
APPID
  5
378
330
9
100
AcDbSymbolTableRecord
100
AcDbRegAppTableRecord
  2
GENIUS_GENDIMSH_14
 70
     0
  0
APPID
  5
BDB
330
9
100
AcDbSymbolTableRecord
100
AcDbRegAppTableRecord
  2
GENIUS_GENOBJ-N-CEN_13
 70
     0
  0
APPID
  5
BDC
330
9
100
AcDbSymbolTableRecord
100
AcDbRegAppTableRecord
  2
GENIUS_GENFIL_13
 70
     0
  0
APPID
  5
BDD
330
9
100
AcDbSymbolTableRecord
100
AcDbRegAppTableRecord
  2
GENIUS_GENOBJ-N-FIL_13
 70
     0
  0
APPID
  5
12AD
330
9
100
AcDbSymbolTableRecord
100
AcDbRegAppTableRecord
  2
GENIUS_GENOREF_13
 70
     0
  0
APPID
  5
28FE
330
9
100
AcDbSymbolTableRecord
100
AcDbRegAppTableRecord
  2
GENIUS_GENOBJ-N-CHA_13
 70
     0
  0
ENDTAB
  0
TABLE
  2
DIMSTYLE
  5
A
330
0
100
AcDbSymbolTable
 70
     8
  0
DIMSTYLE
105
58
102
{ACAD_REACTORS
330
2C2E
330
2DA1
330
2E8D
330
3A65
330
3A72
102
}
330
A
100
AcDbSymbolTableRecord
100
AcDbDimStyleTableRecord
  2
AM_JIS
 70
     0
  3

  4
"
  5
OPEN30
  6

  7

 40
1.0
 41
2.5
 42
1.0
 43
12.0
 44
1.0
 45
0.0
 46
0.0
 47
0.1
 48
0.1
140
3.2
141
0.0
142
0.0
143
0.0393701
144
1.0
145
0.0
146
0.71
147
1.5
 71
     0
 72
     0
 73
     0
 74
     0
 75
     0
 76
     0
 77
     3
 78
     8
170
     0
171
     2
172
     1
173
     0
174
     0
175
     0
176
   256
177
   256
178
     2
270
     2
271
     3
272
     3
273
     2
274
     2
340
6B
275
     0
280
     0
281
     0
282
     0
283
     0
284
     0
285
     0
286
     0
287
     3
288
     0
  0
DIMSTYLE
105
5F
330
A
100
AcDbSymbolTableRecord
100
AcDbDimStyleTableRecord
  2
AM_JIS$3
 70
     0
  3

  4
"
  5
OPEN30
  6

  7

 40
1.0
 41
2.5
 42
1.0
 43
10.0
 44
1.0
 45
0.0
 46
0.0
 47
0.1
 48
0.1
140
3.2
141
0.0
142
0.0
143
0.0393701
144
1.0
145
0.0
146
0.71
147
1.5
 71
     0
 72
     0
 73
     0
 74
     1
 75
     0
 76
     0
 77
     3
 78
     8
170
     0
171
     2
172
     0
173
     0
174
     0
175
     0
176
   256
177
   256
178
     2
270
     2
271
     2
272
     3
273
     2
274
     2
340
6B
275
     0
280
     0
281
     0
282
     0
283
     0
284
     0
285
     0
286
     0
287
     0
288
     1
  0
DIMSTYLE
105
60
330
A
100
AcDbSymbolTableRecord
100
AcDbDimStyleTableRecord
  2
AM_JIS$4
 70
     0
  3

  4
"
  5
OPEN30
  6

  7

 40
1.0
 41
2.5
 42
1.0
 43
10.0
 44
1.0
 45
0.0
 46
0.0
 47
0.1
 48
0.1
140
3.2
141
0.0
142
0.0
143
0.0393701
144
1.0
145
0.0
146
0.71
147
1.5
 71
     0
 72
     0
 73
     0
 74
     1
 75
     0
 76
     0
 77
     3
 78
     8
170
     0
171
     2
172
     0
173
     0
174
     0
175
     0
176
   256
177
   256
178
     2
270
     2
271
     2
272
     3
273
     2
274
     2
340
6B
275
     0
280
     0
281
     0
282
     0
283
     0
284
     0
285
     0
286
     0
287
     0
288
     1
  0
DIMSTYLE
105
61
330
A
100
AcDbSymbolTableRecord
100
AcDbDimStyleTableRecord
  2
AM_JIS$6
 70
     0
  3

  4
"
  5
OPEN30
  6

  7

 40
1.0
 41
2.5
 42
1.0
 43
10.0
 44
1.0
 45
0.0
 46
0.0
 47
0.1
 48
0.1
140
3.2
141
0.0
142
0.0
143
0.0393701
144
1.0
145
0.0
146
0.71
147
1.5
 71
     0
 72
     0
 73
     0
 74
     0
 75
     0
 76
     0
 77
     0
 78
     8
170
     0
171
     2
172
     1
173
     0
174
     0
175
     0
176
   256
177
   256
178
     2
270
     2
271
     2
272
     2
273
     2
274
     2
340
6B
275
     0
280
     0
281
     0
282
     0
283
     0
284
     0
285
     0
286
     0
287
     3
288
     0
  0
DIMSTYLE
105
62
330
A
100
AcDbSymbolTableRecord
100
AcDbDimStyleTableRecord
  2
AM_JIS$7
 70
     0
  3

  4
"
  5
OPEN30
  6

  7

 40
1.0
 41
2.5
 42
1.0
 43
10.0
 44
1.0
 45
0.0
 46
0.0
 47
0.1
 48
0.1
140
3.2
141
0.0
142
0.0
143
0.0393701
144
1.0
145
0.0
146
0.71
147
1.5
 71
     0
 72
     0
 73
     0
 74
     0
 75
     0
 76
     0
 77
     3
 78
     8
170
     0
171
     2
172
     1
173
     0
174
     0
175
     0
176
   256
177
   256
178
     2
270
     2
271
     2
272
     3
273
     2
274
     2
340
6B
275
     0
280
     0
281
     0
282
     0
283
     0
284
     0
285
     0
286
     0
287
     3
288
     0
  0
DIMSTYLE
105
63
330
A
100
AcDbSymbolTableRecord
100
AcDbDimStyleTableRecord
  2
AM_JIS$SF
 70
     0
  3

  4
"
  5
OPEN30
  6

  7

 40
1.0
 41
2.5
 42
1.0
 43
10.0
 44
1.0
 45
0.0
 46
0.0
 47
0.1
 48
0.1
140
3.2
141
0.0
142
0.0
143
0.0393701
144
1.0
145
0.0
146
0.71
147
1.5
 71
     0
 72
     0
 73
     0
 74
     0
 75
     1
 76
     1
 77
     3
 78
     8
170
     0
171
     2
172
     1
173
     0
174
     0
175
     0
176
   256
177
   256
178
     2
270
     2
271
     2
272
     2
273
     2
274
     2
340
6B
275
     0
280
     0
281
     0
282
     0
283
     0
284
     0
285
     0
286
     0
287
     3
288
     0
  0
DIMSTYLE
105
68
330
A
100
AcDbSymbolTableRecord
100
AcDbDimStyleTableRecord
  2
AM_JIS$SH
 70
     0
  3

  4
"
  5

  6
GENAXEH
  7
OPEN30
 40
1.0
 41
2.5
 42
1.0
 43
10.0
 44
1.0
 45
0.0
 46
0.0
 47
0.1
 48
0.1
140
3.2
141
0.0
142
0.0
143
0.0393701
144
2.0
145
0.0
146
0.71
147
1.5
 71
     0
 72
     0
 73
     0
 74
     0
 75
     1
 76
     1
 77
     3
 78
     8
170
     0
171
     2
172
     1
173
     1
174
     0
175
     0
176
   256
177
   256
178
     2
270
     2
271
     2
272
     2
273
     2
274
     2
340
6B
275
     0
280
     0
281
     0
282
     0
283
     0
284
     0
285
     0
286
     0
287
     3
288
     0
  0
DIMSTYLE
105
B34
330
A
100
AcDbSymbolTableRecord
100
AcDbDimStyleTableRecord
  2
AM_JIS$2
 70
     0
  3

  4
"
  5
OPEN30
  6

  7

 40
1.0
 41
2.5
 42
1.0
 43
12.0
 44
1.0
 45
0.0
 46
0.0
 47
0.1
 48
0.1
140
3.2
141
0.0
142
0.0
143
0.0393701
144
1.0
145
0.0
146
0.71
147
1.5
 71
     0
 72
     0
 73
     0
 74
     0
 75
     0
 76
     0
 77
     3
 78
     8
170
     0
171
     2
172
     1
173
     0
174
     0
175
     0
176
   256
177
   256
178
     2
270
     2
271
     3
272
     3
273
     2
274
     2
340
6B
275
     0
280
     0
281
     0
282
     0
283
     0
284
     0
285
     0
286
     0
287
     3
288
     0
  0
ENDTAB
  0
TABLE
  2
BLOCK_RECORD
  5
1
330
0
100
AcDbSymbolTable
 70
    10
  0
BLOCK_RECORD
  5
1F
102
{ACAD_XDICTIONARY
360
74
102
}
330
1
100
AcDbSymbolTableRecord
100
AcDbBlockTableRecord
  2
*MODEL_SPACE
  0
BLOCK_RECORD
  5
101
102
{ACAD_XDICTIONARY
360
3BC5
102
}
330
1
100
AcDbSymbolTableRecord
100
AcDbBlockTableRecord
  2
*PAPER_SPACE
  0
BLOCK_RECORD
  5
59
330
1
100
AcDbSymbolTableRecord
100
AcDbBlockTableRecord
  2
_OPEN30
  0
BLOCK_RECORD
  5
64
330
1
100
AcDbSymbolTableRecord
100
AcDbBlockTableRecord
  2
GENAXEH
  0
BLOCK_RECORD
  5
2C2F
330
1
100
AcDbSymbolTableRecord
100
AcDbBlockTableRecord
  2
*D5
  0
BLOCK_RECORD
  5
2DA2
330
1
100
AcDbSymbolTableRecord
100
AcDbBlockTableRecord
  2
*D6
  0
BLOCK_RECORD
  5
2E8E
330
1
100
AcDbSymbolTableRecord
100
AcDbBlockTableRecord
  2
*D7
  0
BLOCK_RECORD
  5
3A66
330
1
100
AcDbSymbolTableRecord
100
AcDbBlockTableRecord
  2
*D8
  0
BLOCK_RECORD
  5
3A73
330
1
100
AcDbSymbolTableRecord
100
AcDbBlockTableRecord
  2
*D9
  0
ENDTAB
  0
ENDSEC
  0
SECTION
  2
BLOCKS
  0
BLOCK
  5
20
330
1F
100
AcDbEntity
  8
0
100
AcDbBlockBegin
  2
*MODEL_SPACE
 70
     0
 10
0.0
 20
0.0
 30
0.0
  3
*MODEL_SPACE
  1

  0
ENDBLK
  5
21
330
1F
100
AcDbEntity
  8
0
100
AcDbBlockEnd
  0
BLOCK
  5
103
330
101
100
AcDbEntity
 67
     1
  8
0
100
AcDbBlockBegin
  2
*PAPER_SPACE
 70
     0
 10
0.0
 20
0.0
 30
0.0
  3
*PAPER_SPACE
  1

  0
ENDBLK
  5
104
330
101
100
AcDbEntity
 67
     1
  8
0
100
AcDbBlockEnd
  0
BLOCK
  5
5D
330
59
100
AcDbEntity
  8
0
100
AcDbBlockBegin
  2
_OPEN30
 70
     0
 10
0.0
 20
0.0
 30
0.0
  3
_OPEN30
  1

  0
LINE
  5
5A
330
59
100
AcDbEntity
  8
0
 62
     0
100
AcDbLine
 10
-1.0
 20
0.26794919
 30
0.0
 11
0.0
 21
0.0
 31
0.0
  0
LINE
  5
5B
330
59
100
AcDbEntity
  8
0
 62
     0
100
AcDbLine
 10
0.0
 20
0.0
 30
0.0
 11
-1.0
 21
-0.26794919
 31
0.0
  0
LINE
  5
5C
330
59
100
AcDbEntity
  8
0
 62
     0
100
AcDbLine
 10
0.0
 20
0.0
 30
0.0
 11
-1.0
 21
0.0
 31
0.0
  0
ENDBLK
  5
5E
330
59
100
AcDbEntity
  8
0
100
AcDbBlockEnd
  0
BLOCK
  5
66
330
64
100
AcDbEntity
  8
0
100
AcDbBlockBegin
  2
GENAXEH
 70
     0
 10
0.0
 20
0.0
 30
0.0
  3
GENAXEH
  1

  0
LINE
  5
65
330
64
100
AcDbEntity
  8
0
100
AcDbLine
 10
-1.0
 20
0.0
 30
0.0
 11
1.0
 21
0.0
 31
0.0
  0
ENDBLK
  5
67
330
64
100
AcDbEntity
  8
0
100
AcDbBlockEnd
  0
BLOCK
  5
2C39
330
2C2F
100
AcDbEntity
  8
0
100
AcDbBlockBegin
  2
*D5
 70
     1
 10
0.0
 20
0.0
 30
0.0
  3
*D5
  1

  0
LINE
  5
35FB
330
2C2F
100
AcDbEntity
  8
AM_5
100
AcDbLine
 10
-110.000000000002
 20
8.000000000001143
 30
0.0
 11
-127.8742128522181
 21
8.000000000001149
 31
0.0
  0
LINE
  5
35FC
330
2C2F
100
AcDbEntity
  8
AM_5
100
AcDbLine
 10
-110.000000000002
 20
-7.999999999998796
 30
0.0
 11
-127.8742128522181
 21
-7.999999999998792
 31
0.0
  0
LINE
  5
35FD
330
2C2F
100
AcDbEntity
  8
AM_5
100
AcDbLine
 10
-126.8742128522181
 20
5.500000000001149
 30
0.0
 11
-126.8742128522181
 21
-5.499999999998792
 31
0.0
  0
INSERT
  5
35FE
330
2C2F
100
AcDbEntity
  8
AM_5
100
AcDbBlockReference
  2
_OPEN30
 10
-126.8742128522181
 20
8.000000000001149
 30
0.0
 41
2.5
 42
2.5
 43
2.5
 50
90.0
  0
INSERT
  5
35FF
330
2C2F
100
AcDbEntity
  8
AM_5
100
AcDbBlockReference
  2
_OPEN30
 10
-126.8742128522181
 20
-7.999999999998792
 30
0.0
 41
2.5
 42
2.5
 43
2.5
 50
270.0
  0
MTEXT
  5
3600
330
2C2F
100
AcDbEntity
  8
AM_5
 62
     2
100
AcDbMText
 10
-129.9742128522181
 20
0.0000000000011583
 30
0.0
 40
3.2
 41
0.0
 71
     5
 72
     1
  1
%%c16
  7
ASAMI
 11
0.0000000000000001
 21
1.0
 31
0.0
1001
ACAD
1000
MTEXTBEGIN
1070
    73
1070
     1
1070
    44
1040
1.0
1070
    74
1070
     0
1000
MTEXTEND
  0
POINT
  5
3601
330
2C2F
100
AcDbEntity
  8
DEFPOINTS
 62
     0
100
AcDbPoint
 10
-109.000000000002
 20
8.000000000001143
 30
0.0
  0
POINT
  5
3602
330
2C2F
100
AcDbEntity
  8
DEFPOINTS
 62
     0
100
AcDbPoint
 10
-109.000000000002
 20
-7.999999999998797
 30
0.0
  0
POINT
  5
3603
330
2C2F
100
AcDbEntity
  8
DEFPOINTS
 62
     0
100
AcDbPoint
 10
-126.8742128522181
 20
-7.999999999998792
 30
0.0
  0
ENDBLK
  5
2C3A
330
2C2F
100
AcDbEntity
  8
0
100
AcDbBlockEnd
  0
BLOCK
  5
2DAC
330
2DA2
100
AcDbEntity
  8
0
100
AcDbBlockBegin
  2
*D6
 70
     1
 10
0.0
 20
0.0
 30
0.0
  3
*D6
  1

  0
LINE
  5
3616
330
2DA2
100
AcDbEntity
  8
AM_5
100
AcDbLine
 10
-50.00000000000214
 20
-9.000000000000008
 30
0.0
 11
-50.00000000000214
 21
-23.00000100999892
 31
0.0
  0
LINE
  5
3617
330
2DA2
100
AcDbEntity
  8
AM_5
100
AcDbLine
 10
-110.000000000002
 20
-7.999999999998797
 30
0.0
 11
-110.000000000002
 21
-23.00000100999892
 31
0.0
  0
LINE
  5
3618
330
2DA2
100
AcDbEntity
  8
AM_5
100
AcDbLine
 10
-52.50000000000214
 20
-22.00000100999892
 30
0.0
 11
-107.500000000002
 21
-22.00000100999892
 31
0.0
  0
INSERT
  5
3619
330
2DA2
100
AcDbEntity
  8
AM_5
100
AcDbBlockReference
  2
_OPEN30
 10
-50.00000000000214
 20
-22.00000100999892
 30
0.0
 41
2.5
 42
2.5
 43
2.5
  0
INSERT
  5
361A
330
2DA2
100
AcDbEntity
  8
AM_5
100
AcDbBlockReference
  2
_OPEN30
 10
-110.000000000002
 20
-22.00000100999892
 30
0.0
 41
2.5
 42
2.5
 43
2.5
 50
180.0
  0
MTEXT
  5
361B
330
2DA2
100
AcDbEntity
  8
AM_5
 62
     2
100
AcDbMText
 10
-80.00000000000211
 20
-18.90000100999892
 30
0.0
 40
3.2
 41
0.0
 71
     5
 72
     1
  1
60
  7
ASAMI
1001
ACAD
1000
MTEXTBEGIN
1070
    73
1070
     1
1070
    44
1040
1.0
1070
    74
1070
     0
1000
MTEXTEND
  0
POINT
  5
361C
330
2DA2
100
AcDbEntity
  8
DEFPOINTS
 62
     0
100
AcDbPoint
 10
-50.00000000000214
 20
-8.000000000000008
 30
0.0
  0
POINT
  5
361D
330
2DA2
100
AcDbEntity
  8
DEFPOINTS
 62
     0
100
AcDbPoint
 10
-110.000000000002
 20
-6.999999999998797
 30
0.0
  0
POINT
  5
361E
330
2DA2
100
AcDbEntity
  8
DEFPOINTS
 62
     0
100
AcDbPoint
 10
-110.000000000002
 20
-22.00000100999892
 30
0.0
  0
ENDBLK
  5
2DAD
330
2DA2
100
AcDbEntity
  8
0
100
AcDbBlockEnd
  0
BLOCK
  5
2E98
330
2E8E
100
AcDbEntity
  8
0
100
AcDbBlockBegin
  2
*D7
 70
     1
 10
0.0
 20
0.0
 30
0.0
  3
*D7
  1

  0
LINE
  5
3604
330
2E8E
100
AcDbEntity
  8
AM_5
100
AcDbLine
 10
-110.000000000002
 20
-7.999999999998797
 30
0.0
 11
-110.000000000002
 21
-35.00000100999872
 31
0.0
  0
LINE
  5
3605
330
2E8E
100
AcDbEntity
  8
AM_5
100
AcDbLine
 10
-0.0000000000021041
 20
-8.000000000000666
 30
0.0
 11
-0.0000000000021058
 21
-35.00000100999872
 31
0.0
  0
LINE
  5
3606
330
2E8E
100
AcDbEntity
  8
AM_5
100
AcDbLine
 10
-107.500000000002
 20
-34.00000100999872
 30
0.0
 11
-2.500000000002105
 21
-34.00000100999872
 31
0.0
  0
INSERT
  5
3607
330
2E8E
100
AcDbEntity
  8
AM_5
100
AcDbBlockReference
  2
_OPEN30
 10
-110.000000000002
 20
-34.00000100999872
 30
0.0
 41
2.5
 42
2.5
 43
2.5
 50
180.0
  0
INSERT
  5
3608
330
2E8E
100
AcDbEntity
  8
AM_5
100
AcDbBlockReference
  2
_OPEN30
 10
-0.0000000000021057
 20
-34.00000100999872
 30
0.0
 41
2.5
 42
2.5
 43
2.5
  0
MTEXT
  5
3609
330
2E8E
100
AcDbEntity
  8
AM_5
 62
     2
100
AcDbMText
 10
-55.00000000000207
 20
-30.90000100999872
 30
0.0
 40
3.2
 41
0.0
 71
     5
 72
     1
  1
110
  7
ASAMI
1001
ACAD
1000
MTEXTBEGIN
1070
    73
1070
     1
1070
    44
1040
1.0
1070
    74
1070
     0
1000
MTEXTEND
  0
POINT
  5
360A
330
2E8E
100
AcDbEntity
  8
DEFPOINTS
 62
     0
100
AcDbPoint
 10
-110.000000000002
 20
-6.999999999998797
 30
0.0
  0
POINT
  5
360B
330
2E8E
100
AcDbEntity
  8
DEFPOINTS
 62
     0
100
AcDbPoint
 10
-0.0000000000021041
 20
-7.000000000000666
 30
0.0
  0
POINT
  5
360C
330
2E8E
100
AcDbEntity
  8
DEFPOINTS
 62
     0
100
AcDbPoint
 10
-0.0000000000021057
 20
-34.00000100999872
 30
0.0
  0
ENDBLK
  5
2E99
330
2E8E
100
AcDbEntity
  8
0
100
AcDbBlockEnd
  0
BLOCK
  5
3A70
330
3A66
100
AcDbEntity
  8
0
100
AcDbBlockBegin
  2
*D8
 70
     1
 10
0.0
 20
0.0
 30
0.0
  3
*D8
  1

  0
LINE
  5
3A7F
330
3A66
100
AcDbEntity
  8
AM_5
100
AcDbLine
 10
0.0000000000004043
 20
-7.999999999998988
 30
0.0
 11
0.0000000000004034
 21
-23.00000100999878
 31
0.0
  0
LINE
  5
3A80
330
3A66
100
AcDbEntity
  8
AM_5
100
AcDbLine
 10
-39.99959552537509
 20
-8.43831374379522
 30
0.0
 11
-39.99959552537509
 21
-23.00000100999878
 31
0.0
  0
LINE
  5
3A81
330
3A66
100
AcDbEntity
  8
AM_5
100
AcDbLine
 10
-2.499999999999596
 20
-22.00000100999878
 30
0.0
 11
-37.4995955253751
 21
-22.00000100999878
 31
0.0
  0
INSERT
  5
3A82
330
3A66
100
AcDbEntity
  8
AM_5
100
AcDbBlockReference
  2
_OPEN30
 10
0.0000000000004034
 20
-22.00000100999878
 30
0.0
 41
2.5
 42
2.5
 43
2.5
  0
INSERT
  5
3A83
330
3A66
100
AcDbEntity
  8
AM_5
100
AcDbBlockReference
  2
_OPEN30
 10
-39.99959552537509
 20
-22.00000100999878
 30
0.0
 41
2.5
 42
2.5
 43
2.5
 50
180.0
  0
MTEXT
  5
3A84
330
3A66
100
AcDbEntity
  8
AM_5
 62
     2
100
AcDbMText
 10
-19.99979776268734
 20
-18.90000100999878
 30
0.0
 40
3.2
 41
0.0
 71
     5
 72
     1
  1
40
  7
ASAMI
1001
ACAD
1000
MTEXTBEGIN
1070
    73
1070
     1
1070
    44
1040
1.0
1070
    74
1070
     0
1000
MTEXTEND
  0
POINT
  5
3A85
330
3A66
100
AcDbEntity
  8
DEFPOINTS
 62
     0
100
AcDbPoint
 10
0.0000000000004043
 20
-6.999999999998988
 30
0.0
  0
POINT
  5
3A86
330
3A66
100
AcDbEntity
  8
DEFPOINTS
 62
     0
100
AcDbPoint
 10
-39.99959552537509
 20
-7.43831374379522
 30
0.0
  0
POINT
  5
3A87
330
3A66
100
AcDbEntity
  8
DEFPOINTS
 62
     0
100
AcDbPoint
 10
-39.99959552537509
 20
-22.00000100999878
 30
0.0
  0
ENDBLK
  5
3A71
330
3A66
100
AcDbEntity
  8
0
100
AcDbBlockEnd
  0
BLOCK
  5
3A7D
330
3A73
100
AcDbEntity
  8
0
100
AcDbBlockBegin
  2
*D9
 70
     1
 10
0.0
 20
0.0
 30
0.0
  3
*D9
  1

  0
LINE
  5
3A88
330
3A73
100
AcDbEntity
  8
AM_5
100
AcDbLine
 10
0.9999999999982925
 20
7.500000000001278
 30
0.0
 11
18.41045000536965
 21
7.500000000001273
 31
0.0
  0
LINE
  5
3A89
330
3A73
100
AcDbEntity
  8
AM_5
100
AcDbLine
 10
1.000000000000404
 20
-7.499999999998915
 30
0.0
 11
18.41045000536965
 21
-7.49999999999892
 31
0.0
  0
LINE
  5
3A8A
330
3A73
100
AcDbEntity
  8
AM_5
100
AcDbLine
 10
17.41045000536965
 20
5.000000000001274
 30
0.0
 11
17.41045000536965
 21
-4.999999999998919
 31
0.0
  0
INSERT
  5
3A8B
330
3A73
100
AcDbEntity
  8
AM_5
100
AcDbBlockReference
  2
_OPEN30
 10
17.41045000536965
 20
7.500000000001274
 30
0.0
 41
2.5
 42
2.5
 43
2.5
 50
90.0
  0
INSERT
  5
3A8C
330
3A73
100
AcDbEntity
  8
AM_5
100
AcDbBlockReference
  2
_OPEN30
 10
17.41045000536965
 20
-7.499999999998919
 30
0.0
 41
2.5
 42
2.5
 43
2.5
 50
270.0
  0
MTEXT
  5
3A8D
330
3A73
100
AcDbEntity
  8
AM_5
 62
     2
100
AcDbMText
 10
14.31045000536965
 20
0.0000000000011801
 30
0.0
 40
3.2
 41
0.0
 71
     5
 72
     1
  1
%%c15
  7
ASAMI
 11
0.0000000000000001
 21
1.0
 31
0.0
1001
ACAD
1000
MTEXTBEGIN
1070
    73
1070
     1
1070
    44
1040
1.0
1070
    74
1070
     0
1000
MTEXTEND
  0
POINT
  5
3A8E
330
3A73
100
AcDbEntity
  8
DEFPOINTS
 62
     0
100
AcDbPoint
 10
-0.0000000000017074
 20
7.500000000001278
 30
0.0
  0
POINT
  5
3A8F
330
3A73
100
AcDbEntity
  8
DEFPOINTS
 62
     0
100
AcDbPoint
 10
0.0000000000004043
 20
-7.499999999998915
 30
0.0
  0
POINT
  5
3A90
330
3A73
100
AcDbEntity
  8
DEFPOINTS
 62
     0
100
AcDbPoint
 10
17.41045000536965
 20
-7.499999999998919
 30
0.0
  0
ENDBLK
  5
3A7E
330
3A73
100
AcDbEntity
  8
0
100
AcDbBlockEnd
  0
ENDSEC
  0
SECTION
  2
ENTITIES
  0
TEXT
  5
C58
330
1F
100
AcDbEntity
  8
AM_6
100
AcDbText
 10
-73.33333333333539
 20
-56.50000100999879
 30
0.0
 40
5.0
  1
RMES4150
 50
0.0000000000002036
 72
     4
 11
-55.00000000000207
 21
-54.00000100999872
 31
0.0
100
AcDbText
  0
LINE
  5
2A1C
330
1F
100
AcDbEntity
  8
AM_7
100
AcDbLine
 10
-112.8742118522181
 20
0.0000000000012026
 30
0.0
 11
3.125788147781861
 21
0.0000000000011897
 31
0.0
1001
GENIUS_GENODEF_13
1002
{
1000
HIER
1070
     0
1002
}
1002
{
1000
MANEDIT
1070
     0
1002
}
1002
{
1000
NOSEL
1070
     0
1002
}
1002
{
1000
BEHIND
1070
     0
1002
}
1002
{
1000
REACTOR
1002
}
1001
GENIUS_GENOBJ-N-CEN_13
1002
{
1000
OWNER
1000
GEN
1002
}
  0
LINE
  5
2A1D
330
1F
100
AcDbEntity
  8
AM_0
100
AcDbLine
 10
-109.000000000002
 20
-7.999999999998797
 30
0.0
 11
-50.00000000000214
 21
-7.999999999998803
 31
0.0
  0
LINE
  5
2A1E
330
1F
100
AcDbEntity
  8
AM_0
100
AcDbLine
 10
-121.0000000000021
 20
8.000000000001143
 30
0.0
 11
-50.0000000000021
 21
8.000000000001193
 31
0.0
  0
LINE
  5
2A1F
330
1F
100
AcDbEntity
  8
AM_0
100
AcDbLine
 10
-109.000000000002
 20
-7.999999999998797
 30
0.0
 11
-109.000000000002
 21
8.000000000001143
 31
0.0
  0
LINE
  5
2A20
330
1F
100
AcDbEntity
  8
AM_0
100
AcDbLine
 10
-110.000000000002
 20
7.000000000001145
 30
0.0
 11
-110.000000000002
 21
-6.999999999998797
 31
0.0
  0
LINE
  5
2A21
330
1F
100
AcDbEntity
  8
AM_0
100
AcDbLine
 10
-110.000000000002
 20
7.000000000001145
 30
0.0
 11
-109.000000000002
 21
8.000000000001143
 31
0.0
1001
GENIUS_GENFIL_13
1070
     0
1040
1.0
1040
1.0
1040
20.0
1040
0.0
1002
{
1002
}
1001
GENIUS_GENODEF_13
1002
{
1000
HIER
1070
     0
1002
}
1002
{
1000
MANEDIT
1070
     0
1002
}
1002
{
1000
NOSEL
1070
     0
1002
}
1002
{
1000
BEHIND
1070
     0
1002
}
1002
{
1000
REACTOR
1002
}
1001
GENIUS_GENOBJ-N-CHA_13
1002
{
1000
OWNER
1000
GEN
1002
}
  0
LINE
  5
2A23
330
1F
100
AcDbEntity
  8
AM_0
100
AcDbLine
 10
-110.000000000002
 20
-6.999999999998797
 30
0.0
 11
-109.000000000002
 21
-7.999999999998797
 31
0.0
1001
GENIUS_GENFIL_13
1070
     0
1040
1.0
1040
1.0
1040
20.0
1040
0.0
1002
{
1002
}
1001
GENIUS_GENODEF_13
1002
{
1000
HIER
1070
     0
1002
}
1002
{
1000
MANEDIT
1070
     0
1002
}
1002
{
1000
NOSEL
1070
     0
1002
}
1002
{
1000
BEHIND
1070
     0
1002
}
1002
{
1000
REACTOR
1002
}
1001
GENIUS_GENOBJ-N-CHA_13
1002
{
1000
OWNER
1000
GEN
1002
}
  0
LINE
  5
2A29
330
1F
100
AcDbEntity
  8
AM_0
100
AcDbLine
 10
-50.0000000000021
 20
8.000000000001193
 30
0.0
 11
-50.0000000000021
 21
-7.999999999998804
 31
0.0
  0
DIMENSION
  5
2C2E
330
1F
100
AcDbEntity
  8
AM_5
100
AcDbDimension
  2
*D5
 10
-126.8742128522181
 20
-7.999999999998792
 30
0.0
 11
-129.9742128522181
 21
0.0000000000011583
 31
0.0
 70
    32
  1
%%c<>
  3
AM_JIS
100
AcDbAlignedDimension
 13
-109.000000000002
 23
8.000000000001143
 33
0.0
 14
-109.000000000002
 24
-7.999999999998797
 34
0.0
 50
270.0000000000001
100
AcDbRotatedDimension
1001
GENIUS_GENDTOL_13
1000

1000
h7
1000

1040
0.0
  0
DIMENSION
  5
2DA1
330
1F
100
AcDbEntity
  8
AM_5
100
AcDbDimension
  2
*D6
 10
-110.000000000002
 20
-22.00000100999892
 30
0.0
 11
-80.00000000000211
 21
-18.90000100999892
 31
0.0
 70
    32
  1
<>
  3
AM_JIS
100
AcDbAlignedDimension
 13
-50.00000000000214
 23
-8.000000000000008
 33
0.0
 14
-110.000000000002
 24
-6.999999999998797
 34
0.0
 50
0.0000000000001132
100
AcDbRotatedDimension
1001
GENIUS_GENDTOL_13
1000

1000
h7
1000

1040
0.0
  0
DIMENSION
  5
2E8D
330
1F
100
AcDbEntity
  8
AM_5
100
AcDbDimension
  2
*D7
 10
-0.0000000000021057
 20
-34.00000100999872
 30
0.0
 11
-55.00000000000207
 21
-30.90000100999872
 31
0.0
 70
    32
  1
<>
  3
AM_JIS
100
AcDbAlignedDimension
 13
-110.000000000002
 23
-6.999999999998797
 33
0.0
 14
-0.0000000000021041
 24
-7.000000000000666
 34
0.0
 50
0.0000000000001132
100
AcDbRotatedDimension
1001
GENIUS_GENDTOL_13
1000

1000
h7
1000

1040
0.0
  0
ARC
  5
3473
330
1F
100
AcDbEntity
  8
AM_0
100
AcDbCircle
 10
-49.09975040128784
 20
8.43537416094059
 30
0.0
 40
1.0
100
AcDbArc
 50
205.80910470737
 51
265.7166666699998
  0
LINE
  5
3474
330
1F
100
AcDbEntity
  8
AM_0
100
AcDbLine
 10
-49.17443905549085
 20
7.438167259172782
 30
0.0
 11
-40.00000000000215
 21
6.751021487410461
 31
0.0
  0
ARC
  5
3475
330
1F
100
AcDbEntity
  8
AM_0
100
AcDbCircle
 10
-49.09975040128784
 20
-8.435374160940602
 30
0.0
 40
1.0
100
AcDbArc
 50
94.28333333000011
 51
154.1908952926299
  0
LINE
  5
3476
330
1F
100
AcDbEntity
  8
AM_0
100
AcDbLine
 10
-49.17443905549085
 20
-7.438167259172796
 30
0.0
 11
-40.05078733744158
 21
-6.754825349855853
 31
0.0
  0
LINE
  5
39DD
330
1F
100
AcDbEntity
  8
AM_0
100
AcDbLine
 10
-0.0000000000006636
 20
0.0
 30
0.0
 11
-0.1601179281255325
 21
1.500000000000341
 31
0.0
  0
LINE
  5
39DE
330
1F
100
AcDbEntity
  8
AM_0
100
AcDbLine
 10
-0.1601179281255325
 20
1.500000000000341
 30
0.0
 11
-1.627902502536155
 21
4.000711221015762
 31
0.0
  0
LINE
  5
39DF
330
1F
100
AcDbEntity
  8
AM_0
100
AcDbLine
 10
-0.0000000000006636
 20
0.0
 30
0.0
 11
-0.0000000000006636
 21
7.5
 31
0.0
  0
LINE
  5
39E0
330
1F
100
AcDbEntity
  8
AM_0
100
AcDbLine
 10
-4.193564784222694
 20
2.314199340228583
 30
0.0
 11
-4.193564784222694
 21
3.565747275788339
 31
0.0
  0
LINE
  5
39E1
330
1F
100
AcDbEntity
  8
AM_0
100
AcDbLine
 10
-7.243430081838716
 20
3.87021753949773
 30
0.0
 11
-7.243430081838716
 21
4.911865582717268
 31
0.0
  0
SPLINE
  5
39E2
330
1F
100
AcDbEntity
  8
AM_0
100
AcDbSpline
210
0.0
220
0.0
230
1.0
 70
     8
 71
     3
 72
     9
 73
     5
 74
     0
 42
0.0000000001
 43
0.0000000001
 40
0.0
 40
0.0
 40
0.0
 40
0.0
 40
1.173671883824386
 40
1.360226551015519
 40
1.360226551015519
 40
1.360226551015519
 40
1.360226551015519
 10
-5.718497433030704
 20
6.781386785867425
 30
0.0
 10
-6.09022783873497
 20
6.322393769680616
 30
0.0
 10
-6.738346367382701
 20
5.961502232945008
 30
0.0
 10
-7.433131405952413
 20
5.815733720313687
 30
0.0
 10
-7.528850928198176
 20
5.800033238342393
 30
0.0
  0
SPLINE
  5
39E3
330
1F
100
AcDbEntity
  8
AM_0
100
AcDbSpline
210
0.0
220
0.0
230
1.0
 70
     8
 71
     3
 72
     9
 73
     5
 74
     0
 42
0.0000000001
 43
0.0000000001
 40
0.0
 40
0.0
 40
0.0
 40
0.0
 40
1.862990800602817
 40
3.382267404545521
 40
3.382267404545521
 40
3.382267404545521
 40
3.382267404545521
 10
-4.193564784222694
 20
3.565747275788339
 30
0.0
 10
-4.709753052237637
 20
3.92327847859681
 30
0.0
 10
-5.509394900293736
 20
4.801338957235432
 30
0.0
 10
-6.730407703668129
 20
4.95442003741808
 30
0.0
 10
-7.243430081838716
 20
4.911865582717268
 30
0.0
  0
SPLINE
  5
39E4
330
1F
100
AcDbEntity
  8
AM_0
100
AcDbSpline
210
0.0
220
0.0
230
1.0
 70
     8
 71
     3
 72
     9
 73
     5
 74
     0
 42
0.0000000001
 43
0.0000000001
 40
0.0
 40
0.0
 40
0.0
 40
0.0
 40
1.59747099413338
 40
3.403889013946459
 40
3.403889013946459
 40
3.403889013946459
 40
3.403889013946459
 10
-4.193564784222694
 20
2.314199340228583
 30
0.0
 10
-4.717680889389261
 20
2.447456396179095
 30
0.0
 10
-5.832259498576561
 20
2.806001800724027
 30
0.0
 10
-6.740963128217476
 20
3.526288590605468
 30
0.0
 10
-7.243430081838716
 20
3.87021753949773
 30
0.0
  0
LINE
  5
39E5
330
1F
100
AcDbEntity
  8
AM_0
100
AcDbLine
 10
-0.0000000000006636
 20
0.0
 30
0.0
 11
-3.593613934360142
 21
0.0
 31
0.0
  0
SPLINE
  5
39E6
330
1F
100
AcDbEntity
  8
AM_0
100
AcDbSpline
210
0.0
220
0.0
230
1.0
 70
     8
 71
     3
 72
     8
 73
     4
 74
     0
 42
0.0000000001
 43
0.0000000001
 40
11.46537929237052
 40
11.46537929237052
 40
11.46537929237052
 40
11.46537929237052
 40
14.48999654934396
 40
14.48999654934396
 40
14.48999654934396
 40
14.48999654934396
 10
-4.193564784223387
 20
2.314199340228924
 30
0.0
 10
-2.791595288929196
 20
1.565537255309664
 30
0.0
 10
-1.395797644464929
 20
0.7827686276548321
 30
0.0
 10
-0.0000000000006636
 20
0.0000000000003411
 30
0.0
  0
SPLINE
  5
39E7
330
1F
100
AcDbEntity
  8
AM_0
100
AcDbSpline
210
0.0
220
0.0
230
1.0
 70
     8
 71
     3
 72
     8
 73
     4
 74
     0
 42
0.0000000001
 43
0.0000000001
 40
0.0
 40
0.0
 40
0.0
 40
0.0
 40
3.835275104118792
 40
3.835275104118792
 40
3.835275104118792
 40
3.835275104118792
 10
-0.0000000000006636
 20
7.5
 30
0.0
 10
-1.949512074477796
 20
7.5
 30
0.0
 10
-3.851483460296151
 20
7.237283260068807
 30
0.0
 10
-5.718497433030704
 20
6.781386785867425
 30
0.0
  0
LINE
  5
39E8
330
1F
100
AcDbEntity
  8
AM_0
100
AcDbLine
 10
-1.627902502536155
 20
4.000711221015762
 30
0.0
 11
-3.593613934360142
 21
4.512680133792287
 31
0.0
  0
SPLINE
  5
39E9
330
1F
100
AcDbEntity
  8
AM_0
100
AcDbSpline
210
0.0
220
0.0
230
1.0
 70
     8
 71
     3
 72
     8
 73
     4
 74
     0
 42
0.0000000001
 43
0.0000000001
 40
0.0
 40
0.0
 40
0.0
 40
0.0
 40
4.294232294743062
 40
4.294232294743062
 40
4.294232294743062
 40
4.294232294743062
 10
-0.4574797946426509
 20
7.5
 30
0.0
 10
0.5437799102895989
 20
6.461284340463997
 30
0.0
 10
-2.15959180804669
 20
4.756016337976373
 30
0.0
 10
-3.593613934360142
 20
4.512680133792287
 30
0.0
  0
SPLINE
  5
39EA
330
1F
100
AcDbEntity
  8
AM_0
100
AcDbSpline
210
0.0
220
0.0
230
1.0
 70
     8
 71
     3
 72
     8
 73
     4
 74
     0
 42
0.0000000001
 43
0.0000000001
 40
9.532359626456116
 40
9.532359626456116
 40
9.532359626456116
 40
9.532359626456116
 40
12.40023413887867
 40
12.40023413887867
 40
12.40023413887867
 40
12.40023413887867
 10
-4.193564784235869
 20
3.565747275794819
 30
0.0
 10
-2.848181913115105
 20
2.926660408388215
 30
0.0
 10
-1.511375051939757
 20
2.238807046458532
 30
0.0
 10
-0.178131640923221
 20
1.530690534913446
 30
0.0
  0
LINE
  5
39EB
330
1F
100
AcDbEntity
  8
AM_0
100
AcDbLine
 10
-0.1601179281255325
 20
-1.990346781844436
 30
0.0
 11
-0.0000000000006636
 21
-1.5
 31
0.0
  0
LINE
  5
39EC
330
1F
100
AcDbEntity
  8
AM_0
100
AcDbLine
 10
-1.312140475308488
 20
-2.210482147749644
 30
0.0
 11
-0.1601179281255325
 21
-1.990346781844436
 31
0.0
  0
LINE
  5
39ED
330
1F
100
AcDbEntity
  8
AM_0
100
AcDbLine
 10
-0.0000000000006636
 20
-7.5
 30
0.0
 11
-0.1601179281255325
 21
-7.100161736432482
 31
0.0
  0
LINE
  5
39EE
330
1F
100
AcDbEntity
  8
AM_0
100
AcDbLine
 10
-0.1601179281255325
 20
-7.100161736432482
 30
0.0
 11
-1.044578864434067
 21
-5.996424983192696
 31
0.0
  0
LINE
  5
39EF
330
1F
100
AcDbEntity
  8
AM_0
100
AcDbLine
 10
-0.1601179281255325
 20
-7.100161736432482
 30
0.0
 11
-0.1601179281255325
 21
-1.990346781844436
 31
0.0
  0
ELLIPSE
  5
39F0
330
1F
100
AcDbEntity
  8
AM_0
100
AcDbEllipse
 10
3.028017865135263
 20
-3.815820247076771
 30
0.0
 11
-4.636859831519416
 21
0.0000000000000126
 31
0.0
210
0.0
220
0.0
230
1.0
 40
0.9836500000000006
 41
-0.3596717454910765
 42
0.4984822114953356
  0
LINE
  5
39F1
330
1F
100
AcDbEntity
  8
AM_0
100
AcDbLine
 10
-0.0000000000006636
 20
-7.5
 30
0.0
 11
-0.0000000000006636
 21
-1.5
 31
0.0
  0
LINE
  5
39F2
330
1F
100
AcDbEntity
  8
AM_0
100
AcDbLine
 10
-3.049865297616685
 20
-7.290546384315689
 30
0.0
 11
-3.049865297616685
 21
-6.576861919295765
 31
0.0
  0
LINE
  5
39F3
330
1F
100
AcDbEntity
  8
AM_0
100
AcDbLine
 10
-6.099730595232707
 20
-6.685507779596264
 30
0.0
 11
-6.099730595232707
 21
-5.687409660118191
 31
0.0
  0
LINE
  5
39F4
330
1F
100
AcDbEntity
  8
AM_0
100
AcDbLine
 10
-8.387129568444724
 20
-5.998071587284812
 30
0.0
 11
-8.387129568444724
 21
-4.824472495140753
 31
0.0
  0
SPLINE
  5
39F5
330
1F
100
AcDbEntity
  8
AM_0
100
AcDbSpline
210
0.0
220
0.0
230
1.0
 70
     8
 71
     3
 72
     8
 73
     4
 74
     0
 42
0.0000000001
 43
0.0000000001
 40
5.928582328726523
 40
5.928582328726523
 40
5.928582328726523
 40
5.928582328726523
 40
7.528098176779675
 40
7.528098176779675
 40
7.528098176779675
 40
7.528098176779675
 10
-6.099730595239642
 20
-5.687409660115804
 30
0.0
 10
-6.866534127107544
 20
-5.424426970115518
 30
0.0
 10
-7.628710567980474
 20
-5.135132859177588
 30
0.0
 10
-8.387129568407278
 20
-4.824472495156101
 30
0.0
  0
SPLINE
  5
39F6
330
1F
100
AcDbEntity
  8
AM_0
100
AcDbSpline
210
0.0
220
0.0
230
1.0
 70
     8
 71
     3
 72
     8
 73
     4
 74
     0
 42
0.0000000001
 43
0.0000000001
 40
4.096652702081863
 40
4.096652702081863
 40
4.096652702081863
 40
4.096652702081863
 40
5.678228147290397
 40
5.678228147290397
 40
5.678228147290397
 40
5.678228147290397
 10
-6.099730595229933
 20
-6.6855077795949
 30
0.0
 10
-6.867701595796218
 20
-6.486782020919463
 30
0.0
 10
-7.629873781188143
 20
-6.256011168642771
 30
0.0
 10
-8.387129568444724
 20
-5.998071587284812
 30
0.0
  0
SPLINE
  5
39F7
330
1F
100
AcDbEntity
  8
AM_0
100
AcDbSpline
210
0.0
220
0.0
230
1.0
 70
     8
 71
     3
 72
     9
 73
     5
 74
     0
 42
0.0000000001
 43
0.0000000001
 40
0.0
 40
0.0
 40
0.0
 40
0.0
 40
1.903742594624469
 40
3.430173214614181
 40
3.430173214614181
 40
3.430173214614181
 40
3.430173214614181
 10
-3.049865297616685
 20
-6.576861919295765
 30
0.0
 10
-3.468829299052923
 20
-6.094311430214631
 30
0.0
 10
-4.377045294769549
 20
-5.040079908004969
 30
0.0
 10
-5.602933980359303
 20
-5.545686134615399
 30
0.0
 10
-6.099730595239642
 20
-5.687409660115804
 30
0.0
  0
SPLINE
  5
39F8
330
1F
100
AcDbEntity
  8
AM_0
100
AcDbSpline
210
0.0
220
0.0
230
1.0
 70
     8
 71
     3
 72
     9
 73
     5
 74
     0
 42
0.0000000001
 43
0.0000000001
 40
0.0
 40
0.0
 40
0.0
 40
0.0
 40
1.72658936472417
 40
3.24728190261914
 40
3.24728190261914
 40
3.24728190261914
 40
3.24728190261914
 10
-3.049865297616685
 20
-7.290546384315689
 30
0.0
 10
-3.407407364324328
 20
-6.834976101994786
 30
0.0
 10
-4.490412286678248
 20
-6.2347529562082
 30
0.0
 10
-5.629010818225607
 20
-6.479220798071024
 30
0.0
 10
-6.099730595232707
 20
-6.685507779596264
 30
0.0
  0
SPLINE
  5
39F9
330
1F
100
AcDbEntity
  8
AM_0
100
AcDbSpline
210
0.0
220
0.0
230
1.0
 70
     8
 71
     3
 72
     8
 73
     4
 74
     0
 42
0.0000000001
 43
0.0000000001
 40
0.0
 40
0.0
 40
0.0
 40
0.0
 40
2.024855066027545
 40
2.024855066027545
 40
2.024855066027545
 40
2.024855066027545
 10
-0.0000000000006636
 20
-7.5
 30
0.0
 10
-1.029255866430368
 20
-7.5
 30
0.0
 10
-2.045260377158217
 20
-7.426771086663848
 30
0.0
 10
-3.049865297616685
 20
-7.290546384315689
 30
0.0
  0
LINE
  5
39FA
330
1F
100
AcDbEntity
  8
AM_0
100
AcDbLine
 10
-3.593613934360142
 20
-1.199999999999931
 30
0.0
 11
-0.1760840550574301
 21
-1.199999999999931
 31
0.0
  0
LINE
  5
39FB
330
1F
100
AcDbEntity
  8
AM_0
100
AcDbLine
 10
-3.593613934360142
 20
-1.199999999999931
 30
0.0
 11
-1.312140475308488
 21
-2.210482147749644
 31
0.0
  0
SPLINE
  5
39FC
330
1F
100
AcDbEntity
  8
AM_0
100
AcDbSpline
210
0.0
220
0.0
230
1.0
 70
     8
 71
     3
 72
     8
 73
     4
 74
     0
 42
0.0000000001
 43
0.0000000001
 40
1.870660592686466
 40
1.870660592686466
 40
1.870660592686466
 40
1.870660592686466
 40
3.826008700541491
 40
3.826008700541491
 40
3.826008700541491
 40
3.826008700541491
 10
-0.1601179281255325
 20
-7.100161736432482
 30
0.0
 10
-1.133049356248706
 20
-6.980785777978326
 30
0.0
 10
-2.095768901168423
 20
-6.803341119804031
 30
0.0
 10
-3.049865297613218
 20
-6.5768619192811
 30
0.0
  0
LINE
  5
39FD
330
1F
100
AcDbEntity
  8
AM_0
100
AcDbLine
 10
-0.0000000000006636
 20
-1.5
 30
0.0
 11
-0.8804202752858831
 21
0.0000000000003411
 31
0.0
  0
LINE
  5
39FE
330
1F
100
AcDbEntity
  8
AM_0
100
AcDbLine
 10
-0.0000000000006636
 20
0.0
 30
0.0
 11
-0.1354789952892412
 21
-1.269180130628456
 31
0.0
  0
LINE
  5
39FF
330
1F
100
AcDbEntity
  8
AM_0
100
AcDbLine
 10
-3.593613934360142
 20
0.0
 30
0.0
 11
-3.593613934360142
 21
-1.199999999999931
 31
0.0
  0
LINE
  5
3A00
330
1F
100
AcDbEntity
  8
AM_0
100
AcDbLine
 10
-9.530829055050732
 20
4.911801153173882
 30
0.0
 11
-9.530829055050732
 21
5.760364171234527
 31
0.0
  0
LINE
  5
3A01
330
1F
100
AcDbEntity
  8
AM_0
100
AcDbLine
 10
-12.58069435266675
 20
6.075104539768858
 30
0.0
 11
-12.58069435266675
 21
6.626997967885245
 31
0.0
  0
SPLINE
  5
3A02
330
1F
100
AcDbEntity
  8
AM_0
100
AcDbSpline
210
0.0
220
0.0
230
1.0
 70
     8
 71
     3
 72
     9
 73
     5
 74
     0
 42
0.0000000001
 43
0.0000000001
 40
0.0
 40
0.0
 40
0.0
 40
0.0
 40
1.596253384393968
 40
3.130156758002996
 40
3.130156758002996
 40
3.130156758002996
 40
3.130156758002996
 10
-9.530829055050732
 20
5.760364171234527
 30
0.0
 10
-9.99897532399216
 20
6.026936714350325
 30
0.0
 10
-11.03997669871724
 20
6.290490884986703
 30
0.0
 10
-12.06194068217074
 20
6.59457456585908
 30
0.0
 10
-12.58069435266675
 20
6.626997967885245
 30
0.0
  0
SPLINE
  5
3A03
330
1F
100
AcDbEntity
  8
AM_0
100
AcDbSpline
210
0.0
220
0.0
230
1.0
 70
     8
 71
     3
 72
     9
 73
     5
 74
     0
 42
0.0000000001
 43
0.0000000001
 40
0.0
 40
0.0
 40
0.0
 40
0.0
 40
1.509478570089825
 40
3.309158499346873
 40
3.309158499346873
 40
3.309158499346873
 40
3.309158499346873
 10
-9.530829055050732
 20
4.911801153173882
 30
0.0
 10
-10.04141947706797
 20
4.942169056712724
 30
0.0
 10
-11.22032119194821
 20
4.903794490970263
 30
0.0
 10
-12.10522225089201
 20
5.6994312248296
 30
0.0
 10
-12.58069435266675
 20
6.075104539768858
 30
0.0
  0
LINE
  5
3A04
330
1F
100
AcDbEntity
  8
AM_0
100
AcDbLine
 10
-14.86809332587877
 20
6.743702691869088
 30
0.0
 11
-14.86809332587877
 21
7.049494373445554
 31
0.0
  0
SPLINE
  5
3A05
330
1F
100
AcDbEntity
  8
AM_0
100
AcDbSpline
210
0.0
220
0.0
230
1.0
 70
     8
 71
     3
 72
     8
 73
     4
 74
     0
 42
0.0000000001
 43
0.0000000001
 40
2.130606102564619
 40
2.130606102564619
 40
2.130606102564619
 40
2.130606102564619
 40
3.679329335050426
 40
3.679329335050426
 40
3.679329335050426
 40
3.679329335050426
 10
-14.86809332587877
 20
7.049494373445895
 30
0.0
 10
-14.0996163639978
 20
6.942841037198263
 30
0.0
 10
-13.33741317501976
 20
6.800512612677039
 30
0.0
 10
-12.58069435267022
 20
6.626997967885245
 30
0.0
  0
SPLINE
  5
3A06
330
1F
100
AcDbEntity
  8
AM_0
100
AcDbSpline
210
0.0
220
0.0
230
1.0
 70
     8
 71
     3
 72
     8
 73
     4
 74
     0
 42
0.0000000001
 43
0.0000000001
 40
3.939746932601999
 40
3.939746932601999
 40
3.939746932601999
 40
3.939746932601999
 40
5.519086939037594
 40
5.519086939037594
 40
5.519086939037594
 40
5.519086939037594
 10
-14.86809332587877
 20
6.743702691869088
 30
0.0
 10
-14.1000501646469
 20
6.551655050235922
 30
0.0
 10
-13.33787673378721
 20
6.327170427335886
 30
0.0
 10
-12.58069435266675
 20
6.075104539768517
 30
0.0
  0
SPLINE
  5
3A07
330
1F
100
AcDbEntity
  8
AM_0
100
AcDbSpline
210
0.0
220
0.0
230
1.0
 70
     8
 71
     3
 72
     8
 73
     4
 74
     0
 42
0.0000000001
 43
0.0000000001
 40
13.73199344169106
 40
13.73199344169106
 40
13.73199344169106
 40
13.73199344169106
 40
14.43901837670146
 40
14.43901837670146
 40
14.43901837670146
 40
14.43901837670146
 10
-19.0616581101008
 20
0.5339486316656803
 30
0.0
 10
-18.73351939816624
 20
0.3562504812312
 30
0.0
 10
-18.405455793735
 20
0.1781252406156
 30
0.0
 10
-18.07739218930375
 20
0.0000000000003411
 30
0.0
  0
LINE
  5
3A08
330
1F
100
AcDbEntity
  8
AM_0
100
AcDbLine
 10
-22.11152340771682
 20
0.7683471478364936
 30
0.0
 11
-22.11152340771682
 21
2.158272141322527
 31
0.0
  0
SPLINE
  5
3A09
330
1F
100
AcDbEntity
  8
AM_0
100
AcDbSpline
210
0.0
220
0.0
230
1.0
 70
     8
 71
     3
 72
     9
 73
     5
 74
     0
 42
0.0000000001
 43
0.0000000001
 40
0.0
 40
0.0
 40
0.0
 40
0.0
 40
2.134718602092789
 40
3.638419521675699
 40
3.638419521675699
 40
3.638419521675699
 40
3.638419521675699
 10
-19.0616581101008
 20
0.5339486316656803
 30
0.0
 10
-19.44557495190285
 20
1.137044085087789
 30
0.0
 10
-20.25722216112793
 20
2.215413720264585
 30
0.0
 10
-21.61675918496121
 20
2.278200344003364
 30
0.0
 10
-22.11152340771682
 20
2.158272141322527
 30
0.0
  0
SPLINE
  5
3A0A
330
1F
100
AcDbEntity
  8
AM_0
100
AcDbSpline
210
0.0
220
0.0
230
1.0
 70
     8
 71
     3
 72
     8
 73
     4
 74
     0
 42
0.0000000001
 43
0.0000000001
 40
0.3507760400854742
 40
0.3507760400854742
 40
0.3507760400854742
 40
0.3507760400854742
 40
1.871307041999678
 40
1.871307041999678
 40
1.871307041999678
 40
1.871307041999678
 10
-20.20535759670681
 20
7.493460311003673
 30
0.0
 10
-19.43586109488408
 20
7.474638513651029
 30
0.0
 10
-18.67365614829724
 20
7.415522524634411
 30
0.0
 10
-17.91795862349479
 20
7.32044557912593
 30
0.0
  0
SPLINE
  5
3A0B
330
1F
100
AcDbEntity
  8
AM_0
100
AcDbSpline
210
0.0
220
0.0
230
1.0
 70
     8
 71
     3
 72
     9
 73
     5
 74
     0
 42
0.0000000001
 43
0.0000000001
 40
0.0
 40
0.0
 40
0.0
 40
0.0
 40
1.008936993267342
 40
1.777052715134862
 40
1.777052715134862
 40
1.777052715134862
 40
1.777052715134862
 10
-14.86809332587877
 20
7.049494373445554
 30
0.0
 10
-15.36528754529241
 20
6.925785853129696
 30
0.0
 10
-16.28084523827776
 20
6.732471288546662
 30
0.0
 10
-17.15950788939497
 20
6.980393285270338
 30
0.0
 10
-17.53758474560475
 20
7.087646999078287
 30
0.0
  0
SPLINE
  5
3A0C
330
1F
100
AcDbEntity
  8
AM_0
100
AcDbSpline
210
0.0
220
0.0
230
1.0
 70
     8
 71
     3
 72
     9
 73
     5
 74
     0
 42
0.0000000001
 43
0.0000000001
 40
0.0
 40
0.0
 40
0.0
 40
0.0
 40
1.524049486410846
 40
3.246382277554493
 40
3.246382277554493
 40
3.246382277554493
 40
3.246382277554493
 10
-14.86809332587877
 20
6.743702691869088
 30
0.0
 10
-15.34976629818822
 20
6.560409004856232
 30
0.0
 10
-16.53549345233326
 20
6.170606777316883
 30
0.0
 10
-17.40340112524538
 20
7.049482255857014
 30
0.0
 10
-17.91795862349479
 20
7.32044557912593
 30
0.0
  0
LINE
  5
3A0D
330
1F
100
AcDbEntity
  8
AM_0
100
AcDbLine
 10
-11.43699486606074
 20
-4.813543411554633
 30
0.0
 11
-11.43699486606074
 21
-3.4632394592345
 31
0.0
  0
LINE
  5
3A0E
330
1F
100
AcDbEntity
  8
AM_0
100
AcDbLine
 10
-13.72439383926929
 20
-3.759413195148454
 30
0.0
 11
-13.72439383927276
 21
-2.3232007100396
 31
0.0
  0
SPLINE
  5
3A0F
330
1F
100
AcDbEntity
  8
AM_0
100
AcDbSpline
210
0.0
220
0.0
230
1.0
 70
     8
 71
     3
 72
     8
 73
     4
 74
     0
 42
0.0000000001
 43
0.0000000001
 40
9.685078621624523
 40
9.685078621624523
 40
9.685078621624523
 40
9.685078621624523
 40
11.31655044551473
 40
11.31655044551473
 40
11.31655044551473
 40
11.31655044551473
 10
-11.43699486606074
 20
-3.4632394592345
 30
0.0
 10
-12.20184259037105
 20
-3.096768099578639
 30
0.0
 10
-12.96400130749984
 20
-2.715006009753551
 30
0.0
 10
-13.72439383929148
 20
-2.323200710074388
 30
0.0
  0
SPLINE
  5
3A10
330
1F
100
AcDbEntity
  8
AM_0
100
AcDbSpline
210
0.0
220
0.0
230
1.0
 70
     8
 71
     3
 72
     8
 73
     4
 74
     0
 42
0.0000000001
 43
0.0000000001
 40
7.818791612490512
 40
7.818791612490512
 40
7.818791612490512
 40
7.818791612490512
 40
9.443881246512125
 40
9.443881246512125
 40
9.443881246512125
 40
9.443881246512125
 10
-11.43699486606074
 20
-4.813543411554292
 30
0.0
 10
-12.20307183245025
 20
-4.482119603982482
 30
0.0
 10
-12.96521906563798
 20
-4.128979520844268
 30
0.0
 10
-13.72439383927276
 20
-3.759413195146748
 30
0.0
  0
LINE
  5
3A11
330
1F
100
AcDbEntity
  8
AM_0
100
AcDbLine
 10
-16.77425913688878
 20
-2.191724524484698
 30
0.0
 11
-16.77425913688878
 21
-0.7064628059332563
 31
0.0
  0
SPLINE
  5
3A12
330
1F
100
AcDbEntity
  8
AM_0
100
AcDbSpline
210
0.0
220
0.0
230
1.0
 70
     8
 71
     3
 72
     8
 73
     4
 74
     0
 42
0.0000000001
 43
0.0000000001
 40
1.999245295235591
 40
1.999245295235591
 40
1.999245295235591
 40
1.999245295235591
 40
2.130230809022907
 40
2.130230809022907
 40
2.130230809022907
 40
2.130230809022907
 10
-17.72734204239379
 20
-7.295684922149689
 30
0.0
 10
-17.66233664852621
 20
-7.286975892788632
 30
0.0
 10
-17.59737905590688
 20
-7.278002706796542
 30
0.0
 10
-17.53246876326403
 20
-7.268768134278843
 30
0.0
  0
LINE
  5
3A13
330
1F
100
AcDbEntity
  8
AM_0
100
AcDbLine
 10
-20.77720734000843
 20
-7.49996652010202
 30
0.0
 11
-20.77720734004518
 21
-7.114818841798523
 31
0.0
  0
SPLINE
  5
3A14
330
1F
100
AcDbEntity
  8
AM_0
100
AcDbSpline
210
0.0
220
0.0
230
1.0
 70
     8
 71
     3
 72
     8
 73
     4
 74
     0
 42
0.0000000001
 43
0.0000000001
 40
0.0
 40
0.0
 40
0.0
 40
0.0
 40
1.498423311644514
 40
1.498423311644514
 40
1.498423311644514
 40
1.498423311644514
 10
-20.77720734000981
 20
-7.114818841802616
 30
0.0
 10
-20.32744834428938
 20
-6.88297375666061
 30
0.0
 10
-19.78266373592036
 20
-6.638440769330529
 30
0.0
 10
-19.29386904835814
 20
-6.773730422105131
 30
0.0
  0
SPLINE
  5
3A15
330
1F
100
AcDbEntity
  8
AM_0
100
AcDbSpline
210
0.0
220
0.0
230
1.0
 70
     8
 71
     3
 72
     9
 73
     5
 74
     0
 42
0.0000000001
 43
0.0000000001
 40
0.0
 40
0.0
 40
0.0
 40
0.0
 40
1.667714745337139
 40
3.256805083315271
 40
3.256805083315271
 40
3.256805083315271
 40
3.256805083315271
 10
-20.77720734000981
 20
-7.499966520103043
 30
0.0
 10
-20.30459202471066
 20
-7.195156134677993
 30
0.0
 10
-19.29676847775343
 20
-6.414859136733015
 30
0.0
 10
-18.21204916548762
 20
-7.064909168703578
 30
0.0
 10
-17.72734204239379
 20
-7.295684922149689
 30
0.0
  0
SPLINE
  5
3A16
330
1F
100
AcDbEntity
  8
AM_0
100
AcDbSpline
210
0.0
220
0.0
230
1.0
 70
     8
 71
     3
 72
     9
 73
     5
 74
     0
 42
0.0000000001
 43
0.0000000001
 40
0.0
 40
0.0
 40
0.0
 40
0.0
 40
2.234683413624822
 40
3.734683413624822
 40
3.734683413624822
 40
3.734683413624822
 40
3.734683413624822
 10
-13.72439383927276
 20
-2.323200710083938
 30
0.0
 10
-14.09820824533841
 20
-1.675386990773339
 30
0.0
 10
-14.83526644273141
 20
-0.5008553472578472
 30
0.0
 10
-16.32383581800051
 20
-0.4350256900202948
 30
0.0
 10
-16.77425913688878
 20
-0.6667557338985262
 30
0.0
  0
SPLINE
  5
3A17
330
1F
100
AcDbEntity
  8
AM_0
100
AcDbSpline
210
0.0
220
0.0
230
1.0
 70
     8
 71
     3
 72
     8
 73
     4
 74
     0
 42
0.0000000001
 43
0.0000000001
 40
0.2298684927509915
 40
0.2298684927509915
 40
0.2298684927509915
 40
0.2298684927509915
 40
2.764560748519282
 40
2.764560748519282
 40
2.764560748519282
 40
2.764560748519282
 10
-17.72734204239379
 20
-7.272674303813914
 30
0.0
 10
-16.44247754307058
 20
-7.252503790988953
 30
0.0
 10
-15.17701286391389
 20
-7.1220184312956
 30
0.0
 10
-13.92748737748731
 20
-6.900896684764575
 30
0.0
  0
SPLINE
  5
3A18
330
1F
100
AcDbEntity
  8
AM_0
100
AcDbSpline
210
0.0
220
0.0
230
1.0
 70
     8
 71
     3
 72
     9
 73
     5
 74
     0
 42
0.0000000001
 43
0.0000000001
 40
0.0
 40
0.0
 40
0.0
 40
0.0
 40
1.804831497484455
 40
3.407354979375
 40
3.407354979375
 40
3.407354979375
 40
3.407354979375
 10
-13.72439383927276
 20
-3.759413195146748
 30
0.0
 10
-14.1947397307567
 20
-3.374855185866922
 30
0.0
 10
-15.1591870121051
 20
-2.742104373562281
 30
0.0
 10
-16.24081241024536
 20
-2.291755509735185
 30
0.0
 10
-16.77425913688878
 20
-2.191724524484698
 30
0.0
  0
SPLINE
  5
3A19
330
1F
100
AcDbEntity
  8
AM_0
100
AcDbSpline
210
0.0
220
0.0
230
1.0
 70
     8
 71
     3
 72
     8
 73
     4
 74
     0
 42
0.0000000001
 43
0.0000000001
 40
11.62991291415682
 40
11.62991291415682
 40
11.62991291415682
 40
11.62991291415682
 40
14.48999654934396
 40
14.48999654934396
 40
14.48999654934396
 40
14.48999654934396
 10
-16.77425913688878
 20
-2.191724524484698
 30
0.0
 10
-18.09934638970661
 20
-1.4803749049114
 30
0.0
 10
-19.41921520674769
 20
-0.7401874524555297
 30
0.0
 10
-20.73908402378947
 20
0.0
 30
0.0
  0
LINE
  5
3A1A
330
1F
100
AcDbEntity
  8
AM_0
100
AcDbLine
 10
-19.0616581101008
 20
-0.9382935617379644
 30
0.0
 11
-19.0616581101008
 21
0.5339486316656803
 31
0.0
  0
SPLINE
  5
3A1B
330
1F
100
AcDbEntity
  8
AM_0
100
AcDbSpline
210
0.0
220
0.0
230
1.0
 70
     8
 71
     3
 72
     8
 73
     4
 74
     0
 42
0.0000000001
 43
0.0000000001
 40
13.50299628442394
 40
13.50299628442394
 40
13.50299628442394
 40
13.50299628442394
 40
14.43901837670146
 40
14.43901837670146
 40
14.43901837670146
 40
14.43901837670146
 10
-16.77425913688878
 20
-0.7064628059332563
 30
0.0
 10
-17.20875300498602
 20
-0.4716358706803021
 30
0.0
 10
-17.64307259714489
 20
-0.235817935340151
 30
0.0
 10
-18.07739218930375
 20
0.0000000000003411
 30
0.0
  0
SPLINE
  5
3A1C
330
1F
100
AcDbEntity
  8
AM_0
100
AcDbSpline
210
0.0
220
0.0
230
1.0
 70
     8
 71
     3
 72
     8
 73
     4
 74
     0
 42
0.0000000001
 43
0.0000000001
 40
4.542668862435135
 40
4.542668862435135
 40
4.542668862435135
 40
4.542668862435135
 40
14.36247867694493
 40
14.36247867694493
 40
14.36247867694493
 40
14.36247867694493
 10
-1.044578864431987
 20
-5.996424983184851
 30
0.0
 10
-5.824419006032471
 20
-4.735508529859203
 30
0.0
 10
-10.41844900819469
 20
-2.36775426492943
 30
0.0
 10
-15.01247901035692
 20
0.0000000000003411
 30
0.0
  0
SPLINE
  5
3A1D
330
1F
100
AcDbEntity
  8
AM_0
100
AcDbSpline
210
0.0
220
0.0
230
1.0
 70
     8
 71
     3
 72
     8
 73
     4
 74
     0
 42
0.0000000001
 43
0.0000000001
 40
0.7142832446738512
 40
0.7142832446738512
 40
0.7142832446738512
 40
0.7142832446738512
 40
9.361146747480315
 40
9.361146747480315
 40
9.361146747480315
 40
9.361146747480315
 10
-13.92748737732643
 20
6.900896684736608
 30
0.0
 10
-9.566140447140631
 20
6.698675158457717
 30
0.0
 10
-5.405034338608692
 20
5.303654824199611
 30
0.0
 10
-1.317305756056878
 20
3.471537674221508
 30
0.0
  0
SPLINE
  5
3A1E
330
1F
100
AcDbEntity
  8
AM_0
100
AcDbSpline
210
0.0
220
0.0
230
1.0
 70
     8
 71
     3
 72
     8
 73
     4
 74
     0
 42
0.0000000001
 43
0.0000000001
 40
0.0
 40
0.0
 40
0.0
 40
0.0
 40
4.451443990518192
 40
4.451443990518192
 40
4.451443990518192
 40
4.451443990518192
 10
-15.01247901035692
 20
-6.926166755703775
 30
0.0
 10
-12.74976158519708
 20
-6.926166755703775
 30
0.0
 10
-10.54289007398939
 20
-6.593502621370816
 30
0.0
 10
-8.374555837769539
 20
-6.031278823385036
 30
0.0
  0
SPLINE
  5
3A1F
330
1F
100
AcDbEntity
  8
AM_0
100
AcDbSpline
210
0.0
220
0.0
230
1.0
 70
     8
 71
     3
 72
     9
 73
     5
 74
     0
 42
0.0000000001
 43
0.0000000001
 40
0.0
 40
0.0
 40
0.0
 40
0.0
 40
1.80162782053068
 40
3.313189647300303
 40
3.313189647300303
 40
3.313189647300303
 40
3.313189647300303
 10
-8.387129568444724
 20
-5.998071587284812
 30
0.0
 10
-8.763233952207654
 20
-5.52501274996014
 30
0.0
 10
-9.775557988445896
 20
-4.983879276482333
 30
0.0
 10
-10.94979587248587
 20
-4.657966263957199
 30
0.0
 10
-11.43699486606074
 20
-4.813543411554633
 30
0.0
  0
SPLINE
  5
3A20
330
1F
100
AcDbEntity
  8
AM_0
100
AcDbSpline
210
0.0
220
0.0
230
1.0
 70
     8
 71
     3
 72
     9
 73
     5
 74
     0
 42
0.0000000001
 43
0.0000000001
 40
0.0
 40
0.0
 40
0.0
 40
0.0
 40
2.141059343722855
 40
3.651523002367593
 40
3.651523002367593
 40
3.651523002367593
 40
3.651523002367593
 10
-8.387129568444724
 20
-4.813543411554633
 30
0.0
 10
-8.845077932512374
 20
-4.259979218342238
 30
0.0
 10
-9.568222285724612
 20
-2.855519091703705
 30
0.0
 10
-10.92823569993631
 20
-3.40793210559467
 30
0.0
 10
-11.43699486606074
 20
-3.4632394592345
 30
0.0
  0
SPLINE
  5
3A21
330
1F
100
AcDbEntity
  8
AM_0
100
AcDbSpline
210
0.0
220
0.0
230
1.0
 70
     8
 71
     3
 72
     8
 73
     4
 74
     0
 42
0.0000000001
 43
0.0000000001
 40
7.657131739025505
 40
7.657131739025505
 40
7.657131739025505
 40
7.657131739025505
 40
9.280732515295124
 40
9.280732515295124
 40
9.280732515295124
 40
9.280732515295124
 10
-9.530829055050732
 20
4.911801153173882
 30
0.0
 10
-8.764663356953173
 20
4.585049890799723
 30
0.0
 10
-8.002515247543833
 20
4.236096850700619
 30
0.0
 10
-7.243430081839409
 20
3.870217539498071
 30
0.0
  0
SPLINE
  5
3A22
330
1F
100
AcDbEntity
  8
AM_0
100
AcDbSpline
210
0.0
220
0.0
230
1.0
 70
     8
 71
     3
 72
     8
 73
     4
 74
     0
 42
0.0000000001
 43
0.0000000001
 40
5.779271486987545
 40
5.779271486987545
 40
5.779271486987545
 40
5.779271486987545
 40
7.377122246071414
 40
7.377122246071414
 40
7.377122246071414
 40
7.377122246071414
 10
-9.530829055050732
 20
5.760364171234527
 30
0.0
 10
-8.763953236559419
 20
5.502605389536483
 30
0.0
 10
-8.001775891311135
 20
5.218129279953359
 30
0.0
 10
-7.243430081838716
 20
4.911865582717268
 30
0.0
  0
SPLINE
  5
3A23
330
1F
100
AcDbEntity
  8
AM_0
100
AcDbSpline
210
0.0
220
0.0
230
1.0
 70
     8
 71
     3
 72
     8
 73
     4
 74
     0
 42
0.0000000001
 43
0.0000000001
 40
1.666991338825053
 40
1.666991338825053
 40
1.666991338825053
 40
1.666991338825053
 40
3.21070440243455
 40
3.21070440243455
 40
3.21070440243455
 40
3.21070440243455
 10
-23.25522289432006
 20
7.356814005294609
 30
0.0
 10
-24.0242316641781
 20
7.270178527070243
 30
0.0
 10
-24.78642447265134
 20
7.145877057779216
 30
0.0
 10
-25.54262186753485
 20
6.988444063523502
 30
0.0
  0
LINE
  5
3A24
330
1F
100
AcDbEntity
  8
AM_0
100
AcDbLine
 10
-24.39892238092884
 20
2.027453181442638
 30
0.0
 11
-24.39892238094687
 21
3.309510373671628
 31
0.0
  0
SPLINE
  5
3A25
330
1F
100
AcDbEntity
  8
AM_0
100
AcDbSpline
210
0.0
220
0.0
230
1.0
 70
     8
 71
     3
 72
     8
 73
     4
 74
     0
 42
0.0000000001
 43
0.0000000001
 40
5.307227569610006
 40
5.307227569610006
 40
5.307227569610006
 40
5.307227569610006
 40
5.635889483499305
 40
5.635889483499305
 40
5.635889483499305
 40
5.635889483499305
 10
-28.59248716515087
 20
6.175043433655787
 30
0.0
 10
-28.75033936798497
 20
6.124146395723983
 30
0.0
 10
-28.9079703242418
 20
6.072026717116841
 30
0.0
 10
-29.06538795259164
 20
6.01872815755712
 30
0.0
  0
LINE
  5
3A26
330
1F
100
AcDbEntity
  8
AM_0
100
AcDbLine
 10
-27.44878767854486
 20
3.609997059506326
 30
0.0
 11
-27.44878767854486
 21
4.692522625920332
 31
0.0
  0
SPLINE
  5
3A27
330
1F
100
AcDbEntity
  8
AM_0
100
AcDbSpline
210
0.0
220
0.0
230
1.0
 70
     8
 71
     3
 72
     9
 73
     5
 74
     0
 42
0.0000000001
 43
0.0000000001
 40
0.0
 40
0.0
 40
0.0
 40
0.0
 40
1.503438351697518
 40
3.260499827787994
 40
3.260499827787994
 40
3.260499827787994
 40
3.260499827787994
 10
-28.59248716515087
 20
6.175043433656469
 30
0.0
 10
-28.09504201685912
 20
6.066778593341348
 30
0.0
 10
-26.93046002856792
 20
5.853733135801098
 30
0.0
 10
-25.98460521318681
 20
6.59599550618573
 30
0.0
 10
-25.54262186753485
 20
6.988444063523502
 30
0.0
  0
SPLINE
  5
3A28
330
1F
100
AcDbEntity
  8
AM_0
100
AcDbSpline
210
0.0
220
0.0
230
1.0
 70
     8
 71
     3
 72
     9
 73
     5
 74
     0
 42
0.0000000001
 43
0.0000000001
 40
0.0
 40
0.0
 40
0.0
 40
0.0
 40
1.891503755460323
 40
3.409143341102712
 40
3.409143341102712
 40
3.409143341102712
 40
3.409143341102712
 10
-24.39892238092884
 20
3.309510373663101
 30
0.0
 10
-24.8953092609852
 20
3.708412997711277
 30
0.0
 10
-25.70592495165614
 20
4.598737596112991
 30
0.0
 10
-26.93570040695122
 20
4.727077885727421
 30
0.0
 10
-27.44878767854486
 20
4.692522625920332
 30
0.0
  0
SPLINE
  5
3A29
330
1F
100
AcDbEntity
  8
AM_0
100
AcDbSpline
210
0.0
220
0.0
230
1.0
 70
     8
 71
     3
 72
     9
 73
     5
 74
     0
 42
0.0000000001
 43
0.0000000001
 40
0.0
 40
0.0
 40
0.0
 40
0.0
 40
1.609341566343276
 40
3.411820827695224
 40
3.411820827695224
 40
3.411820827695224
 40
3.411820827695224
 10
-24.39892238092884
 20
2.027453181442297
 30
0.0
 10
-24.91324363602538
 20
2.205858704951378
 30
0.0
 10
-26.01106146687254
 20
2.571111913851284
 30
0.0
 10
-26.9962452331585
 20
3.206462969296687
 30
0.0
 10
-27.4487876785407
 20
3.609997059502916
 30
0.0
  0
LINE
  5
3A2A
330
1F
100
AcDbEntity
  8
AM_0
100
AcDbLine
 10
-29.73618665175687
 20
4.680373269608253
 30
0.0
 11
-29.73618665175618
 21
5.576454337449831
 31
0.0
  0
LINE
  5
3A2B
330
1F
100
AcDbEntity
  8
AM_0
100
AcDbLine
 10
-32.7860519493729
 20
5.892636121412692
 30
0.0
 11
-32.7860519493729
 21
6.499278028075423
 31
0.0
  0
SPLINE
  5
3A2C
330
1F
100
AcDbEntity
  8
AM_0
100
AcDbSpline
210
0.0
220
0.0
230
1.0
 70
     8
 71
     3
 72
     9
 73
     5
 74
     0
 42
0.0000000001
 43
0.0000000001
 40
0.0
 40
0.0
 40
0.0
 40
0.0
 40
1.618462504924987
 40
3.151185540897841
 40
3.151185540897841
 40
3.151185540897841
 40
3.151185540897841
 10
-29.73618665175687
 20
5.576454337450172
 30
0.0
 10
-30.2227768190717
 20
5.825363674875512
 30
0.0
 10
-31.21795816841432
 20
6.233420205486488
 30
0.0
 10
-32.27411089316751
 20
6.413004709952907
 30
0.0
 10
-32.7860519493729
 20
6.499278028075423
 30
0.0
  0
SPLINE
  5
3A2D
330
1F
100
AcDbEntity
  8
AM_0
100
AcDbSpline
210
0.0
220
0.0
230
1.0
 70
     8
 71
     3
 72
     9
 73
     5
 74
     0
 42
0.0000000001
 43
0.0000000001
 40
0.0
 40
0.0
 40
0.0
 40
0.0
 40
1.514634011951766
 40
3.318644422736972
 40
3.318644422736972
 40
3.318644422736972
 40
3.318644422736972
 10
-29.73618665175687
 20
4.680373269608253
 30
0.0
 10
-30.24797877051247
 20
4.718658453971558
 30
0.0
 10
-31.42506754161798
 20
4.729220661736468
 30
0.0
 10
-32.30782712587081
 20
5.518037282831905
 30
0.0
 10
-32.7860519493729
 20
5.892636121412692
 30
0.0
  0
LINE
  5
3A2E
330
1F
100
AcDbEntity
  8
AM_0
100
AcDbLine
 10
-35.07345092258491
 20
6.604832069985491
 30
0.0
 11
-35.07345092258491
 21
6.969580113237043
 31
0.0
  0
SPLINE
  5
3A2F
330
1F
100
AcDbEntity
  8
AM_0
100
AcDbSpline
210
0.0
220
0.0
230
1.0
 70
     8
 71
     3
 72
     8
 73
     4
 74
     0
 42
0.0000000001
 43
0.0000000001
 40
2.489821994174631
 40
2.489821994174631
 40
2.489821994174631
 40
2.489821994174631
 40
4.043019649814397
 40
4.043019649814397
 40
4.043019649814397
 40
4.043019649814397
 10
-35.07345092258491
 20
6.969580113237043
 30
0.0
 10
-34.3056298862961
 20
6.846263828891096
 30
0.0
 10
-33.5439347694903
 20
6.688113207738297
 30
0.0
 10
-32.787569304078
 20
6.499656136719977
 30
0.0
  0
SPLINE
  5
3A30
330
1F
100
AcDbEntity
  8
AM_0
100
AcDbSpline
210
0.0
220
0.0
230
1.0
 70
     8
 71
     3
 72
     8
 73
     4
 74
     0
 42
0.0000000001
 43
0.0000000001
 40
4.306226182506206
 40
4.306226182506206
 40
4.306226182506206
 40
4.306226182506206
 40
5.890739774064351
 40
5.890739774064351
 40
5.890739774064351
 40
5.890739774064351
 10
-35.07345092258491
 20
6.604832069985491
 30
0.0
 10
-34.30557736236475
 20
6.397314589745747
 30
0.0
 10
-33.54340681931624
 20
6.158281409554092
 30
0.0
 10
-32.7860519493729
 20
5.892636121412692
 30
0.0
  0
SPLINE
  5
3A31
330
1F
100
AcDbEntity
  8
AM_0
100
AcDbSpline
210
0.0
220
0.0
230
1.0
 70
     8
 71
     3
 72
     8
 73
     4
 74
     0
 42
0.0000000001
 43
0.0000000001
 40
6.150480381241876
 40
6.150480381241876
 40
6.150480381241876
 40
6.150480381241876
 40
7.75241736749254
 40
7.75241736749254
 40
7.75241736749254
 40
7.75241736749254
 10
-29.73618665175687
 20
5.576454337449831
 30
0.0
 10
-28.96949143047597
 20
5.305857569475733
 30
0.0
 10
-28.20731630794503
 20
5.009557779661918
 30
0.0
 10
-27.44878767854486
 20
4.692522625920332
 30
0.0
  0
SPLINE
  5
3A32
330
1F
100
AcDbEntity
  8
AM_0
100
AcDbSpline
210
0.0
220
0.0
230
1.0
 70
     8
 71
     3
 72
     8
 73
     4
 74
     0
 42
0.0000000001
 43
0.0000000001
 40
8.034594408064972
 40
8.034594408064972
 40
8.034594408064972
 40
8.034594408064972
 40
9.661611892530016
 40
9.661611892530016
 40
9.661611892530016
 40
9.661611892530016
 10
-29.73618665175687
 20
4.680373269607571
 30
0.0
 10
-28.97022891544747
 20
4.342875248092923
 30
0.0
 10
-28.20808281922474
 20
3.984313550687716
 30
0.0
 10
-27.44878767854555
 20
3.609997059505303
 30
0.0
  0
LINE
  5
3A33
330
1F
100
AcDbEntity
  8
AM_0
100
AcDbLine
 10
-23.06460631322182
 20
-7.377500020264392
 30
0.0
 11
-23.06460631322182
 21
-6.738883127077542
 31
0.0
  0
LINE
  5
3A34
330
1F
100
AcDbEntity
  8
AM_0
100
AcDbLine
 10
-26.11447161083785
 20
-6.862886743753506
 30
0.0
 11
-26.11447161083785
 21
-5.927401281703851
 31
0.0
  0
SPLINE
  5
3A35
330
1F
100
AcDbEntity
  8
AM_0
100
AcDbSpline
210
0.0
220
0.0
230
1.0
 70
     8
 71
     3
 72
     9
 73
     5
 74
     0
 42
0.0000000001
 43
0.0000000001
 40
0.0
 40
0.0
 40
0.0
 40
0.0
 40
1.853196961853059
 40
3.381663674709893
 40
3.381663674709893
 40
3.381663674709893
 40
3.381663674709893
 10
-23.06460631322182
 20
-6.722058442358502
 30
0.0
 10
-23.50468178771059
 20
-6.281368168654918
 30
0.0
 10
-24.41203201030539
 20
-5.281292971777479
 30
0.0
 10
-25.62031935967464
 20
-5.774718222544169
 30
0.0
 10
-26.11447161084063
 20
-5.927401281702486
 30
0.0
  0
SPLINE
  5
3A36
330
1F
100
AcDbEntity
  8
AM_0
100
AcDbSpline
210
0.0
220
0.0
230
1.0
 70
     8
 71
     3
 72
     9
 73
     5
 74
     0
 42
0.0000000001
 43
0.0000000001
 40
0.0
 40
0.0
 40
0.0
 40
0.0
 40
1.712940807075481
 40
3.245153285734257
 40
3.245153285734257
 40
3.245153285734257
 40
3.245153285734257
 10
-23.06460631322182
 20
-7.377500020264392
 30
0.0
 10
-23.57535733834603
 20
-7.106183856771658
 30
0.0
 10
-24.46954664920798
 20
-6.206348423371013
 30
0.0
 10
-25.61566692686205
 20
-6.721055427413609
 30
0.0
 10
-26.11447161084479
 20
-6.862886743743615
 30
0.0
  0
LINE
  5
3A37
330
1F
100
AcDbEntity
  8
AM_0
100
AcDbLine
 10
-28.40187058404987
 20
-6.235873578987707
 30
0.0
 11
-28.40187058404987
 21
-5.114062548768515
 31
0.0
  0
SPLINE
  5
3A38
330
1F
100
AcDbEntity
  8
AM_0
100
AcDbSpline
210
0.0
220
0.0
230
1.0
 70
     8
 71
     3
 72
     8
 73
     4
 74
     0
 42
0.0000000001
 43
0.0000000001
 40
5.425905956994038
 40
5.425905956994038
 40
5.425905956994038
 40
5.425905956994038
 40
7.019702002723574
 40
7.019702002723574
 40
7.019702002723574
 40
7.019702002723574
 10
-26.11447161083785
 20
-5.927401281703509
 30
0.0
 10
-26.88151656008754
 20
-5.682324194479065
 30
0.0
 10
-27.64369609970179
 20
-5.409580514770027
 30
0.0
 10
-28.40187058404987
 20
-5.114062548768515
 30
0.0
  0
SPLINE
  5
3A39
330
1F
100
AcDbEntity
  8
AM_0
100
AcDbSpline
210
0.0
220
0.0
230
1.0
 70
     8
 71
     3
 72
     8
 73
     4
 74
     0
 42
0.0000000001
 43
0.0000000001
 40
3.600603813281411
 40
3.600603813281411
 40
3.600603813281411
 40
3.600603813281411
 40
5.175009087017798
 40
5.175009087017798
 40
5.175009087017798
 40
5.175009087017798
 10
-26.11447161083854
 20
-6.862886743744979
 30
0.0
 10
-26.88266839389726
 20
-6.685549701059471
 30
0.0
 10
-27.64484456167282
 20
-6.474941865197934
 30
0.0
 10
-28.40187058404987
 20
-6.235873578987707
 30
0.0
  0
LINE
  5
3A3A
330
1F
100
AcDbEntity
  8
AM_0
100
AcDbLine
 10
-31.45173588166588
 20
-5.119779242818367
 30
0.0
 11
-31.45173588166588
 21
-3.805179710923084
 31
0.0
  0
LINE
  5
3A3B
330
1F
100
AcDbEntity
  8
AM_0
100
AcDbLine
 10
-33.73913485487791
 20
-4.106429291428185
 30
0.0
 11
-33.73913485487791
 21
-2.692940119083345
 31
0.0
  0
SPLINE
  5
3A3C
330
1F
100
AcDbEntity
  8
AM_0
100
AcDbSpline
210
0.0
220
0.0
230
1.0
 70
     8
 71
     3
 72
     8
 73
     4
 74
     0
 42
0.0000000001
 43
0.0000000001
 40
9.170645305362121
 40
9.170645305362121
 40
9.170645305362121
 40
9.170645305362121
 40
10.79891126818747
 40
10.79891126818747
 40
10.79891126818747
 40
10.79891126818747
 10
-31.45173588166588
 20
-3.805179710923084
 30
0.0
 10
-32.21686469871649
 20
-3.44957313839518
 30
0.0
 10
-32.97902522567086
 20
-3.077087725514275
 30
0.0
 10
-33.73913485498886
 20
-2.69294011902707
 30
0.0
  0
SPLINE
  5
3A3D
330
1F
100
AcDbEntity
  8
AM_0
100
AcDbSpline
210
0.0
220
0.0
230
1.0
 70
     8
 71
     3
 72
     8
 73
     4
 74
     0
 42
0.0000000001
 43
0.0000000001
 40
7.307451768075528
 40
7.307451768075528
 40
7.307451768075528
 40
7.307451768075528
 40
8.927702162744216
 40
8.927702162744216
 40
8.927702162744216
 40
8.927702162744216
 10
-31.45173588166588
 20
-5.119779242818367
 30
0.0
 10
-32.21809173897087
 20
-4.803490048565095
 30
0.0
 10
-32.98024181427569
 20
-4.463959093051471
 30
0.0
 10
-33.73913485487791
 20
-4.106429291428185
 30
0.0
  0
SPLINE
  5
3A3E
330
1F
100
AcDbEntity
  8
0
100
AcDbSpline
210
0.0
220
0.0
230
1.0
 70
     8
 71
     3
 72
     8
 73
     4
 74
     0
 42
0.0000000001
 43
0.0000000001
 40
0.0
 40
0.0
 40
0.0
 40
0.0
 40
9.637195575647414
 40
9.637195575647414
 40
9.637195575647414
 40
9.637195575647414
 10
-33.69366769855896
 20
-6.549592889193036
 30
0.0
 10
-32.06077060868663
 20
-6.549592889193036
 30
0.0
 10
-30.45426313707396
 20
-6.383996451036637
 30
0.0
 10
-28.86821762323121
 20
-6.089999999999918
 30
0.0
  0
SPLINE
  5
3A3F
330
1F
100
AcDbEntity
  8
AM_0
100
AcDbSpline
210
0.0
220
0.0
230
1.0
 70
     8
 71
     3
 72
     9
 73
     5
 74
     0
 42
0.0000000001
 43
0.0000000001
 40
0.0
 40
0.0
 40
0.0
 40
0.0
 40
1.794998547112939
 40
3.300637214108833
 40
3.300637214108833
 40
3.300637214108833
 40
3.300637214108833
 10
-28.40187058404987
 20
-6.235873578991458
 30
0.0
 10
-28.89099602996929
 20
-5.880180157324003
 30
0.0
 10
-29.75241256110106
 20
-5.111282969793546
 30
0.0
 10
-30.94813278330696
 20
-5.039203463174808
 30
0.0
 10
-31.45173588167282
 20
-5.119779242815639
 30
0.0
  0
SPLINE
  5
3A40
330
1F
100
AcDbEntity
  8
AM_0
100
AcDbSpline
210
0.0
220
0.0
230
1.0
 70
     8
 71
     3
 72
     9
 73
     5
 74
     0
 42
0.0000000001
 43
0.0000000001
 40
0.0
 40
0.0
 40
0.0
 40
0.0
 40
2.127517369033063
 40
3.640030134837918
 40
3.640030134837918
 40
3.640030134837918
 40
3.640030134837918
 10
-28.40187058404987
 20
-5.119779242815639
 30
0.0
 10
-28.78779550793139
 20
-4.520765064681068
 30
0.0
 10
-29.61019614107603
 20
-3.231843410353824
 30
0.0
 10
-30.95264980207064
 20
-3.690375707382161
 30
0.0
 10
-31.45173588169917
 20
-3.805179710907736
 30
0.0
  0
SPLINE
  5
3A41
330
1F
100
AcDbEntity
  8
AM_0
100
AcDbSpline
210
0.0
220
0.0
230
1.0
 70
     8
 71
     3
 72
     8
 73
     4
 74
     0
 42
0.0000000001
 43
0.0000000001
 40
0.3581103616548037
 40
0.3581103616548037
 40
0.3581103616548037
 40
0.3581103616548037
 40
0.4557920900567158
 40
0.4557920900567158
 40
0.4557920900567158
 40
0.4557920900567158
 10
-38.27155278705215
 20
7.268768134279184
 30
0.0
 10
-38.22211211212969
 20
7.267562559876637
 30
0.0
 10
-38.1726999892026
 20
7.266194627835034
 30
0.0
 10
-38.12331622020094
 20
7.264665464457948
 30
0.0
  0
SPLINE
  5
3A42
330
1F
100
AcDbEntity
  8
AM_0
100
AcDbSpline
210
0.0
220
0.0
230
1.0
 70
     8
 71
     3
 72
     8
 73
     4
 74
     0
 42
0.0000000001
 43
0.0000000001
 40
14.25229543663493
 40
14.25229543663493
 40
14.25229543663493
 40
14.25229543663493
 40
14.43901837670146
 40
14.43901837670146
 40
14.43901837670146
 40
14.43901837670146
 10
-39.07639912570594
 20
0.1411189885773183
 30
0.0
 10
-38.98975723251667
 20
0.0940845703761397
 30
0.0
 10
-38.90311672280462
 20
0.0470422851882404
 30
0.0
 10
-38.81647621309326
 20
0.0000000000003411
 30
0.0
  0
ELLIPSE
  5
3A43
330
1F
100
AcDbEntity
  8
AM_0
100
AcDbEllipse
 10
-40.21090561703925
 20
2.55970131524306
 30
0.0
 11
4.978063470627552
 21
0.0000000000002015
 31
0.0
210
0.0
220
0.0
230
1.0
 40
0.9836499999999984
 41
2.036761073483284
 42
2.183682694423213
  0
SPLINE
  5
3A44
330
1F
100
AcDbEntity
  8
AM_0
100
AcDbSpline
210
0.0
220
0.0
230
1.0
 70
     8
 71
     3
 72
     9
 73
     5
 74
     0
 42
0.0000000001
 43
0.0000000001
 40
0.0
 40
0.0
 40
0.0
 40
0.0
 40
2.15832142038773
 40
3.660803471549535
 40
3.660803471549535
 40
3.660803471549535
 40
3.660803471549535
 10
-39.07639912570594
 20
0.1411189885773183
 30
0.0
 10
-39.5205701840895
 20
0.712700340206122
 30
0.0
 10
-40.23287945486882
 20
1.870100246296168
 30
0.0
 10
-41.63805713798676
 20
1.921500693904926
 30
0.0
 10
-42.12626442332196
 20
1.779332160619787
 30
0.0
  0
SPLINE
  5
3A45
330
1F
100
AcDbEntity
  8
AM_0
100
AcDbSpline
210
0.0
220
0.0
230
1.0
 70
     8
 71
     3
 72
     8
 73
     4
 74
     0
 42
0.0000000001
 43
0.0000000001
 40
0.9752450858540601
 40
0.9752450858540601
 40
0.9752450858540601
 40
0.9752450858540601
 40
2.229997198220355
 40
2.229997198220355
 40
2.229997198220355
 40
2.229997198220355
 10
-40.00000000000211
 20
7.450181667619782
 30
0.0
 10
-39.36983961428738
 20
7.407941094999596
 30
0.0
 10
-38.7444252323351
 20
7.33947341731698
 30
0.0
 10
-38.12331622020094
 20
7.247213641650205
 30
0.0
  0
ELLIPSE
  5
3A46
330
1F
100
AcDbEntity
  8
AM_0
100
AcDbEllipse
 10
-43.39551058451945
 20
4.397785334140976
 30
0.0
 11
-1.747697755996034
 21
0.0000000000000156
 31
0.0
210
0.0
220
0.0
230
1.0
 40
0.9836499999999931
 41
-1.055005327836356
 42
1.039389774560374
  0
ELLIPSE
  5
3A47
330
1F
100
AcDbEntity
  8
AM_0
100
AcDbEllipse
 10
-43.39551058451945
 20
4.397785334140976
 30
0.0
 11
-1.747697755996034
 21
0.0000000000000156
 31
0.0
210
0.0
220
0.0
230
1.0
 40
0.9836499999999931
 41
-1.055005327836356
 42
1.039389774560374
  0
SPLINE
  5
3A48
330
1F
100
AcDbEntity
  8
AM_0
100
AcDbSpline
210
0.0
220
0.0
230
1.0
 70
     8
 71
     3
 72
     8
 73
     4
 74
     0
 42
0.0000000001
 43
0.0000000001
 40
10.42795179099413
 40
10.42795179099413
 40
10.42795179099413
 40
10.42795179099413
 40
12.06337302160172
 40
12.06337302160172
 40
12.06337302160172
 40
12.06337302160172
 10
-44.41366339653398
 20
2.953617615031831
 30
0.0
 10
-43.64922711082702
 20
2.573391088914505
 30
0.0
 10
-42.88707063308772
 20
2.180200696913402
 30
0.0
 10
-42.12626442343639
 20
1.779332160679814
 30
0.0
  0
LINE
  5
3A49
330
1F
100
AcDbEntity
  8
AM_0
100
AcDbLine
 10
-44.28115017251795
 20
5.879832860607407
 30
0.0
 11
-43.07444142807758
 21
6.565135538381582
 31
0.0
  0
LINE
  5
3A4A
330
1F
100
AcDbEntity
  8
AM_0
100
AcDbLine
 10
-44.28115017251795
 20
5.879832860607407
 30
0.0
 11
-43.07444142807758
 21
6.565135538381582
 31
0.0
  0
LINE
  5
3A4B
330
1F
100
AcDbEntity
  8
AM_0
100
AcDbLine
 10
-36.78900015249393
 20
-2.577237645303057
 30
0.0
 11
-36.78900015249393
 21
-1.096750997066237
 31
0.0
  0
LINE
  5
3A4C
330
1F
100
AcDbEntity
  8
AM_0
100
AcDbLine
 10
-39.99959552537509
 20
-5.74626782905409
 30
0.0
 11
-39.99959552537509
 21
-6.754825349855853
 31
0.0
  0
SPLINE
  5
3A4D
330
1F
100
AcDbEntity
  8
0
100
AcDbSpline
210
0.0
220
0.0
230
1.0
 70
     8
 71
     3
 72
     8
 73
     4
 74
     0
 42
0.0000000001
 43
0.0000000001
 40
1.140063819971138
 40
1.140063819971138
 40
1.140063819971138
 40
1.140063819971138
 40
2.790246636948332
 40
2.790246636948332
 40
2.790246636948332
 40
2.790246636948332
 10
-39.99959552537509
 20
-6.455073363214523
 30
0.0
 10
-41.03381755881335
 20
-6.36543210767104
 30
0.0
 10
-42.05824307456325
 20
-6.214317115763606
 30
0.0
 10
-43.07444142807758
 20
-6.011576187137961
 30
0.0
  0
SPLINE
  5
3A4F
330
1F
100
AcDbEntity
  8
AM_0
100
AcDbSpline
210
0.0
220
0.0
230
1.0
 70
     8
 71
     3
 72
     8
 73
     4
 74
     0
 42
0.0000000001
 43
0.0000000001
 40
11.10916553453163
 40
11.10916553453163
 40
11.10916553453163
 40
11.10916553453163
 40
13.42219740580175
 40
13.42219740580175
 40
13.42219740580175
 40
13.42219740580175
 10
-36.78900015249393
 20
-2.577237645225977
 30
0.0
 10
-37.86231303598754
 20
-2.011214564233682
 30
0.0
 10
-38.93159140906057
 20
-1.422896193568476
 30
0.0
 10
-39.99959552537509
 20
-0.8275360952585515
 30
0.0
  0
ELLIPSE
  5
3A50
330
1F
100
AcDbEntity
  8
AM_0
100
AcDbEllipse
 10
-41.48380134150637
 20
-3.977372588923444
 30
0.0
 11
-3.51707937471924
 21
0.0000000000000814
 31
0.0
210
0.0
220
0.0
230
1.0
 40
0.9836499999999988
 41
4.156118901506058
 42
5.290287021010505
  0
ELLIPSE
  5
3A51
330
1F
100
AcDbEntity
  8
AM_0
100
AcDbEllipse
 10
-42.71463904310931
 20
-3.540758225579097
 30
0.0
 11
-2.537525499522919
 21
0.0000000000000847
 31
0.0
210
0.0
220
0.0
230
1.0
 40
0.9836499999999988
 41
-0.9054417914272997
 42
1.428524230663117
  0
LINE
  5
3A52
330
1F
100
AcDbEntity
  8
AM_0
100
AcDbLine
 10
-44.28115017251101
 20
-1.577131026994933
 30
0.0
 11
-43.07444142807758
 21
-0.8918283492241698
 31
0.0
  0
SPLINE
  5
3A53
330
1F
100
AcDbEntity
  8
AM_0
100
AcDbSpline
210
0.0
220
0.0
230
1.0
 70
     8
 71
     3
 72
     8
 73
     4
 74
     0
 42
0.0000000001
 43
0.0000000001
 40
12.98298737538389
 40
12.98298737538389
 40
12.98298737538389
 40
12.98298737538389
 40
14.43901837670148
 40
14.43901837670148
 40
14.43901837670148
 40
14.43901837670148
 10
-36.78900015244885
 20
-1.096750997090452
 30
0.0
 10
-37.46526282640007
 20
-0.7336541035834899
 30
0.0
 10
-38.14086951974632
 20
-0.3668270517915744
 30
0.0
 10
-38.81647621309326
 20
0.0000000000003411
 30
0.0
  0
LINE
  5
3A54
330
1F
100
AcDbEntity
  8
AM_0
100
AcDbLine
 10
-39.99959552537509
 20
-0.8275360952588926
 30
0.0
 11
-39.99959552537509
 21
2.154346371157771
 31
0.0
  0
LINE
  5
3A55
330
1F
100
AcDbEntity
  8
AM_0
100
AcDbLine
 10
-39.07639912570594
 20
-1.339842558764757
 30
0.0
 11
-39.07639912570594
 21
0.1411189885773183
 31
0.0
  0
SPLINE
  5
3A56
330
1F
100
AcDbEntity
  8
0
100
AcDbSpline
210
0.0
220
0.0
230
1.0
 70
     8
 71
     3
 72
     8
 73
     4
 74
     0
 42
0.0000000001
 43
0.0000000001
 40
0.0
 40
0.0
 40
0.0
 40
0.0
 40
3.445482686890237
 40
3.445482686890237
 40
3.445482686890237
 40
3.445482686890237
 10
-33.55995293086158
 20
-6.549592889193036
 30
0.0
 10
-35.74917336425446
 20
-6.549592889193036
 30
0.0
 10
-37.8909592827015
 20
-6.251938461479085
 30
0.0
 10
-39.99959552537509
 20
-5.74626782905409
 30
0.0
  0
SPLINE
  5
3A57
330
1F
100
AcDbEntity
  8
AM_0
100
AcDbSpline
210
0.0
220
0.0
230
1.0
 70
     8
 71
     3
 72
     9
 73
     5
 74
     0
 42
0.0000000001
 43
0.0000000001
 40
0.0
 40
0.0
 40
0.0
 40
0.0
 40
2.234089429072837
 40
3.734089429072837
 40
3.734089429072837
 40
3.734089429072837
 40
3.734089429072837
 10
-33.73913485487791
 20
-2.692940119083345
 30
0.0
 10
-34.27607372591543
 20
-2.167944937885418
 30
0.0
 10
-34.83007925566836
 20
-0.736603979657876
 30
0.0
 10
-36.29222452913451
 20
-0.9313819231245513
 30
0.0
 10
-36.78900015249393
 20
-1.037296565326982
 30
0.0
  0
SPLINE
  5
3A58
330
1F
100
AcDbEntity
  8
AM_0
100
AcDbSpline
210
0.0
220
0.0
230
1.0
 70
     8
 71
     3
 72
     9
 73
     5
 74
     0
 42
0.0000000001
 43
0.0000000001
 40
0.0
 40
0.0
 40
0.0
 40
0.0
 40
1.809327783561213
 40
3.396063755099695
 40
3.396063755099695
 40
3.396063755099695
 40
3.396063755099695
 10
-33.73913485487791
 20
-4.106429291428185
 30
0.0
 10
-34.13575456629808
 20
-3.646499428316151
 30
0.0
 10
-35.1949907380014
 20
-3.123755964762237
 30
0.0
 10
-36.25299428646469
 20
-2.619232737346616
 30
0.0
 10
-36.78900015249393
 20
-2.577237645303057
 30
0.0
  0
SPLINE
  5
3A59
330
1F
100
AcDbEntity
  8
0
100
AcDbSpline
210
0.0
220
0.0
230
1.0
 70
     8
 71
     3
 72
     8
 73
     4
 74
     0
 42
0.0000000001
 43
0.0000000001
 40
4.041712701031851
 40
4.041712701031851
 40
4.041712701031851
 40
4.041712701031851
 40
9.964098609850829
 40
9.964098609850829
 40
9.964098609850829
 40
9.964098609850829
 10
-40.00000000000215
 20
-6.751021487410476
 30
0.0
 10
-37.58007871256222
 20
-6.681616100347696
 30
0.0
 10
-34.75407443352798
 20
-6.683518985794876
 30
0.0
 10
-33.78481572166927
 20
-6.557954174600354
 30
0.0
  0
SPLINE
  5
3A5A
330
1F
100
AcDbEntity
  8
AM_0
100
AcDbSpline
210
0.0
220
0.0
230
1.0
 70
     8
 71
     3
 72
     9
 73
     5
 74
     0
 42
0.0000000001
 43
0.0000000001
 40
0.0
 40
0.0
 40
0.0
 40
0.0
 40
1.501483287633145
 40
3.044501708991191
 40
3.044501708991191
 40
3.044501708991191
 40
3.044501708991191
 10
-35.07345092258491
 20
6.969580113237043
 30
0.0
 10
-35.58126461253702
 20
6.938219335720719
 30
0.0
 10
-36.61487916663841
 20
6.802569383663822
 30
0.0
 10
-37.63864962366012
 20
7.071632110111512
 30
0.0
 10
-38.12331622020094
 20
7.264665464457948
 30
0.0
  0
SPLINE
  5
3A5B
330
1F
100
AcDbEntity
  8
AM_0
100
AcDbSpline
210
0.0
220
0.0
230
1.0
 70
     8
 71
     3
 72
     9
 73
     5
 74
     0
 42
0.0000000001
 43
0.0000000001
 40
0.0
 40
0.0
 40
0.0
 40
0.0
 40
1.516617987072454
 40
3.248795674012696
 40
3.248795674012696
 40
3.248795674012696
 40
3.248795674012696
 10
-35.07345092258491
 20
6.604832069985491
 30
0.0
 10
-35.5779134548737
 20
6.508182632205567
 30
0.0
 10
-36.72861105195236
 20
6.067393100367934
 30
0.0
 10
-37.63207735364917
 20
6.931155009727186
 30
0.0
 10
-38.12331622020094
 20
7.247213641650205
 30
0.0
  0
SPLINE
  5
3A5C
330
1F
100
AcDbEntity
  8
AM_0
100
AcDbSpline
210
0.0
220
0.0
230
1.0
 70
     8
 71
     3
 72
     8
 73
     4
 74
     0
 42
0.0000000001
 43
0.0000000001
 40
11.33959573889505
 40
11.33959573889505
 40
11.33959573889505
 40
11.33959573889505
 40
14.36247867694493
 40
14.36247867694493
 40
14.36247867694493
 40
14.36247867694493
 10
-39.99959552537509
 20
2.154346371157771
 30
0.0
 10
-38.57997115461857
 20
1.457756128510141
 30
0.0
 10
-37.1657670943825
 20
0.7288780642552411
 30
0.0
 10
-35.75156303414642
 20
0.0000000000003411
 30
0.0
  0
SPLINE
  5
3A5D
330
1F
100
AcDbEntity
  8
AM_0
100
AcDbSpline
210
0.0
220
0.0
230
1.0
 70
     8
 71
     3
 72
     8
 73
     4
 74
     0
 42
0.0000000001
 43
0.0000000001
 40
0.7142832446738512
 40
0.7142832446738512
 40
0.7142832446738512
 40
0.7142832446738512
 40
14.36247867694493
 40
14.36247867694493
 40
14.36247867694493
 40
14.36247867694493
 10
-34.66657140111524
 20
6.900896684736608
 30
0.0
 10
-27.78262842782944
 20
6.581710553213383
 30
0.0
 10
-21.39755371909353
 20
3.290855276606862
 30
0.0
 10
-15.01247901035692
 20
0.0000000000003411
 30
0.0
  0
SPLINE
  5
3A5E
330
1F
100
AcDbEntity
  8
AM_0
100
AcDbSpline
210
0.0
220
0.0
230
1.0
 70
     8
 71
     3
 72
     8
 73
     4
 74
     0
 42
0.0000000001
 43
0.0000000001
 40
0.0
 40
0.0
 40
0.0
 40
0.0
 40
21.54371801541793
 40
21.54371801541793
 40
21.54371801541793
 40
21.54371801541793
 10
-15.01247901035692
 20
-6.926166755703775
 30
0.0
 10
-22.3130832277845
 20
-6.926166755703774
 30
0.0
 10
-29.03232313096547
 20
-3.463083377851716
 30
0.0
 10
-35.75156303414642
 20
0.0000000000003411
 30
0.0
  0
SPLINE
  5
3A60
330
1F
100
AcDbEntity
  8
AM_0
100
AcDbSpline
210
0.0
220
0.0
230
1.0
 70
     8
 71
     3
 72
     9
 73
     5
 74
     0
 42
0.0000000001
 43
0.0000000001
 40
0.0
 40
0.0
 40
0.0
 40
0.0
 40
1.603217326944703
 40
3.259613869965475
 40
3.259613869965475
 40
3.259613869965475
 40
3.259613869965475
 10
-23.25522289432283
 20
7.356814005293927
 30
0.0
 10
-22.75933819277017
 20
7.138495100227609
 30
0.0
 10
-21.69585629385538
 20
6.394861519863489
 30
0.0
 10
-20.70299466197353
 20
7.238041026810798
 30
0.0
 10
-20.20535759670681
 20
7.493460311003673
 30
0.0
  0
SPLINE
  5
3A61
330
1F
100
AcDbEntity
  8
AM_0
100
AcDbSpline
210
0.0
220
0.0
230
1.0
 70
     8
 71
     3
 72
     8
 73
     4
 74
     0
 42
0.0000000001
 43
0.0000000001
 40
1.788970302442027
 40
1.788970302442027
 40
1.788970302442027
 40
1.788970302442027
 40
3.332324051699147
 40
3.332324051699147
 40
3.332324051699147
 40
3.332324051699147
 10
-20.77720734000981
 20
-7.114818841802616
 30
0.0
 10
-21.54581653314564
 20
-7.024437653659333
 30
0.0
 10
-22.30802244954678
 20
-6.897644968586291
 30
0.0
 10
-23.06460631321281
 20
-6.738883127036615
 30
0.0
  0
SPLINE
  5
3A62
330
1F
100
AcDbEntity
  8
AM_0
100
AcDbSpline
210
0.0
220
0.0
230
1.0
 70
     8
 71
     3
 72
     8
 73
     4
 74
     0
 42
0.0000000001
 43
0.0000000001
 40
0.0
 40
0.0
 40
0.0
 40
0.0
 40
1.539536607901005
 40
1.539536607901005
 40
1.539536607901005
 40
1.539536607901005
 10
-20.73908402378947
 20
-7.499999999999658
 30
0.0
 10
-21.5216472362644
 20
-7.499999999999658
 30
0.0
 10
-22.29655003076981
 20
-7.457667419381778
 30
0.0
 10
-23.06460631322182
 20
-7.377500020264392
 30
0.0
  0
SPLINE
  5
3A63
330
1F
100
AcDbEntity
  8
AM_0
100
AcDbSpline
210
0.0
220
0.0
230
1.0
 70
     8
 71
     3
 72
     8
 73
     4
 74
     0
 42
0.0000000001
 43
0.0000000001
 40
9.911909440357588
 40
9.911909440357588
 40
9.911909440357588
 40
9.911909440357588
 40
11.54467281373877
 40
11.54467281373877
 40
11.54467281373877
 40
11.54467281373877
 10
-24.39892238092884
 20
3.30951037366276
 30
0.0
 10
-23.63419963584682
 20
2.938595172966302
 30
0.0
 10
-22.87204164985204
 20
2.553095764608997
 30
0.0
 10
-22.11152340771682
 20
2.158272141322527
 30
0.0
  0
SPLINE
  5
3A64
330
1F
100
AcDbEntity
  8
AM_0
100
AcDbSpline
210
0.0
220
0.0
230
1.0
 70
     8
 71
     3
 72
     8
 73
     4
 74
     0
 42
0.0000000001
 43
0.0000000001
 40
11.84940637128532
 40
11.84940637128532
 40
11.84940637128532
 40
11.84940637128532
 40
14.48999654934396
 40
14.48999654934396
 40
14.48999654934396
 40
14.48999654934396
 10
-24.39892238092884
 20
2.027453181442297
 30
0.0
 10
-23.17623837251404
 20
1.366765427997279
 30
0.0
 10
-21.95766119815175
 20
0.6833827139989808
 30
0.0
 10
-20.73908402378947
 20
0.0000000000003411
 30
0.0
  0
DIMENSION
  5
3A65
330
1F
100
AcDbEntity
  8
AM_5
100
AcDbDimension
  2
*D8
 10
-39.99959552537509
 20
-22.00000100999878
 30
0.0
 11
-19.99979776268734
 21
-18.90000100999878
 31
0.0
 70
    32
  1
<>
  3
AM_JIS
100
AcDbAlignedDimension
 13
0.0000000000004043
 23
-6.999999999998988
 33
0.0
 14
-39.99959552537509
 24
-7.43831374379522
 34
0.0
 50
0.0000000000001113
100
AcDbRotatedDimension
1001
GENIUS_GENDTOL_13
1000

1000
h7
1000

1040
0.0
  0
DIMENSION
  5
3A72
330
1F
100
AcDbEntity
  8
AM_5
100
AcDbDimension
  2
*D9
 10
17.41045000536965
 20
-7.499999999998919
 30
0.0
 11
14.31045000536965
 21
0.0000000000011801
 31
0.0
 70
    32
  1
%%c<>
  3
AM_JIS
100
AcDbAlignedDimension
 13
-0.0000000000017074
 23
7.500000000001278
 33
0.0
 14
0.0000000000004043
 24
-7.499999999998915
 34
0.0
 50
90.00000000000003
100
AcDbRotatedDimension
1001
GENIUS_GENDTOL_13
1000

1000
h7
1000

1040
0.0
  0
LINE
  5
3A91
330
1F
100
AcDbEntity
  8
AM_0
100
AcDbLine
 10
-40.0000000000021
 20
7.450181667619784
 30
0.0
 11
-40.00000000000215
 21
6.751021487410461
 31
0.0
  0
LINE
  5
3B52
330
1F
100
AcDbEntity
  8
AM_11
100
AcDbLine
 10
-39.99959552537509
 20
-7.499999999998915
 30
0.0
 11
0.000000000000405
 21
-7.499999999998915
 31
0.0
  0
LINE
  5
3B57
330
1F
100
AcDbEntity
  8
AM_11
100
AcDbLine
 10
0.0000000000004052
 20
7.500000000001278
 30
0.0
 11
-39.99959552537509
 21
7.500000000001278
 31
0.0
  0
LINE
  5
3B61
330
1F
100
AcDbEntity
  8
AM_11
100
AcDbLine
 10
-39.99959552537509
 20
7.500000000001278
 30
0.0
 11
-39.99959552537509
 21
-7.499999999998916
 31
0.0
  0
LINE
  5
3B6B
330
1F
100
AcDbEntity
  8
AM_11
100
AcDbLine
 10
0.0000000000004052
 20
7.500000000001278
 30
0.0
 11
0.0000000000004043
 21
-7.499999999998916
 31
0.0
  0
VIEWPORT
  5
110
330
101
100
AcDbEntity
 67
     1
  8
0
100
AcDbViewport
 10
420.5
 20
297.0
 30
0.0
 40
948.9782706766916
 41
628.452
 68
     1
 69
     1
1001
ACAD
1000
MVIEW
1002
{
1070
    16
1010
0.0
1020
0.0
1030
0.0
1010
0.0
1020
0.0
1030
1.0
1040
0.0
1040
628.452
1040
420.5
1040
297.0
1040
50.0
1040
0.0
1040
0.0
1070
     0
1070
   100
1070
     1
1070
     1
1070
     0
1070
     0
1070
     0
1070
     0
1040
0.0
1040
0.0
1040
0.0
1040
10.0
1040
10.0
1040
10.0
1040
10.0
1070
     0
1002
{
1002
}
1002
}
  0
ENDSEC
  0
SECTION
  2
OBJECTS
  0
DICTIONARY
  5
C
330
0
100
AcDbDictionary
  3
ACAD_GROUP
350
D
  3
ACAD_LAYOUT
350
1A
  3
ACAD_MLINESTYLE
350
17
  3
ACAD_PLOTSETTINGS
350
19
  3
ACAD_PLOTSTYLENAME
350
E
  3
ACDBVARIABLEDICTIONARY
350
34
  3
ACMDICTIONARY
350
43
  3
AMG
350
2B
  3
AMGSNAPSETTINGS
350
6E
  3
DWGPROPS
350
3B90
  3
ACDBHEADERROUNDTRIPXREC
350
3B9D
  0
DICTIONARY
  5
74
330
1F
100
AcDbDictionary
280
     1
  3
ACAD_INDEX
360
3B92
  3
ACAD_LAYOUTSELFREF
360
3BC0
  0
DICTIONARY
  5
3BC5
330
101
100
AcDbDictionary
280
     1
  3
ACAD_LAYOUTSELFREF
360
3BC6
  0
DICTIONARY
  5
D
102
{ACAD_REACTORS
330
C
102
}
330
C
100
AcDbDictionary
  0
DICTIONARY
  5
1A
102
{ACAD_REACTORS
330
C
102
}
330
C
100
AcDbDictionary
  0
DICTIONARY
  5
17
102
{ACAD_REACTORS
330
C
102
}
330
C
100
AcDbDictionary
  3
STANDARD
350
18
  0
DICTIONARY
  5
19
102
{ACAD_REACTORS
330
C
102
}
330
C
100
AcDbDictionary
  0
ACDBDICTIONARYWDFLT
  5
E
102
{ACAD_REACTORS
330
C
102
}
330
C
100
AcDbDictionary
281
     1
  3
Normal
350
F
100
AcDbDictionaryWithDefault
340
F
  0
DICTIONARY
  5
34
102
{ACAD_REACTORS
330
C
102
}
330
C
100
AcDbDictionary
  3
INDEXCTL
350
35
  3
SORTENTS
350
B5E
  0
DICTIONARY
  5
43
102
{ACAD_REACTORS
330
C
102
}
330
C
100
AcDbDictionary
  3
ACMSTDDICTIONARY
350
260
  0
DICTIONARY
  5
2B
102
{ACAD_REACTORS
330
C
102
}
330
C
100
AcDbDictionary
  3
ACMGSETTINGS
350
2C
  0
DICTIONARY
  5
6E
102
{ACAD_REACTORS
330
C
102
}
330
C
100
AcDbDictionary
  0
XRECORD
  5
3B90
102
{ACAD_REACTORS
330
C
102
}
330
C
100
AcDbXrecord
  1
DWGPROPS COOKIE
  2

  3

  4

  6

  7

  8

  9

300
AmdtFileType=82
301
=
302
=
303
=
304
=
305
=
306
=
307
=
308
=
309
=
 40
0.5350191319444444
 41
2452838.620506898
 42
2452901.471565116
  1

 90
        1
  0
DICTIONARY
  5
3B9D
102
{ACAD_REACTORS
330
C
102
}
330
C
100
AcDbDictionary
  3
TSTACKALIGN
350
3B9E
  3
TSTACKSIZE
350
3B9F
  3
HYPERLINKBASE
350
3BA0
  3
STYLESHEET
350
3BA1
  3
LAYOUTDICT
350
3BA2
  3
PLOTSETDICT
350
3BA3
  3
PLOTSTYLNAMDICT
350
3BA4
  3
LWETCUNION
350
3BA5
  3
INSUNITS
350
3BA6
  3
CEPSNTYPE
350
3BA7
  3
FINGERPRINTGUID
350
3BA8
  3
VERSIONGUID
350
3BA9
  3
PSVPSCALE
350
3BAA
  3
DIMSTYLEDATA
350
3BAB
  3
PUCSORTHOREF
350
3BAC
  3
PUCSORTHOVIEW
350
3BAD
  3
PUCSBASE
350
3BAE
  3
PUCSORGTOP
350
3BAF
  3
PUCSORGBOTTOM
350
3BB0
  3
PUCSORGLEFT
350
3BB1
  3
PUCSORGRIGHT
350
3BB2
  3
PUCSORGFRONT
350
3BB3
  3
PUCSORGBACK
350
3BB4
  3
UCSORTHOREF
350
3BB5
  3
UCSORTHOVIEW
350
3BB6
  3
UCSBASE
350
3BB7
  3
UCSORGTOP
350
3BB8
  3
UCSORGBOTTOM
350
3BB9
  3
UCSORGLEFT
350
3BBA
  3
UCSORGRIGHT
350
3BBB
  3
UCSORGFRONT
350
3BBC
  3
UCSORGBACK
350
3BBD
  0
DICTIONARY
  5
3B92
102
{ACAD_REACTORS
330
74
102
}
330
74
100
AcDbDictionary
  3
*A1
350
3B93
  0
XRECORD
  5
3BC0
102
{ACAD_REACTORS
330
74
102
}
330
74
100
AcDbXrecord
340
1F
  0
XRECORD
  5
3BC6
102
{ACAD_REACTORS
330
3BC5
102
}
330
3BC5
100
AcDbXrecord
340
101
  0
MLINESTYLE
  5
18
102
{ACAD_REACTORS
330
17
102
}
330
17
100
AcDbMlineStyle
  2
STANDARD
 70
     0
  3

 62
   256
 51
90.0
 52
90.0
 71
     2
 49
0.5
 62
   256
  6
BYLAYER
 49
-0.5
 62
   256
  6
BYLAYER
  0
ACDBPLACEHOLDER
  5
F
102
{ACAD_REACTORS
330
E
102
}
330
E
100
AcDbPlaceHolder
280
     0
  0
DICTIONARYVAR
  5
35
102
{ACAD_REACTORS
330
34
102
}
330
34
100
DictionaryVariables
280
     0
  1
1
  0
DICTIONARYVAR
  5
B5E
102
{ACAD_REACTORS
330
34
102
}
330
34
100
DictionaryVariables
280
     0
  1
96
  0
DICTIONARY
  5
260
102
{ACAD_REACTORS
330
43
102
}
330
43
100
AcDbDictionary
  0
DICTIONARY
  5
2C
102
{ACAD_REACTORS
330
2B
102
}
330
2B
100
AcDbDictionary
  3
DWGSETTINGS
350
2D
  0
XRECORD
  5
3B9E
102
{ACAD_REACTORS
330
3B9D
102
}
330
3B9D
100
AcDbXrecord
 90
        1
  0
XRECORD
  5
3B9F
102
{ACAD_REACTORS
330
3B9D
102
}
330
3B9D
100
AcDbXrecord
 90
       70
  0
XRECORD
  5
3BA0
102
{ACAD_REACTORS
330
3B9D
102
}
330
3B9D
100
AcDbXrecord
  1

  0
XRECORD
  5
3BA1
102
{ACAD_REACTORS
330
3B9D
102
}
330
3B9D
100
AcDbXrecord
  1
ASAMI.ctb
  0
XRECORD
  5
3BA2
102
{ACAD_REACTORS
330
3B9D
102
}
330
3B9D
100
AcDbXrecord
340
1A
  0
XRECORD
  5
3BA3
102
{ACAD_REACTORS
330
3B9D
102
}
330
3B9D
100
AcDbXrecord
340
19
  0
XRECORD
  5
3BA4
102
{ACAD_REACTORS
330
3B9D
102
}
330
3B9D
100
AcDbXrecord
340
E
  0
XRECORD
  5
3BA5
102
{ACAD_REACTORS
330
3B9D
102
}
330
3B9D
100
AcDbXrecord
 90
    10781
  0
XRECORD
  5
3BA6
102
{ACAD_REACTORS
330
3B9D
102
}
330
3B9D
100
AcDbXrecord
 90
        4
  0
XRECORD
  5
3BA7
102
{ACAD_REACTORS
330
3B9D
102
}
330
3B9D
100
AcDbXrecord
 90
        0
  0
XRECORD
  5
3BA8
102
{ACAD_REACTORS
330
3B9D
102
}
330
3B9D
100
AcDbXrecord
  1
{AFB28963-8C59-40AE-9337-C84526B81ACE}
  0
XRECORD
  5
3BA9
102
{ACAD_REACTORS
330
3B9D
102
}
330
3B9D
100
AcDbXrecord
  1
{D82778D9-20E7-4C18-B63B-8DEF0187E718}
  0
XRECORD
  5
3BAA
102
{ACAD_REACTORS
330
3B9D
102
}
330
3B9D
100
AcDbXrecord
 40
0.0
  0
XRECORD
  5
3BAB
102
{ACAD_REACTORS
330
3B9D
102
}
330
3B9D
100
AcDbXrecord
1000
DSTYLE
1002
{
1070
    79
 70
     2
1070
   341
340
59
1070
   342
340
59
1070
   371
 70
    -1
1070
   372
 70
    -1
1002
}
  0
XRECORD
  5
3BAC
102
{ACAD_REACTORS
330
3B9D
102
}
330
3B9D
100
AcDbXrecord
340
0
  0
XRECORD
  5
3BAD
102
{ACAD_REACTORS
330
3B9D
102
}
330
3B9D
100
AcDbXrecord
 70
     0
  0
XRECORD
  5
3BAE
102
{ACAD_REACTORS
330
3B9D
102
}
330
3B9D
100
AcDbXrecord
340
0
  0
XRECORD
  5
3BAF
102
{ACAD_REACTORS
330
3B9D
102
}
330
3B9D
100
AcDbXrecord
 10
0.0
 20
0.0
 30
0.0
  0
XRECORD
  5
3BB0
102
{ACAD_REACTORS
330
3B9D
102
}
330
3B9D
100
AcDbXrecord
 10
0.0
 20
0.0
 30
0.0
  0
XRECORD
  5
3BB1
102
{ACAD_REACTORS
330
3B9D
102
}
330
3B9D
100
AcDbXrecord
 10
0.0
 20
0.0
 30
0.0
  0
XRECORD
  5
3BB2
102
{ACAD_REACTORS
330
3B9D
102
}
330
3B9D
100
AcDbXrecord
 10
0.0
 20
0.0
 30
0.0
  0
XRECORD
  5
3BB3
102
{ACAD_REACTORS
330
3B9D
102
}
330
3B9D
100
AcDbXrecord
 10
0.0
 20
0.0
 30
0.0
  0
XRECORD
  5
3BB4
102
{ACAD_REACTORS
330
3B9D
102
}
330
3B9D
100
AcDbXrecord
 10
0.0
 20
0.0
 30
0.0
  0
XRECORD
  5
3BB5
102
{ACAD_REACTORS
330
3B9D
102
}
330
3B9D
100
AcDbXrecord
340
0
  0
XRECORD
  5
3BB6
102
{ACAD_REACTORS
330
3B9D
102
}
330
3B9D
100
AcDbXrecord
 70
     0
  0
XRECORD
  5
3BB7
102
{ACAD_REACTORS
330
3B9D
102
}
330
3B9D
100
AcDbXrecord
340
0
  0
XRECORD
  5
3BB8
102
{ACAD_REACTORS
330
3B9D
102
}
330
3B9D
100
AcDbXrecord
 10
0.0
 20
0.0
 30
0.0
  0
XRECORD
  5
3BB9
102
{ACAD_REACTORS
330
3B9D
102
}
330
3B9D
100
AcDbXrecord
 10
0.0
 20
0.0
 30
0.0
  0
XRECORD
  5
3BBA
102
{ACAD_REACTORS
330
3B9D
102
}
330
3B9D
100
AcDbXrecord
 10
0.0
 20
0.0
 30
0.0
  0
XRECORD
  5
3BBB
102
{ACAD_REACTORS
330
3B9D
102
}
330
3B9D
100
AcDbXrecord
 10
0.0
 20
0.0
 30
0.0
  0
XRECORD
  5
3BBC
102
{ACAD_REACTORS
330
3B9D
102
}
330
3B9D
100
AcDbXrecord
 10
0.0
 20
0.0
 30
0.0
  0
XRECORD
  5
3BBD
102
{ACAD_REACTORS
330
3B9D
102
}
330
3B9D
100
AcDbXrecord
 10
0.0
 20
0.0
 30
0.0
  0
LAYER_INDEX
  5
3B93
102
{ACAD_REACTORS
330
3B92
102
}
330
3B92
100
AcDbIndex
 40
2453151.886770694
100
AcDbLayerIndex
  8
0
360
3B94
 90
        4
  8
AM_0
360
3B95
 90
      142
  8
AM_11
360
3B96
 90
        4
  8
AM_7
360
3B97
 90
        1
  8
AM_5
360
3B98
 90
        5
  8
Defpoints
360
3B99
 90
        0
  8
AM_6
360
3B9A
 90
        1
  8
AM_CL
360
3B9B
 90
        0
  0
XRECORD
  5
2D
102
{ACAD_REACTORS
330
2C
102
}
330
2C
100
AcDbXrecord
  1
VERSION
140
15.0
  1
PRODUCT
  2
AutoCAD Mechanical 2000
  0
IDBUFFER
  5
3B94
330
0
100
AcDbIdBuffer
330
3A3E
330
3A4D
330
3A56
330
3A59
  0
IDBUFFER
  5
3B95
330
0
100
AcDbIdBuffer
330
3A43
330
3A44
330
3A45
330
3A46
330
3A47
330
3A48
330
3A49
330
3A4A
330
3A4B
330
3A4C
330
3A4F
330
3A50
330
3A51
330
3A52
330
3A53
330
3A54
330
3A55
330
3A57
330
3A58
330
3A5A
330
3A5B
330
3A5C
330
3A5D
330
3A5E
330
3A60
330
3A61
330
3A62
330
3A63
330
3A64
330
3A91
330
2A1D
330
2A1E
330
2A1F
330
2A20
330
2A21
330
2A23
330
2A29
330
3473
330
3474
330
3475
330
3476
330
39DD
330
39DE
330
39DF
330
39E0
330
39E1
330
39E2
330
39E3
330
39E4
330
39E5
330
39E6
330
39E7
330
39E8
330
39E9
330
39EA
330
39EB
330
39EC
330
39ED
330
39EE
330
39EF
330
39F0
330
39F1
330
39F2
330
39F3
330
39F4
330
39F5
330
39F6
330
39F7
330
39F8
330
39F9
330
39FA
330
39FB
330
39FC
330
39FD
330
39FE
330
39FF
330
3A00
330
3A01
330
3A02
330
3A03
330
3A04
330
3A05
330
3A06
330
3A07
330
3A08
330
3A09
330
3A0A
330
3A0B
330
3A0C
330
3A0D
330
3A0E
330
3A0F
330
3A10
330
3A11
330
3A12
330
3A13
330
3A14
330
3A15
330
3A16
330
3A17
330
3A18
330
3A19
330
3A1A
330
3A1B
330
3A1C
330
3A1D
330
3A1E
330
3A1F
330
3A20
330
3A21
330
3A22
330
3A23
330
3A24
330
3A25
330
3A26
330
3A27
330
3A28
330
3A29
330
3A2A
330
3A2B
330
3A2C
330
3A2D
330
3A2E
330
3A2F
330
3A30
330
3A31
330
3A32
330
3A33
330
3A34
330
3A35
330
3A36
330
3A37
330
3A38
330
3A39
330
3A3A
330
3A3B
330
3A3C
330
3A3D
330
3A3F
330
3A40
330
3A41
330
3A42
  0
IDBUFFER
  5
3B96
330
0
100
AcDbIdBuffer
330
3B52
330
3B57
330
3B61
330
3B6B
  0
IDBUFFER
  5
3B97
330
0
100
AcDbIdBuffer
330
2A1C
  0
IDBUFFER
  5
3B98
330
0
100
AcDbIdBuffer
330
2C2E
330
2DA1
330
2E8D
330
3A65
330
3A72
  0
IDBUFFER
  5
3B99
330
0
100
AcDbIdBuffer
  0
IDBUFFER
  5
3B9A
330
0
100
AcDbIdBuffer
330
C58
  0
IDBUFFER
  5
3B9B
330
0
100
AcDbIdBuffer
  0
ENDSEC
  0
EOF
