  0
SECTION
  2
HEADER
  9
$ACADVER
  1
AC1014
  9
$ACADMAINTVER
 70
     9
  9
$DWGCODEPAGE
  3
ANSI_932
  9
$INSBASE
 10
0.0
 20
0.0
 30
0.0
  9
$EXTMIN
 10
-131.5742128522181
 20
-56.50000100999879
 30
-0.00000001
  9
$EXTMAX
 10
18.41045000536965
 20
8.698222123329463
 30
0.00000001
  9
$LIMMIN
 10
-171.1362938126725
 20
-90.82782648900053
  9
$LIMMAX
 10
53.70339046466597
 20
42.64172656426808
  9
$ORTHOMODE
 70
     0
  9
$REGENMODE
 70
     1
  9
$FILLMODE
 70
     1
  9
$QTEXTMODE
 70
     0
  9
$MIRRTEXT
 70
     0
  9
$DRAGMODE
 70
     2
  9
$LTSCALE
 40
0.3
  9
$OSMODE
 70
    55
  9
$ATTMODE
 70
     1
  9
$TEXTSIZE
 40
2.5
  9
$TRACEWID
 40
1.0
  9
$TEXTSTYLE
  7
STANDARD
  9
$CLAYER
  8
AM_0
  9
$CELTYPE
  6
BYLAYER
  9
$CECOLOR
 62
   256
  9
$CELTSCALE
 40
1.0
  9
$DELOBJ
 70
     1
  9
$DISPSILH
 70
     0
  9
$DIMSCALE
 40
1.0
  9
$DIMASZ
 40
2.5
  9
$DIMEXO
 40
1.0
  9
$DIMDLI
 40
12.0
  9
$DIMRND
 40
0.0
  9
$DIMDLE
 40
0.0
  9
$DIMEXE
 40
1.0
  9
$DIMTP
 40
0.1
  9
$DIMTM
 40
0.1
  9
$DIMTXT
 40
3.2
  9
$DIMCEN
 40
0.0
  9
$DIMTSZ
 40
0.0
  9
$DIMTOL
 70
     0
  9
$DIMLIM
 70
     0
  9
$DIMTIH
 70
     0
  9
$DIMTOH
 70
     0
  9
$DIMSE1
 70
     0
  9
$DIMSE2
 70
     0
  9
$DIMTAD
 70
     3
  9
$DIMZIN
 70
     8
  9
$DIMBLK
  1
OPEN30
  9
$DIMASO
 70
     1
  9
$DIMSHO
 70
     1
  9
$DIMPOST
  1

  9
$DIMAPOST
  1
"
  9
$DIMALT
 70
     0
  9
$DIMALTD
 70
     2
  9
$DIMALTF
 40
0.0393701
  9
$DIMLFAC
 40
1.0
  9
$DIMTOFL
 70
     1
  9
$DIMTVP
 40
0.0
  9
$DIMTIX
 70
     0
  9
$DIMSOXD
 70
     0
  9
$DIMSAH
 70
     0
  9
$DIMBLK1
  1

  9
$DIMBLK2
  1

  9
$DIMSTYLE
  2
AM_JIS
  9
$DIMCLRD
 70
   256
  9
$DIMCLRE
 70
   256
  9
$DIMCLRT
 70
     2
  9
$DIMTFAC
 40
0.71
  9
$DIMGAP
 40
1.5
  9
$DIMJUST
 70
     0
  9
$DIMSD1
 70
     0
  9
$DIMSD2
 70
     0
  9
$DIMTOLJ
 70
     0
  9
$DIMTZIN
 70
     0
  9
$DIMALTZ
 70
     0
  9
$DIMALTTZ
 70
     0
  9
$DIMFIT
 70
     3
  9
$DIMUPT
 70
     0
  9
$DIMUNIT
 70
     2
  9
$DIMDEC
 70
     3
  9
$DIMTDEC
 70
     3
  9
$DIMALTU
 70
     2
  9
$DIMALTTD
 70
     2
  9
$DIMTXSTY
  7
ASAMI
  9
$DIMAUNIT
 70
     0
  9
$LUNITS
 70
     2
  9
$LUPREC
 70
     2
  9
$SKETCHINC
 40
1.0
  9
$FILLETRAD
 40
0.5
  9
$AUNITS
 70
     0
  9
$AUPREC
 70
     0
  9
$MENU
  1
.
  9
$ELEVATION
 40
0.0
  9
$PELEVATION
 40
0.0
  9
$THICKNESS
 40
0.0
  9
$LIMCHECK
 70
     0
  9
$BLIPMODE
 70
     0
  9
$CHAMFERA
 40
2.5
  9
$CHAMFERB
 40
2.5
  9
$CHAMFERC
 40
20.0
  9
$CHAMFERD
 40
0.0
  9
$SKPOLY
 70
     0
  9
$TDCREATE
 40
2452838.620506898
  9
$TDUPDATE
 40
2453151.887061319
  9
$TDINDWG
 40
0.5448290394
  9
$TDUSRTIMER
 40
0.5448290394
  9
$USRTIMER
 70
     1
  9
$ANGBASE
 50
0.0
  9
$ANGDIR
 70
     0
  9
$PDMODE
 70
     0
  9
$PDSIZE
 40
0.0
  9
$PLINEWID
 40
0.0
  9
$COORDS
 70
     1
  9
$SPLFRAME
 70
     0
  9
$SPLINETYPE
 70
     6
  9
$SPLINESEGS
 70
     8
  9
$ATTDIA
 70
     1
  9
$ATTREQ
 70
     1
  9
$HANDLING
 70
 12289
  9
$HANDSEED
  5
3D22
  9
$SURFTAB1
 70
     6
  9
$SURFTAB2
 70
     6
  9
$SURFTYPE
 70
     6
  9
$SURFU
 70
     6
  9
$SURFV
 70
     6
  9
$UCSNAME
  2

  9
$UCSORG
 10
-0.0000000000000568
 20
-0.0000000000000036
 30
0.0
  9
$UCSXDIR
 10
1.0
 20
0.0
 30
0.0
  9
$UCSYDIR
 10
0.0
 20
1.0
 30
0.0
  9
$PUCSNAME
  2

  9
$PUCSORG
 10
0.0
 20
0.0
 30
0.0
  9
$PUCSXDIR
 10
1.0
 20
0.0
 30
0.0
  9
$PUCSYDIR
 10
0.0
 20
1.0
 30
0.0
  9
$USERI1
 70
     0
  9
$USERI2
 70
     0
  9
$USERI3
 70
     0
  9
$USERI4
 70
     0
  9
$USERI5
 70
     0
  9
$USERR1
 40
0.0
  9
$USERR2
 40
0.0
  9
$USERR3
 40
0.0
  9
$USERR4
 40
0.0
  9
$USERR5
 40
0.0
  9
$WORLDVIEW
 70
     1
  9
$SHADEDGE
 70
     3
  9
$SHADEDIF
 70
    70
  9
$TILEMODE
 70
     1
  9
$MAXACTVP
 70
    64
  9
$PINSBASE
 10
0.0
 20
0.0
 30
0.0
  9
$PLIMCHECK
 70
     0
  9
$PEXTMIN
 10
1.000000000000000E+20
 20
1.000000000000000E+20
 30
1.000000000000000E+20
  9
$PEXTMAX
 10
-1.000000000000000E+20
 20
-1.000000000000000E+20
 30
-1.000000000000000E+20
  9
$PLIMMIN
 10
0.0
 20
0.0
  9
$PLIMMAX
 10
841.0
 20
594.0
  9
$UNITMODE
 70
     0
  9
$VISRETAIN
 70
     1
  9
$PLINEGEN
 70
     0
  9
$PSLTSCALE
 70
     0
  9
$TREEDEPTH
 70
  3020
  9
$PICKSTYLE
 70
     0
  9
$CMLSTYLE
  2
STANDARD
  9
$CMLJUST
 70
     0
  9
$CMLSCALE
 40
20.0
  9
$PROXYGRAPHICS
 70
     1
  9
$MEASUREMENT
 70
     1
  0
ENDSEC
  0
SECTION
  2
CLASSES
  0
CLASS
  1
ACDBDICTIONARYWDFLT
  2
AcDbDictionaryWithDefault
  3
AutoCAD 2000
 90
        0
280
     0
281
     0
  0
CLASS
  1
ACDBPLACEHOLDER
  2
AcDbPlaceHolder
  3
AutoCAD 2000
 90
        0
280
     0
281
     0
  0
CLASS
  1
LAYOUT
  2
AcDbLayout
  3
AutoCAD 2000
 90
        0
280
     0
281
     0
  0
CLASS
  1
AMGSETTINGSOBJ
  2
AmgSettingsObj
  3
"AcadM|Product Description: AutoCAD Mechanical 2000|Company: Autodesk"
 90
        0
280
     0
281
     0
  0
CLASS
  1
ACME_DOCUMENT
  2
AcMeDbDoc
  3
AcMeServices
 90
        0
280
     0
281
     0
  0
CLASS
  1
ACMESCOPE
  2
AcMeScope
  3
AcMeServices
 90
        0
280
     0
281
     0
  0
CLASS
  1
ACMECOMMANDHISTORY
  2
AcMeCommandHistory
  3
AcMeServices
 90
        0
280
     0
281
     0
  0
CLASS
  1
DICTIONARYVAR
  2
AcDbDictionaryVar
  3
AutoCAD 2000
 90
        0
280
     0
281
     0
  0
CLASS
  1
ACIMSYSVARMAN
  2
AcImSysVarManager
  3
AcMeServices
 90
        0
280
     0
281
     0
  0
CLASS
  1
ACIMREALSYSVAR
  2
AcImRealSysVar
  3
AcMeServices
 90
        0
280
     0
281
     0
  0
CLASS
  1
ACIMINTSYSVAR
  2
AcImIntSysVar
  3
AcMeServices
 90
        0
280
     0
281
     0
  0
CLASS
  1
ACMEDRAWINGMAN
  2
AcMeDrawingMan
  3
AcMeServices
 90
        0
280
     0
281
     0
  0
CLASS
  1
ACMEVIEW
  2
AcMeView
  3
AcMeServices
 90
        0
280
     0
281
     0
  0
CLASS
  1
ACDBENTITYCACHE
  2
AcMeEntityCache
  3
AcMeServices
 90
        0
280
     0
281
     0
  0
CLASS
  1
GSMANAGER
  2
AcMeGSManager
  3
AcMeServices
 90
        0
280
     0
281
     0
  0
CLASS
  1
AmdtInternalReactor
  2
AmdtInternalReactor
  3
AcMeServices
 90
        0
280
     0
281
     0
  0
CLASS
  1
ACMESTATEMGR
  2
AcMeStateMgr
  3
AcMeServices
 90
        0
280
     0
281
     0
  0
CLASS
  1
ACME_DATABASE
  2
AcMeDbDatabase
  3
AcMeServices
 90
        0
280
     0
281
     0
  0
CLASS
  1
ACRFINSADJUSTERMGR
  2
AcRfInsAdjusterMgr
  3
AcMeServices
 90
        0
280
     0
281
     0
  0
CLASS
  1
ACMDATADICTIONARY
  2
AcmDataDictionary
  3
"AcmSymBB|Product Description: AutoCAD Mechanical 2000|Company: Autodesk"
 90
        0
280
     0
281
     0
  0
CLASS
  1
ACMDATAENTRYBLOCK
  2
AcmDataEntryBlock
  3
"AcmSymBB|Product Description: AutoCAD Mechanical 2000|Company: Autodesk"
 90
        0
280
     0
281
     0
  0
CLASS
  1
AMGOBJPROPCFG
  2
AmgObjPropCfg
  3
"AmgLay|Product Description: AutoCAD Mechanical 2000|Company: Autodesk"
 90
        1
280
     0
281
     0
  0
CLASS
  1
ACAMGFILTERDAT
  2
AcAmgFilterDat
  3
"AcadM|Product Description: AutoCAD Mechanical 2000|Company: Autodesk"
 90
        0
280
     0
281
     0
  0
CLASS
  1
LAYER_INDEX
  2
AcDbLayerIndex
  3
AutoCAD 2000
 90
        0
280
     0
281
     0
  0
CLASS
  1
IDBUFFER
  2
AcDbIdBuffer
  3
AutoCAD 2000
 90
        0
280
     0
281
     0
  0
CLASS
  1
ACIMSTRSYSVAR
  2
AcImStrSysVar
  3
AcMeServices
 90
        0
280
     0
281
     0
  0
CLASS
  1
ACMSTANDARDJIS
  2
AcmStandardJIS
  3
"AcmSymBB|Product Description: AutoCAD Mechanical 2000|Company: Autodesk"
 90
        0
280
     0
281
     0
  0
CLASS
  1
ACMSURFSTANDARDJIS
  2
AcmSurfTextStdJIS
  3
"AcmSymBB|Product Description: AutoCAD Mechanical 2000|Company: Autodesk"
 90
        0
280
     0
281
     0
  0
CLASS
  1
ACMFCFSTANDARDJIS
  2
AcmFCFStdJIS
  3
"AcmSymBB|Product Description: AutoCAD Mechanical 2000|Company: Autodesk"
 90
        0
280
     0
281
     0
  0
CLASS
  1
ACMWELDSTANDARDJIS
  2
AcmWeldingStdJIS
  3
"AcmSymBB|Product Description: AutoCAD Mechanical 2000|Company: Autodesk"
 90
        0
280
     0
281
     0
  0
CLASS
  1
ACMIDSTANDARDJIS
  2
AcmIdStdJIS
  3
"AcmSymBB|Product Description: AutoCAD Mechanical 2000|Company: Autodesk"
 90
        0
280
     0
281
     0
  0
CLASS
  1
ACMDATUMSTANDARDJIS
  2
AcmDatumStdJIS
  3
"AcmSymBB|Product Description: AutoCAD Mechanical 2000|Company: Autodesk"
 90
        0
280
     0
281
     0
  0
CLASS
  1
ACMBOMSTANDARDJIS
  2
AcmBOMStdJIS
  3
"AcmSymBB|Product Description: AutoCAD Mechanical 2000|Company: Autodesk"
 90
        0
280
     0
281
     0
  0
CLASS
  1
ACMSTANDARDANSI
  2
AcmStandardANSI
  3
"AcmSymBB|Product Description: AutoCAD Mechanical 2000|Company: Autodesk"
 90
        0
280
     0
281
     0
  0
CLASS
  1
ACMSURFSTANDARDANSI
  2
AcmSurfTextStdANSI
  3
"AcmSymBB|Product Description: AutoCAD Mechanical 2000|Company: Autodesk"
 90
        0
280
     0
281
     0
  0
CLASS
  1
ACMFCFSTANDARDANSI
  2
AcmFCFStdANSI
  3
"AcmSymBB|Product Description: AutoCAD Mechanical 2000|Company: Autodesk"
 90
        0
280
     0
281
     0
  0
CLASS
  1
ACMWELDSTANDARDANSI
  2
AcmWeldingStdANSI
  3
"AcmSymBB|Product Description: AutoCAD Mechanical 2000|Company: Autodesk"
 90
        0
280
     0
281
     0
  0
CLASS
  1
ACMIDSTANDARDANSI
  2
AcmIdStdANSI
  3
"AcmSymBB|Product Description: AutoCAD Mechanical 2000|Company: Autodesk"
 90
        0
280
     0
281
     0
  0
CLASS
  1
ACMDATUMSTANDARDANSI
  2
AcmDatumStdANSI
  3
"AcmSymBB|Product Description: AutoCAD Mechanical 2000|Company: Autodesk"
 90
        0
280
     0
281
     0
  0
CLASS
  1
ACMBOMSTANDARDANSI
  2
AcmBOMStdANSI
  3
"AcmSymBB|Product Description: AutoCAD Mechanical 2000|Company: Autodesk"
 90
        0
280
     0
281
     0
  0
CLASS
  1
ACMSTANDARDBSI
  2
AcmStandardBSI
  3
"AcmSymBB|Product Description: AutoCAD Mechanical 2000|Company: Autodesk"
 90
        0
280
     0
281
     0
  0
CLASS
  1
ACMSURFSTANDARDBSI
  2
AcmSurfTextStdBSI
  3
"AcmSymBB|Product Description: AutoCAD Mechanical 2000|Company: Autodesk"
 90
        0
280
     0
281
     0
  0
CLASS
  1
ACMFCFSTANDARDBSI
  2
AcmFCFStdBSI
  3
"AcmSymBB|Product Description: AutoCAD Mechanical 2000|Company: Autodesk"
 90
        0
280
     0
281
     0
  0
CLASS
  1
ACMWELDSTANDARDBSI
  2
AcmWeldingStdBSI
  3
"AcmSymBB|Product Description: AutoCAD Mechanical 2000|Company: Autodesk"
 90
        0
280
     0
281
     0
  0
CLASS
  1
ACMIDSTANDARDBSI
  2
AcmIdStdBSI
  3
"AcmSymBB|Product Description: AutoCAD Mechanical 2000|Company: Autodesk"
 90
        0
280
     0
281
     0
  0
CLASS
  1
ACMDATUMSTANDARDBSI
  2
AcmDatumStdBSI
  3
"AcmSymBB|Product Description: AutoCAD Mechanical 2000|Company: Autodesk"
 90
        0
280
     0
281
     0
  0
CLASS
  1
ACMBOMSTANDARDBSI
  2
AcmBOMStdBSI
  3
"AcmSymBB|Product Description: AutoCAD Mechanical 2000|Company: Autodesk"
 90
        0
280
     0
281
     0
  0
CLASS
  1
LONG_TRANSACTION
  2
AcDbLongTransaction
  3
AutoCAD 2000
 90
        0
280
     0
281
     0
  0
CLASS
  1
LWPOLYLINE
  2
AcDbPolyline
  3
AutoCAD 2000
 90
        0
280
     0
281
     1
  0
CLASS
  1
HATCH
  2
AcDbHatch
  3
AutoCAD 2000
 90
        0
280
     0
281
     1
  0
CLASS
  1
XRECORD
  2
AcDbXrecord
  3
AutoCAD 2000
 90
        0
280
     0
281
     0
  0
ENDSEC
  0
SECTION
  2
TABLES
  0
TABLE
  2
VPORT
  5
8
330
0
100
AcDbSymbolTable
 70
     3
  0
VPORT
  5
3CF7
330
8
100
AcDbSymbolTableRecord
100
AcDbViewportTableRecord
  2
*ACTIVE
 70
     0
 10
0.0
 20
0.0
 11
1.0
 21
1.0
 12
-56.58078977926763
 22
-23.89957419453395
 13
0.0
 23
0.0
 14
2.5
 24
2.5
 15
10.0
 25
10.0
 16
0.0
 26
0.0
 36
1.0
 17
0.0
 27
0.0
 37
0.0
 40
96.18682037855354
 41
1.56570841889117
 42
50.0
 43
0.0
 44
0.0
 50
0.0
 51
0.0
 71
     0
 72
   100
 73
     1
 74
     3
 75
     0
 76
     0
 77
     0
 78
     0
  0
ENDTAB
  0
TABLE
  2
LTYPE
  5
5
330
0
100
AcDbSymbolTable
 70
    10
  0
LTYPE
  5
14
330
5
100
AcDbSymbolTableRecord
100
AcDbLinetypeTableRecord
  2
BYBLOCK
 70
     0
  3

 72
    65
 73
     0
 40
0.0
  0
LTYPE
  5
15
330
5
100
AcDbSymbolTableRecord
100
AcDbLinetypeTableRecord
  2
BYLAYER
 70
     0
  3

 72
    65
 73
     0
 40
0.0
  0
LTYPE
  5
16
330
5
100
AcDbSymbolTableRecord
100
AcDbLinetypeTableRecord
  2
CONTINUOUS
 70
     0
  3
Solid line
 72
    65
 73
     0
 40
0.0
  0
LTYPE
  5
4B
330
5
100
AcDbSymbolTableRecord
100
AcDbLinetypeTableRecord
  2
AM_ISO02W050
 70
     0
  3
__ __ __ __ __ __ __ __ __ __ __ __ __ __ __
 72
    65
 73
     2
 40
7.5
 49
6.0
 74
     0
 49
-1.5
 74
     0
  0
LTYPE
  5
4C
330
5
100
AcDbSymbolTableRecord
100
AcDbLinetypeTableRecord
  2
AM_ISO08W050
 70
     0
  3
____ . ____ . ____ . ____ . ____ . ____ . ____
 72
    65
 73
     4
 40
18.0
 49
12.0
 74
     0
 49
-1.5
 74
     0
 49
3.0
 74
     0
 49
-1.5
 74
     0
  0
LTYPE
  5
4D
330
5
100
AcDbSymbolTableRecord
100
AcDbLinetypeTableRecord
  2
AM_ISO09W050
 70
     0
  3
_____ . . _____ . . _____ . . ____ .. ____
 72
    65
 73
     6
 40
22.5
 49
12.0
 74
     0
 49
-1.5
 74
     0
 49
3.0
 74
     0
 49
-1.5
 74
     0
 49
3.0
 74
     0
 49
-1.5
 74
     0
  0
LTYPE
  5
4E
330
5
100
AcDbSymbolTableRecord
100
AcDbLinetypeTableRecord
  2
AMCONSTR
 70
     0
  3
_______________________
 72
    65
 73
     2
 40
9999.0
 49
9999.0
 74
     0
 49
0.0
 74
     0
  0
LTYPE
  5
4F
330
5
100
AcDbSymbolTableRecord
100
AcDbLinetypeTableRecord
  2
AM_ISO02W050X2
 70
     0
  3
 _ _ _ _ _ _ _ _ _ _ _ _
 72
    65
 73
     2
 40
3.75
 49
3.0
 74
     0
 49
-0.75
 74
     0
  0
LTYPE
  5
50
330
5
100
AcDbSymbolTableRecord
100
AcDbLinetypeTableRecord
  2
AM_ISO08W050X2
 70
     0
  3
__ . __ . __ . __ . __ . __
 72
    65
 73
     4
 40
9.0
 49
6.0
 74
     0
 49
-0.75
 74
     0
 49
1.5
 74
     0
 49
-0.75
 74
     0
  0
LTYPE
  5
53
330
5
100
AcDbSymbolTableRecord
100
AcDbLinetypeTableRecord
  2
AMZIGZAG
 70
     0
  3
/\/-/\/-/\/-/\/-/\/-/\/
 72
    65
 73
     2
 40
11.00009999999999
 49
0.0001
 74
     4
 75
   135
340
52
 46
0.04
 50
0.0
 44
0.0
 45
0.0
 49
-11.0
 74
     0
  0
LTYPE
  5
166
330
5
100
AcDbSymbolTableRecord
100
AcDbLinetypeTableRecord
  2
ACJISTGL
 70
     0
  3
_ _ _ _ _
 72
    65
 73
     2
 40
3.0
 49
2.0
 74
     0
 49
-1.0
 74
     0
  0
LTYPE
  5
26A
330
5
100
AcDbSymbolTableRecord
100
AcDbLinetypeTableRecord
  2
ACJISTGB
 70
     0
  3
__ . . __ . .
 72
    65
 73
     6
 40
9.0
 49
4.0
 74
     0
 49
-1.0
 74
     0
 49
1.0
 74
     0
 49
-1.0
 74
     0
 49
1.0
 74
     0
 49
-1.0
 74
     0
  0
ENDTAB
  0
TABLE
  2
LAYER
  5
2
330
0
100
AcDbSymbolTable
 70
     8
  0
LAYER
  5
10
330
2
100
AcDbSymbolTableRecord
100
AcDbLayerTableRecord
  2
0
 70
     0
 62
     7
  6
CONTINUOUS
  0
LAYER
  5
3F9
330
2
100
AcDbSymbolTableRecord
100
AcDbLayerTableRecord
  2
AM_0
 70
     0
 62
     7
  6
CONTINUOUS
  0
LAYER
  5
BD6
330
2
100
AcDbSymbolTableRecord
100
AcDbLayerTableRecord
  2
AM_11
 70
     0
 62
     3
  6
AM_ISO09W050
  0
LAYER
  5
BD7
330
2
100
AcDbSymbolTableRecord
100
AcDbLayerTableRecord
  2
AM_7
 70
     0
 62
     4
  6
AM_ISO08W050
  0
LAYER
  5
BD8
330
2
100
AcDbSymbolTableRecord
100
AcDbLayerTableRecord
  2
AM_5
 70
     0
 62
     3
  6
CONTINUOUS
  0
LAYER
  5
BD9
330
2
100
AcDbSymbolTableRecord
100
AcDbLayerTableRecord
  2
DEFPOINTS
 70
     0
 62
     7
  6
CONTINUOUS
  0
LAYER
  5
BDA
330
2
100
AcDbSymbolTableRecord
100
AcDbLayerTableRecord
  2
AM_6
 70
     0
 62
     2
  6
CONTINUOUS
  0
LAYER
  5
2398
330
2
100
AcDbSymbolTableRecord
100
AcDbLayerTableRecord
  2
AM_CL
 70
     0
 62
     1
  6
AMCONSTR
  0
ENDTAB
  0
TABLE
  2
STYLE
  5
3
330
0
100
AcDbSymbolTable
 70
     5
  0
STYLE
  5
11
330
3
100
AcDbSymbolTableRecord
100
AcDbTextStyleTableRecord
  2
STANDARD
 70
     0
 40
0.0
 41
1.0
 50
0.0
 71
     0
 42
2.5
  3
simplex.shx
  4
EXTFONT.SHX
  0
STYLE
  5
52
330
3
100
AcDbSymbolTableRecord
100
AcDbTextStyleTableRecord
  2

 70
     1
 40
0.0
 41
1.0
 50
0.0
 71
     0
 42
2.5
  3
ltypeshp.shx
  4

  0
STYLE
  5
6B
330
3
100
AcDbSymbolTableRecord
100
AcDbTextStyleTableRecord
  2
ASAMI
 70
     0
 40
0.0
 41
1.0
 50
0.0
 71
     0
 42
2.5
  3
simplex.shx
  4
EXTFONT.SHX
  0
STYLE
  5
262
330
3
100
AcDbSymbolTableRecord
100
AcDbTextStyleTableRecord
  2
ACJISTS
 70
     0
 40
1.0
 41
1.0
 50
0.0
 71
     0
 42
2.5
  3
simplex.shx
  4
bigfont.shx
  0
STYLE
  5
269
330
3
100
AcDbSymbolTableRecord
100
AcDbTextStyleTableRecord
  2
ACJISGDT
 70
     0
 40
0.0
 41
1.0
 50
0.0
 71
     0
 42
2.5
  3
amgdtans.shx
  4

  0
ENDTAB
  0
TABLE
  2
VIEW
  5
6
330
0
100
AcDbSymbolTable
 70
     0
  0
ENDTAB
  0
TABLE
  2
UCS
  5
7
330
0
100
AcDbSymbolTable
 70
     0
  0
ENDTAB
  0
TABLE
  2
APPID
  5
9
330
0
100
AcDbSymbolTable
 70
    14
  0
APPID
  5
12
330
9
100
AcDbSymbolTableRecord
100
AcDbRegAppTableRecord
  2
ACAD
 70
     0
  0
APPID
  5
30
330
9
100
AcDbSymbolTableRecord
100
AcDbRegAppTableRecord
  2
MCAD_NO_VIS
 70
     0
  0
APPID
  5
31
330
9
100
AcDbSymbolTableRecord
100
AcDbRegAppTableRecord
  2
ACAD_TEMP_GRAPHIC
 70
     0
  0
APPID
  5
2C2
330
9
100
AcDbSymbolTableRecord
100
AcDbRegAppTableRecord
  2
GENIUS_GENDTOL_13
 70
     0
  0
APPID
  5
339
330
9
100
AcDbSymbolTableRecord
100
AcDbRegAppTableRecord
  2
GENIUS_GENODEF_13
 70
     0
  0
APPID
  5
33A
330
9
100
AcDbSymbolTableRecord
100
AcDbRegAppTableRecord
  2
GENIUS_GENOBJ-N-RSBK_13
 70
     0
  0
APPID
  5
33B
330
9
100
AcDbSymbolTableRecord
100
AcDbRegAppTableRecord
  2
GENIUS_GENOBJ-N-LIB_13
 70
     0
  0
APPID
  5
33C
330
9
100
AcDbSymbolTableRecord
100
AcDbRegAppTableRecord
  2
GENIUS_GENSCALE_13
 70
     0
  0
APPID
  5
378
330
9
100
AcDbSymbolTableRecord
100
AcDbRegAppTableRecord
  2
GENIUS_GENDIMSH_14
 70
     0
  0
APPID
  5
BDB
330
9
100
AcDbSymbolTableRecord
100
AcDbRegAppTableRecord
  2
GENIUS_GENOBJ-N-CEN_13
 70
     0
  0
APPID
  5
BDC
330
9
100
AcDbSymbolTableRecord
100
AcDbRegAppTableRecord
  2
GENIUS_GENFIL_13
 70
     0
  0
APPID
  5
BDD
330
9
100
AcDbSymbolTableRecord
100
AcDbRegAppTableRecord
  2
GENIUS_GENOBJ-N-FIL_13
 70
     0
  0
APPID
  5
12AD
330
9
100
AcDbSymbolTableRecord
100
AcDbRegAppTableRecord
  2
GENIUS_GENOREF_13
 70
     0
  0
APPID
  5
28FE
330
9
100
AcDbSymbolTableRecord
100
AcDbRegAppTableRecord
  2
GENIUS_GENOBJ-N-CHA_13
 70
     0
  0
ENDTAB
  0
TABLE
  2
DIMSTYLE
  5
A
330
0
100
AcDbSymbolTable
 70
     8
  0
DIMSTYLE
105
58
102
{ACAD_REACTORS
330
2C2E
330
2DA1
330
3B91
330
3C26
330
3C33
102
}
330
A
100
AcDbSymbolTableRecord
100
AcDbDimStyleTableRecord
  2
AM_JIS
 70
     0
  3

  4
"
  5
OPEN30
  6

  7

 40
1.0
 41
2.5
 42
1.0
 43
12.0
 44
1.0
 45
0.0
 46
0.0
 47
0.1
 48
0.1
140
3.2
141
0.0
142
0.0
143
0.0393701
144
1.0
145
0.0
146
0.71
147
1.5
 71
     0
 72
     0
 73
     0
 74
     0
 75
     0
 76
     0
 77
     3
 78
     8
170
     0
171
     2
172
     1
173
     0
174
     0
175
     0
176
   256
177
   256
178
     2
270
     2
271
     3
272
     3
273
     2
274
     2
340
6B
275
     0
280
     0
281
     0
282
     0
283
     0
284
     0
285
     0
286
     0
287
     3
288
     0
  0
DIMSTYLE
105
5F
330
A
100
AcDbSymbolTableRecord
100
AcDbDimStyleTableRecord
  2
AM_JIS$3
 70
     0
  3

  4
"
  5
OPEN30
  6

  7

 40
1.0
 41
2.5
 42
1.0
 43
10.0
 44
1.0
 45
0.0
 46
0.0
 47
0.1
 48
0.1
140
3.2
141
0.0
142
0.0
143
0.0393701
144
1.0
145
0.0
146
0.71
147
1.5
 71
     0
 72
     0
 73
     0
 74
     1
 75
     0
 76
     0
 77
     3
 78
     8
170
     0
171
     2
172
     0
173
     0
174
     0
175
     0
176
   256
177
   256
178
     2
270
     2
271
     2
272
     3
273
     2
274
     2
340
6B
275
     0
280
     0
281
     0
282
     0
283
     0
284
     0
285
     0
286
     0
287
     0
288
     1
  0
DIMSTYLE
105
60
330
A
100
AcDbSymbolTableRecord
100
AcDbDimStyleTableRecord
  2
AM_JIS$4
 70
     0
  3

  4
"
  5
OPEN30
  6

  7

 40
1.0
 41
2.5
 42
1.0
 43
10.0
 44
1.0
 45
0.0
 46
0.0
 47
0.1
 48
0.1
140
3.2
141
0.0
142
0.0
143
0.0393701
144
1.0
145
0.0
146
0.71
147
1.5
 71
     0
 72
     0
 73
     0
 74
     1
 75
     0
 76
     0
 77
     3
 78
     8
170
     0
171
     2
172
     0
173
     0
174
     0
175
     0
176
   256
177
   256
178
     2
270
     2
271
     2
272
     3
273
     2
274
     2
340
6B
275
     0
280
     0
281
     0
282
     0
283
     0
284
     0
285
     0
286
     0
287
     0
288
     1
  0
DIMSTYLE
105
61
330
A
100
AcDbSymbolTableRecord
100
AcDbDimStyleTableRecord
  2
AM_JIS$6
 70
     0
  3

  4
"
  5
OPEN30
  6

  7

 40
1.0
 41
2.5
 42
1.0
 43
10.0
 44
1.0
 45
0.0
 46
0.0
 47
0.1
 48
0.1
140
3.2
141
0.0
142
0.0
143
0.0393701
144
1.0
145
0.0
146
0.71
147
1.5
 71
     0
 72
     0
 73
     0
 74
     0
 75
     0
 76
     0
 77
     0
 78
     8
170
     0
171
     2
172
     1
173
     0
174
     0
175
     0
176
   256
177
   256
178
     2
270
     2
271
     2
272
     2
273
     2
274
     2
340
6B
275
     0
280
     0
281
     0
282
     0
283
     0
284
     0
285
     0
286
     0
287
     3
288
     0
  0
DIMSTYLE
105
62
330
A
100
AcDbSymbolTableRecord
100
AcDbDimStyleTableRecord
  2
AM_JIS$7
 70
     0
  3

  4
"
  5
OPEN30
  6

  7

 40
1.0
 41
2.5
 42
1.0
 43
10.0
 44
1.0
 45
0.0
 46
0.0
 47
0.1
 48
0.1
140
3.2
141
0.0
142
0.0
143
0.0393701
144
1.0
145
0.0
146
0.71
147
1.5
 71
     0
 72
     0
 73
     0
 74
     0
 75
     0
 76
     0
 77
     3
 78
     8
170
     0
171
     2
172
     1
173
     0
174
     0
175
     0
176
   256
177
   256
178
     2
270
     2
271
     2
272
     3
273
     2
274
     2
340
6B
275
     0
280
     0
281
     0
282
     0
283
     0
284
     0
285
     0
286
     0
287
     3
288
     0
  0
DIMSTYLE
105
63
330
A
100
AcDbSymbolTableRecord
100
AcDbDimStyleTableRecord
  2
AM_JIS$SF
 70
     0
  3

  4
"
  5
OPEN30
  6

  7

 40
1.0
 41
2.5
 42
1.0
 43
10.0
 44
1.0
 45
0.0
 46
0.0
 47
0.1
 48
0.1
140
3.2
141
0.0
142
0.0
143
0.0393701
144
1.0
145
0.0
146
0.71
147
1.5
 71
     0
 72
     0
 73
     0
 74
     0
 75
     1
 76
     1
 77
     3
 78
     8
170
     0
171
     2
172
     1
173
     0
174
     0
175
     0
176
   256
177
   256
178
     2
270
     2
271
     2
272
     2
273
     2
274
     2
340
6B
275
     0
280
     0
281
     0
282
     0
283
     0
284
     0
285
     0
286
     0
287
     3
288
     0
  0
DIMSTYLE
105
68
330
A
100
AcDbSymbolTableRecord
100
AcDbDimStyleTableRecord
  2
AM_JIS$SH
 70
     0
  3

  4
"
  5

  6
GENAXEH
  7
OPEN30
 40
1.0
 41
2.5
 42
1.0
 43
10.0
 44
1.0
 45
0.0
 46
0.0
 47
0.1
 48
0.1
140
3.2
141
0.0
142
0.0
143
0.0393701
144
2.0
145
0.0
146
0.71
147
1.5
 71
     0
 72
     0
 73
     0
 74
     0
 75
     1
 76
     1
 77
     3
 78
     8
170
     0
171
     2
172
     1
173
     1
174
     0
175
     0
176
   256
177
   256
178
     2
270
     2
271
     2
272
     2
273
     2
274
     2
340
6B
275
     0
280
     0
281
     0
282
     0
283
     0
284
     0
285
     0
286
     0
287
     3
288
     0
  0
DIMSTYLE
105
B34
330
A
100
AcDbSymbolTableRecord
100
AcDbDimStyleTableRecord
  2
AM_JIS$2
 70
     0
  3

  4
"
  5
OPEN30
  6

  7

 40
1.0
 41
2.5
 42
1.0
 43
12.0
 44
1.0
 45
0.0
 46
0.0
 47
0.1
 48
0.1
140
3.2
141
0.0
142
0.0
143
0.0393701
144
1.0
145
0.0
146
0.71
147
1.5
 71
     0
 72
     0
 73
     0
 74
     0
 75
     0
 76
     0
 77
     3
 78
     8
170
     0
171
     2
172
     1
173
     0
174
     0
175
     0
176
   256
177
   256
178
     2
270
     2
271
     3
272
     3
273
     2
274
     2
340
6B
275
     0
280
     0
281
     0
282
     0
283
     0
284
     0
285
     0
286
     0
287
     3
288
     0
  0
ENDTAB
  0
TABLE
  2
BLOCK_RECORD
  5
1
330
0
100
AcDbSymbolTable
 70
    10
  0
BLOCK_RECORD
  5
1F
102
{ACAD_XDICTIONARY
360
74
102
}
330
1
100
AcDbSymbolTableRecord
100
AcDbBlockTableRecord
  2
*MODEL_SPACE
  0
BLOCK_RECORD
  5
101
102
{ACAD_XDICTIONARY
360
3D20
102
}
330
1
100
AcDbSymbolTableRecord
100
AcDbBlockTableRecord
  2
*PAPER_SPACE
  0
BLOCK_RECORD
  5
59
330
1
100
AcDbSymbolTableRecord
100
AcDbBlockTableRecord
  2
_OPEN30
  0
BLOCK_RECORD
  5
64
330
1
100
AcDbSymbolTableRecord
100
AcDbBlockTableRecord
  2
GENAXEH
  0
BLOCK_RECORD
  5
2C2F
330
1
100
AcDbSymbolTableRecord
100
AcDbBlockTableRecord
  2
*D5
  0
BLOCK_RECORD
  5
2DA2
330
1
100
AcDbSymbolTableRecord
100
AcDbBlockTableRecord
  2
*D6
  0
BLOCK_RECORD
  5
3B92
330
1
100
AcDbSymbolTableRecord
100
AcDbBlockTableRecord
  2
*D7
  0
BLOCK_RECORD
  5
3C27
330
1
100
AcDbSymbolTableRecord
100
AcDbBlockTableRecord
  2
*D8
  0
BLOCK_RECORD
  5
3C34
330
1
100
AcDbSymbolTableRecord
100
AcDbBlockTableRecord
  2
*D9
  0
ENDTAB
  0
ENDSEC
  0
SECTION
  2
BLOCKS
  0
BLOCK
  5
20
330
1F
100
AcDbEntity
  8
0
100
AcDbBlockBegin
  2
*MODEL_SPACE
 70
     0
 10
0.0
 20
0.0
 30
0.0
  3
*MODEL_SPACE
  1

  0
ENDBLK
  5
21
330
1F
100
AcDbEntity
  8
0
100
AcDbBlockEnd
  0
BLOCK
  5
103
330
101
100
AcDbEntity
 67
     1
  8
0
100
AcDbBlockBegin
  2
*PAPER_SPACE
 70
     0
 10
0.0
 20
0.0
 30
0.0
  3
*PAPER_SPACE
  1

  0
ENDBLK
  5
104
330
101
100
AcDbEntity
 67
     1
  8
0
100
AcDbBlockEnd
  0
BLOCK
  5
5D
330
59
100
AcDbEntity
  8
0
100
AcDbBlockBegin
  2
_OPEN30
 70
     0
 10
0.0
 20
0.0
 30
0.0
  3
_OPEN30
  1

  0
LINE
  5
5A
330
59
100
AcDbEntity
  8
0
 62
     0
100
AcDbLine
 10
-1.0
 20
0.26794919
 30
0.0
 11
0.0
 21
0.0
 31
0.0
  0
LINE
  5
5B
330
59
100
AcDbEntity
  8
0
 62
     0
100
AcDbLine
 10
0.0
 20
0.0
 30
0.0
 11
-1.0
 21
-0.26794919
 31
0.0
  0
LINE
  5
5C
330
59
100
AcDbEntity
  8
0
 62
     0
100
AcDbLine
 10
0.0
 20
0.0
 30
0.0
 11
-1.0
 21
0.0
 31
0.0
  0
ENDBLK
  5
5E
330
59
100
AcDbEntity
  8
0
100
AcDbBlockEnd
  0
BLOCK
  5
66
330
64
100
AcDbEntity
  8
0
100
AcDbBlockBegin
  2
GENAXEH
 70
     0
 10
0.0
 20
0.0
 30
0.0
  3
GENAXEH
  1

  0
LINE
  5
65
330
64
100
AcDbEntity
  8
0
100
AcDbLine
 10
-1.0
 20
0.0
 30
0.0
 11
1.0
 21
0.0
 31
0.0
  0
ENDBLK
  5
67
330
64
100
AcDbEntity
  8
0
100
AcDbBlockEnd
  0
BLOCK
  5
2C39
330
2C2F
100
AcDbEntity
  8
0
100
AcDbBlockBegin
  2
*D5
 70
     1
 10
0.0
 20
0.0
 30
0.0
  3
*D5
  1

  0
LINE
  5
35FB
330
2C2F
100
AcDbEntity
  8
AM_5
100
AcDbLine
 10
-110.000000000002
 20
8.000000000001143
 30
0.0
 11
-127.8742128522181
 21
8.000000000001149
 31
0.0
  0
LINE
  5
35FC
330
2C2F
100
AcDbEntity
  8
AM_5
100
AcDbLine
 10
-110.000000000002
 20
-7.999999999998796
 30
0.0
 11
-127.8742128522181
 21
-7.999999999998792
 31
0.0
  0
LINE
  5
35FD
330
2C2F
100
AcDbEntity
  8
AM_5
100
AcDbLine
 10
-126.8742128522181
 20
5.500000000001149
 30
0.0
 11
-126.8742128522181
 21
-5.499999999998792
 31
0.0
  0
INSERT
  5
35FE
330
2C2F
100
AcDbEntity
  8
AM_5
100
AcDbBlockReference
  2
_OPEN30
 10
-126.8742128522181
 20
8.000000000001149
 30
0.0
 41
2.5
 42
2.5
 43
2.5
 50
90.0
  0
INSERT
  5
35FF
330
2C2F
100
AcDbEntity
  8
AM_5
100
AcDbBlockReference
  2
_OPEN30
 10
-126.8742128522181
 20
-7.999999999998792
 30
0.0
 41
2.5
 42
2.5
 43
2.5
 50
270.0
  0
MTEXT
  5
3600
330
2C2F
100
AcDbEntity
  8
AM_5
 62
     2
100
AcDbMText
 10
-129.9742128522181
 20
0.0000000000011583
 30
0.0
 40
3.2
 41
0.0
 71
     5
 72
     1
  1
%%c16
  7
ASAMI
 11
0.0000000000000001
 21
1.0
 31
0.0
1001
ACAD
1000
MTEXTBEGIN
1070
    73
1070
     1
1070
    44
1040
1.0
1070
    74
1070
     0
1000
MTEXTEND
  0
POINT
  5
3601
330
2C2F
100
AcDbEntity
  8
DEFPOINTS
 62
     0
100
AcDbPoint
 10
-109.000000000002
 20
8.000000000001143
 30
0.0
  0
POINT
  5
3602
330
2C2F
100
AcDbEntity
  8
DEFPOINTS
 62
     0
100
AcDbPoint
 10
-109.000000000002
 20
-7.999999999998797
 30
0.0
  0
POINT
  5
3603
330
2C2F
100
AcDbEntity
  8
DEFPOINTS
 62
     0
100
AcDbPoint
 10
-126.8742128522181
 20
-7.999999999998792
 30
0.0
  0
ENDBLK
  5
2C3A
330
2C2F
100
AcDbEntity
  8
0
100
AcDbBlockEnd
  0
BLOCK
  5
2DAC
330
2DA2
100
AcDbEntity
  8
0
100
AcDbBlockBegin
  2
*D6
 70
     1
 10
0.0
 20
0.0
 30
0.0
  3
*D6
  1

  0
LINE
  5
3616
330
2DA2
100
AcDbEntity
  8
AM_5
100
AcDbLine
 10
-50.00000000000214
 20
-9.000000000000008
 30
0.0
 11
-50.00000000000214
 21
-23.00000100999892
 31
0.0
  0
LINE
  5
3617
330
2DA2
100
AcDbEntity
  8
AM_5
100
AcDbLine
 10
-110.000000000002
 20
-7.999999999998797
 30
0.0
 11
-110.000000000002
 21
-23.00000100999892
 31
0.0
  0
LINE
  5
3618
330
2DA2
100
AcDbEntity
  8
AM_5
100
AcDbLine
 10
-52.50000000000214
 20
-22.00000100999892
 30
0.0
 11
-107.500000000002
 21
-22.00000100999892
 31
0.0
  0
INSERT
  5
3619
330
2DA2
100
AcDbEntity
  8
AM_5
100
AcDbBlockReference
  2
_OPEN30
 10
-50.00000000000214
 20
-22.00000100999892
 30
0.0
 41
2.5
 42
2.5
 43
2.5
  0
INSERT
  5
361A
330
2DA2
100
AcDbEntity
  8
AM_5
100
AcDbBlockReference
  2
_OPEN30
 10
-110.000000000002
 20
-22.00000100999892
 30
0.0
 41
2.5
 42
2.5
 43
2.5
 50
180.0
  0
MTEXT
  5
361B
330
2DA2
100
AcDbEntity
  8
AM_5
 62
     2
100
AcDbMText
 10
-80.00000000000211
 20
-18.90000100999892
 30
0.0
 40
3.2
 41
0.0
 71
     5
 72
     1
  1
60
  7
ASAMI
1001
ACAD
1000
MTEXTBEGIN
1070
    73
1070
     1
1070
    44
1040
1.0
1070
    74
1070
     0
1000
MTEXTEND
  0
POINT
  5
361C
330
2DA2
100
AcDbEntity
  8
DEFPOINTS
 62
     0
100
AcDbPoint
 10
-50.00000000000214
 20
-8.000000000000008
 30
0.0
  0
POINT
  5
361D
330
2DA2
100
AcDbEntity
  8
DEFPOINTS
 62
     0
100
AcDbPoint
 10
-110.000000000002
 20
-6.999999999998797
 30
0.0
  0
POINT
  5
361E
330
2DA2
100
AcDbEntity
  8
DEFPOINTS
 62
     0
100
AcDbPoint
 10
-110.000000000002
 20
-22.00000100999892
 30
0.0
  0
ENDBLK
  5
2DAD
330
2DA2
100
AcDbEntity
  8
0
100
AcDbBlockEnd
  0
BLOCK
  5
3B9C
330
3B92
100
AcDbEntity
  8
0
100
AcDbBlockBegin
  2
*D7
 70
     1
 10
0.0
 20
0.0
 30
0.0
  3
*D7
  1

  0
LINE
  5
3CD3
330
3B92
100
AcDbEntity
  8
AM_5
100
AcDbLine
 10
-110.000000000002
 20
-8.466666666665382
 30
0.0
 11
-110.000000000002
 21
-37.26666774399864
 31
0.0
  0
LINE
  5
3CD4
330
3B92
100
AcDbEntity
  8
AM_5
100
AcDbLine
 10
0.0000000000004042
 20
-9.000000000002842
 30
0.0
 11
0.0000000000004025
 21
-37.26666774399864
 31
0.0
  0
LINE
  5
3CD5
330
3B92
100
AcDbEntity
  8
AM_5
100
AcDbLine
 10
-107.500000000002
 20
-36.26666774399863
 30
0.0
 11
-2.499999999999597
 21
-36.26666774399863
 31
0.0
  0
INSERT
  5
3CD6
330
3B92
100
AcDbEntity
  8
AM_5
100
AcDbBlockReference
  2
_OPEN30
 10
-110.000000000002
 20
-36.26666774399863
 30
0.0
 41
2.5
 42
2.5
 43
2.5
 50
180.0
  0
INSERT
  5
3CD7
330
3B92
100
AcDbEntity
  8
AM_5
100
AcDbBlockReference
  2
_OPEN30
 10
0.0000000000004026
 20
-36.26666774399863
 30
0.0
 41
2.5
 42
2.5
 43
2.5
  0
MTEXT
  5
3CD8
330
3B92
100
AcDbEntity
  8
AM_5
 62
     2
100
AcDbMText
 10
-55.00000000000082
 20
-33.16666774399863
 30
0.0
 40
3.2
 41
0.0
 71
     5
 72
     1
  1
110
  7
ASAMI
1001
ACAD
1000
MTEXTBEGIN
1070
    73
1070
     1
1070
    44
1040
1.0
1070
    74
1070
     0
1000
MTEXTEND
  0
POINT
  5
3CD9
330
3B92
100
AcDbEntity
  8
DEFPOINTS
 62
     0
100
AcDbPoint
 10
-110.000000000002
 20
-7.466666666665383
 30
0.0
  0
POINT
  5
3CDA
330
3B92
100
AcDbEntity
  8
DEFPOINTS
 62
     0
100
AcDbPoint
 10
0.0000000000004043
 20
-8.000000000002842
 30
0.0
  0
POINT
  5
3CDB
330
3B92
100
AcDbEntity
  8
DEFPOINTS
 62
     0
100
AcDbPoint
 10
0.0000000000004026
 20
-36.26666774399863
 30
0.0
  0
ENDBLK
  5
3B9D
330
3B92
100
AcDbEntity
  8
0
100
AcDbBlockEnd
  0
BLOCK
  5
3C31
330
3C27
100
AcDbEntity
  8
0
100
AcDbBlockBegin
  2
*D8
 70
     1
 10
0.0
 20
0.0
 30
0.0
  3
*D8
  1

  0
LINE
  5
3CCA
330
3C27
100
AcDbEntity
  8
AM_5
100
AcDbLine
 10
0.0000000000004046
 20
-9.000000000002845
 30
0.0
 11
0.0000000000004037
 21
-24.4666677439987
 31
0.0
  0
LINE
  5
3CCB
330
3C27
100
AcDbEntity
  8
AM_5
100
AcDbLine
 10
-39.99959552537509
 20
-8.934201326714902
 30
0.0
 11
-39.99959552537509
 21
-24.4666677439987
 31
0.0
  0
LINE
  5
3CCC
330
3C27
100
AcDbEntity
  8
AM_5
100
AcDbLine
 10
-2.499999999999596
 20
-23.4666677439987
 30
0.0
 11
-37.4995955253751
 21
-23.4666677439987
 31
0.0
  0
INSERT
  5
3CCD
330
3C27
100
AcDbEntity
  8
AM_5
100
AcDbBlockReference
  2
_OPEN30
 10
0.0000000000004038
 20
-23.4666677439987
 30
0.0
 41
2.5
 42
2.5
 43
2.5
  0
INSERT
  5
3CCE
330
3C27
100
AcDbEntity
  8
AM_5
100
AcDbBlockReference
  2
_OPEN30
 10
-39.99959552537509
 20
-23.4666677439987
 30
0.0
 41
2.5
 42
2.5
 43
2.5
 50
180.0
  0
MTEXT
  5
3CCF
330
3C27
100
AcDbEntity
  8
AM_5
 62
     2
100
AcDbMText
 10
-19.99979776268734
 20
-20.3666677439987
 30
0.0
 40
3.2
 41
0.0
 71
     5
 72
     1
  1
40
  7
ASAMI
1001
ACAD
1000
MTEXTBEGIN
1070
    73
1070
     1
1070
    44
1040
1.0
1070
    74
1070
     0
1000
MTEXTEND
  0
POINT
  5
3CD0
330
3C27
100
AcDbEntity
  8
DEFPOINTS
 62
     0
100
AcDbPoint
 10
0.0000000000004047
 20
-8.000000000002845
 30
0.0
  0
POINT
  5
3CD1
330
3C27
100
AcDbEntity
  8
DEFPOINTS
 62
     0
100
AcDbPoint
 10
-39.99959552537509
 20
-7.934201326714901
 30
0.0
  0
POINT
  5
3CD2
330
3C27
100
AcDbEntity
  8
DEFPOINTS
 62
     0
100
AcDbPoint
 10
-39.99959552537509
 20
-23.4666677439987
 30
0.0
  0
ENDBLK
  5
3C32
330
3C27
100
AcDbEntity
  8
0
100
AcDbBlockEnd
  0
BLOCK
  5
3C3E
330
3C34
100
AcDbEntity
  8
0
100
AcDbBlockBegin
  2
*D9
 70
     1
 10
0.0
 20
0.0
 30
0.0
  3
*D9
  1

  0
LINE
  5
3C52
330
3C34
100
AcDbEntity
  8
AM_5
100
AcDbLine
 10
0.9999999999982925
 20
8.000000000001364
 30
0.0
 11
18.41045000536965
 21
8.000000000001358
 31
0.0
  0
LINE
  5
3C53
330
3C34
100
AcDbEntity
  8
AM_5
100
AcDbLine
 10
1.000000000000404
 20
-7.999999999998842
 30
0.0
 11
18.41045000536965
 21
-7.999999999998848
 31
0.0
  0
LINE
  5
3C54
330
3C34
100
AcDbEntity
  8
AM_5
100
AcDbLine
 10
17.41045000536965
 20
5.500000000001358
 30
0.0
 11
17.41045000536965
 21
-5.499999999998847
 31
0.0
  0
INSERT
  5
3C55
330
3C34
100
AcDbEntity
  8
AM_5
100
AcDbBlockReference
  2
_OPEN30
 10
17.41045000536965
 20
8.000000000001358
 30
0.0
 41
2.5
 42
2.5
 43
2.5
 50
90.0
  0
INSERT
  5
3C56
330
3C34
100
AcDbEntity
  8
AM_5
100
AcDbBlockReference
  2
_OPEN30
 10
17.41045000536965
 20
-7.999999999998847
 30
0.0
 41
2.5
 42
2.5
 43
2.5
 50
270.0
  0
MTEXT
  5
3C57
330
3C34
100
AcDbEntity
  8
AM_5
 62
     2
100
AcDbMText
 10
14.31045000536965
 20
0.0000000000012588
 30
0.0
 40
3.2
 41
0.0
 71
     5
 72
     1
  1
%%c16
  7
ASAMI
 11
0.0000000000000001
 21
1.0
 31
0.0
1001
ACAD
1000
MTEXTBEGIN
1070
    73
1070
     1
1070
    44
1040
1.0
1070
    74
1070
     0
1000
MTEXTEND
  0
POINT
  5
3C58
330
3C34
100
AcDbEntity
  8
DEFPOINTS
 62
     0
100
AcDbPoint
 10
-0.0000000000017074
 20
8.000000000001364
 30
0.0
  0
POINT
  5
3C59
330
3C34
100
AcDbEntity
  8
DEFPOINTS
 62
     0
100
AcDbPoint
 10
0.0000000000004043
 20
-7.999999999998842
 30
0.0
  0
POINT
  5
3C5A
330
3C34
100
AcDbEntity
  8
DEFPOINTS
 62
     0
100
AcDbPoint
 10
17.41045000536965
 20
-7.999999999998847
 30
0.0
  0
ENDBLK
  5
3C3F
330
3C34
100
AcDbEntity
  8
0
100
AcDbBlockEnd
  0
ENDSEC
  0
SECTION
  2
ENTITIES
  0
TEXT
  5
C58
330
1F
100
AcDbEntity
  8
AM_6
100
AcDbText
 10
-73.33333333333539
 20
-56.50000100999879
 30
0.0
 40
5.0
  1
RMES4160
 50
0.0000000000002036
 72
     4
 11
-55.00000000000207
 21
-54.00000100999872
 31
0.0
100
AcDbText
  0
LINE
  5
2A1C
330
1F
100
AcDbEntity
  8
AM_7
100
AcDbLine
 10
-112.8742118522181
 20
0.0000000000012026
 30
0.0
 11
3.125788147781861
 21
0.0000000000011897
 31
0.0
1001
GENIUS_GENODEF_13
1002
{
1000
HIER
1070
     0
1002
}
1002
{
1000
MANEDIT
1070
     0
1002
}
1002
{
1000
NOSEL
1070
     0
1002
}
1002
{
1000
BEHIND
1070
     0
1002
}
1002
{
1000
REACTOR
1002
}
1001
GENIUS_GENOBJ-N-CEN_13
1002
{
1000
OWNER
1000
GEN
1002
}
  0
LINE
  5
2A1D
330
1F
100
AcDbEntity
  8
AM_0
100
AcDbLine
 10
-109.000000000002
 20
-7.999999999998797
 30
0.0
 11
-50.00000000000214
 21
-7.999999999998803
 31
0.0
  0
LINE
  5
2A1E
330
1F
100
AcDbEntity
  8
AM_0
100
AcDbLine
 10
-121.0000000000021
 20
8.000000000001143
 30
0.0
 11
-50.0000000000021
 21
8.000000000001193
 31
0.0
  0
LINE
  5
2A1F
330
1F
100
AcDbEntity
  8
AM_0
100
AcDbLine
 10
-109.000000000002
 20
-7.999999999998797
 30
0.0
 11
-109.000000000002
 21
8.000000000001143
 31
0.0
  0
LINE
  5
2A20
330
1F
100
AcDbEntity
  8
AM_0
100
AcDbLine
 10
-110.000000000002
 20
7.000000000001145
 30
0.0
 11
-110.000000000002
 21
-6.999999999998797
 31
0.0
  0
LINE
  5
2A21
330
1F
100
AcDbEntity
  8
AM_0
100
AcDbLine
 10
-110.000000000002
 20
7.000000000001145
 30
0.0
 11
-109.000000000002
 21
8.000000000001143
 31
0.0
1001
GENIUS_GENFIL_13
1070
     0
1040
1.0
1040
1.0
1040
20.0
1040
0.0
1002
{
1002
}
1001
GENIUS_GENODEF_13
1002
{
1000
HIER
1070
     0
1002
}
1002
{
1000
MANEDIT
1070
     0
1002
}
1002
{
1000
NOSEL
1070
     0
1002
}
1002
{
1000
BEHIND
1070
     0
1002
}
1002
{
1000
REACTOR
1002
}
1001
GENIUS_GENOBJ-N-CHA_13
1002
{
1000
OWNER
1000
GEN
1002
}
  0
LINE
  5
2A23
330
1F
100
AcDbEntity
  8
AM_0
100
AcDbLine
 10
-110.000000000002
 20
-6.999999999998797
 30
0.0
 11
-109.000000000002
 21
-7.999999999998797
 31
0.0
1001
GENIUS_GENFIL_13
1070
     0
1040
1.0
1040
1.0
1040
20.0
1040
0.0
1002
{
1002
}
1001
GENIUS_GENODEF_13
1002
{
1000
HIER
1070
     0
1002
}
1002
{
1000
MANEDIT
1070
     0
1002
}
1002
{
1000
NOSEL
1070
     0
1002
}
1002
{
1000
BEHIND
1070
     0
1002
}
1002
{
1000
REACTOR
1002
}
1001
GENIUS_GENOBJ-N-CHA_13
1002
{
1000
OWNER
1000
GEN
1002
}
  0
LINE
  5
2A29
330
1F
100
AcDbEntity
  8
AM_0
100
AcDbLine
 10
-50.0000000000021
 20
8.000000000001193
 30
0.0
 11
-50.0000000000021
 21
-7.999999999998804
 31
0.0
  0
DIMENSION
  5
2C2E
330
1F
100
AcDbEntity
  8
AM_5
100
AcDbDimension
  2
*D5
 10
-126.8742128522181
 20
-7.999999999998792
 30
0.0
 11
-129.9742128522181
 21
0.0000000000011583
 31
0.0
 70
    32
  1
%%c<>
  3
AM_JIS
100
AcDbAlignedDimension
 13
-109.000000000002
 23
8.000000000001143
 33
0.0
 14
-109.000000000002
 24
-7.999999999998797
 34
0.0
 50
270.0000000000001
100
AcDbRotatedDimension
1001
GENIUS_GENDTOL_13
1000

1000
h7
1000

1040
0.0
  0
DIMENSION
  5
2DA1
330
1F
100
AcDbEntity
  8
AM_5
100
AcDbDimension
  2
*D6
 10
-110.000000000002
 20
-22.00000100999892
 30
0.0
 11
-80.00000000000211
 21
-18.90000100999892
 31
0.0
 70
    32
  1
<>
  3
AM_JIS
100
AcDbAlignedDimension
 13
-50.00000000000214
 23
-8.000000000000008
 33
0.0
 14
-110.000000000002
 24
-6.999999999998797
 34
0.0
 50
0.0000000000001132
100
AcDbRotatedDimension
1001
GENIUS_GENDTOL_13
1000

1000
h7
1000

1040
0.0
  0
DIMENSION
  5
3B91
330
1F
100
AcDbEntity
  8
AM_5
100
AcDbDimension
  2
*D7
 10
0.0000000000004026
 20
-36.26666774399863
 30
0.0
 11
-55.00000000000082
 21
-33.16666774399863
 31
0.0
 70
    32
  1
<>
  3
AM_JIS
100
AcDbAlignedDimension
 13
-110.000000000002
 23
-7.466666666665383
 33
0.0
 14
0.0000000000004043
 24
-8.000000000002842
 34
0.0
 50
0.0000000000001207
100
AcDbRotatedDimension
1001
GENIUS_GENDTOL_13
1000

1000
h7
1000

1040
0.0
  0
LINE
  5
3B9E
330
1F
100
AcDbEntity
  8
AM_0
100
AcDbLine
 10
-0.0000000000006636
 20
0.0000000000000002
 30
0.0
 11
-0.1601179281255325
 21
1.600000000000363
 31
0.0
  0
LINE
  5
3B9F
330
1F
100
AcDbEntity
  8
AM_0
100
AcDbLine
 10
-0.1601179281255325
 20
1.600000000000363
 30
0.0
 11
-1.627902502536155
 21
4.267425302416813
 31
0.0
  0
LINE
  5
3BA0
330
1F
100
AcDbEntity
  8
AM_0
100
AcDbLine
 10
-0.0000000000006636
 20
0.0000000000000002
 30
0.0
 11
-0.0000000000006636
 21
8.0
 31
0.0
  0
LINE
  5
3BA1
330
1F
100
AcDbEntity
  8
AM_0
100
AcDbLine
 10
-4.193564784222694
 20
2.468479296243822
 30
0.0
 11
-4.193564784222694
 21
3.803463760840895
 31
0.0
  0
LINE
  5
3BA2
330
1F
100
AcDbEntity
  8
AM_0
100
AcDbLine
 10
-7.243430081838716
 20
4.128232042130912
 30
0.0
 11
-7.243430081838716
 21
5.239323288231753
 31
0.0
  0
SPLINE
  5
3BA3
330
1F
100
AcDbEntity
  8
AM_0
100
AcDbSpline
210
0.0
220
0.0
230
1.0
 70
     8
 71
     3
 72
     9
 73
     5
 74
     0
 42
0.0000000001
 43
0.0000000001
 40
0.0
 40
0.0
 40
0.0
 40
0.0
 40
1.173671883824386
 40
1.360226551015519
 40
1.360226551015519
 40
1.360226551015519
 40
1.360226551015519
 10
-5.718497433030704
 20
7.233479238258587
 30
0.0
 10
-6.09022783873497
 20
6.743886687659323
 30
0.0
 10
-6.738346367382701
 20
6.358935715141342
 30
0.0
 10
-7.433131405952413
 20
6.203449301667933
 30
0.0
 10
-7.528850928198176
 20
6.186702120898553
 30
0.0
  0
SPLINE
  5
3BA4
330
1F
100
AcDbEntity
  8
AM_0
100
AcDbSpline
210
0.0
220
0.0
230
1.0
 70
     8
 71
     3
 72
     9
 73
     5
 74
     0
 42
0.0000000001
 43
0.0000000001
 40
0.0
 40
0.0
 40
0.0
 40
0.0
 40
1.862990800602817
 40
3.382267404545521
 40
3.382267404545521
 40
3.382267404545521
 40
3.382267404545521
 10
-4.193564784222694
 20
3.803463760840895
 30
0.0
 10
-4.709753052237637
 20
4.184830377169931
 30
0.0
 10
-5.509394900293736
 20
5.121428221051128
 30
0.0
 10
-6.730407703668129
 20
5.284714706579285
 30
0.0
 10
-7.243430081838716
 20
5.239323288231753
 30
0.0
  0
SPLINE
  5
3BA5
330
1F
100
AcDbEntity
  8
AM_0
100
AcDbSpline
210
0.0
220
0.0
230
1.0
 70
     8
 71
     3
 72
     9
 73
     5
 74
     0
 42
0.0000000001
 43
0.0000000001
 40
0.0
 40
0.0
 40
0.0
 40
0.0
 40
1.59747099413338
 40
3.403889013946459
 40
3.403889013946459
 40
3.403889013946459
 40
3.403889013946459
 10
-4.193564784222694
 20
2.468479296243822
 30
0.0
 10
-4.717680889389261
 20
2.610620155924368
 30
0.0
 10
-5.832259498576561
 20
2.993068587438962
 30
0.0
 10
-6.740963128217476
 20
3.761374496645833
 30
0.0
 10
-7.243430081838716
 20
4.128232042130912
 30
0.0
  0
LINE
  5
3BA6
330
1F
100
AcDbEntity
  8
AM_0
100
AcDbLine
 10
-0.0000000000006636
 20
0.0000000000000002
 30
0.0
 11
-3.593613934360142
 21
0.0000000000000002
 31
0.0
  0
SPLINE
  5
3BA7
330
1F
100
AcDbEntity
  8
AM_0
100
AcDbSpline
210
0.0
220
0.0
230
1.0
 70
     8
 71
     3
 72
     8
 73
     4
 74
     0
 42
0.0000000001
 43
0.0000000001
 40
11.46537929237052
 40
11.46537929237052
 40
11.46537929237052
 40
11.46537929237052
 40
14.48999654934396
 40
14.48999654934396
 40
14.48999654934396
 40
14.48999654934396
 10
-4.193564784223387
 20
2.468479296244186
 30
0.0
 10
-2.791595288929196
 20
1.669906405663641
 30
0.0
 10
-1.395797644464929
 20
0.8349532028318209
 30
0.0
 10
-0.0000000000006636
 20
0.000000000000364
 30
0.0
  0
SPLINE
  5
3BA8
330
1F
100
AcDbEntity
  8
AM_0
100
AcDbSpline
210
0.0
220
0.0
230
1.0
 70
     8
 71
     3
 72
     8
 73
     4
 74
     0
 42
0.0000000001
 43
0.0000000001
 40
0.0
 40
0.0
 40
0.0
 40
0.0
 40
3.835275104118792
 40
3.835275104118792
 40
3.835275104118792
 40
3.835275104118792
 10
-0.0000000000006636
 20
8.0
 30
0.0
 10
-1.949512074477796
 20
8.0
 30
0.0
 10
-3.851483460296151
 20
7.719768810740061
 30
0.0
 10
-5.718497433030704
 20
7.233479238258587
 30
0.0
  0
LINE
  5
3BA9
330
1F
100
AcDbEntity
  8
AM_0
100
AcDbLine
 10
-1.627902502536155
 20
4.267425302416813
 30
0.0
 11
-3.593613934360142
 21
4.813525476045106
 31
0.0
  0
SPLINE
  5
3BAA
330
1F
100
AcDbEntity
  8
AM_0
100
AcDbSpline
210
0.0
220
0.0
230
1.0
 70
     8
 71
     3
 72
     8
 73
     4
 74
     0
 42
0.0000000001
 43
0.0000000001
 40
0.0
 40
0.0
 40
0.0
 40
0.0
 40
4.294232294743062
 40
4.294232294743062
 40
4.294232294743062
 40
4.294232294743062
 10
-0.4574797946426509
 20
8.0
 30
0.0
 10
0.5437799102895989
 20
6.892036629828264
 30
0.0
 10
-2.15959180804669
 20
5.073084093841465
 30
0.0
 10
-3.593613934360142
 20
4.813525476045106
 30
0.0
  0
SPLINE
  5
3BAB
330
1F
100
AcDbEntity
  8
AM_0
100
AcDbSpline
210
0.0
220
0.0
230
1.0
 70
     8
 71
     3
 72
     8
 73
     4
 74
     0
 42
0.0000000001
 43
0.0000000001
 40
9.532359626456116
 40
9.532359626456116
 40
9.532359626456116
 40
9.532359626456116
 40
12.40023413887867
 40
12.40023413887867
 40
12.40023413887867
 40
12.40023413887867
 10
-4.193564784235869
 20
3.803463760847808
 30
0.0
 10
-2.848181913115105
 20
3.121771102280763
 30
0.0
 10
-1.511375051939757
 20
2.388060849555768
 30
0.0
 10
-0.178131640923221
 20
1.632736570574343
 30
0.0
  0
LINE
  5
3BAC
330
1F
100
AcDbEntity
  8
AM_0
100
AcDbLine
 10
-0.1601179281255325
 20
-2.123036567300732
 30
0.0
 11
-0.0000000000006636
 21
-1.599999999999999
 31
0.0
  0
LINE
  5
3BAD
330
1F
100
AcDbEntity
  8
AM_0
100
AcDbLine
 10
-1.312140475308488
 20
-2.357847624266287
 30
0.0
 11
-0.1601179281255325
 21
-2.123036567300732
 31
0.0
  0
LINE
  5
3BAE
330
1F
100
AcDbEntity
  8
AM_0
100
AcDbLine
 10
-0.0000000000006636
 20
-8.0
 30
0.0
 11
-0.1601179281255325
 21
-7.573505852194648
 31
0.0
  0
LINE
  5
3BAF
330
1F
100
AcDbEntity
  8
AM_0
100
AcDbLine
 10
-0.1601179281255325
 20
-7.573505852194648
 30
0.0
 11
-1.044578864434067
 21
-6.396186648738876
 31
0.0
  0
LINE
  5
3BB0
330
1F
100
AcDbEntity
  8
AM_0
100
AcDbLine
 10
-0.1601179281255325
 20
-7.573505852194648
 30
0.0
 11
-0.1601179281255325
 21
-2.123036567300732
 31
0.0
  0
ELLIPSE
  5
3BB1
330
1F
100
AcDbEntity
  8
AM_0
100
AcDbEllipse
 10
3.028017865135263
 20
-4.070208263548556
 30
0.0
 11
0.0000000000000041
 21
4.865116984825683
 31
0.0
210
0.0
220
0.0
230
1.0
 40
0.9530829055050059
 41
1.211124581303817
 42
2.069278538290229
  0
LINE
  5
3BB2
330
1F
100
AcDbEntity
  8
AM_0
100
AcDbLine
 10
-0.0000000000006636
 20
-8.0
 30
0.0
 11
-0.0000000000006636
 21
-1.599999999999999
 31
0.0
  0
LINE
  5
3BB3
330
1F
100
AcDbEntity
  8
AM_0
100
AcDbLine
 10
-3.049865297616685
 20
-7.776582809936734
 30
0.0
 11
-3.049865297616685
 21
-7.015319380582149
 31
0.0
  0
LINE
  5
3BB4
330
1F
100
AcDbEntity
  8
AM_0
100
AcDbLine
 10
-6.099730595232707
 20
-7.131208298236014
 30
0.0
 11
-6.099730595232707
 21
-6.06657030412607
 31
0.0
  0
LINE
  5
3BB5
330
1F
100
AcDbEntity
  8
AM_0
100
AcDbLine
 10
-8.387129568444724
 20
-6.397943026437133
 30
0.0
 11
-8.387129568444724
 21
-5.146103994816803
 31
0.0
  0
SPLINE
  5
3BB6
330
1F
100
AcDbEntity
  8
AM_0
100
AcDbSpline
210
0.0
220
0.0
230
1.0
 70
     8
 71
     3
 72
     8
 73
     4
 74
     0
 42
0.0000000001
 43
0.0000000001
 40
5.928582328726523
 40
5.928582328726523
 40
5.928582328726523
 40
5.928582328726523
 40
7.528098176779675
 40
7.528098176779675
 40
7.528098176779675
 40
7.528098176779675
 10
-6.099730595239642
 20
-6.066570304123524
 30
0.0
 10
-6.866534127107544
 20
-5.786055434789886
 30
0.0
 10
-7.628710567980474
 20
-5.477475049789426
 30
0.0
 10
-8.387129568407278
 20
-5.146103994833174
 30
0.0
  0
SPLINE
  5
3BB7
330
1F
100
AcDbEntity
  8
AM_0
100
AcDbSpline
210
0.0
220
0.0
230
1.0
 70
     8
 71
     3
 72
     8
 73
     4
 74
     0
 42
0.0000000001
 43
0.0000000001
 40
4.096652702081863
 40
4.096652702081863
 40
4.096652702081863
 40
4.096652702081863
 40
5.678228147290397
 40
5.678228147290397
 40
5.678228147290397
 40
5.678228147290397
 10
-6.099730595229933
 20
-7.131208298234559
 30
0.0
 10
-6.867701595796218
 20
-6.919234155647426
 30
0.0
 10
-7.629873781188143
 20
-6.673078579885622
 30
0.0
 10
-8.387129568444724
 20
-6.397943026437133
 30
0.0
  0
SPLINE
  5
3BB8
330
1F
100
AcDbEntity
  8
AM_0
100
AcDbSpline
210
0.0
220
0.0
230
1.0
 70
     8
 71
     3
 72
     9
 73
     5
 74
     0
 42
0.0000000001
 43
0.0000000001
 40
0.0
 40
0.0
 40
0.0
 40
0.0
 40
1.903742594624469
 40
3.430173214614181
 40
3.430173214614181
 40
3.430173214614181
 40
3.430173214614181
 10
-3.049865297616685
 20
-7.015319380582149
 30
0.0
 10
-3.468829299052923
 20
-6.500598858895606
 30
0.0
 10
-4.377045294769549
 20
-5.3760852352053
 30
0.0
 10
-5.602933980359303
 20
-5.915398543589759
 30
0.0
 10
-6.099730595239642
 20
-6.066570304123524
 30
0.0
  0
SPLINE
  5
3BB9
330
1F
100
AcDbEntity
  8
AM_0
100
AcDbSpline
210
0.0
220
0.0
230
1.0
 70
     8
 71
     3
 72
     9
 73
     5
 74
     0
 42
0.0000000001
 43
0.0000000001
 40
0.0
 40
0.0
 40
0.0
 40
0.0
 40
1.72658936472417
 40
3.24728190261914
 40
3.24728190261914
 40
3.24728190261914
 40
3.24728190261914
 10
-3.049865297616685
 20
-7.776582809936734
 30
0.0
 10
-3.407407364324328
 20
-7.290641175461105
 30
0.0
 10
-4.490412286678248
 20
-6.650403153288746
 30
0.0
 10
-5.629010818225607
 20
-6.911168851275758
 30
0.0
 10
-6.099730595232707
 20
-7.131208298236014
 30
0.0
  0
SPLINE
  5
3BBA
330
1F
100
AcDbEntity
  8
AM_0
100
AcDbSpline
210
0.0
220
0.0
230
1.0
 70
     8
 71
     3
 72
     8
 73
     4
 74
     0
 42
0.0000000001
 43
0.0000000001
 40
0.0
 40
0.0
 40
0.0
 40
0.0
 40
2.024855066027545
 40
2.024855066027545
 40
2.024855066027545
 40
2.024855066027545
 10
-0.0000000000006636
 20
-8.0
 30
0.0
 10
-1.029255866430368
 20
-8.0
 30
0.0
 10
-2.045260377158217
 20
-7.921889159108104
 30
0.0
 10
-3.049865297616685
 20
-7.776582809936734
 30
0.0
  0
LINE
  5
3BBB
330
1F
100
AcDbEntity
  8
AM_0
100
AcDbLine
 10
-3.593613934360142
 20
-1.279999999999926
 30
0.0
 11
-0.1760840550574301
 21
-1.279999999999926
 31
0.0
  0
LINE
  5
3BBC
330
1F
100
AcDbEntity
  8
AM_0
100
AcDbLine
 10
-3.593613934360142
 20
-1.279999999999926
 30
0.0
 11
-1.312140475308488
 21
-2.357847624266287
 31
0.0
  0
SPLINE
  5
3BBD
330
1F
100
AcDbEntity
  8
AM_0
100
AcDbSpline
210
0.0
220
0.0
230
1.0
 70
     8
 71
     3
 72
     8
 73
     4
 74
     0
 42
0.0000000001
 43
0.0000000001
 40
1.870660592686466
 40
1.870660592686466
 40
1.870660592686466
 40
1.870660592686466
 40
3.826008700541491
 40
3.826008700541491
 40
3.826008700541491
 40
3.826008700541491
 10
-0.1601179281255325
 20
-7.573505852194648
 30
0.0
 10
-1.133049356248706
 20
-7.446171496510213
 30
0.0
 10
-2.095768901168423
 20
-7.256897194457632
 30
0.0
 10
-3.049865297613218
 20
-7.015319380566506
 30
0.0
  0
LINE
  5
3BBE
330
1F
100
AcDbEntity
  8
AM_0
100
AcDbLine
 10
-0.0000000000006636
 20
-1.599999999999999
 30
0.0
 11
-0.8804202752858831
 21
0.000000000000364
 31
0.0
  0
LINE
  5
3BBF
330
1F
100
AcDbEntity
  8
AM_0
100
AcDbLine
 10
-0.0000000000006636
 20
0.0000000000000002
 30
0.0
 11
-0.1354789952892412
 21
-1.353792139337019
 31
0.0
  0
LINE
  5
3BC0
330
1F
100
AcDbEntity
  8
AM_0
100
AcDbLine
 10
-3.593613934360142
 20
0.0000000000000002
 30
0.0
 11
-3.593613934360142
 21
-1.279999999999926
 31
0.0
  0
LINE
  5
3BC1
330
1F
100
AcDbEntity
  8
AM_0
100
AcDbLine
 10
-9.530829055050732
 20
5.239254563385475
 30
0.0
 11
-9.530829055050732
 21
6.14438844931683
 31
0.0
  0
LINE
  5
3BC2
330
1F
100
AcDbEntity
  8
AM_0
100
AcDbLine
 10
-12.58069435266675
 20
6.480111509086782
 30
0.0
 11
-12.58069435266675
 21
7.068797832410928
 31
0.0
  0
LINE
  5
3BC3
330
1F
100
AcDbEntity
  8
AM_0
100
AcDbLine
 10
-14.86809332587877
 20
7.193282871327028
 30
0.0
 11
-14.86809332587877
 21
7.519460665008591
 31
0.0
  0
SPLINE
  5
3BC4
330
1F
100
AcDbEntity
  8
AM_0
100
AcDbSpline
210
0.0
220
0.0
230
1.0
 70
     8
 71
     3
 72
     8
 73
     4
 74
     0
 42
0.0000000001
 43
0.0000000001
 40
2.130606102564619
 40
2.130606102564619
 40
2.130606102564619
 40
2.130606102564619
 40
3.679329335050426
 40
3.679329335050426
 40
3.679329335050426
 40
3.679329335050426
 10
-14.86809332587877
 20
7.519460665008955
 30
0.0
 10
-14.0996163639978
 20
7.405697106344814
 30
0.0
 10
-13.33741317501976
 20
7.253880120188841
 30
0.0
 10
-12.58069435267022
 20
7.068797832410928
 30
0.0
  0
SPLINE
  5
3BC5
330
1F
100
AcDbEntity
  8
AM_0
100
AcDbSpline
210
0.0
220
0.0
230
1.0
 70
     8
 71
     3
 72
     8
 73
     4
 74
     0
 42
0.0000000001
 43
0.0000000001
 40
3.939746932601999
 40
3.939746932601999
 40
3.939746932601999
 40
3.939746932601999
 40
5.519086939037594
 40
5.519086939037594
 40
5.519086939037594
 40
5.519086939037594
 10
-14.86809332587877
 20
7.193282871327028
 30
0.0
 10
-14.1000501646469
 20
6.988432053584983
 30
0.0
 10
-13.33787673378721
 20
6.748981789158278
 30
0.0
 10
-12.58069435266675
 20
6.480111509086419
 30
0.0
  0
SPLINE
  5
3BC6
330
1F
100
AcDbEntity
  8
AM_0
100
AcDbSpline
210
0.0
220
0.0
230
1.0
 70
     8
 71
     3
 72
     9
 73
     5
 74
     0
 42
0.0000000001
 43
0.0000000001
 40
0.0
 40
0.0
 40
0.0
 40
0.0
 40
1.596253384393968
 40
3.130156758002996
 40
3.130156758002996
 40
3.130156758002996
 40
3.130156758002996
 10
-9.530829055050732
 20
6.14438844931683
 30
0.0
 10
-9.99897532399216
 20
6.428732495307014
 30
0.0
 10
-11.03997669871724
 20
6.709856943985816
 30
0.0
 10
-12.06194068217074
 20
7.034212870249685
 30
0.0
 10
-12.58069435266675
 20
7.068797832410928
 30
0.0
  0
SPLINE
  5
3BC7
330
1F
100
AcDbEntity
  8
AM_0
100
AcDbSpline
210
0.0
220
0.0
230
1.0
 70
     8
 71
     3
 72
     9
 73
     5
 74
     0
 42
0.0000000001
 43
0.0000000001
 40
0.0
 40
0.0
 40
0.0
 40
0.0
 40
1.509478570089825
 40
3.309158499346873
 40
3.309158499346873
 40
3.309158499346873
 40
3.309158499346873
 10
-9.530829055050732
 20
5.239254563385475
 30
0.0
 10
-10.04141947706797
 20
5.271646993826906
 30
0.0
 10
-11.22032119194821
 20
5.230714123701614
 30
0.0
 10
-12.10522225089201
 20
6.079393306484908
 30
0.0
 10
-12.58069435266675
 20
6.480111509086782
 30
0.0
  0
SPLINE
  5
3BC8
330
1F
100
AcDbEntity
  8
AM_0
100
AcDbSpline
210
0.0
220
0.0
230
1.0
 70
     8
 71
     3
 72
     8
 73
     4
 74
     0
 42
0.0000000001
 43
0.0000000001
 40
13.73199344169106
 40
13.73199344169106
 40
13.73199344169106
 40
13.73199344169106
 40
14.43901837670146
 40
14.43901837670146
 40
14.43901837670146
 40
14.43901837670146
 10
-19.0616581101008
 20
0.5695452071100592
 30
0.0
 10
-18.73351939816624
 20
0.3800005133132802
 30
0.0
 10
-18.405455793735
 20
0.1900002566566402
 30
0.0
 10
-18.07739218930375
 20
0.000000000000364
 30
0.0
  0
LINE
  5
3BC9
330
1F
100
AcDbEntity
  8
AM_0
100
AcDbLine
 10
-22.11152340771682
 20
0.8195702910255933
 30
0.0
 11
-22.11152340771682
 21
2.302156950744029
 31
0.0
  0
SPLINE
  5
3BCA
330
1F
100
AcDbEntity
  8
AM_0
100
AcDbSpline
210
0.0
220
0.0
230
1.0
 70
     8
 71
     3
 72
     9
 73
     5
 74
     0
 42
0.0000000001
 43
0.0000000001
 40
0.0
 40
0.0
 40
0.0
 40
0.0
 40
2.134718602092789
 40
3.638419521675699
 40
3.638419521675699
 40
3.638419521675699
 40
3.638419521675699
 10
-19.0616581101008
 20
0.5695452071100592
 30
0.0
 10
-19.44557495190285
 20
1.212847024093641
 30
0.0
 10
-20.25722216112793
 20
2.363107968282224
 30
0.0
 10
-21.61675918496121
 20
2.430080366936921
 30
0.0
 10
-22.11152340771682
 20
2.302156950744029
 30
0.0
  0
SPLINE
  5
3BCB
330
1F
100
AcDbEntity
  8
AM_0
100
AcDbSpline
210
0.0
220
0.0
230
1.0
 70
     8
 71
     3
 72
     8
 73
     4
 74
     0
 42
0.0000000001
 43
0.0000000001
 40
0.3507760400854742
 40
0.3507760400854742
 40
0.3507760400854742
 40
0.3507760400854742
 40
1.871307041999678
 40
1.871307041999678
 40
1.871307041999678
 40
1.871307041999678
 10
-20.20535759670681
 20
7.993024331737252
 30
0.0
 10
-19.43586109488408
 20
7.972947747894432
 30
0.0
 10
-18.67365614829724
 20
7.909890692943372
 30
0.0
 10
-17.91795862349479
 20
7.808475284400993
 30
0.0
  0
SPLINE
  5
3BCC
330
1F
100
AcDbEntity
  8
AM_0
100
AcDbSpline
210
0.0
220
0.0
230
1.0
 70
     8
 71
     3
 72
     9
 73
     5
 74
     0
 42
0.0000000001
 43
0.0000000001
 40
0.0
 40
0.0
 40
0.0
 40
0.0
 40
1.008936993267342
 40
1.777052715134862
 40
1.777052715134862
 40
1.777052715134862
 40
1.777052715134862
 10
-14.86809332587877
 20
7.519460665008591
 30
0.0
 10
-15.36528754529241
 20
7.387504910005008
 30
0.0
 10
-16.28084523827776
 20
7.181302707783106
 30
0.0
 10
-17.15950788939497
 20
7.445752837621694
 30
0.0
 10
-17.53758474560475
 20
7.56015679901684
 30
0.0
  0
SPLINE
  5
3BCD
330
1F
100
AcDbEntity
  8
AM_0
100
AcDbSpline
210
0.0
220
0.0
230
1.0
 70
     8
 71
     3
 72
     9
 73
     5
 74
     0
 42
0.0000000001
 43
0.0000000001
 40
0.0
 40
0.0
 40
0.0
 40
0.0
 40
1.524049486410846
 40
3.246382277554493
 40
3.246382277554493
 40
3.246382277554493
 40
3.246382277554493
 10
-14.86809332587877
 20
7.193282871327028
 30
0.0
 10
-15.34976629818822
 20
6.997769605179981
 30
0.0
 10
-16.53549345233326
 20
6.581980562471342
 30
0.0
 10
-17.40340112524538
 20
7.519447739580814
 30
0.0
 10
-17.91795862349479
 20
7.808475284400993
 30
0.0
  0
LINE
  5
3BCE
330
1F
100
AcDbEntity
  8
AM_0
100
AcDbLine
 10
-11.43699486606074
 20
-5.134446305658275
 30
0.0
 11
-11.43699486606074
 21
-3.694122089850134
 31
0.0
  0
LINE
  5
3BCF
330
1F
100
AcDbEntity
  8
AM_0
100
AcDbLine
 10
-13.72439383926929
 20
-4.010040741491684
 30
0.0
 11
-13.72439383927276
 21
-2.478080757375573
 31
0.0
  0
SPLINE
  5
3BD0
330
1F
100
AcDbEntity
  8
AM_0
100
AcDbSpline
210
0.0
220
0.0
230
1.0
 70
     8
 71
     3
 72
     8
 73
     4
 74
     0
 42
0.0000000001
 43
0.0000000001
 40
9.685078621624523
 40
9.685078621624523
 40
9.685078621624523
 40
9.685078621624523
 40
11.31655044551473
 40
11.31655044551473
 40
11.31655044551473
 40
11.31655044551473
 10
-11.43699486606074
 20
-3.694122089850134
 30
0.0
 10
-12.20184259037105
 20
-3.303219306217215
 30
0.0
 10
-12.96400130749984
 20
-2.896006410403788
 30
0.0
 10
-13.72439383929148
 20
-2.47808075741268
 30
0.0
  0
SPLINE
  5
3BD1
330
1F
100
AcDbEntity
  8
AM_0
100
AcDbSpline
210
0.0
220
0.0
230
1.0
 70
     8
 71
     3
 72
     8
 73
     4
 74
     0
 42
0.0000000001
 43
0.0000000001
 40
7.818791612490512
 40
7.818791612490512
 40
7.818791612490512
 40
7.818791612490512
 40
9.443881246512125
 40
9.443881246512125
 40
9.443881246512125
 40
9.443881246512125
 10
-11.43699486606074
 20
-5.134446305657911
 30
0.0
 10
-12.20307183245025
 20
-4.780927577581314
 30
0.0
 10
-12.96521906563798
 20
-4.404244822233885
 30
0.0
 10
-13.72439383927276
 20
-4.010040741489865
 30
0.0
  0
LINE
  5
3BD2
330
1F
100
AcDbEntity
  8
AM_0
100
AcDbLine
 10
-16.77425913688878
 20
-2.337839492783677
 30
0.0
 11
-16.77425913688878
 21
-0.7535603263288065
 31
0.0
  0
SPLINE
  5
3BD3
330
1F
100
AcDbEntity
  8
AM_0
100
AcDbSpline
210
0.0
220
0.0
230
1.0
 70
     8
 71
     3
 72
     8
 73
     4
 74
     0
 42
0.0000000001
 43
0.0000000001
 40
1.999245295235591
 40
1.999245295235591
 40
1.999245295235591
 40
1.999245295235591
 40
2.130230809022907
 40
2.130230809022907
 40
2.130230809022907
 40
2.130230809022907
 10
-17.72734204239379
 20
-7.782063916959668
 30
0.0
 10
-17.66233664852621
 20
-7.772774285641207
 30
0.0
 10
-17.59737905590688
 20
-7.763202887249644
 30
0.0
 10
-17.53246876326403
 20
-7.753352676564099
 30
0.0
  0
LINE
  5
3BD4
330
1F
100
AcDbEntity
  8
AM_0
100
AcDbLine
 10
-20.77720734000843
 20
-7.999964288108821
 30
0.0
 11
-20.77720734004518
 21
-7.589140097918424
 31
0.0
  0
SPLINE
  5
3BD5
330
1F
100
AcDbEntity
  8
AM_0
100
AcDbSpline
210
0.0
220
0.0
230
1.0
 70
     8
 71
     3
 72
     8
 73
     4
 74
     0
 42
0.0000000001
 43
0.0000000001
 40
0.0
 40
0.0
 40
0.0
 40
0.0
 40
1.498423311644514
 40
1.498423311644514
 40
1.498423311644514
 40
1.498423311644514
 10
-20.77720734000981
 20
-7.58914009792279
 30
0.0
 10
-20.32744834428938
 20
-7.341838673771317
 30
0.0
 10
-19.78266373592036
 20
-7.081003487285897
 30
0.0
 10
-19.29386904835814
 20
-7.225312450245473
 30
0.0
  0
SPLINE
  5
3BD6
330
1F
100
AcDbEntity
  8
AM_0
100
AcDbSpline
210
0.0
220
0.0
230
1.0
 70
     8
 71
     3
 72
     9
 73
     5
 74
     0
 42
0.0000000001
 43
0.0000000001
 40
0.0
 40
0.0
 40
0.0
 40
0.0
 40
1.667714745337139
 40
3.256805083315271
 40
3.256805083315271
 40
3.256805083315271
 40
3.256805083315271
 10
-20.77720734000981
 20
-7.999964288109913
 30
0.0
 10
-20.30459202471066
 20
-7.674833210323193
 30
0.0
 10
-19.29676847775343
 20
-6.842516412515216
 30
0.0
 10
-18.21204916548762
 20
-7.535903113283816
 30
0.0
 10
-17.72734204239379
 20
-7.782063916959668
 30
0.0
  0
SPLINE
  5
3BD7
330
1F
100
AcDbEntity
  8
AM_0
100
AcDbSpline
210
0.0
220
0.0
230
1.0
 70
     8
 71
     3
 72
     9
 73
     5
 74
     0
 42
0.0000000001
 43
0.0000000001
 40
0.0
 40
0.0
 40
0.0
 40
0.0
 40
2.234683413624822
 40
3.734683413624822
 40
3.734683413624822
 40
3.734683413624822
 40
3.734683413624822
 10
-13.72439383927276
 20
-2.478080757422867
 30
0.0
 10
-14.09820824533841
 20
-1.787079456824895
 30
0.0
 10
-14.83526644273141
 20
-0.5342457037417035
 30
0.0
 10
-16.32383581800051
 20
-0.4640274026883143
 30
0.0
 10
-16.77425913688878
 20
-0.7112061161584277
 30
0.0
  0
SPLINE
  5
3BD8
330
1F
100
AcDbEntity
  8
AM_0
100
AcDbSpline
210
0.0
220
0.0
230
1.0
 70
     8
 71
     3
 72
     8
 73
     4
 74
     0
 42
0.0000000001
 43
0.0000000001
 40
0.2298684927509915
 40
0.2298684927509915
 40
0.2298684927509915
 40
0.2298684927509915
 40
2.764560748519282
 40
2.764560748519282
 40
2.764560748519282
 40
2.764560748519282
 10
-17.72734204239379
 20
-7.757519257401508
 30
0.0
 10
-16.44247754307058
 20
-7.73600404372155
 30
0.0
 10
-15.17701286391389
 20
-7.59681966004864
 30
0.0
 10
-13.92748737748731
 20
-7.36095646374888
 30
0.0
  0
SPLINE
  5
3BD9
330
1F
100
AcDbEntity
  8
AM_0
100
AcDbSpline
210
0.0
220
0.0
230
1.0
 70
     8
 71
     3
 72
     9
 73
     5
 74
     0
 42
0.0000000001
 43
0.0000000001
 40
0.0
 40
0.0
 40
0.0
 40
0.0
 40
1.804831497484455
 40
3.407354979375
 40
3.407354979375
 40
3.407354979375
 40
3.407354979375
 10
-13.72439383927276
 20
-4.010040741489865
 30
0.0
 10
-14.1947397307567
 20
-3.599845531591383
 30
0.0
 10
-15.1591870121051
 20
-2.924911331799767
 30
0.0
 10
-16.24081241024536
 20
-2.444539210384197
 30
0.0
 10
-16.77425913688878
 20
-2.337839492783677
 30
0.0
  0
SPLINE
  5
3BDA
330
1F
100
AcDbEntity
  8
AM_0
100
AcDbSpline
210
0.0
220
0.0
230
1.0
 70
     8
 71
     3
 72
     8
 73
     4
 74
     0
 42
0.0000000001
 43
0.0000000001
 40
11.62991291415682
 40
11.62991291415682
 40
11.62991291415682
 40
11.62991291415682
 40
14.48999654934396
 40
14.48999654934396
 40
14.48999654934396
 40
14.48999654934396
 10
-16.77425913688878
 20
-2.337839492783677
 30
0.0
 10
-18.09934638970661
 20
-1.579066565238826
 30
0.0
 10
-19.41921520674769
 20
-0.7895332826192315
 30
0.0
 10
-20.73908402378947
 20
0.0000000000000002
 30
0.0
  0
LINE
  5
3BDB
330
1F
100
AcDbEntity
  8
AM_0
100
AcDbLine
 10
-19.0616581101008
 20
-1.000846465853828
 30
0.0
 11
-19.0616581101008
 21
0.5695452071100592
 31
0.0
  0
SPLINE
  5
3BDC
330
1F
100
AcDbEntity
  8
AM_0
100
AcDbSpline
210
0.0
220
0.0
230
1.0
 70
     8
 71
     3
 72
     8
 73
     4
 74
     0
 42
0.0000000001
 43
0.0000000001
 40
13.50299628442394
 40
13.50299628442394
 40
13.50299628442394
 40
13.50299628442394
 40
14.43901837670146
 40
14.43901837670146
 40
14.43901837670146
 40
14.43901837670146
 10
-16.77425913688878
 20
-0.7535603263288065
 30
0.0
 10
-17.20875300498602
 20
-0.5030782620589887
 30
0.0
 10
-17.64307259714489
 20
-0.2515391310294942
 30
0.0
 10
-18.07739218930375
 20
0.000000000000364
 30
0.0
  0
SPLINE
  5
3BDD
330
1F
100
AcDbEntity
  8
AM_0
100
AcDbSpline
210
0.0
220
0.0
230
1.0
 70
     8
 71
     3
 72
     8
 73
     4
 74
     0
 42
0.0000000001
 43
0.0000000001
 40
4.542668862435135
 40
4.542668862435135
 40
4.542668862435135
 40
4.542668862435135
 40
14.36247867694493
 40
14.36247867694493
 40
14.36247867694493
 40
14.36247867694493
 10
-1.044578864431987
 20
-6.396186648730508
 30
0.0
 10
-5.824419006032471
 20
-5.051209098516483
 30
0.0
 10
-10.41844900819469
 20
-2.525604549258059
 30
0.0
 10
-15.01247901035692
 20
0.000000000000364
 30
0.0
  0
SPLINE
  5
3BDE
330
1F
100
AcDbEntity
  8
AM_0
100
AcDbSpline
210
0.0
220
0.0
230
1.0
 70
     8
 71
     3
 72
     8
 73
     4
 74
     0
 42
0.0000000001
 43
0.0000000001
 40
0.7142832446738512
 40
0.7142832446738512
 40
0.7142832446738512
 40
0.7142832446738512
 40
9.361146747480315
 40
9.361146747480315
 40
9.361146747480315
 40
9.361146747480315
 10
-13.92748737732643
 20
7.360956463719048
 30
0.0
 10
-9.566140447140631
 20
7.145253502354899
 30
0.0
 10
-5.405034338608692
 20
5.657231812479586
 30
0.0
 10
-1.317305756056878
 20
3.702973519169609
 30
0.0
  0
SPLINE
  5
3BDF
330
1F
100
AcDbEntity
  8
AM_0
100
AcDbSpline
210
0.0
220
0.0
230
1.0
 70
     8
 71
     3
 72
     8
 73
     4
 74
     0
 42
0.0000000001
 43
0.0000000001
 40
0.0
 40
0.0
 40
0.0
 40
0.0
 40
4.451443990518192
 40
4.451443990518192
 40
4.451443990518192
 40
4.451443990518192
 10
-15.01247901035692
 20
-7.387911206084027
 30
0.0
 10
-12.74976158519708
 20
-7.387911206084027
 30
0.0
 10
-10.54289007398939
 20
-7.033069462795538
 30
0.0
 10
-8.374555837769539
 20
-6.433364078277372
 30
0.0
  0
SPLINE
  5
3BE0
330
1F
100
AcDbEntity
  8
AM_0
100
AcDbSpline
210
0.0
220
0.0
230
1.0
 70
     8
 71
     3
 72
     9
 73
     5
 74
     0
 42
0.0000000001
 43
0.0000000001
 40
0.0
 40
0.0
 40
0.0
 40
0.0
 40
1.80162782053068
 40
3.313189647300303
 40
3.313189647300303
 40
3.313189647300303
 40
3.313189647300303
 10
-8.387129568444724
 20
-6.397943026437133
 30
0.0
 10
-8.763233952207654
 20
-5.893346933290816
 30
0.0
 10
-9.775557988445896
 20
-5.316137894914489
 30
0.0
 10
-10.94979587248587
 20
-4.968497348221012
 30
0.0
 10
-11.43699486606074
 20
-5.134446305658275
 30
0.0
  0
SPLINE
  5
3BE1
330
1F
100
AcDbEntity
  8
AM_0
100
AcDbSpline
210
0.0
220
0.0
230
1.0
 70
     8
 71
     3
 72
     9
 73
     5
 74
     0
 42
0.0000000001
 43
0.0000000001
 40
0.0
 40
0.0
 40
0.0
 40
0.0
 40
2.141059343722855
 40
3.651523002367593
 40
3.651523002367593
 40
3.651523002367593
 40
3.651523002367593
 10
-8.387129568444724
 20
-5.134446305658275
 30
0.0
 10
-8.845077932512374
 20
-4.543977832898386
 30
0.0
 10
-9.568222285724612
 20
-3.045887031150618
 30
0.0
 10
-10.92823569993631
 20
-3.635127579300982
 30
0.0
 10
-11.43699486606074
 20
-3.694122089850134
 30
0.0
  0
SPLINE
  5
3BE2
330
1F
100
AcDbEntity
  8
AM_0
100
AcDbSpline
210
0.0
220
0.0
230
1.0
 70
     8
 71
     3
 72
     8
 73
     4
 74
     0
 42
0.0000000001
 43
0.0000000001
 40
7.657131739025505
 40
7.657131739025505
 40
7.657131739025505
 40
7.657131739025505
 40
9.280732515295124
 40
9.280732515295124
 40
9.280732515295124
 40
9.280732515295124
 10
-9.530829055050732
 20
5.239254563385475
 30
0.0
 10
-8.764663356953173
 20
4.890719883519705
 30
0.0
 10
-8.002515247543833
 20
4.518503307413993
 30
0.0
 10
-7.243430081839409
 20
4.128232042131275
 30
0.0
  0
SPLINE
  5
3BE3
330
1F
100
AcDbEntity
  8
AM_0
100
AcDbSpline
210
0.0
220
0.0
230
1.0
 70
     8
 71
     3
 72
     8
 73
     4
 74
     0
 42
0.0000000001
 43
0.0000000001
 40
5.779271486987545
 40
5.779271486987545
 40
5.779271486987545
 40
5.779271486987545
 40
7.377122246071414
 40
7.377122246071414
 40
7.377122246071414
 40
7.377122246071414
 10
-9.530829055050732
 20
6.14438844931683
 30
0.0
 10
-8.763953236559419
 20
5.869445748838916
 30
0.0
 10
-8.001775891311135
 20
5.566004565283583
 30
0.0
 10
-7.243430081838716
 20
5.239323288231753
 30
0.0
  0
SPLINE
  5
3BE4
330
1F
100
AcDbEntity
  8
AM_0
100
AcDbSpline
210
0.0
220
0.0
230
1.0
 70
     8
 71
     3
 72
     8
 73
     4
 74
     0
 42
0.0000000001
 43
0.0000000001
 40
1.666991338825053
 40
1.666991338825053
 40
1.666991338825053
 40
1.666991338825053
 40
3.21070440243455
 40
3.21070440243455
 40
3.21070440243455
 40
3.21070440243455
 10
-23.25522289432006
 20
7.847268272314249
 30
0.0
 10
-24.0242316641781
 20
7.754857095541592
 30
0.0
 10
-24.78642447265134
 20
7.622268861631164
 30
0.0
 10
-25.54262186753485
 20
7.454340334425069
 30
0.0
  0
LINE
  5
3BE5
330
1F
100
AcDbEntity
  8
AM_0
100
AcDbLine
 10
-24.39892238092884
 20
2.162616726872147
 30
0.0
 11
-24.39892238094687
 21
3.53014439858307
 31
0.0
  0
SPLINE
  5
3BE6
330
1F
100
AcDbEntity
  8
AM_0
100
AcDbSpline
210
0.0
220
0.0
230
1.0
 70
     8
 71
     3
 72
     8
 73
     4
 74
     0
 42
0.0000000001
 43
0.0000000001
 40
5.307227569610006
 40
5.307227569610006
 40
5.307227569610006
 40
5.307227569610006
 40
5.635889483499305
 40
5.635889483499305
 40
5.635889483499305
 40
5.635889483499305
 10
-28.59248716515087
 20
6.586712995899506
 30
0.0
 10
-28.75033936798497
 20
6.532422822105582
 30
0.0
 10
-28.9079703242418
 20
6.476828498257964
 30
0.0
 10
-29.06538795259164
 20
6.419976701394261
 30
0.0
  0
LINE
  5
3BE7
330
1F
100
AcDbEntity
  8
AM_0
100
AcDbLine
 10
-27.44878767854486
 20
3.850663530140082
 30
0.0
 11
-27.44878767854486
 21
5.005357467648354
 31
0.0
  0
SPLINE
  5
3BE8
330
1F
100
AcDbEntity
  8
AM_0
100
AcDbSpline
210
0.0
220
0.0
230
1.0
 70
     8
 71
     3
 72
     9
 73
     5
 74
     0
 42
0.0000000001
 43
0.0000000001
 40
0.0
 40
0.0
 40
0.0
 40
0.0
 40
1.503438351697518
 40
3.260499827787994
 40
3.260499827787994
 40
3.260499827787994
 40
3.260499827787994
 10
-28.59248716515087
 20
6.586712995900234
 30
0.0
 10
-28.09504201685912
 20
6.471230499564105
 30
0.0
 10
-26.93046002856792
 20
6.243982011521171
 30
0.0
 10
-25.98460521318681
 20
7.035728539931445
 30
0.0
 10
-25.54262186753485
 20
7.454340334425069
 30
0.0
  0
SPLINE
  5
3BE9
330
1F
100
AcDbEntity
  8
AM_0
100
AcDbSpline
210
0.0
220
0.0
230
1.0
 70
     8
 71
     3
 72
     9
 73
     5
 74
     0
 42
0.0000000001
 43
0.0000000001
 40
0.0
 40
0.0
 40
0.0
 40
0.0
 40
1.891503755460323
 40
3.409143341102712
 40
3.409143341102712
 40
3.409143341102712
 40
3.409143341102712
 10
-24.39892238092884
 20
3.530144398573975
 30
0.0
 10
-24.8953092609852
 20
3.955640530892029
 30
0.0
 10
-25.70592495165614
 20
4.905320102520525
 30
0.0
 10
-26.93570040695122
 20
5.042216411442582
 30
0.0
 10
-27.44878767854486
 20
5.005357467648354
 30
0.0
  0
SPLINE
  5
3BEA
330
1F
100
AcDbEntity
  8
AM_0
100
AcDbSpline
210
0.0
220
0.0
230
1.0
 70
     8
 71
     3
 72
     9
 73
     5
 74
     0
 42
0.0000000001
 43
0.0000000001
 40
0.0
 40
0.0
 40
0.0
 40
0.0
 40
1.609341566343276
 40
3.411820827695224
 40
3.411820827695224
 40
3.411820827695224
 40
3.411820827695224
 10
-24.39892238092884
 20
2.162616726871783
 30
0.0
 10
-24.91324363602538
 20
2.352915951948137
 30
0.0
 10
-26.01106146687254
 20
2.742519374774703
 30
0.0
 10
-26.9962452331585
 20
3.4202271672498
 30
0.0
 10
-27.4487876785407
 20
3.850663530136444
 30
0.0
  0
LINE
  5
3BEB
330
1F
100
AcDbEntity
  8
AM_0
100
AcDbLine
 10
-29.73618665175687
 20
4.992398154248803
 30
0.0
 11
-29.73618665175618
 21
5.948217959946487
 31
0.0
  0
LINE
  5
3BEC
330
1F
100
AcDbEntity
  8
AM_0
100
AcDbLine
 10
-32.7860519493729
 20
6.285478529506872
 30
0.0
 11
-32.7860519493729
 21
6.932563229947118
 31
0.0
  0
LINE
  5
3BED
330
1F
100
AcDbEntity
  8
AM_0
100
AcDbLine
 10
-35.07345092258491
 20
7.045154207984523
 30
0.0
 11
-35.07345092258491
 21
7.434218787452846
 31
0.0
  0
SPLINE
  5
3BEE
330
1F
100
AcDbEntity
  8
AM_0
100
AcDbSpline
210
0.0
220
0.0
230
1.0
 70
     8
 71
     3
 72
     8
 73
     4
 74
     0
 42
0.0000000001
 43
0.0000000001
 40
2.489821994174631
 40
2.489821994174631
 40
2.489821994174631
 40
2.489821994174631
 40
4.043019649814397
 40
4.043019649814397
 40
4.043019649814397
 40
4.043019649814397
 10
-35.07345092258491
 20
7.434218787452846
 30
0.0
 10
-34.3056298862961
 20
7.302681417483836
 30
0.0
 10
-33.5439347694903
 20
7.133987421587517
 30
0.0
 10
-32.787569304078
 20
6.932966545834642
 30
0.0
  0
SPLINE
  5
3BEF
330
1F
100
AcDbEntity
  8
AM_0
100
AcDbSpline
210
0.0
220
0.0
230
1.0
 70
     8
 71
     3
 72
     8
 73
     4
 74
     0
 42
0.0000000001
 43
0.0000000001
 40
4.306226182506206
 40
4.306226182506206
 40
4.306226182506206
 40
4.306226182506206
 40
5.890739774064351
 40
5.890739774064351
 40
5.890739774064351
 40
5.890739774064351
 10
-35.07345092258491
 20
7.045154207984523
 30
0.0
 10
-34.30557736236475
 20
6.82380222906213
 30
0.0
 10
-33.54340681931624
 20
6.568833503524365
 30
0.0
 10
-32.7860519493729
 20
6.285478529506872
 30
0.0
  0
SPLINE
  5
3BF0
330
1F
100
AcDbEntity
  8
AM_0
100
AcDbSpline
210
0.0
220
0.0
230
1.0
 70
     8
 71
     3
 72
     9
 73
     5
 74
     0
 42
0.0000000001
 43
0.0000000001
 40
0.0
 40
0.0
 40
0.0
 40
0.0
 40
1.618462504924987
 40
3.151185540897841
 40
3.151185540897841
 40
3.151185540897841
 40
3.151185540897841
 10
-29.73618665175687
 20
5.948217959946851
 30
0.0
 10
-30.2227768190717
 20
6.213721253200546
 30
0.0
 10
-31.21795816841432
 20
6.64898155251892
 30
0.0
 10
-32.27411089316751
 20
6.840538357283101
 30
0.0
 10
-32.7860519493729
 20
6.932563229947118
 30
0.0
  0
SPLINE
  5
3BF1
330
1F
100
AcDbEntity
  8
AM_0
100
AcDbSpline
210
0.0
220
0.0
230
1.0
 70
     8
 71
     3
 72
     9
 73
     5
 74
     0
 42
0.0000000001
 43
0.0000000001
 40
0.0
 40
0.0
 40
0.0
 40
0.0
 40
1.514634011951766
 40
3.318644422736972
 40
3.318644422736972
 40
3.318644422736972
 40
3.318644422736972
 10
-29.73618665175687
 20
4.992398154248803
 30
0.0
 10
-30.24797877051247
 20
5.033235684236329
 30
0.0
 10
-31.42506754161798
 20
5.044502039185567
 30
0.0
 10
-32.30782712587081
 20
5.885906435020698
 30
0.0
 10
-32.7860519493729
 20
6.285478529506872
 30
0.0
  0
SPLINE
  5
3BF2
330
1F
100
AcDbEntity
  8
AM_0
100
AcDbSpline
210
0.0
220
0.0
230
1.0
 70
     8
 71
     3
 72
     8
 73
     4
 74
     0
 42
0.0000000001
 43
0.0000000001
 40
6.150480381241876
 40
6.150480381241876
 40
6.150480381241876
 40
6.150480381241876
 40
7.75241736749254
 40
7.75241736749254
 40
7.75241736749254
 40
7.75241736749254
 10
-29.73618665175687
 20
5.948217959946487
 30
0.0
 10
-28.96949143047597
 20
5.659581407440782
 30
0.0
 10
-28.20731630794503
 20
5.343528298306046
 30
0.0
 10
-27.44878767854486
 20
5.005357467648354
 30
0.0
  0
SPLINE
  5
3BF3
330
1F
100
AcDbEntity
  8
AM_0
100
AcDbSpline
210
0.0
220
0.0
230
1.0
 70
     8
 71
     3
 72
     8
 73
     4
 74
     0
 42
0.0000000001
 43
0.0000000001
 40
8.034594408064972
 40
8.034594408064972
 40
8.034594408064972
 40
8.034594408064972
 40
9.661611892530016
 40
9.661611892530016
 40
9.661611892530016
 40
9.661611892530016
 10
-29.73618665175687
 20
4.992398154248076
 30
0.0
 10
-28.97022891544747
 20
4.632400264632451
 30
0.0
 10
-28.20808281922474
 20
4.249934454066897
 30
0.0
 10
-27.44878767854555
 20
3.85066353013899
 30
0.0
  0
LINE
  5
3BF4
330
1F
100
AcDbEntity
  8
AM_0
100
AcDbLine
 10
-23.06460631322182
 20
-7.869333354948684
 30
0.0
 11
-23.06460631322182
 21
-7.188142002216045
 31
0.0
  0
LINE
  5
3BF5
330
1F
100
AcDbEntity
  8
AM_0
100
AcDbLine
 10
-26.11447161083785
 20
-7.320412526670406
 30
0.0
 11
-26.11447161083785
 21
-6.322561367150774
 31
0.0
  0
LINE
  5
3BF6
330
1F
100
AcDbEntity
  8
AM_0
100
AcDbLine
 10
-28.40187058404987
 20
-6.651598484253554
 30
0.0
 11
-28.40187058404987
 21
-5.455000052019749
 31
0.0
  0
SPLINE
  5
3BF7
330
1F
100
AcDbEntity
  8
AM_0
100
AcDbSpline
210
0.0
220
0.0
230
1.0
 70
     8
 71
     3
 72
     8
 73
     4
 74
     0
 42
0.0000000001
 43
0.0000000001
 40
5.425905956994038
 40
5.425905956994038
 40
5.425905956994038
 40
5.425905956994038
 40
7.019702002723574
 40
7.019702002723574
 40
7.019702002723574
 40
7.019702002723574
 10
-26.11447161083785
 20
-6.322561367150409
 30
0.0
 10
-26.88151656008754
 20
-6.061145807444336
 30
0.0
 10
-27.64369609970179
 20
-5.770219215754695
 30
0.0
 10
-28.40187058404987
 20
-5.455000052019749
 30
0.0
  0
SPLINE
  5
3BF8
330
1F
100
AcDbEntity
  8
AM_0
100
AcDbSpline
210
0.0
220
0.0
230
1.0
 70
     8
 71
     3
 72
     8
 73
     4
 74
     0
 42
0.0000000001
 43
0.0000000001
 40
3.600603813281411
 40
3.600603813281411
 40
3.600603813281411
 40
3.600603813281411
 40
5.175009087017798
 40
5.175009087017798
 40
5.175009087017798
 40
5.175009087017798
 10
-26.11447161083854
 20
-7.320412526661311
 30
0.0
 10
-26.88266839389726
 20
-7.131253014463435
 30
0.0
 10
-27.64484456167282
 20
-6.906604656211129
 30
0.0
 10
-28.40187058404987
 20
-6.651598484253554
 30
0.0
  0
SPLINE
  5
3BF9
330
1F
100
AcDbEntity
  8
AM_0
100
AcDbSpline
210
0.0
220
0.0
230
1.0
 70
     8
 71
     3
 72
     9
 73
     5
 74
     0
 42
0.0000000001
 43
0.0000000001
 40
0.0
 40
0.0
 40
0.0
 40
0.0
 40
1.853196961853059
 40
3.381663674709893
 40
3.381663674709893
 40
3.381663674709893
 40
3.381663674709893
 10
-23.06460631322182
 20
-7.170195671849068
 30
0.0
 10
-23.50468178771059
 20
-6.700126046565245
 30
0.0
 10
-24.41203201030539
 20
-5.633379169895977
 30
0.0
 10
-25.62031935967464
 20
-6.159699437380447
 30
0.0
 10
-26.11447161084063
 20
-6.322561367149319
 30
0.0
  0
SPLINE
  5
3BFA
330
1F
100
AcDbEntity
  8
AM_0
100
AcDbSpline
210
0.0
220
0.0
230
1.0
 70
     8
 71
     3
 72
     9
 73
     5
 74
     0
 42
0.0000000001
 43
0.0000000001
 40
0.0
 40
0.0
 40
0.0
 40
0.0
 40
1.712940807075481
 40
3.245153285734257
 40
3.245153285734257
 40
3.245153285734257
 40
3.245153285734257
 10
-23.06460631322182
 20
-7.869333354948684
 30
0.0
 10
-23.57535733834603
 20
-7.579929447223102
 30
0.0
 10
-24.46954664920798
 20
-6.62010498492908
 30
0.0
 10
-25.61566692686205
 20
-7.169125789241182
 30
0.0
 10
-26.11447161084479
 20
-7.320412526659856
 30
0.0
  0
LINE
  5
3BFB
330
1F
100
AcDbEntity
  8
AM_0
100
AcDbLine
 10
-31.45173588166588
 20
-5.461097859006258
 30
0.0
 11
-31.45173588166588
 21
-4.058858358317956
 31
0.0
  0
LINE
  5
3BFC
330
1F
100
AcDbEntity
  8
AM_0
100
AcDbLine
 10
-33.73913485487791
 20
-4.380191244190063
 30
0.0
 11
-33.73913485487791
 21
-2.872469460355569
 31
0.0
  0
SPLINE
  5
3BFD
330
1F
100
AcDbEntity
  8
AM_0
100
AcDbSpline
210
0.0
220
0.0
230
1.0
 70
     8
 71
     3
 72
     8
 73
     4
 74
     0
 42
0.0000000001
 43
0.0000000001
 40
9.170645305362121
 40
9.170645305362121
 40
9.170645305362121
 40
9.170645305362121
 40
10.79891126818747
 40
10.79891126818747
 40
10.79891126818747
 40
10.79891126818747
 10
-31.45173588166588
 20
-4.058858358317956
 30
0.0
 10
-32.21686469871649
 20
-3.679544680954859
 30
0.0
 10
-32.97902522567086
 20
-3.282226907215226
 30
0.0
 10
-33.73913485498886
 20
-2.872469460295542
 30
0.0
  0
SPLINE
  5
3BFE
330
1F
100
AcDbEntity
  8
AM_0
100
AcDbSpline
210
0.0
220
0.0
230
1.0
 70
     8
 71
     3
 72
     8
 73
     4
 74
     0
 42
0.0000000001
 43
0.0000000001
 40
7.307451768075528
 40
7.307451768075528
 40
7.307451768075528
 40
7.307451768075528
 40
8.927702162744216
 40
8.927702162744216
 40
8.927702162744216
 40
8.927702162744216
 10
-31.45173588166588
 20
-5.461097859006258
 30
0.0
 10
-32.21809173897087
 20
-5.123722718469434
 30
0.0
 10
-32.98024181427569
 20
-4.761556365921569
 30
0.0
 10
-33.73913485487791
 20
-4.380191244190063
 30
0.0
  0
SPLINE
  5
3BFF
330
1F
100
AcDbEntity
  8
0
100
AcDbSpline
210
0.0
220
0.0
230
1.0
 70
     8
 71
     3
 72
     8
 73
     4
 74
     0
 42
0.0000000001
 43
0.0000000001
 40
0.0
 40
0.0
 40
0.0
 40
0.0
 40
9.637195575647414
 40
9.637195575647414
 40
9.637195575647414
 40
9.637195575647414
 10
-33.69366769855896
 20
-6.986232415139237
 30
0.0
 10
-32.06077060868663
 20
-6.986232415139237
 30
0.0
 10
-30.45426313707396
 20
-6.809596214439078
 30
0.0
 10
-28.76084582078586
 20
-6.363788772425046
 30
0.0
  0
SPLINE
  5
3C00
330
1F
100
AcDbEntity
  8
AM_0
100
AcDbSpline
210
0.0
220
0.0
230
1.0
 70
     8
 71
     3
 72
     9
 73
     5
 74
     0
 42
0.0000000001
 43
0.0000000001
 40
0.0
 40
0.0
 40
0.0
 40
0.0
 40
1.794998547112939
 40
3.300637214108833
 40
3.300637214108833
 40
3.300637214108833
 40
3.300637214108833
 10
-28.40187058404987
 20
-6.651598484257555
 30
0.0
 10
-28.89099602996929
 20
-6.27219216781227
 30
0.0
 10
-29.75241256110106
 20
-5.452035167779783
 30
0.0
 10
-30.94813278330696
 20
-5.375150360719795
 30
0.0
 10
-31.45173588167282
 20
-5.461097859003348
 30
0.0
  0
SPLINE
  5
3C01
330
1F
100
AcDbEntity
  8
AM_0
100
AcDbSpline
210
0.0
220
0.0
230
1.0
 70
     8
 71
     3
 72
     9
 73
     5
 74
     0
 42
0.0000000001
 43
0.0000000001
 40
0.0
 40
0.0
 40
0.0
 40
0.0
 40
2.127517369033063
 40
3.640030134837918
 40
3.640030134837918
 40
3.640030134837918
 40
3.640030134837918
 10
-28.40187058404987
 20
-5.461097859003348
 30
0.0
 10
-28.78779550793139
 20
-4.822149402326473
 30
0.0
 10
-29.61019614107603
 20
-3.447299637710746
 30
0.0
 10
-30.95264980207064
 20
-3.936400754540971
 30
0.0
 10
-31.45173588169917
 20
-4.058858358301585
 30
0.0
  0
SPLINE
  5
3C02
330
1F
100
AcDbEntity
  8
AM_0
100
AcDbSpline
210
0.0
220
0.0
230
1.0
 70
     8
 71
     3
 72
     8
 73
     4
 74
     0
 42
0.0000000001
 43
0.0000000001
 40
0.3581103616548037
 40
0.3581103616548037
 40
0.3581103616548037
 40
0.3581103616548037
 40
0.4557920900567158
 40
0.4557920900567158
 40
0.4557920900567158
 40
0.4557920900567158
 10
-38.27155278705215
 20
7.753352676564463
 30
0.0
 10
-38.22211211212969
 20
7.752066730535079
 30
0.0
 10
-38.1726999892026
 20
7.750607603024036
 30
0.0
 10
-38.12331622020094
 20
7.748976495421811
 30
0.0
  0
SPLINE
  5
3C03
330
1F
100
AcDbEntity
  8
AM_0
100
AcDbSpline
210
0.0
220
0.0
230
1.0
 70
     8
 71
     3
 72
     8
 73
     4
 74
     0
 42
0.0000000001
 43
0.0000000001
 40
14.25229543663493
 40
14.25229543663493
 40
14.25229543663493
 40
14.25229543663493
 40
14.43901837670146
 40
14.43901837670146
 40
14.43901837670146
 40
14.43901837670146
 10
-39.07639912570594
 20
0.1505269211491398
 30
0.0
 10
-38.98975723251667
 20
0.1003568750678826
 30
0.0
 10
-38.90311672280462
 20
0.0501784375341233
 30
0.0
 10
-38.81647621309326
 20
0.000000000000364
 30
0.0
  0
LINE
  5
3C04
330
1F
100
AcDbEntity
  8
AM_0
100
AcDbLine
 10
-40.0000000000021
 20
7.946860445461102
 30
0.0
 11
-40.00000000000215
 21
7.24978178329173
 31
0.0
  0
SPLINE
  5
3C05
330
1F
100
AcDbEntity
  8
AM_0
100
AcDbSpline
210
0.0
220
0.0
230
1.0
 70
     8
 71
     3
 72
     9
 73
     5
 74
     0
 42
0.0000000001
 43
0.0000000001
 40
0.0
 40
0.0
 40
0.0
 40
0.0
 40
2.15832142038773
 40
3.660803471549535
 40
3.660803471549535
 40
3.660803471549535
 40
3.660803471549535
 10
-39.07639912570594
 20
0.1505269211491398
 30
0.0
 10
-39.5205701840895
 20
0.7602136962198637
 30
0.0
 10
-40.23287945486882
 20
1.994773596049246
 30
0.0
 10
-41.63805713798676
 20
2.049600740165255
 30
0.0
 10
-42.12626442332196
 20
1.897954304661107
 30
0.0
  0
SPLINE
  5
3C06
330
1F
100
AcDbEntity
  8
AM_0
100
AcDbSpline
210
0.0
220
0.0
230
1.0
 70
     8
 71
     3
 72
     8
 73
     4
 74
     0
 42
0.0000000001
 43
0.0000000001
 40
0.9752450858540601
 40
0.9752450858540601
 40
0.9752450858540601
 40
0.9752450858540601
 40
2.229997198220355
 40
2.229997198220355
 40
2.229997198220355
 40
2.229997198220355
 10
-40.00000000000211
 20
7.9468604454611
 30
0.0
 10
-39.36983961428738
 20
7.901803834666236
 30
0.0
 10
-38.7444252323351
 20
7.828771645138113
 30
0.0
 10
-38.12331622020094
 20
7.730361217760219
 30
0.0
  0
LINE
  5
3C07
330
1F
100
AcDbEntity
  8
AM_0
100
AcDbLine
 10
-44.28115017251795
 20
6.271821717981235
 30
0.0
 11
-43.07444142807758
 21
7.002811240940355
 31
0.0
  0
LINE
  5
3C08
330
1F
100
AcDbEntity
  8
AM_0
100
AcDbLine
 10
-44.28115017251795
 20
6.271821717981235
 30
0.0
 11
-43.07444142807758
 21
7.002811240940355
 31
0.0
  0
ELLIPSE
  5
3C09
330
1F
100
AcDbEntity
  8
AM_0
100
AcDbEllipse
 10
-43.39551058451945
 20
4.690971023083708
 30
0.0
 11
-0.0000000000000251
 21
1.83373109086452
 31
0.0
210
0.0
220
0.0
230
1.0
 40
0.9530829055050132
 41
0.5157909989585168
 42
2.610186101355248
  0
ELLIPSE
  5
3C0A
330
1F
100
AcDbEntity
  8
AM_0
100
AcDbEllipse
 10
-43.39551058451945
 20
4.690971023083708
 30
0.0
 11
-0.0000000000000251
 21
1.83373109086452
 31
0.0
210
0.0
220
0.0
230
1.0
 40
0.9530829055050132
 41
0.5157909989585168
 42
2.610186101355248
  0
SPLINE
  5
3C0B
330
1F
100
AcDbEntity
  8
AM_0
100
AcDbSpline
210
0.0
220
0.0
230
1.0
 70
     8
 71
     3
 72
     8
 73
     4
 74
     0
 42
0.0000000001
 43
0.0000000001
 40
10.42795179099413
 40
10.42795179099413
 40
10.42795179099413
 40
10.42795179099413
 40
12.06337302160172
 40
12.06337302160172
 40
12.06337302160172
 40
12.06337302160172
 10
-44.41366339653398
 20
3.150525456033953
 30
0.0
 10
-43.64922711082702
 20
2.744950494842139
 30
0.0
 10
-42.88707063308772
 20
2.325547410040963
 30
0.0
 10
-42.12626442343639
 20
1.897954304725135
 30
0.0
  0
ELLIPSE
  5
3C0C
330
1F
100
AcDbEntity
  8
AM_0
100
AcDbEllipse
 10
-40.21090561703925
 20
2.730348069592598
 30
0.0
 11
0.0000000000020615
 21
5.223116941741689
 31
0.0
210
0.0
220
0.0
230
1.0
 40
0.9530829055050297
 41
0.4997277254714342
 42
0.612886367628748
  0
LINE
  5
3C0D
330
1F
100
AcDbEntity
  8
AM_0
100
AcDbLine
 10
-36.78900015249393
 20
-2.74905348832326
 30
0.0
 11
-36.78900015249393
 21
-1.169867730203986
 31
0.0
  0
LINE
  5
3C0E
330
1F
100
AcDbEntity
  8
AM_0
100
AcDbLine
 10
-39.99959552537509
 20
-6.129352350991029
 30
0.0
 11
-39.99959552537509
 21
-7.249759883333442
 31
0.0
  0
SPLINE
  5
3C0F
330
1F
100
AcDbEntity
  8
AM_0
100
AcDbSpline
210
0.0
220
0.0
230
1.0
 70
     8
 71
     3
 72
     8
 73
     4
 74
     0
 42
0.0000000001
 43
0.0000000001
 40
11.10916553453163
 40
11.10916553453163
 40
11.10916553453163
 40
11.10916553453163
 40
13.42219740580175
 40
13.42219740580175
 40
13.42219740580175
 40
13.42219740580175
 10
-36.78900015249393
 20
-2.749053488241042
 30
0.0
 10
-37.86231303598754
 20
-2.145295535182594
 30
0.0
 10
-38.93159140906057
 20
-1.517755939806374
 30
0.0
 10
-39.99959552537509
 20
-0.8827051682757879
 30
0.0
  0
LINE
  5
3C10
330
1F
100
AcDbEntity
  8
AM_0
100
AcDbLine
 10
-44.28115017251101
 20
-1.682273095461262
 30
0.0
 11
-43.07444142807758
 21
-0.951283572505781
 31
0.0
  0
ELLIPSE
  5
3C11
330
1F
100
AcDbEntity
  8
AM_0
100
AcDbEllipse
 10
-42.71463904310931
 20
-3.776808773951036
 30
0.0
 11
-0.000000000000033
 21
2.662439421446098
 31
0.0
210
0.0
220
0.0
230
1.0
 40
0.9530829055050078
 41
0.665354535367551
 42
2.999320557457968
  0
SPLINE
  5
3C12
330
1F
100
AcDbEntity
  8
0
100
AcDbSpline
210
0.0
220
0.0
230
1.0
 70
     8
 71
     3
 72
     8
 73
     4
 74
     0
 42
0.0000000001
 43
0.0000000001
 40
1.140063819971138
 40
1.140063819971138
 40
1.140063819971138
 40
1.140063819971138
 40
2.790246636948332
 40
2.790246636948332
 40
2.790246636948332
 40
2.790246636948332
 10
-39.99959552537509
 20
-6.885411587428825
 30
0.0
 10
-41.03381755881335
 20
-6.789794248182442
 30
0.0
 10
-42.05824307456325
 20
-6.628604923481179
 30
0.0
 10
-43.07444142807758
 20
-6.412347932947159
 30
0.0
  0
ELLIPSE
  5
3C13
330
1F
100
AcDbEntity
  8
AM_0
100
AcDbEllipse
 10
-41.48380134150637
 20
-4.24253076151834
 30
0.0
 11
0.0000000000000084
 21
3.690213468738749
 31
0.0
210
0.0
220
0.0
230
1.0
 40
0.9530829055050096
 41
-0.5562700788786526
 42
0.5778980406257937
  0
SPLINE
  5
3C14
330
1F
100
AcDbEntity
  8
AM_0
100
AcDbSpline
210
0.0
220
0.0
230
1.0
 70
     8
 71
     3
 72
     8
 73
     4
 74
     0
 42
0.0000000001
 43
0.0000000001
 40
12.98298737538389
 40
12.98298737538389
 40
12.98298737538389
 40
12.98298737538389
 40
14.43901837670148
 40
14.43901837670148
 40
14.43901837670148
 40
14.43901837670148
 10
-36.78900015244885
 20
-1.169867730229816
 30
0.0
 10
-37.46526282640007
 20
-0.7825643771557223
 30
0.0
 10
-38.14086951974632
 20
-0.3912821885776791
 30
0.0
 10
-38.81647621309326
 20
0.000000000000364
 30
0.0
  0
LINE
  5
3C15
330
1F
100
AcDbEntity
  8
AM_0
100
AcDbLine
 10
-39.99959552537509
 20
-0.8827051682761519
 30
0.0
 11
-39.99959552537509
 21
2.297969462568289
 31
0.0
  0
LINE
  5
3C16
330
1F
100
AcDbEntity
  8
AM_0
100
AcDbLine
 10
-39.07639912570594
 20
-1.429165396015741
 30
0.0
 11
-39.07639912570594
 21
0.1505269211491398
 31
0.0
  0
SPLINE
  5
3C17
330
1F
100
AcDbEntity
  8
0
100
AcDbSpline
210
0.0
220
0.0
230
1.0
 70
     8
 71
     3
 72
     8
 73
     4
 74
     0
 42
0.0000000001
 43
0.0000000001
 40
0.0
 40
0.0
 40
0.0
 40
0.0
 40
3.445482686890237
 40
3.445482686890237
 40
3.445482686890237
 40
3.445482686890237
 10
-33.55995293086158
 20
-6.986232415139237
 30
0.0
 10
-35.74917336425446
 20
-6.986232415139237
 30
0.0
 10
-37.8909592827015
 20
-6.668734358911024
 30
0.0
 10
-39.99959552537509
 20
-6.129352350991029
 30
0.0
  0
SPLINE
  5
3C18
330
1F
100
AcDbEntity
  8
AM_0
100
AcDbSpline
210
0.0
220
0.0
230
1.0
 70
     8
 71
     3
 72
     9
 73
     5
 74
     0
 42
0.0000000001
 43
0.0000000001
 40
0.0
 40
0.0
 40
0.0
 40
0.0
 40
2.234089429072837
 40
3.734089429072837
 40
3.734089429072837
 40
3.734089429072837
 40
3.734089429072837
 10
-33.73913485487791
 20
-2.872469460355569
 30
0.0
 10
-34.27607372591543
 20
-2.312474600411112
 30
0.0
 10
-34.83007925566836
 20
-0.7857109116350675
 30
0.0
 10
-36.29222452913451
 20
-0.9934740513328547
 30
0.0
 10
-36.78900015249393
 20
-1.106449669682114
 30
0.0
  0
SPLINE
  5
3C19
330
1F
100
AcDbEntity
  8
AM_0
100
AcDbSpline
210
0.0
220
0.0
230
1.0
 70
     8
 71
     3
 72
     9
 73
     5
 74
     0
 42
0.0000000001
 43
0.0000000001
 40
0.0
 40
0.0
 40
0.0
 40
0.0
 40
1.809327783561213
 40
3.396063755099695
 40
3.396063755099695
 40
3.396063755099695
 40
3.396063755099695
 10
-33.73913485487791
 20
-4.380191244190063
 30
0.0
 10
-34.13575456629808
 20
-3.889599390203894
 30
0.0
 10
-35.1949907380014
 20
-3.332006362413053
 30
0.0
 10
-36.25299428646469
 20
-2.793848253169723
 30
0.0
 10
-36.78900015249393
 20
-2.74905348832326
 30
0.0
  0
SPLINE
  5
3C1A
330
1F
100
AcDbEntity
  8
AM_0
100
AcDbSpline
210
0.0
220
0.0
230
1.0
 70
     8
 71
     3
 72
     9
 73
     5
 74
     0
 42
0.0000000001
 43
0.0000000001
 40
0.0
 40
0.0
 40
0.0
 40
0.0
 40
1.501483287633145
 40
3.044501708991191
 40
3.044501708991191
 40
3.044501708991191
 40
3.044501708991191
 10
-35.07345092258491
 20
7.434218787452846
 30
0.0
 10
-35.58126461253702
 20
7.400767291435434
 30
0.0
 10
-36.61487916663841
 20
7.256074009241411
 30
0.0
 10
-37.63864962366012
 20
7.543074250785614
 30
0.0
 10
-38.12331622020094
 20
7.748976495421811
 30
0.0
  0
SPLINE
  5
3C1B
330
1F
100
AcDbEntity
  8
AM_0
100
AcDbSpline
210
0.0
220
0.0
230
1.0
 70
     8
 71
     3
 72
     9
 73
     5
 74
     0
 42
0.0000000001
 43
0.0000000001
 40
0.0
 40
0.0
 40
0.0
 40
0.0
 40
1.516617987072454
 40
3.248795674012696
 40
3.248795674012696
 40
3.248795674012696
 40
3.248795674012696
 10
-35.07345092258491
 20
7.045154207984523
 30
0.0
 10
-35.5779134548737
 20
6.942061474352605
 30
0.0
 10
-36.72861105195236
 20
6.471885973725797
 30
0.0
 10
-37.63207735364917
 20
7.393232010375665
 30
0.0
 10
-38.12331622020094
 20
7.730361217760219
 30
0.0
  0
SPLINE
  5
3C1C
330
1F
100
AcDbEntity
  8
AM_0
100
AcDbSpline
210
0.0
220
0.0
230
1.0
 70
     8
 71
     3
 72
     8
 73
     4
 74
     0
 42
0.0000000001
 43
0.0000000001
 40
11.33959573889505
 40
11.33959573889505
 40
11.33959573889505
 40
11.33959573889505
 40
14.36247867694493
 40
14.36247867694493
 40
14.36247867694493
 40
14.36247867694493
 10
-39.99959552537509
 20
2.297969462568289
 30
0.0
 10
-38.57997115461857
 20
1.554939870410817
 30
0.0
 10
-37.1657670943825
 20
0.7774699352055908
 30
0.0
 10
-35.75156303414642
 20
0.000000000000364
 30
0.0
  0
SPLINE
  5
3C1D
330
1F
100
AcDbEntity
  8
0
100
AcDbSpline
210
0.0
220
0.0
230
1.0
 70
     8
 71
     3
 72
     8
 73
     4
 74
     0
 42
0.0000000001
 43
0.0000000001
 40
4.041712701031851
 40
4.041712701031851
 40
4.041712701031851
 40
4.041712701031851
 40
9.964098609850829
 40
9.964098609850829
 40
9.964098609850829
 40
9.964098609850829
 10
-39.99959552537509
 20
-7.249759883333442
 30
0.0
 10
-37.57913633861911
 20
-7.160408362305383
 30
0.0
 10
-34.75407443352798
 20
-7.129086918181201
 30
0.0
 10
-33.78481572166927
 20
-6.99515111957371
 30
0.0
  0
SPLINE
  5
3C1E
330
1F
100
AcDbEntity
  8
AM_0
100
AcDbSpline
210
0.0
220
0.0
230
1.0
 70
     8
 71
     3
 72
     8
 73
     4
 74
     0
 42
0.0000000001
 43
0.0000000001
 40
0.7142832446738512
 40
0.7142832446738512
 40
0.7142832446738512
 40
0.7142832446738512
 40
14.36247867694493
 40
14.36247867694493
 40
14.36247867694493
 40
14.36247867694493
 10
-34.66657140111524
 20
7.360956463719048
 30
0.0
 10
-27.78262842782944
 20
7.020491256760942
 30
0.0
 10
-21.39755371909353
 20
3.510245628380653
 30
0.0
 10
-15.01247901035692
 20
0.000000000000364
 30
0.0
  0
SPLINE
  5
3C1F
330
1F
100
AcDbEntity
  8
AM_0
100
AcDbSpline
210
0.0
220
0.0
230
1.0
 70
     8
 71
     3
 72
     8
 73
     4
 74
     0
 42
0.0000000001
 43
0.0000000001
 40
0.0
 40
0.0
 40
0.0
 40
0.0
 40
21.54371801541793
 40
21.54371801541793
 40
21.54371801541793
 40
21.54371801541793
 10
-15.01247901035692
 20
-7.387911206084027
 30
0.0
 10
-22.3130832277845
 20
-7.387911206084026
 30
0.0
 10
-29.03232313096547
 20
-3.69395560304183
 30
0.0
 10
-35.75156303414642
 20
0.000000000000364
 30
0.0
  0
SPLINE
  5
3C20
330
1F
100
AcDbEntity
  8
0
100
AcDbSpline
210
0.0
220
0.0
230
1.0
 70
     8
 71
     3
 72
     8
 73
     4
 74
     0
 42
0.0000000001
 43
0.0000000001
 40
0.0
 40
0.0
 40
0.0
 40
0.0
 40
1.208398095880623
 40
1.208398095880623
 40
1.208398095880623
 40
1.208398095880623
 10
-20.78244118306114
 20
-7.99377913342032
 30
0.0
 10
-21.55024356188027
 20
-7.993779133420321
 30
0.0
 10
-22.31064510249616
 20
-7.950209212921854
 30
0.0
 10
-23.06441820853377
 20
-7.867616635843958
 30
0.0
  0
SPLINE
  5
3C21
330
1F
100
AcDbEntity
  8
AM_0
100
AcDbSpline
210
0.0
220
0.0
230
1.0
 70
     8
 71
     3
 72
     9
 73
     5
 74
     0
 42
0.0000000001
 43
0.0000000001
 40
0.0
 40
0.0
 40
0.0
 40
0.0
 40
1.603217326944703
 40
3.259613869965475
 40
3.259613869965475
 40
3.259613869965475
 40
3.259613869965475
 10
-23.25522289432283
 20
7.847268272313522
 30
0.0
 10
-22.75933819277017
 20
7.614394773576116
 30
0.0
 10
-21.69585629385538
 20
6.821185621187722
 30
0.0
 10
-20.70299466197353
 20
7.720577095264852
 30
0.0
 10
-20.20535759670681
 20
7.993024331737252
 30
0.0
  0
SPLINE
  5
3C22
330
1F
100
AcDbEntity
  8
AM_0
100
AcDbSpline
210
0.0
220
0.0
230
1.0
 70
     8
 71
     3
 72
     8
 73
     4
 74
     0
 42
0.0000000001
 43
0.0000000001
 40
1.788970302442027
 40
1.788970302442027
 40
1.788970302442027
 40
1.788970302442027
 40
3.332324051699147
 40
3.332324051699147
 40
3.332324051699147
 40
3.332324051699147
 10
-20.77720734000981
 20
-7.58914009792279
 30
0.0
 10
-21.54581653314564
 20
-7.492733497236621
 30
0.0
 10
-22.30802244954678
 20
-7.357487966492044
 30
0.0
 10
-23.06460631321281
 20
-7.188142002172389
 30
0.0
  0
SPLINE
  5
3C23
330
1F
100
AcDbEntity
  8
AM_0
100
AcDbSpline
210
0.0
220
0.0
230
1.0
 70
     8
 71
     3
 72
     8
 73
     4
 74
     0
 42
0.0000000001
 43
0.0000000001
 40
0.0
 40
0.0
 40
0.0
 40
0.0
 40
1.539536607901005
 40
1.539536607901005
 40
1.539536607901005
 40
1.539536607901005
 10
-20.73908402378947
 20
-7.999999999999635
 30
0.0
 10
-21.5216472362644
 20
-7.999999999999635
 30
0.0
 10
-22.29655003076981
 20
-7.954845247340562
 30
0.0
 10
-23.06460631322182
 20
-7.869333354948684
 30
0.0
  0
SPLINE
  5
3C24
330
1F
100
AcDbEntity
  8
AM_0
100
AcDbSpline
210
0.0
220
0.0
230
1.0
 70
     8
 71
     3
 72
     8
 73
     4
 74
     0
 42
0.0000000001
 43
0.0000000001
 40
9.911909440357588
 40
9.911909440357588
 40
9.911909440357588
 40
9.911909440357588
 40
11.54467281373877
 40
11.54467281373877
 40
11.54467281373877
 40
11.54467281373877
 10
-24.39892238092884
 20
3.530144398573611
 30
0.0
 10
-23.63419963584682
 20
3.134501517830722
 30
0.0
 10
-22.87204164985204
 20
2.723302148916264
 30
0.0
 10
-22.11152340771682
 20
2.302156950744029
 30
0.0
  0
SPLINE
  5
3C25
330
1F
100
AcDbEntity
  8
AM_0
100
AcDbSpline
210
0.0
220
0.0
230
1.0
 70
     8
 71
     3
 72
     8
 73
     4
 74
     0
 42
0.0000000001
 43
0.0000000001
 40
11.84940637128532
 40
11.84940637128532
 40
11.84940637128532
 40
11.84940637128532
 40
14.48999654934396
 40
14.48999654934396
 40
14.48999654934396
 40
14.48999654934396
 10
-24.39892238092884
 20
2.162616726871783
 30
0.0
 10
-23.17623837251404
 20
1.457883123197098
 30
0.0
 10
-21.95766119815175
 20
0.728941561598913
 30
0.0
 10
-20.73908402378947
 20
0.000000000000364
 30
0.0
  0
DIMENSION
  5
3C26
330
1F
100
AcDbEntity
  8
AM_5
100
AcDbDimension
  2
*D8
 10
-39.99959552537509
 20
-23.4666677439987
 30
0.0
 11
-19.99979776268734
 21
-20.3666677439987
 31
0.0
 70
    32
  1
<>
  3
AM_JIS
100
AcDbAlignedDimension
 13
0.0000000000004047
 23
-8.000000000002845
 33
0.0
 14
-39.99959552537509
 24
-7.934201326714901
 34
0.0
 50
0.0000000000001188
100
AcDbRotatedDimension
1001
GENIUS_GENDTOL_13
1000

1000
h7
1000

1040
0.0
  0
DIMENSION
  5
3C33
330
1F
100
AcDbEntity
  8
AM_5
100
AcDbDimension
  2
*D9
 10
17.41045000536965
 20
-7.999999999998847
 30
0.0
 11
14.31045000536965
 21
0.0000000000012588
 31
0.0
 70
    32
  1
%%c<>
  3
AM_JIS
100
AcDbAlignedDimension
 13
-0.0000000000017074
 23
8.000000000001364
 33
0.0
 14
0.0000000000004043
 24
-7.999999999998842
 34
0.0
 50
90.00000000000003
100
AcDbRotatedDimension
1001
GENIUS_GENDTOL_13
1000

1000
h7
1000

1040
0.0
  0
SPLINE
  5
3C5B
330
1F
100
AcDbEntity
  8
0
100
AcDbSpline
210
0.0
220
0.0
230
1.0
 70
     8
 71
     3
 72
     8
 73
     4
 74
     0
 42
0.0000000001
 43
0.0000000001
 40
2.857363517439195
 40
2.857363517439195
 40
2.857363517439195
 40
2.857363517439195
 40
4.11726153057047
 40
4.11726153057047
 40
4.11726153057047
 40
4.11726153057047
 10
-26.11512144115583
 20
-7.32306445326099
 30
0.0
 10
-26.88365755804581
 20
-7.134741718012585
 30
0.0
 10
-27.64613398286513
 20
-6.910744604469034
 30
0.0
 10
-28.40342614350598
 20
-6.656226896920298
 30
0.0
  0
SPLINE
  5
3C5C
330
1F
100
AcDbEntity
  8
0
100
AcDbSpline
210
0.0
220
0.0
230
1.0
 70
     8
 71
     3
 72
     8
 73
     4
 74
     0
 42
0.0000000001
 43
0.0000000001
 40
5.823759290313942
 40
5.823759290313942
 40
5.823759290313942
 40
5.823759290313942
 40
7.120260682552068
 40
7.120260682552068
 40
7.120260682552068
 40
7.120260682552068
 10
-31.45426360581952
 20
-5.466842593307228
 30
0.0
 10
-32.2207579266408
 20
-5.129579613532555
 30
0.0
 10
-32.98301801642244
 20
-4.767389037085279
 30
0.0
 10
-33.74199784176296
 20
-4.385887018205503
 30
0.0
  0
SPLINE
  5
3C5D
330
1F
100
AcDbEntity
  8
0
100
AcDbSpline
210
0.0
220
0.0
230
1.0
 70
     8
 71
     3
 72
     8
 73
     4
 74
     0
 42
0.0000000001
 43
0.0000000001
 40
8.865611173425079
 40
8.865611173425079
 40
8.865611173425079
 40
8.865611173425079
 40
10.49949233464396
 40
10.49949233464396
 40
10.49949233464396
 40
10.49949233464396
 10
-36.79170764509839
 20
-2.753862402321405
 30
0.0
 10
-37.73924033712989
 20
-2.220386911354837
 30
0.0
 10
-38.68360300208533
 20
-1.668248962989607
 30
0.0
 10
-39.62670494625145
 20
-1.108688949304996
 30
0.0
  0
LINE
  5
3C66
330
1F
100
AcDbEntity
  8
AM_0
100
AcDbLine
 10
-49.1506941998203
 20
7.478746841332759
 30
0.0
 11
-39.99912475815847
 21
7.249759883335819
 31
0.0
  0
ARC
  5
3C67
330
1F
100
AcDbEntity
  8
AM_0
100
AcDbCircle
 10
-49.12568042366562
 20
8.478433947882844
 30
0.0
 40
1.0
100
AcDbArc
 50
209.035450281413
 51
270.0
  0
ARC
  5
3C68
330
1F
100
AcDbEntity
  8
AM_0
100
AcDbCircle
 10
-49.12568042366562
 20
-8.478433947880471
 30
0.0
 40
1.0
100
AcDbArc
 50
90.0
 51
150.9645497185869
  0
LINE
  5
3C69
330
1F
100
AcDbEntity
  8
AM_0
100
AcDbLine
 10
-49.1506941998203
 20
-7.478746841330382
 30
0.0
 11
-39.99912475815847
 21
-7.249759883333442
 31
0.0
  0
LINE
  5
3CA6
330
1F
100
AcDbEntity
  8
AM_11
100
AcDbLine
 10
0.0000000000004052
 20
8.000000000001364
 30
0.0
 11
-39.99959552537509
 21
8.000000000001364
 31
0.0
  0
LINE
  5
3CAB
330
1F
100
AcDbEntity
  8
AM_11
100
AcDbLine
 10
0.0000000000004045
 20
-7.999999999998842
 30
0.0
 11
-39.99959552537509
 21
-7.999999999998842
 31
0.0
  0
LINE
  5
3CBA
330
1F
100
AcDbEntity
  8
AM_11
100
AcDbLine
 10
-39.99959552537509
 20
-7.999999999998842
 30
0.0
 11
-39.99959552537509
 21
8.000000000001364
 31
0.0
  0
LINE
  5
3CBF
330
1F
100
AcDbEntity
  8
AM_11
100
AcDbLine
 10
0.0000000000004053
 20
8.000000000001364
 30
0.0
 11
0.0000000000004043
 21
-7.999999999998841
 31
0.0
  0
VIEWPORT
  5
110
330
101
100
AcDbEntity
 67
     1
  8
0
100
AcDbViewport
 10
420.5
 20
297.0
 30
0.0
 40
948.9782706766916
 41
628.452
 68
     1
 69
     1
1001
ACAD
1000
MVIEW
1002
{
1070
    16
1010
0.0
1020
0.0
1030
0.0
1010
0.0
1020
0.0
1030
1.0
1040
0.0
1040
628.452
1040
420.5
1040
297.0
1040
50.0
1040
0.0
1040
0.0
1070
     0
1070
   100
1070
     1
1070
     1
1070
     0
1070
     0
1070
     0
1070
     0
1040
0.0
1040
0.0
1040
0.0
1040
10.0
1040
10.0
1040
10.0
1040
10.0
1070
     0
1002
{
1002
}
1002
}
  0
ENDSEC
  0
SECTION
  2
OBJECTS
  0
DICTIONARY
  5
C
330
0
100
AcDbDictionary
  3
ACAD_GROUP
350
D
  3
ACAD_LAYOUT
350
1A
  3
ACAD_MLINESTYLE
350
17
  3
ACAD_PLOTSETTINGS
350
19
  3
ACAD_PLOTSTYLENAME
350
E
  3
ACDBVARIABLEDICTIONARY
350
34
  3
ACMDICTIONARY
350
43
  3
AMG
350
2B
  3
AMGSNAPSETTINGS
350
6E
  3
DWGPROPS
350
3CEB
  3
ACDBHEADERROUNDTRIPXREC
350
3CF8
  0
DICTIONARY
  5
74
330
1F
100
AcDbDictionary
280
     1
  3
ACAD_INDEX
360
3CED
  3
ACAD_LAYOUTSELFREF
360
3D1B
  0
DICTIONARY
  5
3D20
330
101
100
AcDbDictionary
280
     1
  3
ACAD_LAYOUTSELFREF
360
3D21
  0
DICTIONARY
  5
D
102
{ACAD_REACTORS
330
C
102
}
330
C
100
AcDbDictionary
  0
DICTIONARY
  5
1A
102
{ACAD_REACTORS
330
C
102
}
330
C
100
AcDbDictionary
  0
DICTIONARY
  5
17
102
{ACAD_REACTORS
330
C
102
}
330
C
100
AcDbDictionary
  3
STANDARD
350
18
  0
DICTIONARY
  5
19
102
{ACAD_REACTORS
330
C
102
}
330
C
100
AcDbDictionary
  0
ACDBDICTIONARYWDFLT
  5
E
102
{ACAD_REACTORS
330
C
102
}
330
C
100
AcDbDictionary
281
     1
  3
Normal
350
F
100
AcDbDictionaryWithDefault
340
F
  0
DICTIONARY
  5
34
102
{ACAD_REACTORS
330
C
102
}
330
C
100
AcDbDictionary
  3
INDEXCTL
350
35
  3
SORTENTS
350
B5E
  0
DICTIONARY
  5
43
102
{ACAD_REACTORS
330
C
102
}
330
C
100
AcDbDictionary
  3
ACMSTDDICTIONARY
350
260
  0
DICTIONARY
  5
2B
102
{ACAD_REACTORS
330
C
102
}
330
C
100
AcDbDictionary
  3
ACMGSETTINGS
350
2C
  0
DICTIONARY
  5
6E
102
{ACAD_REACTORS
330
C
102
}
330
C
100
AcDbDictionary
  0
XRECORD
  5
3CEB
102
{ACAD_REACTORS
330
C
102
}
330
C
100
AcDbXrecord
  1
DWGPROPS COOKIE
  2

  3

  4

  6

  7

  8

  9

300
AmdtFileType=82
301
=
302
=
303
=
304
=
305
=
306
=
307
=
308
=
309
=
 40
0.5445756712962963
 41
2452838.620506898
 42
2452901.467455961
  1

 90
        1
  0
DICTIONARY
  5
3CF8
102
{ACAD_REACTORS
330
C
102
}
330
C
100
AcDbDictionary
  3
TSTACKALIGN
350
3CF9
  3
TSTACKSIZE
350
3CFA
  3
HYPERLINKBASE
350
3CFB
  3
STYLESHEET
350
3CFC
  3
LAYOUTDICT
350
3CFD
  3
PLOTSETDICT
350
3CFE
  3
PLOTSTYLNAMDICT
350
3CFF
  3
LWETCUNION
350
3D00
  3
INSUNITS
350
3D01
  3
CEPSNTYPE
350
3D02
  3
FINGERPRINTGUID
350
3D03
  3
VERSIONGUID
350
3D04
  3
PSVPSCALE
350
3D05
  3
DIMSTYLEDATA
350
3D06
  3
PUCSORTHOREF
350
3D07
  3
PUCSORTHOVIEW
350
3D08
  3
PUCSBASE
350
3D09
  3
PUCSORGTOP
350
3D0A
  3
PUCSORGBOTTOM
350
3D0B
  3
PUCSORGLEFT
350
3D0C
  3
PUCSORGRIGHT
350
3D0D
  3
PUCSORGFRONT
350
3D0E
  3
PUCSORGBACK
350
3D0F
  3
UCSORTHOREF
350
3D10
  3
UCSORTHOVIEW
350
3D11
  3
UCSBASE
350
3D12
  3
UCSORGTOP
350
3D13
  3
UCSORGBOTTOM
350
3D14
  3
UCSORGLEFT
350
3D15
  3
UCSORGRIGHT
350
3D16
  3
UCSORGFRONT
350
3D17
  3
UCSORGBACK
350
3D18
  0
DICTIONARY
  5
3CED
102
{ACAD_REACTORS
330
74
102
}
330
74
100
AcDbDictionary
  3
*A1
350
3CEE
  0
XRECORD
  5
3D1B
102
{ACAD_REACTORS
330
74
102
}
330
74
100
AcDbXrecord
340
1F
  0
XRECORD
  5
3D21
102
{ACAD_REACTORS
330
3D20
102
}
330
3D20
100
AcDbXrecord
340
101
  0
MLINESTYLE
  5
18
102
{ACAD_REACTORS
330
17
102
}
330
17
100
AcDbMlineStyle
  2
STANDARD
 70
     0
  3

 62
   256
 51
90.0
 52
90.0
 71
     2
 49
0.5
 62
   256
  6
BYLAYER
 49
-0.5
 62
   256
  6
BYLAYER
  0
ACDBPLACEHOLDER
  5
F
102
{ACAD_REACTORS
330
E
102
}
330
E
100
AcDbPlaceHolder
280
     0
  0
DICTIONARYVAR
  5
35
102
{ACAD_REACTORS
330
34
102
}
330
34
100
DictionaryVariables
280
     0
  1
1
  0
DICTIONARYVAR
  5
B5E
102
{ACAD_REACTORS
330
34
102
}
330
34
100
DictionaryVariables
280
     0
  1
96
  0
DICTIONARY
  5
260
102
{ACAD_REACTORS
330
43
102
}
330
43
100
AcDbDictionary
  0
DICTIONARY
  5
2C
102
{ACAD_REACTORS
330
2B
102
}
330
2B
100
AcDbDictionary
  3
DWGSETTINGS
350
2D
  0
XRECORD
  5
3CF9
102
{ACAD_REACTORS
330
3CF8
102
}
330
3CF8
100
AcDbXrecord
 90
        1
  0
XRECORD
  5
3CFA
102
{ACAD_REACTORS
330
3CF8
102
}
330
3CF8
100
AcDbXrecord
 90
       70
  0
XRECORD
  5
3CFB
102
{ACAD_REACTORS
330
3CF8
102
}
330
3CF8
100
AcDbXrecord
  1

  0
XRECORD
  5
3CFC
102
{ACAD_REACTORS
330
3CF8
102
}
330
3CF8
100
AcDbXrecord
  1
ASAMI.ctb
  0
XRECORD
  5
3CFD
102
{ACAD_REACTORS
330
3CF8
102
}
330
3CF8
100
AcDbXrecord
340
1A
  0
XRECORD
  5
3CFE
102
{ACAD_REACTORS
330
3CF8
102
}
330
3CF8
100
AcDbXrecord
340
19
  0
XRECORD
  5
3CFF
102
{ACAD_REACTORS
330
3CF8
102
}
330
3CF8
100
AcDbXrecord
340
E
  0
XRECORD
  5
3D00
102
{ACAD_REACTORS
330
3CF8
102
}
330
3CF8
100
AcDbXrecord
 90
    10781
  0
XRECORD
  5
3D01
102
{ACAD_REACTORS
330
3CF8
102
}
330
3CF8
100
AcDbXrecord
 90
        4
  0
XRECORD
  5
3D02
102
{ACAD_REACTORS
330
3CF8
102
}
330
3CF8
100
AcDbXrecord
 90
        0
  0
XRECORD
  5
3D03
102
{ACAD_REACTORS
330
3CF8
102
}
330
3CF8
100
AcDbXrecord
  1
{AFB28963-8C59-40AE-9337-C84526B81ACE}
  0
XRECORD
  5
3D04
102
{ACAD_REACTORS
330
3CF8
102
}
330
3CF8
100
AcDbXrecord
  1
{B09F3114-4389-4C0F-BBE5-FCAC62F53383}
  0
XRECORD
  5
3D05
102
{ACAD_REACTORS
330
3CF8
102
}
330
3CF8
100
AcDbXrecord
 40
0.0
  0
XRECORD
  5
3D06
102
{ACAD_REACTORS
330
3CF8
102
}
330
3CF8
100
AcDbXrecord
1000
DSTYLE
1002
{
1070
    79
 70
     2
1070
   341
340
59
1070
   342
340
59
1070
   371
 70
    -1
1070
   372
 70
    -1
1002
}
  0
XRECORD
  5
3D07
102
{ACAD_REACTORS
330
3CF8
102
}
330
3CF8
100
AcDbXrecord
340
0
  0
XRECORD
  5
3D08
102
{ACAD_REACTORS
330
3CF8
102
}
330
3CF8
100
AcDbXrecord
 70
     0
  0
XRECORD
  5
3D09
102
{ACAD_REACTORS
330
3CF8
102
}
330
3CF8
100
AcDbXrecord
340
0
  0
XRECORD
  5
3D0A
102
{ACAD_REACTORS
330
3CF8
102
}
330
3CF8
100
AcDbXrecord
 10
0.0
 20
0.0
 30
0.0
  0
XRECORD
  5
3D0B
102
{ACAD_REACTORS
330
3CF8
102
}
330
3CF8
100
AcDbXrecord
 10
0.0
 20
0.0
 30
0.0
  0
XRECORD
  5
3D0C
102
{ACAD_REACTORS
330
3CF8
102
}
330
3CF8
100
AcDbXrecord
 10
0.0
 20
0.0
 30
0.0
  0
XRECORD
  5
3D0D
102
{ACAD_REACTORS
330
3CF8
102
}
330
3CF8
100
AcDbXrecord
 10
0.0
 20
0.0
 30
0.0
  0
XRECORD
  5
3D0E
102
{ACAD_REACTORS
330
3CF8
102
}
330
3CF8
100
AcDbXrecord
 10
0.0
 20
0.0
 30
0.0
  0
XRECORD
  5
3D0F
102
{ACAD_REACTORS
330
3CF8
102
}
330
3CF8
100
AcDbXrecord
 10
0.0
 20
0.0
 30
0.0
  0
XRECORD
  5
3D10
102
{ACAD_REACTORS
330
3CF8
102
}
330
3CF8
100
AcDbXrecord
340
0
  0
XRECORD
  5
3D11
102
{ACAD_REACTORS
330
3CF8
102
}
330
3CF8
100
AcDbXrecord
 70
     0
  0
XRECORD
  5
3D12
102
{ACAD_REACTORS
330
3CF8
102
}
330
3CF8
100
AcDbXrecord
340
0
  0
XRECORD
  5
3D13
102
{ACAD_REACTORS
330
3CF8
102
}
330
3CF8
100
AcDbXrecord
 10
0.0
 20
0.0
 30
0.0
  0
XRECORD
  5
3D14
102
{ACAD_REACTORS
330
3CF8
102
}
330
3CF8
100
AcDbXrecord
 10
0.0
 20
0.0
 30
0.0
  0
XRECORD
  5
3D15
102
{ACAD_REACTORS
330
3CF8
102
}
330
3CF8
100
AcDbXrecord
 10
0.0
 20
0.0
 30
0.0
  0
XRECORD
  5
3D16
102
{ACAD_REACTORS
330
3CF8
102
}
330
3CF8
100
AcDbXrecord
 10
0.0
 20
0.0
 30
0.0
  0
XRECORD
  5
3D17
102
{ACAD_REACTORS
330
3CF8
102
}
330
3CF8
100
AcDbXrecord
 10
0.0
 20
0.0
 30
0.0
  0
XRECORD
  5
3D18
102
{ACAD_REACTORS
330
3CF8
102
}
330
3CF8
100
AcDbXrecord
 10
0.0
 20
0.0
 30
0.0
  0
LAYER_INDEX
  5
3CEE
102
{ACAD_REACTORS
330
3CED
102
}
330
3CED
100
AcDbIndex
 40
2453151.887061319
100
AcDbLayerIndex
  8
0
360
3CEF
 90
        8
  8
AM_0
360
3CF0
 90
      142
  8
AM_11
360
3CF1
 90
        4
  8
AM_7
360
3CF2
 90
        1
  8
AM_5
360
3CF3
 90
        5
  8
Defpoints
360
3CF4
 90
        0
  8
AM_6
360
3CF5
 90
        1
  8
AM_CL
360
3CF6
 90
        0
  0
XRECORD
  5
2D
102
{ACAD_REACTORS
330
2C
102
}
330
2C
100
AcDbXrecord
  1
VERSION
140
15.0
  1
PRODUCT
  2
AutoCAD Mechanical 2000
  0
IDBUFFER
  5
3CEF
330
0
100
AcDbIdBuffer
330
3BFF
330
3C12
330
3C17
330
3C1D
330
3C20
330
3C5B
330
3C5C
330
3C5D
  0
IDBUFFER
  5
3CF0
330
0
100
AcDbIdBuffer
330
3C08
330
3C09
330
3C0A
330
3C0B
330
3C0C
330
3C0D
330
3C0E
330
3C0F
330
3C10
330
3C11
330
3C13
330
3C14
330
3C15
330
3C16
330
3C18
330
3C19
330
3C1A
330
3C1B
330
3C1C
330
3C1E
330
3C1F
330
3C21
330
3C22
330
3C23
330
3C24
330
3C25
330
3C66
330
3C67
330
3C68
330
3C69
330
2A1D
330
2A1E
330
2A1F
330
2A20
330
2A21
330
2A23
330
2A29
330
3B9E
330
3B9F
330
3BA0
330
3BA1
330
3BA2
330
3BA3
330
3BA4
330
3BA5
330
3BA6
330
3BA7
330
3BA8
330
3BA9
330
3BAA
330
3BAB
330
3BAC
330
3BAD
330
3BAE
330
3BAF
330
3BB0
330
3BB1
330
3BB2
330
3BB3
330
3BB4
330
3BB5
330
3BB6
330
3BB7
330
3BB8
330
3BB9
330
3BBA
330
3BBB
330
3BBC
330
3BBD
330
3BBE
330
3BBF
330
3BC0
330
3BC1
330
3BC2
330
3BC3
330
3BC4
330
3BC5
330
3BC6
330
3BC7
330
3BC8
330
3BC9
330
3BCA
330
3BCB
330
3BCC
330
3BCD
330
3BCE
330
3BCF
330
3BD0
330
3BD1
330
3BD2
330
3BD3
330
3BD4
330
3BD5
330
3BD6
330
3BD7
330
3BD8
330
3BD9
330
3BDA
330
3BDB
330
3BDC
330
3BDD
330
3BDE
330
3BDF
330
3BE0
330
3BE1
330
3BE2
330
3BE3
330
3BE4
330
3BE5
330
3BE6
330
3BE7
330
3BE8
330
3BE9
330
3BEA
330
3BEB
330
3BEC
330
3BED
330
3BEE
330
3BEF
330
3BF0
330
3BF1
330
3BF2
330
3BF3
330
3BF4
330
3BF5
330
3BF6
330
3BF7
330
3BF8
330
3BF9
330
3BFA
330
3BFB
330
3BFC
330
3BFD
330
3BFE
330
3C00
330
3C01
330
3C02
330
3C03
330
3C04
330
3C05
330
3C06
330
3C07
  0
IDBUFFER
  5
3CF1
330
0
100
AcDbIdBuffer
330
3CA6
330
3CAB
330
3CBA
330
3CBF
  0
IDBUFFER
  5
3CF2
330
0
100
AcDbIdBuffer
330
2A1C
  0
IDBUFFER
  5
3CF3
330
0
100
AcDbIdBuffer
330
2C2E
330
2DA1
330
3B91
330
3C26
330
3C33
  0
IDBUFFER
  5
3CF4
330
0
100
AcDbIdBuffer
  0
IDBUFFER
  5
3CF5
330
0
100
AcDbIdBuffer
330
C58
  0
IDBUFFER
  5
3CF6
330
0
100
AcDbIdBuffer
  0
ENDSEC
  0
EOF
