  0
SECTION
  2
HEADER
  9
$ACADVER
  1
AC1014
  9
$ACADMAINTVER
 70
     9
  9
$DWGCODEPAGE
  3
ANSI_932
  9
$INSBASE
 10
0.0
 20
0.0
 30
0.0
  9
$EXTMIN
 10
-150.700001000002
 20
-58.91666666666597
 30
-0.00000001
  9
$EXTMAX
 10
15.00000099999916
 20
10.8727776509249
 30
0.00000001
  9
$LIMMIN
 10
-177.2667369370111
 20
-83.75419650202848
  9
$LIMMAX
 10
42.96805063448982
 20
39.07045943158755
  9
$ORTHOMODE
 70
     0
  9
$REGENMODE
 70
     1
  9
$FILLMODE
 70
     1
  9
$QTEXTMODE
 70
     0
  9
$MIRRTEXT
 70
     0
  9
$DRAGMODE
 70
     2
  9
$LTSCALE
 40
0.3
  9
$OSMODE
 70
    55
  9
$ATTMODE
 70
     1
  9
$TEXTSIZE
 40
2.5
  9
$TRACEWID
 40
1.0
  9
$TEXTSTYLE
  7
STANDARD
  9
$CLAYER
  8
AM_0
  9
$CELTYPE
  6
BYLAYER
  9
$CECOLOR
 62
   256
  9
$CELTSCALE
 40
1.0
  9
$DELOBJ
 70
     1
  9
$DISPSILH
 70
     0
  9
$DIMSCALE
 40
1.0
  9
$DIMASZ
 40
2.5
  9
$DIMEXO
 40
1.0
  9
$DIMDLI
 40
12.0
  9
$DIMRND
 40
0.0
  9
$DIMDLE
 40
0.0
  9
$DIMEXE
 40
1.0
  9
$DIMTP
 40
0.1
  9
$DIMTM
 40
0.1
  9
$DIMTXT
 40
3.2
  9
$DIMCEN
 40
0.0
  9
$DIMTSZ
 40
0.0
  9
$DIMTOL
 70
     0
  9
$DIMLIM
 70
     0
  9
$DIMTIH
 70
     0
  9
$DIMTOH
 70
     0
  9
$DIMSE1
 70
     0
  9
$DIMSE2
 70
     0
  9
$DIMTAD
 70
     3
  9
$DIMZIN
 70
     8
  9
$DIMBLK
  1
OPEN30
  9
$DIMASO
 70
     1
  9
$DIMSHO
 70
     1
  9
$DIMPOST
  1

  9
$DIMAPOST
  1
"
  9
$DIMALT
 70
     0
  9
$DIMALTD
 70
     2
  9
$DIMALTF
 40
0.0393701
  9
$DIMLFAC
 40
1.0
  9
$DIMTOFL
 70
     1
  9
$DIMTVP
 40
0.0
  9
$DIMTIX
 70
     0
  9
$DIMSOXD
 70
     0
  9
$DIMSAH
 70
     0
  9
$DIMBLK1
  1

  9
$DIMBLK2
  1

  9
$DIMSTYLE
  2
AM_JIS
  9
$DIMCLRD
 70
   256
  9
$DIMCLRE
 70
   256
  9
$DIMCLRT
 70
     2
  9
$DIMTFAC
 40
0.71
  9
$DIMGAP
 40
1.5
  9
$DIMJUST
 70
     0
  9
$DIMSD1
 70
     0
  9
$DIMSD2
 70
     0
  9
$DIMTOLJ
 70
     0
  9
$DIMTZIN
 70
     0
  9
$DIMALTZ
 70
     0
  9
$DIMALTTZ
 70
     0
  9
$DIMFIT
 70
     3
  9
$DIMUPT
 70
     0
  9
$DIMUNIT
 70
     2
  9
$DIMDEC
 70
     3
  9
$DIMTDEC
 70
     3
  9
$DIMALTU
 70
     2
  9
$DIMALTTD
 70
     2
  9
$DIMTXSTY
  7
ASAMI
  9
$DIMAUNIT
 70
     0
  9
$LUNITS
 70
     2
  9
$LUPREC
 70
     2
  9
$SKETCHINC
 40
1.0
  9
$FILLETRAD
 40
0.5
  9
$AUNITS
 70
     0
  9
$AUPREC
 70
     0
  9
$MENU
  1
.
  9
$ELEVATION
 40
0.0
  9
$PELEVATION
 40
0.0
  9
$THICKNESS
 40
0.0
  9
$LIMCHECK
 70
     0
  9
$BLIPMODE
 70
     0
  9
$CHAMFERA
 40
2.5
  9
$CHAMFERB
 40
2.5
  9
$CHAMFERC
 40
20.0
  9
$CHAMFERD
 40
0.0
  9
$SKPOLY
 70
     0
  9
$TDCREATE
 40
2452838.620506898
  9
$TDUPDATE
 40
2453151.884503565
  9
$TDINDWG
 40
0.5513803241
  9
$TDUSRTIMER
 40
0.5513803241
  9
$USRTIMER
 70
     1
  9
$ANGBASE
 50
0.0
  9
$ANGDIR
 70
     0
  9
$PDMODE
 70
     0
  9
$PDSIZE
 40
0.0
  9
$PLINEWID
 40
0.0
  9
$COORDS
 70
     1
  9
$SPLFRAME
 70
     0
  9
$SPLINETYPE
 70
     6
  9
$SPLINESEGS
 70
     8
  9
$ATTDIA
 70
     1
  9
$ATTREQ
 70
     1
  9
$HANDLING
 70
 12289
  9
$HANDSEED
  5
40BD
  9
$SURFTAB1
 70
     6
  9
$SURFTAB2
 70
     6
  9
$SURFTYPE
 70
     6
  9
$SURFU
 70
     6
  9
$SURFV
 70
     6
  9
$UCSNAME
  2

  9
$UCSORG
 10
-0.0000000000000568
 20
-0.0000000000000036
 30
0.0
  9
$UCSXDIR
 10
1.0
 20
0.0
 30
0.0
  9
$UCSYDIR
 10
0.0
 20
1.0
 30
0.0
  9
$PUCSNAME
  2

  9
$PUCSORG
 10
0.0
 20
0.0
 30
0.0
  9
$PUCSXDIR
 10
1.0
 20
0.0
 30
0.0
  9
$PUCSYDIR
 10
0.0
 20
1.0
 30
0.0
  9
$USERI1
 70
     0
  9
$USERI2
 70
     0
  9
$USERI3
 70
     0
  9
$USERI4
 70
     0
  9
$USERI5
 70
     0
  9
$USERR1
 40
0.0
  9
$USERR2
 40
0.0
  9
$USERR3
 40
0.0
  9
$USERR4
 40
0.0
  9
$USERR5
 40
0.0
  9
$WORLDVIEW
 70
     1
  9
$SHADEDGE
 70
     3
  9
$SHADEDIF
 70
    70
  9
$TILEMODE
 70
     1
  9
$MAXACTVP
 70
    64
  9
$PINSBASE
 10
0.0
 20
0.0
 30
0.0
  9
$PLIMCHECK
 70
     0
  9
$PEXTMIN
 10
1.000000000000000E+20
 20
1.000000000000000E+20
 30
1.000000000000000E+20
  9
$PEXTMAX
 10
-1.000000000000000E+20
 20
-1.000000000000000E+20
 30
-1.000000000000000E+20
  9
$PLIMMIN
 10
0.0
 20
0.0
  9
$PLIMMAX
 10
841.0
 20
594.0
  9
$UNITMODE
 70
     0
  9
$VISRETAIN
 70
     1
  9
$PLINEGEN
 70
     0
  9
$PSLTSCALE
 70
     0
  9
$TREEDEPTH
 70
  3020
  9
$PICKSTYLE
 70
     0
  9
$CMLSTYLE
  2
STANDARD
  9
$CMLJUST
 70
     0
  9
$CMLSCALE
 40
20.0
  9
$PROXYGRAPHICS
 70
     1
  9
$MEASUREMENT
 70
     1
  0
ENDSEC
  0
SECTION
  2
CLASSES
  0
CLASS
  1
ACDBDICTIONARYWDFLT
  2
AcDbDictionaryWithDefault
  3
AutoCAD 2000
 90
        0
280
     0
281
     0
  0
CLASS
  1
ACDBPLACEHOLDER
  2
AcDbPlaceHolder
  3
AutoCAD 2000
 90
        0
280
     0
281
     0
  0
CLASS
  1
LAYOUT
  2
AcDbLayout
  3
AutoCAD 2000
 90
        0
280
     0
281
     0
  0
CLASS
  1
AMGSETTINGSOBJ
  2
AmgSettingsObj
  3
"AcadM|Product Description: AutoCAD Mechanical 2000|Company: Autodesk"
 90
        0
280
     0
281
     0
  0
CLASS
  1
ACME_DOCUMENT
  2
AcMeDbDoc
  3
AcMeServices
 90
        0
280
     0
281
     0
  0
CLASS
  1
ACMESCOPE
  2
AcMeScope
  3
AcMeServices
 90
        0
280
     0
281
     0
  0
CLASS
  1
ACMECOMMANDHISTORY
  2
AcMeCommandHistory
  3
AcMeServices
 90
        0
280
     0
281
     0
  0
CLASS
  1
DICTIONARYVAR
  2
AcDbDictionaryVar
  3
AutoCAD 2000
 90
        0
280
     0
281
     0
  0
CLASS
  1
ACIMSYSVARMAN
  2
AcImSysVarManager
  3
AcMeServices
 90
        0
280
     0
281
     0
  0
CLASS
  1
ACIMREALSYSVAR
  2
AcImRealSysVar
  3
AcMeServices
 90
        0
280
     0
281
     0
  0
CLASS
  1
ACIMINTSYSVAR
  2
AcImIntSysVar
  3
AcMeServices
 90
        0
280
     0
281
     0
  0
CLASS
  1
ACMEDRAWINGMAN
  2
AcMeDrawingMan
  3
AcMeServices
 90
        0
280
     0
281
     0
  0
CLASS
  1
ACMEVIEW
  2
AcMeView
  3
AcMeServices
 90
        0
280
     0
281
     0
  0
CLASS
  1
ACDBENTITYCACHE
  2
AcMeEntityCache
  3
AcMeServices
 90
        0
280
     0
281
     0
  0
CLASS
  1
GSMANAGER
  2
AcMeGSManager
  3
AcMeServices
 90
        0
280
     0
281
     0
  0
CLASS
  1
AmdtInternalReactor
  2
AmdtInternalReactor
  3
AcMeServices
 90
        0
280
     0
281
     0
  0
CLASS
  1
ACMESTATEMGR
  2
AcMeStateMgr
  3
AcMeServices
 90
        0
280
     0
281
     0
  0
CLASS
  1
ACME_DATABASE
  2
AcMeDbDatabase
  3
AcMeServices
 90
        0
280
     0
281
     0
  0
CLASS
  1
ACRFINSADJUSTERMGR
  2
AcRfInsAdjusterMgr
  3
AcMeServices
 90
        0
280
     0
281
     0
  0
CLASS
  1
ACMDATADICTIONARY
  2
AcmDataDictionary
  3
"AcmSymBB|Product Description: AutoCAD Mechanical 2000|Company: Autodesk"
 90
        0
280
     0
281
     0
  0
CLASS
  1
ACMDATAENTRYBLOCK
  2
AcmDataEntryBlock
  3
"AcmSymBB|Product Description: AutoCAD Mechanical 2000|Company: Autodesk"
 90
        0
280
     0
281
     0
  0
CLASS
  1
AMGOBJPROPCFG
  2
AmgObjPropCfg
  3
"AmgLay|Product Description: AutoCAD Mechanical 2000|Company: Autodesk"
 90
        1
280
     0
281
     0
  0
CLASS
  1
ACAMGFILTERDAT
  2
AcAmgFilterDat
  3
"AcadM|Product Description: AutoCAD Mechanical 2000|Company: Autodesk"
 90
        0
280
     0
281
     0
  0
CLASS
  1
LAYER_INDEX
  2
AcDbLayerIndex
  3
AutoCAD 2000
 90
        0
280
     0
281
     0
  0
CLASS
  1
IDBUFFER
  2
AcDbIdBuffer
  3
AutoCAD 2000
 90
        0
280
     0
281
     0
  0
CLASS
  1
ACIMSTRSYSVAR
  2
AcImStrSysVar
  3
AcMeServices
 90
        0
280
     0
281
     0
  0
CLASS
  1
ACMSTANDARDJIS
  2
AcmStandardJIS
  3
"AcmSymBB|Product Description: AutoCAD Mechanical 2000|Company: Autodesk"
 90
        0
280
     0
281
     0
  0
CLASS
  1
ACMSURFSTANDARDJIS
  2
AcmSurfTextStdJIS
  3
"AcmSymBB|Product Description: AutoCAD Mechanical 2000|Company: Autodesk"
 90
        0
280
     0
281
     0
  0
CLASS
  1
ACMFCFSTANDARDJIS
  2
AcmFCFStdJIS
  3
"AcmSymBB|Product Description: AutoCAD Mechanical 2000|Company: Autodesk"
 90
        0
280
     0
281
     0
  0
CLASS
  1
ACMWELDSTANDARDJIS
  2
AcmWeldingStdJIS
  3
"AcmSymBB|Product Description: AutoCAD Mechanical 2000|Company: Autodesk"
 90
        0
280
     0
281
     0
  0
CLASS
  1
ACMIDSTANDARDJIS
  2
AcmIdStdJIS
  3
"AcmSymBB|Product Description: AutoCAD Mechanical 2000|Company: Autodesk"
 90
        0
280
     0
281
     0
  0
CLASS
  1
ACMDATUMSTANDARDJIS
  2
AcmDatumStdJIS
  3
"AcmSymBB|Product Description: AutoCAD Mechanical 2000|Company: Autodesk"
 90
        0
280
     0
281
     0
  0
CLASS
  1
ACMBOMSTANDARDJIS
  2
AcmBOMStdJIS
  3
"AcmSymBB|Product Description: AutoCAD Mechanical 2000|Company: Autodesk"
 90
        0
280
     0
281
     0
  0
CLASS
  1
ACMSTANDARDANSI
  2
AcmStandardANSI
  3
"AcmSymBB|Product Description: AutoCAD Mechanical 2000|Company: Autodesk"
 90
        0
280
     0
281
     0
  0
CLASS
  1
ACMSURFSTANDARDANSI
  2
AcmSurfTextStdANSI
  3
"AcmSymBB|Product Description: AutoCAD Mechanical 2000|Company: Autodesk"
 90
        0
280
     0
281
     0
  0
CLASS
  1
ACMFCFSTANDARDANSI
  2
AcmFCFStdANSI
  3
"AcmSymBB|Product Description: AutoCAD Mechanical 2000|Company: Autodesk"
 90
        0
280
     0
281
     0
  0
CLASS
  1
ACMWELDSTANDARDANSI
  2
AcmWeldingStdANSI
  3
"AcmSymBB|Product Description: AutoCAD Mechanical 2000|Company: Autodesk"
 90
        0
280
     0
281
     0
  0
CLASS
  1
ACMIDSTANDARDANSI
  2
AcmIdStdANSI
  3
"AcmSymBB|Product Description: AutoCAD Mechanical 2000|Company: Autodesk"
 90
        0
280
     0
281
     0
  0
CLASS
  1
ACMDATUMSTANDARDANSI
  2
AcmDatumStdANSI
  3
"AcmSymBB|Product Description: AutoCAD Mechanical 2000|Company: Autodesk"
 90
        0
280
     0
281
     0
  0
CLASS
  1
ACMBOMSTANDARDANSI
  2
AcmBOMStdANSI
  3
"AcmSymBB|Product Description: AutoCAD Mechanical 2000|Company: Autodesk"
 90
        0
280
     0
281
     0
  0
CLASS
  1
ACMSTANDARDBSI
  2
AcmStandardBSI
  3
"AcmSymBB|Product Description: AutoCAD Mechanical 2000|Company: Autodesk"
 90
        0
280
     0
281
     0
  0
CLASS
  1
ACMSURFSTANDARDBSI
  2
AcmSurfTextStdBSI
  3
"AcmSymBB|Product Description: AutoCAD Mechanical 2000|Company: Autodesk"
 90
        0
280
     0
281
     0
  0
CLASS
  1
ACMFCFSTANDARDBSI
  2
AcmFCFStdBSI
  3
"AcmSymBB|Product Description: AutoCAD Mechanical 2000|Company: Autodesk"
 90
        0
280
     0
281
     0
  0
CLASS
  1
ACMWELDSTANDARDBSI
  2
AcmWeldingStdBSI
  3
"AcmSymBB|Product Description: AutoCAD Mechanical 2000|Company: Autodesk"
 90
        0
280
     0
281
     0
  0
CLASS
  1
ACMIDSTANDARDBSI
  2
AcmIdStdBSI
  3
"AcmSymBB|Product Description: AutoCAD Mechanical 2000|Company: Autodesk"
 90
        0
280
     0
281
     0
  0
CLASS
  1
ACMDATUMSTANDARDBSI
  2
AcmDatumStdBSI
  3
"AcmSymBB|Product Description: AutoCAD Mechanical 2000|Company: Autodesk"
 90
        0
280
     0
281
     0
  0
CLASS
  1
ACMBOMSTANDARDBSI
  2
AcmBOMStdBSI
  3
"AcmSymBB|Product Description: AutoCAD Mechanical 2000|Company: Autodesk"
 90
        0
280
     0
281
     0
  0
CLASS
  1
LONG_TRANSACTION
  2
AcDbLongTransaction
  3
AutoCAD 2000
 90
        0
280
     0
281
     0
  0
CLASS
  1
LWPOLYLINE
  2
AcDbPolyline
  3
AutoCAD 2000
 90
        0
280
     0
281
     1
  0
CLASS
  1
HATCH
  2
AcDbHatch
  3
AutoCAD 2000
 90
        0
280
     0
281
     1
  0
CLASS
  1
XRECORD
  2
AcDbXrecord
  3
AutoCAD 2000
 90
        0
280
     0
281
     0
  0
ENDSEC
  0
SECTION
  2
TABLES
  0
TABLE
  2
VPORT
  5
8
330
0
100
AcDbSymbolTable
 70
     3
  0
VPORT
  5
4092
330
8
100
AcDbSymbolTableRecord
100
AcDbViewportTableRecord
  2
*ACTIVE
 70
     0
 10
0.0
 20
0.0
 11
1.0
 21
1.0
 12
-65.70885380341469
 22
-9.830113641668845
 13
0.0
 23
0.0
 14
2.5
 24
2.5
 15
10.0
 25
10.0
 16
0.0
 26
0.0
 36
1.0
 17
0.0
 27
0.0
 37
0.0
 40
194.2272667889792
 41
1.56570841889117
 42
50.0
 43
0.0
 44
0.0
 50
0.0
 51
0.0
 71
     0
 72
   100
 73
     1
 74
     3
 75
     0
 76
     0
 77
     0
 78
     0
  0
ENDTAB
  0
TABLE
  2
LTYPE
  5
5
330
0
100
AcDbSymbolTable
 70
    10
  0
LTYPE
  5
14
330
5
100
AcDbSymbolTableRecord
100
AcDbLinetypeTableRecord
  2
BYBLOCK
 70
     0
  3

 72
    65
 73
     0
 40
0.0
  0
LTYPE
  5
15
330
5
100
AcDbSymbolTableRecord
100
AcDbLinetypeTableRecord
  2
BYLAYER
 70
     0
  3

 72
    65
 73
     0
 40
0.0
  0
LTYPE
  5
16
330
5
100
AcDbSymbolTableRecord
100
AcDbLinetypeTableRecord
  2
CONTINUOUS
 70
     0
  3
Solid line
 72
    65
 73
     0
 40
0.0
  0
LTYPE
  5
4B
330
5
100
AcDbSymbolTableRecord
100
AcDbLinetypeTableRecord
  2
AM_ISO02W050
 70
     0
  3
__ __ __ __ __ __ __ __ __ __ __ __ __ __ __
 72
    65
 73
     2
 40
7.5
 49
6.0
 74
     0
 49
-1.5
 74
     0
  0
LTYPE
  5
4C
330
5
100
AcDbSymbolTableRecord
100
AcDbLinetypeTableRecord
  2
AM_ISO08W050
 70
     0
  3
____ . ____ . ____ . ____ . ____ . ____ . ____
 72
    65
 73
     4
 40
18.0
 49
12.0
 74
     0
 49
-1.5
 74
     0
 49
3.0
 74
     0
 49
-1.5
 74
     0
  0
LTYPE
  5
4D
330
5
100
AcDbSymbolTableRecord
100
AcDbLinetypeTableRecord
  2
AM_ISO09W050
 70
     0
  3
_____ . . _____ . . _____ . . ____ .. ____
 72
    65
 73
     6
 40
22.5
 49
12.0
 74
     0
 49
-1.5
 74
     0
 49
3.0
 74
     0
 49
-1.5
 74
     0
 49
3.0
 74
     0
 49
-1.5
 74
     0
  0
LTYPE
  5
4E
330
5
100
AcDbSymbolTableRecord
100
AcDbLinetypeTableRecord
  2
AMCONSTR
 70
     0
  3
_______________________
 72
    65
 73
     2
 40
9999.0
 49
9999.0
 74
     0
 49
0.0
 74
     0
  0
LTYPE
  5
4F
330
5
100
AcDbSymbolTableRecord
100
AcDbLinetypeTableRecord
  2
AM_ISO02W050X2
 70
     0
  3
 _ _ _ _ _ _ _ _ _ _ _ _
 72
    65
 73
     2
 40
3.75
 49
3.0
 74
     0
 49
-0.75
 74
     0
  0
LTYPE
  5
50
330
5
100
AcDbSymbolTableRecord
100
AcDbLinetypeTableRecord
  2
AM_ISO08W050X2
 70
     0
  3
__ . __ . __ . __ . __ . __
 72
    65
 73
     4
 40
9.0
 49
6.0
 74
     0
 49
-0.75
 74
     0
 49
1.5
 74
     0
 49
-0.75
 74
     0
  0
LTYPE
  5
53
330
5
100
AcDbSymbolTableRecord
100
AcDbLinetypeTableRecord
  2
AMZIGZAG
 70
     0
  3
/\/-/\/-/\/-/\/-/\/-/\/
 72
    65
 73
     2
 40
11.00009999999999
 49
0.0001
 74
     4
 75
   135
340
52
 46
0.04
 50
0.0
 44
0.0
 45
0.0
 49
-11.0
 74
     0
  0
LTYPE
  5
166
330
5
100
AcDbSymbolTableRecord
100
AcDbLinetypeTableRecord
  2
ACJISTGL
 70
     0
  3
_ _ _ _ _
 72
    65
 73
     2
 40
3.0
 49
2.0
 74
     0
 49
-1.0
 74
     0
  0
LTYPE
  5
26A
330
5
100
AcDbSymbolTableRecord
100
AcDbLinetypeTableRecord
  2
ACJISTGB
 70
     0
  3
__ . . __ . .
 72
    65
 73
     6
 40
9.0
 49
4.0
 74
     0
 49
-1.0
 74
     0
 49
1.0
 74
     0
 49
-1.0
 74
     0
 49
1.0
 74
     0
 49
-1.0
 74
     0
  0
ENDTAB
  0
TABLE
  2
LAYER
  5
2
330
0
100
AcDbSymbolTable
 70
     8
  0
LAYER
  5
10
330
2
100
AcDbSymbolTableRecord
100
AcDbLayerTableRecord
  2
0
 70
     0
 62
     7
  6
CONTINUOUS
  0
LAYER
  5
3F9
330
2
100
AcDbSymbolTableRecord
100
AcDbLayerTableRecord
  2
AM_0
 70
     0
 62
     7
  6
CONTINUOUS
  0
LAYER
  5
BD6
330
2
100
AcDbSymbolTableRecord
100
AcDbLayerTableRecord
  2
AM_11
 70
     0
 62
     3
  6
AM_ISO09W050
  0
LAYER
  5
BD7
330
2
100
AcDbSymbolTableRecord
100
AcDbLayerTableRecord
  2
AM_7
 70
     0
 62
     4
  6
AM_ISO08W050
  0
LAYER
  5
BD8
330
2
100
AcDbSymbolTableRecord
100
AcDbLayerTableRecord
  2
AM_5
 70
     0
 62
     3
  6
CONTINUOUS
  0
LAYER
  5
BD9
330
2
100
AcDbSymbolTableRecord
100
AcDbLayerTableRecord
  2
DEFPOINTS
 70
     0
 62
     7
  6
CONTINUOUS
  0
LAYER
  5
BDA
330
2
100
AcDbSymbolTableRecord
100
AcDbLayerTableRecord
  2
AM_6
 70
     0
 62
     2
  6
CONTINUOUS
  0
LAYER
  5
2398
330
2
100
AcDbSymbolTableRecord
100
AcDbLayerTableRecord
  2
AM_CL
 70
     0
 62
     1
  6
AMCONSTR
  0
ENDTAB
  0
TABLE
  2
STYLE
  5
3
330
0
100
AcDbSymbolTable
 70
     5
  0
STYLE
  5
11
330
3
100
AcDbSymbolTableRecord
100
AcDbTextStyleTableRecord
  2
STANDARD
 70
     0
 40
0.0
 41
1.0
 50
0.0
 71
     0
 42
2.5
  3
simplex.shx
  4
EXTFONT.SHX
  0
STYLE
  5
52
330
3
100
AcDbSymbolTableRecord
100
AcDbTextStyleTableRecord
  2

 70
     1
 40
0.0
 41
1.0
 50
0.0
 71
     0
 42
2.5
  3
ltypeshp.shx
  4

  0
STYLE
  5
6B
330
3
100
AcDbSymbolTableRecord
100
AcDbTextStyleTableRecord
  2
ASAMI
 70
     0
 40
0.0
 41
1.0
 50
0.0
 71
     0
 42
2.5
  3
simplex.shx
  4
EXTFONT.SHX
  0
STYLE
  5
262
330
3
100
AcDbSymbolTableRecord
100
AcDbTextStyleTableRecord
  2
ACJISTS
 70
     0
 40
1.0
 41
1.0
 50
0.0
 71
     0
 42
2.5
  3
simplex.shx
  4
bigfont.shx
  0
STYLE
  5
269
330
3
100
AcDbSymbolTableRecord
100
AcDbTextStyleTableRecord
  2
ACJISGDT
 70
     0
 40
0.0
 41
1.0
 50
0.0
 71
     0
 42
2.5
  3
amgdtans.shx
  4

  0
ENDTAB
  0
TABLE
  2
VIEW
  5
6
330
0
100
AcDbSymbolTable
 70
     0
  0
ENDTAB
  0
TABLE
  2
UCS
  5
7
330
0
100
AcDbSymbolTable
 70
     0
  0
ENDTAB
  0
TABLE
  2
APPID
  5
9
330
0
100
AcDbSymbolTable
 70
    14
  0
APPID
  5
12
330
9
100
AcDbSymbolTableRecord
100
AcDbRegAppTableRecord
  2
ACAD
 70
     0
  0
APPID
  5
30
330
9
100
AcDbSymbolTableRecord
100
AcDbRegAppTableRecord
  2
MCAD_NO_VIS
 70
     0
  0
APPID
  5
31
330
9
100
AcDbSymbolTableRecord
100
AcDbRegAppTableRecord
  2
ACAD_TEMP_GRAPHIC
 70
     0
  0
APPID
  5
2C2
330
9
100
AcDbSymbolTableRecord
100
AcDbRegAppTableRecord
  2
GENIUS_GENDTOL_13
 70
     0
  0
APPID
  5
339
330
9
100
AcDbSymbolTableRecord
100
AcDbRegAppTableRecord
  2
GENIUS_GENODEF_13
 70
     0
  0
APPID
  5
33A
330
9
100
AcDbSymbolTableRecord
100
AcDbRegAppTableRecord
  2
GENIUS_GENOBJ-N-RSBK_13
 70
     0
  0
APPID
  5
33B
330
9
100
AcDbSymbolTableRecord
100
AcDbRegAppTableRecord
  2
GENIUS_GENOBJ-N-LIB_13
 70
     0
  0
APPID
  5
33C
330
9
100
AcDbSymbolTableRecord
100
AcDbRegAppTableRecord
  2
GENIUS_GENSCALE_13
 70
     0
  0
APPID
  5
378
330
9
100
AcDbSymbolTableRecord
100
AcDbRegAppTableRecord
  2
GENIUS_GENDIMSH_14
 70
     0
  0
APPID
  5
BDB
330
9
100
AcDbSymbolTableRecord
100
AcDbRegAppTableRecord
  2
GENIUS_GENOBJ-N-CEN_13
 70
     0
  0
APPID
  5
BDC
330
9
100
AcDbSymbolTableRecord
100
AcDbRegAppTableRecord
  2
GENIUS_GENFIL_13
 70
     0
  0
APPID
  5
BDD
330
9
100
AcDbSymbolTableRecord
100
AcDbRegAppTableRecord
  2
GENIUS_GENOBJ-N-FIL_13
 70
     0
  0
APPID
  5
12AD
330
9
100
AcDbSymbolTableRecord
100
AcDbRegAppTableRecord
  2
GENIUS_GENOREF_13
 70
     0
  0
APPID
  5
28FE
330
9
100
AcDbSymbolTableRecord
100
AcDbRegAppTableRecord
  2
GENIUS_GENOBJ-N-CHA_13
 70
     0
  0
ENDTAB
  0
TABLE
  2
DIMSTYLE
  5
A
330
0
100
AcDbSymbolTable
 70
     8
  0
DIMSTYLE
105
58
102
{ACAD_REACTORS
330
39DA
330
39DB
330
3B05
330
3B8E
330
3B8F
330
3CA4
330
3CA5
330
3DAA
330
3DAC
330
3EE1
330
3F6E
330
3F59
330
3F70
330
3FF4
330
4015
102
}
330
A
100
AcDbSymbolTableRecord
100
AcDbDimStyleTableRecord
  2
AM_JIS
 70
     0
  3

  4
"
  5
OPEN30
  6

  7

 40
1.0
 41
2.5
 42
1.0
 43
12.0
 44
1.0
 45
0.0
 46
0.0
 47
0.1
 48
0.1
140
3.2
141
0.0
142
0.0
143
0.0393701
144
1.0
145
0.0
146
0.71
147
1.5
 71
     0
 72
     0
 73
     0
 74
     0
 75
     0
 76
     0
 77
     3
 78
     8
170
     0
171
     2
172
     1
173
     0
174
     0
175
     0
176
   256
177
   256
178
     2
270
     2
271
     3
272
     3
273
     2
274
     2
340
6B
275
     0
280
     0
281
     0
282
     0
283
     0
284
     0
285
     0
286
     0
287
     3
288
     0
  0
DIMSTYLE
105
5F
330
A
100
AcDbSymbolTableRecord
100
AcDbDimStyleTableRecord
  2
AM_JIS$3
 70
     0
  3

  4
"
  5
OPEN30
  6

  7

 40
1.0
 41
2.5
 42
1.0
 43
10.0
 44
1.0
 45
0.0
 46
0.0
 47
0.1
 48
0.1
140
3.2
141
0.0
142
0.0
143
0.0393701
144
1.0
145
0.0
146
0.71
147
1.5
 71
     0
 72
     0
 73
     0
 74
     1
 75
     0
 76
     0
 77
     3
 78
     8
170
     0
171
     2
172
     0
173
     0
174
     0
175
     0
176
   256
177
   256
178
     2
270
     2
271
     2
272
     3
273
     2
274
     2
340
6B
275
     0
280
     0
281
     0
282
     0
283
     0
284
     0
285
     0
286
     0
287
     0
288
     1
  0
DIMSTYLE
105
60
330
A
100
AcDbSymbolTableRecord
100
AcDbDimStyleTableRecord
  2
AM_JIS$4
 70
     0
  3

  4
"
  5
OPEN30
  6

  7

 40
1.0
 41
2.5
 42
1.0
 43
10.0
 44
1.0
 45
0.0
 46
0.0
 47
0.1
 48
0.1
140
3.2
141
0.0
142
0.0
143
0.0393701
144
1.0
145
0.0
146
0.71
147
1.5
 71
     0
 72
     0
 73
     0
 74
     1
 75
     0
 76
     0
 77
     3
 78
     8
170
     0
171
     2
172
     0
173
     0
174
     0
175
     0
176
   256
177
   256
178
     2
270
     2
271
     2
272
     3
273
     2
274
     2
340
6B
275
     0
280
     0
281
     0
282
     0
283
     0
284
     0
285
     0
286
     0
287
     0
288
     1
  0
DIMSTYLE
105
61
330
A
100
AcDbSymbolTableRecord
100
AcDbDimStyleTableRecord
  2
AM_JIS$6
 70
     0
  3

  4
"
  5
OPEN30
  6

  7

 40
1.0
 41
2.5
 42
1.0
 43
10.0
 44
1.0
 45
0.0
 46
0.0
 47
0.1
 48
0.1
140
3.2
141
0.0
142
0.0
143
0.0393701
144
1.0
145
0.0
146
0.71
147
1.5
 71
     0
 72
     0
 73
     0
 74
     0
 75
     0
 76
     0
 77
     0
 78
     8
170
     0
171
     2
172
     1
173
     0
174
     0
175
     0
176
   256
177
   256
178
     2
270
     2
271
     2
272
     2
273
     2
274
     2
340
6B
275
     0
280
     0
281
     0
282
     0
283
     0
284
     0
285
     0
286
     0
287
     3
288
     0
  0
DIMSTYLE
105
62
330
A
100
AcDbSymbolTableRecord
100
AcDbDimStyleTableRecord
  2
AM_JIS$7
 70
     0
  3

  4
"
  5
OPEN30
  6

  7

 40
1.0
 41
2.5
 42
1.0
 43
10.0
 44
1.0
 45
0.0
 46
0.0
 47
0.1
 48
0.1
140
3.2
141
0.0
142
0.0
143
0.0393701
144
1.0
145
0.0
146
0.71
147
1.5
 71
     0
 72
     0
 73
     0
 74
     0
 75
     0
 76
     0
 77
     3
 78
     8
170
     0
171
     2
172
     1
173
     0
174
     0
175
     0
176
   256
177
   256
178
     2
270
     2
271
     2
272
     3
273
     2
274
     2
340
6B
275
     0
280
     0
281
     0
282
     0
283
     0
284
     0
285
     0
286
     0
287
     3
288
     0
  0
DIMSTYLE
105
63
330
A
100
AcDbSymbolTableRecord
100
AcDbDimStyleTableRecord
  2
AM_JIS$SF
 70
     0
  3

  4
"
  5
OPEN30
  6

  7

 40
1.0
 41
2.5
 42
1.0
 43
10.0
 44
1.0
 45
0.0
 46
0.0
 47
0.1
 48
0.1
140
3.2
141
0.0
142
0.0
143
0.0393701
144
1.0
145
0.0
146
0.71
147
1.5
 71
     0
 72
     0
 73
     0
 74
     0
 75
     1
 76
     1
 77
     3
 78
     8
170
     0
171
     2
172
     1
173
     0
174
     0
175
     0
176
   256
177
   256
178
     2
270
     2
271
     2
272
     2
273
     2
274
     2
340
6B
275
     0
280
     0
281
     0
282
     0
283
     0
284
     0
285
     0
286
     0
287
     3
288
     0
  0
DIMSTYLE
105
68
330
A
100
AcDbSymbolTableRecord
100
AcDbDimStyleTableRecord
  2
AM_JIS$SH
 70
     0
  3

  4
"
  5

  6
GENAXEH
  7
OPEN30
 40
1.0
 41
2.5
 42
1.0
 43
10.0
 44
1.0
 45
0.0
 46
0.0
 47
0.1
 48
0.1
140
3.2
141
0.0
142
0.0
143
0.0393701
144
2.0
145
0.0
146
0.71
147
1.5
 71
     0
 72
     0
 73
     0
 74
     0
 75
     1
 76
     1
 77
     3
 78
     8
170
     0
171
     2
172
     1
173
     1
174
     0
175
     0
176
   256
177
   256
178
     2
270
     2
271
     2
272
     2
273
     2
274
     2
340
6B
275
     0
280
     0
281
     0
282
     0
283
     0
284
     0
285
     0
286
     0
287
     3
288
     0
  0
DIMSTYLE
105
B34
330
A
100
AcDbSymbolTableRecord
100
AcDbDimStyleTableRecord
  2
AM_JIS$2
 70
     0
  3

  4
"
  5
OPEN30
  6

  7

 40
1.0
 41
2.5
 42
1.0
 43
12.0
 44
1.0
 45
0.0
 46
0.0
 47
0.1
 48
0.1
140
3.2
141
0.0
142
0.0
143
0.0393701
144
1.0
145
0.0
146
0.71
147
1.5
 71
     0
 72
     0
 73
     0
 74
     0
 75
     0
 76
     0
 77
     3
 78
     8
170
     0
171
     2
172
     1
173
     0
174
     0
175
     0
176
   256
177
   256
178
     2
270
     2
271
     3
272
     3
273
     2
274
     2
340
6B
275
     0
280
     0
281
     0
282
     0
283
     0
284
     0
285
     0
286
     0
287
     3
288
     0
  0
ENDTAB
  0
TABLE
  2
BLOCK_RECORD
  5
1
330
0
100
AcDbSymbolTable
 70
    32
  0
BLOCK_RECORD
  5
1F
102
{ACAD_XDICTIONARY
360
74
102
}
330
1
100
AcDbSymbolTableRecord
100
AcDbBlockTableRecord
  2
*MODEL_SPACE
  0
BLOCK_RECORD
  5
101
102
{ACAD_XDICTIONARY
360
40BB
102
}
330
1
100
AcDbSymbolTableRecord
100
AcDbBlockTableRecord
  2
*PAPER_SPACE
  0
BLOCK_RECORD
  5
59
330
1
100
AcDbSymbolTableRecord
100
AcDbBlockTableRecord
  2
_OPEN30
  0
BLOCK_RECORD
  5
64
330
1
100
AcDbSymbolTableRecord
100
AcDbBlockTableRecord
  2
GENAXEH
  0
BLOCK_RECORD
  5
2D16
330
1
100
AcDbSymbolTableRecord
100
AcDbBlockTableRecord
  2
*D7
  0
BLOCK_RECORD
  5
2E8E
330
1
100
AcDbSymbolTableRecord
100
AcDbBlockTableRecord
  2
*D9
  0
BLOCK_RECORD
  5
3444
330
1
100
AcDbSymbolTableRecord
100
AcDbBlockTableRecord
  2
*D10
  0
BLOCK_RECORD
  5
3A66
330
1
100
AcDbSymbolTableRecord
100
AcDbBlockTableRecord
  2
*D13
  0
BLOCK_RECORD
  5
3A73
330
1
100
AcDbSymbolTableRecord
100
AcDbBlockTableRecord
  2
*D14
  0
BLOCK_RECORD
  5
3C27
330
1
100
AcDbSymbolTableRecord
100
AcDbBlockTableRecord
  2
*D17
  0
BLOCK_RECORD
  5
3C34
330
1
100
AcDbSymbolTableRecord
100
AcDbBlockTableRecord
  2
*D18
  0
BLOCK_RECORD
  5
3CB0
330
1
100
AcDbSymbolTableRecord
100
AcDbBlockTableRecord
  2
*D22
  0
BLOCK_RECORD
  5
3CBC
330
1
100
AcDbSymbolTableRecord
100
AcDbBlockTableRecord
  2
*D23
  0
BLOCK_RECORD
  5
3CC8
330
1
100
AcDbSymbolTableRecord
100
AcDbBlockTableRecord
  2
*D24
  0
BLOCK_RECORD
  5
3E39
330
1
100
AcDbSymbolTableRecord
100
AcDbBlockTableRecord
  2
*D26
  0
BLOCK_RECORD
  5
3E47
330
1
100
AcDbSymbolTableRecord
100
AcDbBlockTableRecord
  2
*D27
  0
BLOCK_RECORD
  5
3F71
330
1
100
AcDbSymbolTableRecord
100
AcDbBlockTableRecord
  2
*D29
  0
BLOCK_RECORD
  5
3FF5
330
1
100
AcDbSymbolTableRecord
100
AcDbBlockTableRecord
  2
*D30
  0
BLOCK_RECORD
  5
4016
330
1
100
AcDbSymbolTableRecord
100
AcDbBlockTableRecord
  2
*D31
  0
ENDTAB
  0
ENDSEC
  0
SECTION
  2
BLOCKS
  0
BLOCK
  5
20
330
1F
100
AcDbEntity
  8
0
100
AcDbBlockBegin
  2
*MODEL_SPACE
 70
     0
 10
0.0
 20
0.0
 30
0.0
  3
*MODEL_SPACE
  1

  0
ENDBLK
  5
21
330
1F
100
AcDbEntity
  8
0
100
AcDbBlockEnd
  0
BLOCK
  5
103
330
101
100
AcDbEntity
 67
     1
  8
0
100
AcDbBlockBegin
  2
*PAPER_SPACE
 70
     0
 10
0.0
 20
0.0
 30
0.0
  3
*PAPER_SPACE
  1

  0
ENDBLK
  5
104
330
101
100
AcDbEntity
 67
     1
  8
0
100
AcDbBlockEnd
  0
BLOCK
  5
5D
330
59
100
AcDbEntity
  8
0
100
AcDbBlockBegin
  2
_OPEN30
 70
     0
 10
0.0
 20
0.0
 30
0.0
  3
_OPEN30
  1

  0
LINE
  5
5A
330
59
100
AcDbEntity
  8
0
 62
     0
100
AcDbLine
 10
-1.0
 20
0.26794919
 30
0.0
 11
0.0
 21
0.0
 31
0.0
  0
LINE
  5
5B
330
59
100
AcDbEntity
  8
0
 62
     0
100
AcDbLine
 10
0.0
 20
0.0
 30
0.0
 11
-1.0
 21
-0.26794919
 31
0.0
  0
LINE
  5
5C
330
59
100
AcDbEntity
  8
0
 62
     0
100
AcDbLine
 10
0.0
 20
0.0
 30
0.0
 11
-1.0
 21
0.0
 31
0.0
  0
ENDBLK
  5
5E
330
59
100
AcDbEntity
  8
0
100
AcDbBlockEnd
  0
BLOCK
  5
66
330
64
100
AcDbEntity
  8
0
100
AcDbBlockBegin
  2
GENAXEH
 70
     0
 10
0.0
 20
0.0
 30
0.0
  3
GENAXEH
  1

  0
LINE
  5
65
330
64
100
AcDbEntity
  8
0
100
AcDbLine
 10
-1.0
 20
0.0
 30
0.0
 11
1.0
 21
0.0
 31
0.0
  0
ENDBLK
  5
67
330
64
100
AcDbEntity
  8
0
100
AcDbBlockEnd
  0
BLOCK
  5
2D20
330
2D16
100
AcDbEntity
  8
0
100
AcDbBlockBegin
  2
*D7
 70
     1
 10
0.0
 20
0.0
 30
0.0
  3
*D7
  1

  0
LINE
  5
382C
330
2D16
100
AcDbEntity
  8
AM_5
100
AcDbLine
 10
0.0000000000003967
 20
-7.999999999998988
 30
0.0
 11
0.0000000000003958
 21
-23.00000100999878
 31
0.0
  0
LINE
  5
382D
330
2D16
100
AcDbEntity
  8
AM_5
100
AcDbLine
 10
-39.34560213853521
 20
-8.43831374379522
 30
0.0
 11
-39.34560213853521
 21
-23.00000100999878
 31
0.0
  0
LINE
  5
382E
330
2D16
100
AcDbEntity
  8
AM_5
100
AcDbLine
 10
-2.499999999999604
 20
-22.00000100999878
 30
0.0
 11
-36.84560213853521
 21
-22.00000100999878
 31
0.0
  0
INSERT
  5
382F
330
2D16
100
AcDbEntity
  8
AM_5
100
AcDbBlockReference
  2
_OPEN30
 10
0.0000000000003959
 20
-22.00000100999878
 30
0.0
 41
2.5
 42
2.5
 43
2.5
  0
INSERT
  5
3830
330
2D16
100
AcDbEntity
  8
AM_5
100
AcDbBlockReference
  2
_OPEN30
 10
-39.34560213853521
 20
-22.00000100999878
 30
0.0
 41
2.5
 42
2.5
 43
2.5
 50
180.0
  0
MTEXT
  5
3831
330
2D16
100
AcDbEntity
  8
AM_5
 62
     2
100
AcDbMText
 10
-19.6728010692674
 20
-18.90000100999878
 30
0.0
 40
3.2
 41
0.0
 71
     5
 72
     1
  1
39.346
  7
ASAMI
1001
ACAD
1000
MTEXTBEGIN
1070
    73
1070
     1
1070
    44
1040
1.0
1070
    74
1070
     0
1000
MTEXTEND
  0
POINT
  5
3832
330
2D16
100
AcDbEntity
  8
DEFPOINTS
 62
     0
100
AcDbPoint
 10
0.0000000000003968
 20
-6.999999999998988
 30
0.0
  0
POINT
  5
3833
330
2D16
100
AcDbEntity
  8
DEFPOINTS
 62
     0
100
AcDbPoint
 10
-39.34560213853521
 20
-7.43831374379522
 30
0.0
  0
POINT
  5
3834
330
2D16
100
AcDbEntity
  8
DEFPOINTS
 62
     0
100
AcDbPoint
 10
-39.34560213853521
 20
-22.00000100999878
 30
0.0
  0
ENDBLK
  5
2D21
330
2D16
100
AcDbEntity
  8
0
100
AcDbBlockEnd
  0
BLOCK
  5
2E98
330
2E8E
100
AcDbEntity
  8
0
100
AcDbBlockBegin
  2
*D9
 70
     1
 10
0.0
 20
0.0
 30
0.0
  3
*D9
  1

  0
LINE
  5
3604
330
2E8E
100
AcDbEntity
  8
AM_5
100
AcDbLine
 10
-110.000000000002
 20
-7.999999999998797
 30
0.0
 11
-110.000000000002
 21
-35.00000100999872
 31
0.0
  0
LINE
  5
3605
330
2E8E
100
AcDbEntity
  8
AM_5
100
AcDbLine
 10
-0.0000000000021041
 20
-8.000000000000666
 30
0.0
 11
-0.0000000000021058
 21
-35.00000100999872
 31
0.0
  0
LINE
  5
3606
330
2E8E
100
AcDbEntity
  8
AM_5
100
AcDbLine
 10
-107.500000000002
 20
-34.00000100999872
 30
0.0
 11
-2.500000000002105
 21
-34.00000100999872
 31
0.0
  0
INSERT
  5
3607
330
2E8E
100
AcDbEntity
  8
AM_5
100
AcDbBlockReference
  2
_OPEN30
 10
-110.000000000002
 20
-34.00000100999872
 30
0.0
 41
2.5
 42
2.5
 43
2.5
 50
180.0
  0
INSERT
  5
3608
330
2E8E
100
AcDbEntity
  8
AM_5
100
AcDbBlockReference
  2
_OPEN30
 10
-0.0000000000021057
 20
-34.00000100999872
 30
0.0
 41
2.5
 42
2.5
 43
2.5
  0
MTEXT
  5
3609
330
2E8E
100
AcDbEntity
  8
AM_5
 62
     2
100
AcDbMText
 10
-55.00000000000207
 20
-30.90000100999872
 30
0.0
 40
3.2
 41
0.0
 71
     5
 72
     1
  1
110
  7
ASAMI
1001
ACAD
1000
MTEXTBEGIN
1070
    73
1070
     1
1070
    44
1040
1.0
1070
    74
1070
     0
1000
MTEXTEND
  0
POINT
  5
360A
330
2E8E
100
AcDbEntity
  8
DEFPOINTS
 62
     0
100
AcDbPoint
 10
-110.000000000002
 20
-6.999999999998797
 30
0.0
  0
POINT
  5
360B
330
2E8E
100
AcDbEntity
  8
DEFPOINTS
 62
     0
100
AcDbPoint
 10
-0.0000000000021041
 20
-7.000000000000666
 30
0.0
  0
POINT
  5
360C
330
2E8E
100
AcDbEntity
  8
DEFPOINTS
 62
     0
100
AcDbPoint
 10
-0.0000000000021057
 20
-34.00000100999872
 30
0.0
  0
ENDBLK
  5
2E99
330
2E8E
100
AcDbEntity
  8
0
100
AcDbBlockEnd
  0
BLOCK
  5
344E
330
3444
100
AcDbEntity
  8
0
100
AcDbBlockBegin
  2
*D10
 70
     1
 10
0.0
 20
0.0
 30
0.0
  3
*D10
  1

  0
LINE
  5
3450
330
3444
100
AcDbEntity
  8
AM_5
100
AcDbLine
 10
0.9999999999983195
 20
7.500000000001278
 30
0.0
 11
18.12578914778185
 21
7.500000000001273
 31
0.0
  0
LINE
  5
3451
330
3444
100
AcDbEntity
  8
AM_5
100
AcDbLine
 10
1.000000000000396
 20
-7.499999999998915
 30
0.0
 11
18.12578914778185
 21
-7.49999999999892
 31
0.0
  0
LINE
  5
3452
330
3444
100
AcDbEntity
  8
AM_5
100
AcDbLine
 10
17.12578914778185
 20
5.000000000001274
 30
0.0
 11
17.12578914778185
 21
-4.999999999998919
 31
0.0
  0
INSERT
  5
3453
330
3444
100
AcDbEntity
  8
AM_5
100
AcDbBlockReference
  2
_OPEN30
 10
17.12578914778185
 20
7.500000000001274
 30
0.0
 41
2.5
 42
2.5
 43
2.5
 50
90.0
  0
INSERT
  5
3454
330
3444
100
AcDbEntity
  8
AM_5
100
AcDbBlockReference
  2
_OPEN30
 10
17.12578914778185
 20
-7.499999999998919
 30
0.0
 41
2.5
 42
2.5
 43
2.5
 50
270.0
  0
MTEXT
  5
3455
330
3444
100
AcDbEntity
  8
AM_5
 62
     2
100
AcDbMText
 10
14.02578914778185
 20
0.0000000000011802
 30
0.0
 40
3.2
 41
0.0
 71
     5
 72
     1
  1
%%c15
  7
ASAMI
 11
0.0000000000000001
 21
1.0
 31
0.0
1001
ACAD
1000
MTEXTBEGIN
1070
    73
1070
     1
1070
    44
1040
1.0
1070
    74
1070
     0
1000
MTEXTEND
  0
POINT
  5
3456
330
3444
100
AcDbEntity
  8
DEFPOINTS
 62
     0
100
AcDbPoint
 10
-0.0000000000016804
 20
7.500000000001278
 30
0.0
  0
POINT
  5
3457
330
3444
100
AcDbEntity
  8
DEFPOINTS
 62
     0
100
AcDbPoint
 10
0.0000000000003968
 20
-7.499999999998915
 30
0.0
  0
POINT
  5
3458
330
3444
100
AcDbEntity
  8
DEFPOINTS
 62
     0
100
AcDbPoint
 10
17.12578914778185
 20
-7.499999999998919
 30
0.0
  0
ENDBLK
  5
344F
330
3444
100
AcDbEntity
  8
0
100
AcDbBlockEnd
  0
BLOCK
  5
3A70
330
3A66
100
AcDbEntity
  8
0
100
AcDbBlockBegin
  2
*D13
 70
     1
 10
0.0
 20
0.0
 30
0.0
  3
*D13
  1

  0
LINE
  5
3A7F
330
3A66
100
AcDbEntity
  8
AM_5
100
AcDbLine
 10
0.0000000000004043
 20
-7.999999999998988
 30
0.0
 11
0.0000000000004034
 21
-23.00000100999878
 31
0.0
  0
LINE
  5
3A80
330
3A66
100
AcDbEntity
  8
AM_5
100
AcDbLine
 10
-39.99959552537509
 20
-8.43831374379522
 30
0.0
 11
-39.99959552537509
 21
-23.00000100999878
 31
0.0
  0
LINE
  5
3A81
330
3A66
100
AcDbEntity
  8
AM_5
100
AcDbLine
 10
-2.499999999999596
 20
-22.00000100999878
 30
0.0
 11
-37.4995955253751
 21
-22.00000100999878
 31
0.0
  0
INSERT
  5
3A82
330
3A66
100
AcDbEntity
  8
AM_5
100
AcDbBlockReference
  2
_OPEN30
 10
0.0000000000004034
 20
-22.00000100999878
 30
0.0
 41
2.5
 42
2.5
 43
2.5
  0
INSERT
  5
3A83
330
3A66
100
AcDbEntity
  8
AM_5
100
AcDbBlockReference
  2
_OPEN30
 10
-39.99959552537509
 20
-22.00000100999878
 30
0.0
 41
2.5
 42
2.5
 43
2.5
 50
180.0
  0
MTEXT
  5
3A84
330
3A66
100
AcDbEntity
  8
AM_5
 62
     2
100
AcDbMText
 10
-19.99979776268734
 20
-18.90000100999878
 30
0.0
 40
3.2
 41
0.0
 71
     5
 72
     1
  1
40
  7
ASAMI
1001
ACAD
1000
MTEXTBEGIN
1070
    73
1070
     1
1070
    44
1040
1.0
1070
    74
1070
     0
1000
MTEXTEND
  0
POINT
  5
3A85
330
3A66
100
AcDbEntity
  8
DEFPOINTS
 62
     0
100
AcDbPoint
 10
0.0000000000004043
 20
-6.999999999998988
 30
0.0
  0
POINT
  5
3A86
330
3A66
100
AcDbEntity
  8
DEFPOINTS
 62
     0
100
AcDbPoint
 10
-39.99959552537509
 20
-7.43831374379522
 30
0.0
  0
POINT
  5
3A87
330
3A66
100
AcDbEntity
  8
DEFPOINTS
 62
     0
100
AcDbPoint
 10
-39.99959552537509
 20
-22.00000100999878
 30
0.0
  0
ENDBLK
  5
3A71
330
3A66
100
AcDbEntity
  8
0
100
AcDbBlockEnd
  0
BLOCK
  5
3A7D
330
3A73
100
AcDbEntity
  8
0
100
AcDbBlockBegin
  2
*D14
 70
     1
 10
0.0
 20
0.0
 30
0.0
  3
*D14
  1

  0
LINE
  5
3A88
330
3A73
100
AcDbEntity
  8
AM_5
100
AcDbLine
 10
0.9999999999982925
 20
7.500000000001278
 30
0.0
 11
18.41045000536965
 21
7.500000000001273
 31
0.0
  0
LINE
  5
3A89
330
3A73
100
AcDbEntity
  8
AM_5
100
AcDbLine
 10
1.000000000000404
 20
-7.499999999998915
 30
0.0
 11
18.41045000536965
 21
-7.49999999999892
 31
0.0
  0
LINE
  5
3A8A
330
3A73
100
AcDbEntity
  8
AM_5
100
AcDbLine
 10
17.41045000536965
 20
5.000000000001274
 30
0.0
 11
17.41045000536965
 21
-4.999999999998919
 31
0.0
  0
INSERT
  5
3A8B
330
3A73
100
AcDbEntity
  8
AM_5
100
AcDbBlockReference
  2
_OPEN30
 10
17.41045000536965
 20
7.500000000001274
 30
0.0
 41
2.5
 42
2.5
 43
2.5
 50
90.0
  0
INSERT
  5
3A8C
330
3A73
100
AcDbEntity
  8
AM_5
100
AcDbBlockReference
  2
_OPEN30
 10
17.41045000536965
 20
-7.499999999998919
 30
0.0
 41
2.5
 42
2.5
 43
2.5
 50
270.0
  0
MTEXT
  5
3A8D
330
3A73
100
AcDbEntity
  8
AM_5
 62
     2
100
AcDbMText
 10
14.31045000536965
 20
0.0000000000011801
 30
0.0
 40
3.2
 41
0.0
 71
     5
 72
     1
  1
%%c15
  7
ASAMI
 11
0.0000000000000001
 21
1.0
 31
0.0
1001
ACAD
1000
MTEXTBEGIN
1070
    73
1070
     1
1070
    44
1040
1.0
1070
    74
1070
     0
1000
MTEXTEND
  0
POINT
  5
3A8E
330
3A73
100
AcDbEntity
  8
DEFPOINTS
 62
     0
100
AcDbPoint
 10
-0.0000000000017074
 20
7.500000000001278
 30
0.0
  0
POINT
  5
3A8F
330
3A73
100
AcDbEntity
  8
DEFPOINTS
 62
     0
100
AcDbPoint
 10
0.0000000000004043
 20
-7.499999999998915
 30
0.0
  0
POINT
  5
3A90
330
3A73
100
AcDbEntity
  8
DEFPOINTS
 62
     0
100
AcDbPoint
 10
17.41045000536965
 20
-7.499999999998919
 30
0.0
  0
ENDBLK
  5
3A7E
330
3A73
100
AcDbEntity
  8
0
100
AcDbBlockEnd
  0
BLOCK
  5
3C31
330
3C27
100
AcDbEntity
  8
0
100
AcDbBlockBegin
  2
*D17
 70
     1
 10
0.0
 20
0.0
 30
0.0
  3
*D17
  1

  0
LINE
  5
3C49
330
3C27
100
AcDbEntity
  8
AM_5
100
AcDbLine
 10
0.0000000000004043
 20
-8.466666666665588
 30
0.0
 11
0.0000000000004033
 21
-24.4666677439987
 31
0.0
  0
LINE
  5
3C4A
330
3C27
100
AcDbEntity
  8
AM_5
100
AcDbLine
 10
-39.99959552537509
 20
-8.934201326714902
 30
0.0
 11
-39.99959552537509
 21
-24.4666677439987
 31
0.0
  0
LINE
  5
3C4B
330
3C27
100
AcDbEntity
  8
AM_5
100
AcDbLine
 10
-2.499999999999596
 20
-23.4666677439987
 30
0.0
 11
-37.4995955253751
 21
-23.4666677439987
 31
0.0
  0
INSERT
  5
3C4C
330
3C27
100
AcDbEntity
  8
AM_5
100
AcDbBlockReference
  2
_OPEN30
 10
0.0000000000004034
 20
-23.4666677439987
 30
0.0
 41
2.5
 42
2.5
 43
2.5
  0
INSERT
  5
3C4D
330
3C27
100
AcDbEntity
  8
AM_5
100
AcDbBlockReference
  2
_OPEN30
 10
-39.99959552537509
 20
-23.4666677439987
 30
0.0
 41
2.5
 42
2.5
 43
2.5
 50
180.0
  0
MTEXT
  5
3C4E
330
3C27
100
AcDbEntity
  8
AM_5
 62
     2
100
AcDbMText
 10
-19.99979776268734
 20
-20.3666677439987
 30
0.0
 40
3.2
 41
0.0
 71
     5
 72
     1
  1
40
  7
ASAMI
1001
ACAD
1000
MTEXTBEGIN
1070
    73
1070
     1
1070
    44
1040
1.0
1070
    74
1070
     0
1000
MTEXTEND
  0
POINT
  5
3C4F
330
3C27
100
AcDbEntity
  8
DEFPOINTS
 62
     0
100
AcDbPoint
 10
0.0000000000004043
 20
-7.466666666665587
 30
0.0
  0
POINT
  5
3C50
330
3C27
100
AcDbEntity
  8
DEFPOINTS
 62
     0
100
AcDbPoint
 10
-39.99959552537509
 20
-7.934201326714901
 30
0.0
  0
POINT
  5
3C51
330
3C27
100
AcDbEntity
  8
DEFPOINTS
 62
     0
100
AcDbPoint
 10
-39.99959552537509
 20
-23.4666677439987
 30
0.0
  0
ENDBLK
  5
3C32
330
3C27
100
AcDbEntity
  8
0
100
AcDbBlockEnd
  0
BLOCK
  5
3C3E
330
3C34
100
AcDbEntity
  8
0
100
AcDbBlockBegin
  2
*D18
 70
     1
 10
0.0
 20
0.0
 30
0.0
  3
*D18
  1

  0
LINE
  5
3C52
330
3C34
100
AcDbEntity
  8
AM_5
100
AcDbLine
 10
0.9999999999982925
 20
8.000000000001364
 30
0.0
 11
18.41045000536965
 21
8.000000000001358
 31
0.0
  0
LINE
  5
3C53
330
3C34
100
AcDbEntity
  8
AM_5
100
AcDbLine
 10
1.000000000000404
 20
-7.999999999998842
 30
0.0
 11
18.41045000536965
 21
-7.999999999998848
 31
0.0
  0
LINE
  5
3C54
330
3C34
100
AcDbEntity
  8
AM_5
100
AcDbLine
 10
17.41045000536965
 20
5.500000000001358
 30
0.0
 11
17.41045000536965
 21
-5.499999999998847
 31
0.0
  0
INSERT
  5
3C55
330
3C34
100
AcDbEntity
  8
AM_5
100
AcDbBlockReference
  2
_OPEN30
 10
17.41045000536965
 20
8.000000000001358
 30
0.0
 41
2.5
 42
2.5
 43
2.5
 50
90.0
  0
INSERT
  5
3C56
330
3C34
100
AcDbEntity
  8
AM_5
100
AcDbBlockReference
  2
_OPEN30
 10
17.41045000536965
 20
-7.999999999998847
 30
0.0
 41
2.5
 42
2.5
 43
2.5
 50
270.0
  0
MTEXT
  5
3C57
330
3C34
100
AcDbEntity
  8
AM_5
 62
     2
100
AcDbMText
 10
14.31045000536965
 20
0.0000000000012588
 30
0.0
 40
3.2
 41
0.0
 71
     5
 72
     1
  1
%%c16
  7
ASAMI
 11
0.0000000000000001
 21
1.0
 31
0.0
1001
ACAD
1000
MTEXTBEGIN
1070
    73
1070
     1
1070
    44
1040
1.0
1070
    74
1070
     0
1000
MTEXTEND
  0
POINT
  5
3C58
330
3C34
100
AcDbEntity
  8
DEFPOINTS
 62
     0
100
AcDbPoint
 10
-0.0000000000017074
 20
8.000000000001364
 30
0.0
  0
POINT
  5
3C59
330
3C34
100
AcDbEntity
  8
DEFPOINTS
 62
     0
100
AcDbPoint
 10
0.0000000000004043
 20
-7.999999999998842
 30
0.0
  0
POINT
  5
3C5A
330
3C34
100
AcDbEntity
  8
DEFPOINTS
 62
     0
100
AcDbPoint
 10
17.41045000536965
 20
-7.999999999998847
 30
0.0
  0
ENDBLK
  5
3C3F
330
3C34
100
AcDbEntity
  8
0
100
AcDbBlockEnd
  0
BLOCK
  5
3CBA
330
3CB0
100
AcDbEntity
  8
0
100
AcDbBlockBegin
  2
*D22
 70
     1
 10
0.0
 20
0.0
 30
0.0
  3
*D22
  1

  0
LINE
  5
3CF8
330
3CB0
100
AcDbEntity
  8
AM_5
100
AcDbLine
 10
0.0000000000003978
 20
-10.37499999999905
 30
0.0
 11
0.0000000000003962
 21
-37.00000100999899
 31
0.0
  0
LINE
  5
3CF9
330
3CB0
100
AcDbEntity
  8
AM_5
100
AcDbLine
 10
-132.0000000000021
 20
-9.749999999998745
 30
0.0
 11
-132.0000000000021
 21
-37.00000100999899
 31
0.0
  0
LINE
  5
3CFA
330
3CB0
100
AcDbEntity
  8
AM_5
100
AcDbLine
 10
-2.499999999999603
 20
-36.00000100999899
 30
0.0
 11
-129.5000000000021
 21
-36.00000100999899
 31
0.0
  0
INSERT
  5
3CFB
330
3CB0
100
AcDbEntity
  8
AM_5
100
AcDbBlockReference
  2
_OPEN30
 10
0.0000000000003963
 20
-36.00000100999899
 30
0.0
 41
2.5
 42
2.5
 43
2.5
  0
INSERT
  5
3CFC
330
3CB0
100
AcDbEntity
  8
AM_5
100
AcDbBlockReference
  2
_OPEN30
 10
-132.0000000000021
 20
-36.00000100999899
 30
0.0
 41
2.5
 42
2.5
 43
2.5
 50
180.0
  0
MTEXT
  5
3CFD
330
3CB0
100
AcDbEntity
  8
AM_5
 62
     2
100
AcDbMText
 10
-66.00000000000085
 20
-32.90000100999899
 30
0.0
 40
3.2
 41
0.0
 71
     5
 72
     1
  1
132
  7
ASAMI
1001
ACAD
1000
MTEXTBEGIN
1070
    73
1070
     1
1070
    44
1040
1.0
1070
    74
1070
     0
1000
MTEXTEND
  0
POINT
  5
3CFE
330
3CB0
100
AcDbEntity
  8
DEFPOINTS
 62
     0
100
AcDbPoint
 10
0.0000000000003979
 20
-9.374999999999054
 30
0.0
  0
POINT
  5
3CFF
330
3CB0
100
AcDbEntity
  8
DEFPOINTS
 62
     0
100
AcDbPoint
 10
-132.0000000000021
 20
-8.749999999998745
 30
0.0
  0
POINT
  5
3D00
330
3CB0
100
AcDbEntity
  8
DEFPOINTS
 62
     0
100
AcDbPoint
 10
-132.0000000000021
 20
-36.00000100999899
 30
0.0
  0
ENDBLK
  5
3CBB
330
3CB0
100
AcDbEntity
  8
0
100
AcDbBlockEnd
  0
BLOCK
  5
3CC6
330
3CBC
100
AcDbEntity
  8
0
100
AcDbBlockBegin
  2
*D23
 70
     1
 10
0.0
 20
0.0
 30
0.0
  3
*D23
  1

  0
LINE
  5
405C
330
3CBC
100
AcDbEntity
  8
AM_5
100
AcDbLine
 10
-132.0000000000021
 20
-9.749999999998745
 30
0.0
 11
-132.0000000000021
 21
-25.41666666666571
 31
0.0
  0
LINE
  5
405D
330
3CBC
100
AcDbEntity
  8
AM_5
100
AcDbLine
 10
-62.00000000000212
 20
-10.999999999999
 30
0.0
 11
-62.00000000000212
 21
-25.41666666666571
 31
0.0
  0
LINE
  5
405E
330
3CBC
100
AcDbEntity
  8
AM_5
100
AcDbLine
 10
-129.5000000000021
 20
-24.41666666666571
 30
0.0
 11
-64.50000000000212
 21
-24.41666666666571
 31
0.0
  0
INSERT
  5
405F
330
3CBC
100
AcDbEntity
  8
AM_5
100
AcDbBlockReference
  2
_OPEN30
 10
-132.0000000000021
 20
-24.41666666666571
 30
0.0
 41
2.5
 42
2.5
 43
2.5
 50
180.0
  0
INSERT
  5
4060
330
3CBC
100
AcDbEntity
  8
AM_5
100
AcDbBlockReference
  2
_OPEN30
 10
-62.00000000000212
 20
-24.41666666666571
 30
0.0
 41
2.5
 42
2.5
 43
2.5
  0
MTEXT
  5
4061
330
3CBC
100
AcDbEntity
  8
AM_5
 62
     2
100
AcDbMText
 10
-97.0000000000021
 20
-21.31666666666571
 30
0.0
 40
3.2
 41
0.0
 71
     5
 72
     1
  1
70
  7
ASAMI
1001
ACAD
1000
MTEXTBEGIN
1070
    73
1070
     1
1070
    44
1040
1.0
1070
    74
1070
     0
1000
MTEXTEND
  0
POINT
  5
4062
330
3CBC
100
AcDbEntity
  8
DEFPOINTS
 62
     0
100
AcDbPoint
 10
-132.0000000000021
 20
-8.749999999998745
 30
0.0
  0
POINT
  5
4063
330
3CBC
100
AcDbEntity
  8
DEFPOINTS
 62
     0
100
AcDbPoint
 10
-62.00000000000212
 20
-9.999999999999007
 30
0.0
  0
POINT
  5
4064
330
3CBC
100
AcDbEntity
  8
DEFPOINTS
 62
     0
100
AcDbPoint
 10
-62.00000000000212
 20
-24.41666666666571
 30
0.0
  0
ENDBLK
  5
3CC7
330
3CBC
100
AcDbEntity
  8
0
100
AcDbBlockEnd
  0
BLOCK
  5
3CD2
330
3CC8
100
AcDbEntity
  8
0
100
AcDbBlockBegin
  2
*D24
 70
     1
 10
0.0
 20
0.0
 30
0.0
  3
*D24
  1

  0
LINE
  5
4065
330
3CC8
100
AcDbEntity
  8
AM_5
100
AcDbLine
 10
-132.0000000000021
 20
-9.999999999998744
 30
0.0
 11
-147.0000010000021
 21
-9.99999999999874
 31
0.0
  0
LINE
  5
4066
330
3CC8
100
AcDbEntity
  8
AM_5
100
AcDbLine
 10
-132.000000000002
 20
10.00000000000118
 30
0.0
 11
-147.0000010000021
 21
10.00000000000118
 31
0.0
  0
LINE
  5
4067
330
3CC8
100
AcDbEntity
  8
AM_5
100
AcDbLine
 10
-146.0000010000021
 20
-7.499999999998739
 30
0.0
 11
-146.0000010000021
 21
7.500000000001189
 31
0.0
  0
INSERT
  5
4068
330
3CC8
100
AcDbEntity
  8
AM_5
100
AcDbBlockReference
  2
_OPEN30
 10
-146.0000010000021
 20
-9.99999999999874
 30
0.0
 41
2.5
 42
2.5
 43
2.5
 50
270.0
  0
INSERT
  5
4069
330
3CC8
100
AcDbEntity
  8
AM_5
100
AcDbBlockReference
  2
_OPEN30
 10
-146.0000010000021
 20
10.00000000000118
 30
0.0
 41
2.5
 42
2.5
 43
2.5
 50
90.0
  0
MTEXT
  5
406A
330
3CC8
100
AcDbEntity
  8
AM_5
 62
     2
100
AcDbMText
 10
-149.100001000002
 20
0.0000000000012013
 30
0.0
 40
3.2
 41
0.0
 71
     5
 72
     1
  1
%%c20
  7
ASAMI
 11
0.0000000000000001
 21
1.0
 31
0.0
1001
ACAD
1000
MTEXTBEGIN
1070
    73
1070
     1
1070
    44
1040
1.0
1070
    74
1070
     0
1000
MTEXTEND
  0
POINT
  5
406B
330
3CC8
100
AcDbEntity
  8
DEFPOINTS
 62
     0
100
AcDbPoint
 10
-131.0000000000021
 20
-9.999999999998745
 30
0.0
  0
POINT
  5
406C
330
3CC8
100
AcDbEntity
  8
DEFPOINTS
 62
     0
100
AcDbPoint
 10
-131.000000000002
 20
10.00000000000118
 30
0.0
  0
POINT
  5
406D
330
3CC8
100
AcDbEntity
  8
DEFPOINTS
 62
     0
100
AcDbPoint
 10
-146.0000010000021
 20
10.00000000000118
 30
0.0
  0
ENDBLK
  5
3CD3
330
3CC8
100
AcDbEntity
  8
0
100
AcDbBlockEnd
  0
BLOCK
  5
3E43
330
3E39
100
AcDbEntity
  8
0
100
AcDbBlockBegin
  2
*D26
 70
     1
 10
0.0
 20
0.0
 30
0.0
  3
*D26
  1

  0
LINE
  5
3ECB
330
3E39
100
AcDbEntity
  8
AM_5
100
AcDbLine
 10
0.0000000000005196
 20
-9.999999999998697
 30
0.0
 11
0.0000000000005186
 21
-25.0000010099988
 31
0.0
  0
LINE
  5
3ECC
330
3E39
100
AcDbEntity
  8
AM_5
100
AcDbLine
 10
-50.00049440671886
 20
-8.746004812884876
 30
0.0
 11
-50.00049440671886
 21
-25.0000010099988
 31
0.0
  0
LINE
  5
3ECD
330
3E39
100
AcDbEntity
  8
AM_5
100
AcDbLine
 10
-2.499999999999481
 20
-24.00000100999879
 30
0.0
 11
-47.50049440671886
 21
-24.00000100999879
 31
0.0
  0
INSERT
  5
3ECE
330
3E39
100
AcDbEntity
  8
AM_5
100
AcDbBlockReference
  2
_OPEN30
 10
0.0000000000005187
 20
-24.00000100999879
 30
0.0
 41
2.5
 42
2.5
 43
2.5
  0
INSERT
  5
3ECF
330
3E39
100
AcDbEntity
  8
AM_5
100
AcDbBlockReference
  2
_OPEN30
 10
-50.00049440671886
 20
-24.00000100999879
 30
0.0
 41
2.5
 42
2.5
 43
2.5
 50
180.0
  0
MTEXT
  5
3ED0
330
3E39
100
AcDbEntity
  8
AM_5
 62
     2
100
AcDbMText
 10
-25.00024720335916
 20
-20.90000100999879
 30
0.0
 40
3.2
 41
0.0
 71
     5
 72
     1
  1
50
  7
ASAMI
1001
ACAD
1000
MTEXTBEGIN
1070
    73
1070
     1
1070
    44
1040
1.0
1070
    74
1070
     0
1000
MTEXTEND
  0
POINT
  5
3ED1
330
3E39
100
AcDbEntity
  8
DEFPOINTS
 62
     0
100
AcDbPoint
 10
0.0000000000005196
 20
-8.999999999998697
 30
0.0
  0
POINT
  5
3ED2
330
3E39
100
AcDbEntity
  8
DEFPOINTS
 62
     0
100
AcDbPoint
 10
-50.00049440671886
 20
-7.746004812884876
 30
0.0
  0
POINT
  5
3ED3
330
3E39
100
AcDbEntity
  8
DEFPOINTS
 62
     0
100
AcDbPoint
 10
-50.00049440671886
 20
-24.00000100999879
 30
0.0
  0
ENDBLK
  5
3E44
330
3E39
100
AcDbEntity
  8
0
100
AcDbBlockEnd
  0
BLOCK
  5
3E51
330
3E47
100
AcDbEntity
  8
0
100
AcDbBlockBegin
  2
*D27
 70
     1
 10
0.0
 20
0.0
 30
0.0
  3
*D27
  1

  0
LINE
  5
3EC0
330
3E47
100
AcDbEntity
  8
AM_5
100
AcDbLine
 10
0.9999999999978799
 20
9.000000000001534
 30
0.0
 11
18.12578914778185
 21
9.000000000001529
 31
0.0
  0
LINE
  5
3EC1
330
3E47
100
AcDbEntity
  8
AM_5
100
AcDbLine
 10
1.000000000000519
 20
-8.999999999998697
 30
0.0
 11
18.12578914778185
 21
-8.999999999998703
 31
0.0
  0
LINE
  5
3EC2
330
3E47
100
AcDbEntity
  8
AM_5
100
AcDbLine
 10
17.12578914778185
 20
6.500000000001529
 30
0.0
 11
17.12578914778185
 21
-6.499999999998703
 31
0.0
  0
INSERT
  5
3EC3
330
3E47
100
AcDbEntity
  8
AM_5
100
AcDbBlockReference
  2
_OPEN30
 10
17.12578914778185
 20
9.000000000001529
 30
0.0
 41
2.5
 42
2.5
 43
2.5
 50
90.0
  0
INSERT
  5
3EC4
330
3E47
100
AcDbEntity
  8
AM_5
100
AcDbBlockReference
  2
_OPEN30
 10
17.12578914778184
 20
-8.999999999998703
 30
0.0
 41
2.5
 42
2.5
 43
2.5
 50
270.0
  0
MTEXT
  5
3EC5
330
3E47
100
AcDbEntity
  8
AM_5
 62
     2
100
AcDbMText
 10
14.02578914778185
 20
0.000000000001416
 30
0.0
 40
3.2
 41
0.0
 71
     5
 72
     1
  1
%%c18
  7
ASAMI
 11
0.0000000000000001
 21
1.0
 31
0.0
1001
ACAD
1000
MTEXTBEGIN
1070
    73
1070
     1
1070
    44
1040
1.0
1070
    74
1070
     0
1000
MTEXTEND
  0
POINT
  5
3EC6
330
3E47
100
AcDbEntity
  8
DEFPOINTS
 62
     0
100
AcDbPoint
 10
-0.0000000000021201
 20
9.000000000001534
 30
0.0
  0
POINT
  5
3EC7
330
3E47
100
AcDbEntity
  8
DEFPOINTS
 62
     0
100
AcDbPoint
 10
0.0000000000005196
 20
-8.999999999998697
 30
0.0
  0
POINT
  5
3EC8
330
3E47
100
AcDbEntity
  8
DEFPOINTS
 62
     0
100
AcDbPoint
 10
17.12578914778184
 20
-8.999999999998703
 30
0.0
  0
ENDBLK
  5
3E52
330
3E47
100
AcDbEntity
  8
0
100
AcDbBlockEnd
  0
BLOCK
  5
3F7B
330
3F71
100
AcDbEntity
  8
0
100
AcDbBlockBegin
  2
*D29
 70
     1
 10
0.0
 20
0.0
 30
0.0
  3
*D29
  1

  0
LINE
  5
4053
330
3F71
100
AcDbEntity
  8
AM_5
100
AcDbLine
 10
0.0000000000003978
 20
-11.41666666666561
 30
0.0
 11
0.0000000000003963
 21
-37.41666666666589
 31
0.0
  0
LINE
  5
4054
330
3F71
100
AcDbEntity
  8
AM_5
100
AcDbLine
 10
-132.0000000000021
 20
-10.72222222222082
 30
0.0
 11
-132.0000000000021
 21
-37.41666666666589
 31
0.0
  0
LINE
  5
4055
330
3F71
100
AcDbEntity
  8
AM_5
100
AcDbLine
 10
-2.499999999999603
 20
-36.41666666666589
 30
0.0
 11
-129.5000000000021
 21
-36.41666666666589
 31
0.0
  0
INSERT
  5
4056
330
3F71
100
AcDbEntity
  8
AM_5
100
AcDbBlockReference
  2
_OPEN30
 10
0.0000000000003963
 20
-36.41666666666589
 30
0.0
 41
2.5
 42
2.5
 43
2.5
  0
INSERT
  5
4057
330
3F71
100
AcDbEntity
  8
AM_5
100
AcDbBlockReference
  2
_OPEN30
 10
-132.0000000000021
 20
-36.41666666666589
 30
0.0
 41
2.5
 42
2.5
 43
2.5
 50
180.0
  0
MTEXT
  5
4058
330
3F71
100
AcDbEntity
  8
AM_5
 62
     2
100
AcDbMText
 10
-66.00000000000085
 20
-33.31666666666589
 30
0.0
 40
3.2
 41
0.0
 71
     5
 72
     1
  1
132
  7
ASAMI
1001
ACAD
1000
MTEXTBEGIN
1070
    73
1070
     1
1070
    44
1040
1.0
1070
    74
1070
     0
1000
MTEXTEND
  0
POINT
  5
4059
330
3F71
100
AcDbEntity
  8
DEFPOINTS
 62
     0
100
AcDbPoint
 10
0.0000000000003979
 20
-10.41666666666561
 30
0.0
  0
POINT
  5
405A
330
3F71
100
AcDbEntity
  8
DEFPOINTS
 62
     0
100
AcDbPoint
 10
-132.0000000000021
 20
-9.722222222220828
 30
0.0
  0
POINT
  5
405B
330
3F71
100
AcDbEntity
  8
DEFPOINTS
 62
     0
100
AcDbPoint
 10
-132.0000000000021
 20
-36.41666666666589
 30
0.0
  0
ENDBLK
  5
3F7C
330
3F71
100
AcDbEntity
  8
0
100
AcDbBlockEnd
  0
BLOCK
  5
3FFF
330
3FF5
100
AcDbEntity
  8
0
100
AcDbBlockBegin
  2
*D30
 70
     1
 10
0.0
 20
0.0
 30
0.0
  3
*D30
  1

  0
LINE
  5
406E
330
3FF5
100
AcDbEntity
  8
AM_5
100
AcDbLine
 10
0.9999999999978799
 20
10.0000000000017
 30
0.0
 11
15.00000099999916
 21
10.0000000000017
 31
0.0
  0
LINE
  5
406F
330
3FF5
100
AcDbEntity
  8
AM_5
100
AcDbLine
 10
1.000000000000519
 20
-9.999999999998554
 30
0.0
 11
15.00000099999916
 21
-9.999999999998559
 31
0.0
  0
LINE
  5
4070
330
3FF5
100
AcDbEntity
  8
AM_5
100
AcDbLine
 10
14.00000099999917
 20
7.500000000001701
 30
0.0
 11
14.00000099999916
 21
-7.499999999998557
 31
0.0
  0
INSERT
  5
4071
330
3FF5
100
AcDbEntity
  8
AM_5
100
AcDbBlockReference
  2
_OPEN30
 10
14.00000099999917
 20
10.0000000000017
 30
0.0
 41
2.5
 42
2.5
 43
2.5
 50
90.0
  0
INSERT
  5
4072
330
3FF5
100
AcDbEntity
  8
AM_5
100
AcDbBlockReference
  2
_OPEN30
 10
14.00000099999916
 20
-9.999999999998557
 30
0.0
 41
2.5
 42
2.5
 43
2.5
 50
270.0
  0
MTEXT
  5
4073
330
3FF5
100
AcDbEntity
  8
AM_5
 62
     2
100
AcDbMText
 10
10.90000099999916
 20
0.0000000000015752
 30
0.0
 40
3.2
 41
0.0
 71
     5
 72
     1
  1
%%c20
  7
ASAMI
 11
0.0000000000000001
 21
1.0
 31
0.0
1001
ACAD
1000
MTEXTBEGIN
1070
    73
1070
     1
1070
    44
1040
1.0
1070
    74
1070
     0
1000
MTEXTEND
  0
POINT
  5
4074
330
3FF5
100
AcDbEntity
  8
DEFPOINTS
 62
     0
100
AcDbPoint
 10
-0.0000000000021201
 20
10.0000000000017
 30
0.0
  0
POINT
  5
4075
330
3FF5
100
AcDbEntity
  8
DEFPOINTS
 62
     0
100
AcDbPoint
 10
0.0000000000005196
 20
-9.999999999998554
 30
0.0
  0
POINT
  5
4076
330
3FF5
100
AcDbEntity
  8
DEFPOINTS
 62
     0
100
AcDbPoint
 10
14.00000099999916
 20
-9.999999999998557
 30
0.0
  0
ENDBLK
  5
4000
330
3FF5
100
AcDbEntity
  8
0
100
AcDbBlockEnd
  0
BLOCK
  5
4020
330
4016
100
AcDbEntity
  8
0
100
AcDbBlockBegin
  2
*D31
 70
     1
 10
0.0
 20
0.0
 30
0.0
  3
*D31
  1

  0
LINE
  5
404A
330
4016
100
AcDbEntity
  8
AM_5
100
AcDbLine
 10
0.0000000000005196
 20
-10.99999999999855
 30
0.0
 11
0.0000000000005187
 21
-25.41666666666571
 31
0.0
  0
LINE
  5
404B
330
4016
100
AcDbEntity
  8
AM_5
100
AcDbLine
 10
-50.00049440671886
 20
-9.606672014316529
 30
0.0
 11
-50.00049440671886
 21
-25.41666666666571
 31
0.0
  0
LINE
  5
404C
330
4016
100
AcDbEntity
  8
AM_5
100
AcDbLine
 10
-2.499999999999481
 20
-24.41666666666572
 30
0.0
 11
-47.50049440671886
 21
-24.41666666666572
 31
0.0
  0
INSERT
  5
404D
330
4016
100
AcDbEntity
  8
AM_5
100
AcDbBlockReference
  2
_OPEN30
 10
0.0000000000005187
 20
-24.41666666666572
 30
0.0
 41
2.5
 42
2.5
 43
2.5
  0
INSERT
  5
404E
330
4016
100
AcDbEntity
  8
AM_5
100
AcDbBlockReference
  2
_OPEN30
 10
-50.00049440671886
 20
-24.41666666666572
 30
0.0
 41
2.5
 42
2.5
 43
2.5
 50
180.0
  0
MTEXT
  5
404F
330
4016
100
AcDbEntity
  8
AM_5
 62
     2
100
AcDbMText
 10
-25.00024720335916
 20
-21.31666666666571
 30
0.0
 40
3.2
 41
0.0
 71
     5
 72
     1
  1
50
  7
ASAMI
1001
ACAD
1000
MTEXTBEGIN
1070
    73
1070
     1
1070
    44
1040
1.0
1070
    74
1070
     0
1000
MTEXTEND
  0
POINT
  5
4050
330
4016
100
AcDbEntity
  8
DEFPOINTS
 62
     0
100
AcDbPoint
 10
0.0000000000005196
 20
-9.999999999998554
 30
0.0
  0
POINT
  5
4051
330
4016
100
AcDbEntity
  8
DEFPOINTS
 62
     0
100
AcDbPoint
 10
-50.00049440671886
 20
-8.606672014316529
 30
0.0
  0
POINT
  5
4052
330
4016
100
AcDbEntity
  8
DEFPOINTS
 62
     0
100
AcDbPoint
 10
-50.00049440671886
 20
-24.41666666666572
 30
0.0
  0
ENDBLK
  5
4021
330
4016
100
AcDbEntity
  8
0
100
AcDbBlockEnd
  0
ENDSEC
  0
SECTION
  2
ENTITIES
  0
TEXT
  5
C58
330
1F
100
AcDbEntity
  8
AM_6
100
AcDbText
 10
-87.30952380952464
 20
-58.91666666666597
 30
0.0
 40
5.0
  1
RMES4200C
 50
0.0000000000002036
 72
     4
 11
-66.00000000000085
 21
-56.41666666666589
 31
0.0
100
AcDbText
  0
LINE
  5
2A1C
330
1F
100
AcDbEntity
  8
AM_7
100
AcDbLine
 10
-136.2813109401927
 20
0.0000000000012031
 30
0.0
 11
3.125788147781861
 21
0.0000000000011897
 31
0.0
1001
GENIUS_GENODEF_13
1002
{
1000
HIER
1070
     0
1002
}
1002
{
1000
MANEDIT
1070
     0
1002
}
1002
{
1000
NOSEL
1070
     0
1002
}
1002
{
1000
BEHIND
1070
     0
1002
}
1002
{
1000
REACTOR
1002
}
1001
GENIUS_GENOBJ-N-CEN_13
1002
{
1000
OWNER
1000
GEN
1002
}
  0
LINE
  5
3CA3
330
1F
100
AcDbEntity
  8
AM_0
100
AcDbLine
 10
-131.0000000000021
 20
-9.999999999998745
 30
0.0
 11
-62.00000000000212
 21
-9.999999999998797
 31
0.0
  0
DIMENSION
  5
3CA4
330
1F
100
AcDbEntity
  8
AM_5
100
AcDbDimension
  2
*D23
 10
-62.00000000000212
 20
-24.41666666666571
 30
0.0
 11
-97.0000000000021
 21
-21.31666666666571
 31
0.0
 70
    32
  1
<>
  3
AM_JIS
100
AcDbAlignedDimension
 13
-132.0000000000021
 23
-8.749999999998745
 33
0.0
 14
-62.00000000000212
 24
-9.999999999999007
 34
0.0
 50
0.0000000000001415
100
AcDbRotatedDimension
1001
GENIUS_GENDTOL_13
1000

1000
h7
1000

1040
0.0
  0
DIMENSION
  5
3CA5
330
1F
100
AcDbEntity
  8
AM_5
100
AcDbDimension
  2
*D24
 10
-146.0000010000021
 20
10.00000000000118
 30
0.0
 11
-149.100001000002
 21
0.0000000000012013
 31
0.0
 70
    32
  1
%%c<>
  3
AM_JIS
100
AcDbAlignedDimension
 13
-131.0000000000021
 23
-9.999999999998745
 33
0.0
 14
-131.000000000002
 24
10.00000000000118
 34
0.0
 50
270.0
100
AcDbRotatedDimension
1001
GENIUS_GENDTOL_13
1000

1000
h7
1000

1040
0.0
  0
LINE
  5
3CA6
330
1F
100
AcDbEntity
  8
AM_0
100
AcDbLine
 10
-131.000000000002
 20
10.00000000000118
 30
0.0
 11
-131.0000000000021
 21
-9.999999999998745
 31
0.0
  0
LINE
  5
3CA7
330
1F
100
AcDbEntity
  8
AM_0
100
AcDbLine
 10
-132.0000000000021
 20
-8.749999999998745
 30
0.0
 11
-132.000000000002
 21
8.750000000001183
 31
0.0
  0
LINE
  5
3CA8
330
1F
100
AcDbEntity
  8
AM_0
100
AcDbLine
 10
-132.0000000000021
 20
-8.749999999998745
 30
0.0
 11
-131.0000000000021
 21
-9.999999999998745
 31
0.0
1001
GENIUS_GENFIL_13
1070
     0
1040
1.0
1040
1.0
1040
20.0
1040
0.0
1002
{
1002
}
1001
GENIUS_GENODEF_13
1002
{
1000
HIER
1070
     0
1002
}
1002
{
1000
MANEDIT
1070
     0
1002
}
1002
{
1000
NOSEL
1070
     0
1002
}
1002
{
1000
BEHIND
1070
     0
1002
}
1002
{
1000
REACTOR
1002
}
1001
GENIUS_GENOBJ-N-CHA_13
1002
{
1000
OWNER
1000
GEN
1002
}
  0
LINE
  5
3CA9
330
1F
100
AcDbEntity
  8
AM_0
100
AcDbLine
 10
-131.000000000002
 20
10.00000000000118
 30
0.0
 11
-62.00000000000205
 21
10.00000000000118
 31
0.0
  0
LINE
  5
3CAA
330
1F
100
AcDbEntity
  8
AM_0
100
AcDbLine
 10
-132.000000000002
 20
8.750000000001183
 30
0.0
 11
-131.000000000002
 21
10.00000000000118
 31
0.0
1001
GENIUS_GENFIL_13
1070
     0
1040
1.0
1040
1.0
1040
20.0
1040
0.0
1002
{
1002
}
1001
GENIUS_GENODEF_13
1002
{
1000
HIER
1070
     0
1002
}
1002
{
1000
MANEDIT
1070
     0
1002
}
1002
{
1000
NOSEL
1070
     0
1002
}
1002
{
1000
BEHIND
1070
     0
1002
}
1002
{
1000
REACTOR
1002
}
1001
GENIUS_GENOBJ-N-CHA_13
1002
{
1000
OWNER
1000
GEN
1002
}
  0
LINE
  5
3CAC
330
1F
100
AcDbEntity
  8
AM_0
100
AcDbLine
 10
-62.00000000000211
 20
-9.999999999998809
 30
0.0
 11
-62.00000000000204
 21
10.00000000000118
 31
0.0
  0
DIMENSION
  5
3F70
330
1F
100
AcDbEntity
  8
AM_5
100
AcDbDimension
  2
*D29
 10
-132.0000000000021
 20
-36.41666666666589
 30
0.0
 11
-66.00000000000085
 21
-33.31666666666589
 31
0.0
 70
    32
  1
<>
  3
AM_JIS
100
AcDbAlignedDimension
 13
0.0000000000003979
 23
-10.41666666666561
 33
0.0
 14
-132.0000000000021
 24
-9.722222222220828
 34
0.0
 50
0.0000000000001572
100
AcDbRotatedDimension
1001
GENIUS_GENDTOL_13
1000

1000
h7
1000

1040
0.0
  0
LINE
  5
3F7D
330
1F
100
AcDbEntity
  8
AM_0
100
AcDbLine
 10
-0.0000000000008153
 20
0.0000000000000012
 30
0.0
 11
-0.2001474101569014
 21
2.000000000000456
 31
0.0
  0
LINE
  5
3F7E
330
1F
100
AcDbEntity
  8
AM_0
100
AcDbLine
 10
-0.2001474101569014
 20
2.000000000000456
 30
0.0
 11
-2.03487812817018
 21
5.334281628021018
 31
0.0
  0
LINE
  5
3F7F
330
1F
100
AcDbEntity
  8
AM_0
100
AcDbLine
 10
-0.0000000000008153
 20
0.0000000000000012
 30
0.0
 11
-0.0000000000008153
 21
10.0
 31
0.0
  0
LINE
  5
3F80
330
1F
100
AcDbEntity
  8
AM_0
100
AcDbLine
 10
-5.241955980278353
 20
3.085599120304779
 30
0.0
 11
-5.241955980278353
 21
4.75432970105112
 31
0.0
  0
LINE
  5
3F81
330
1F
100
AcDbEntity
  8
AM_0
100
AcDbLine
 10
-9.05428760229838
 20
5.160290052663642
 30
0.0
 11
-9.05428760229838
 21
6.549154110289693
 31
0.0
  0
SPLINE
  5
3F82
330
1F
100
AcDbEntity
  8
AM_0
100
AcDbSpline
210
0.0
220
0.0
230
1.0
 70
     8
 71
     3
 72
     9
 73
     5
 74
     0
 42
0.0000000001
 43
0.0000000001
 40
0.0
 40
0.0
 40
0.0
 40
0.0
 40
1.862990800602817
 40
3.382267404545521
 40
3.382267404545521
 40
3.382267404545521
 40
3.382267404545521
 10
-5.241955980278353
 20
4.75432970105112
 30
0.0
 10
-5.887191315297032
 20
5.231037971462416
 30
0.0
 10
-6.886743625367156
 20
6.401785276313911
 30
0.0
 10
-8.413009629585147
 20
6.605893383224108
 30
0.0
 10
-9.05428760229838
 20
6.549154110289693
 30
0.0
  0
SPLINE
  5
3F83
330
1F
100
AcDbEntity
  8
AM_0
100
AcDbSpline
210
0.0
220
0.0
230
1.0
 70
     8
 71
     3
 72
     9
 73
     5
 74
     0
 42
0.0000000001
 43
0.0000000001
 40
0.0
 40
0.0
 40
0.0
 40
0.0
 40
1.59747099413338
 40
3.403889013946459
 40
3.403889013946459
 40
3.403889013946459
 40
3.403889013946459
 10
-5.241955980278353
 20
3.085599120304779
 30
0.0
 10
-5.897101111736562
 20
3.263275194905462
 30
0.0
 10
-7.290324373220688
 20
3.741335734298703
 30
0.0
 10
-8.42620391027183
 20
4.701718120807292
 30
0.0
 10
-9.05428760229838
 20
5.160290052663642
 30
0.0
  0
LINE
  5
3F84
330
1F
100
AcDbEntity
  8
AM_0
100
AcDbLine
 10
-0.0000000000008153
 20
0.0000000000000012
 30
0.0
 11
-4.492017417950163
 21
0.0000000000000012
 31
0.0
  0
SPLINE
  5
3F85
330
1F
100
AcDbEntity
  8
AM_0
100
AcDbSpline
210
0.0
220
0.0
230
1.0
 70
     8
 71
     3
 72
     8
 73
     4
 74
     0
 42
0.0000000001
 43
0.0000000001
 40
11.46537929237052
 40
11.46537929237052
 40
11.46537929237052
 40
11.46537929237052
 40
14.48999654934396
 40
14.48999654934396
 40
14.48999654934396
 40
14.48999654934396
 10
-5.24195598027922
 20
3.085599120305233
 30
0.0
 10
-3.489494111161481
 20
2.087383007079553
 30
0.0
 10
-1.744747055581147
 20
1.043691503539777
 30
0.0
 10
-0.0000000000008153
 20
0.0000000000004559
 30
0.0
  0
SPLINE
  5
3F86
330
1F
100
AcDbEntity
  8
AM_0
100
AcDbSpline
210
0.0
220
0.0
230
1.0
 70
     8
 71
     3
 72
     8
 73
     4
 74
     0
 42
0.0000000001
 43
0.0000000001
 40
0.0
 40
0.0
 40
0.0
 40
0.0
 40
3.835275104118792
 40
3.835275104118792
 40
3.835275104118792
 40
3.835275104118792
 10
-0.0000000000008153
 20
10.0
 30
0.0
 10
-2.436890093097231
 20
10.0
 30
0.0
 10
-4.814354325370175
 20
9.649711013425077
 30
0.0
 10
-7.148121791288366
 20
9.041849047823236
 30
0.0
  0
LINE
  5
3F87
330
1F
100
AcDbEntity
  8
AM_0
100
AcDbLine
 10
-2.03487812817018
 20
5.334281628021018
 30
0.0
 11
-4.492017417950163
 21
6.016906845056384
 31
0.0
  0
SPLINE
  5
3F88
330
1F
100
AcDbEntity
  8
AM_0
100
AcDbSpline
210
0.0
220
0.0
230
1.0
 70
     8
 71
     3
 72
     8
 73
     4
 74
     0
 42
0.0000000001
 43
0.0000000001
 40
0.0
 40
0.0
 40
0.0
 40
0.0
 40
4.294232294743062
 40
4.294232294743062
 40
4.294232294743062
 40
4.294232294743062
 10
-0.5718497433032994
 20
10.0
 30
0.0
 10
0.6797248878620128
 20
8.615045787285332
 30
0.0
 10
-2.699489760058349
 20
6.341355117301834
 30
0.0
 10
-4.492017417950163
 20
6.016906845056384
 30
0.0
  0
SPLINE
  5
3F89
330
1F
100
AcDbEntity
  8
AM_0
100
AcDbSpline
210
0.0
220
0.0
230
1.0
 70
     8
 71
     3
 72
     8
 73
     4
 74
     0
 42
0.0000000001
 43
0.0000000001
 40
9.532359626456116
 40
9.532359626456116
 40
9.532359626456116
 40
9.532359626456116
 40
12.40023413887867
 40
12.40023413887867
 40
12.40023413887867
 40
12.40023413887867
 10
-5.241955980294822
 20
4.75432970105976
 30
0.0
 10
-3.560227391393867
 20
3.902213877850955
 30
0.0
 10
-1.889218814924682
 20
2.985076061944711
 30
0.0
 10
-0.222664551154012
 20
2.04092071321793
 30
0.0
  0
LINE
  5
3F8A
330
1F
100
AcDbEntity
  8
AM_0
100
AcDbLine
 10
-0.2001474101569014
 20
-2.653795709125915
 30
0.0
 11
-0.0000000000008153
 21
-1.999999999999998
 31
0.0
  0
LINE
  5
3F8B
330
1F
100
AcDbEntity
  8
AM_0
100
AcDbLine
 10
-1.640175594135595
 20
-2.947309530332858
 30
0.0
 11
-0.2001474101569014
 21
-2.653795709125915
 31
0.0
  0
LINE
  5
3F8C
330
1F
100
AcDbEntity
  8
AM_0
100
AcDbLine
 10
-0.2001474101569014
 20
-9.466882315243308
 30
0.0
 11
-1.30572358054257
 21
-7.995233310923595
 31
0.0
  0
LINE
  5
3F8D
330
1F
100
AcDbEntity
  8
AM_0
100
AcDbLine
 10
-0.2001474101569014
 20
-9.466882315243308
 30
0.0
 11
-0.2001474101569014
 21
-2.653795709125915
 31
0.0
  0
ELLIPSE
  5
3F8E
330
1F
100
AcDbEntity
  8
AM_0
100
AcDbEllipse
 10
3.785022331419093
 20
-5.087760329435694
 30
0.0
 11
0.0000000000000209
 21
6.081396231032103
 31
0.0
210
0.0
220
0.0
230
1.0
 40
0.9530829055050059
 41
1.211124581303819
 42
2.069278538290231
  0
LINE
  5
3F8F
330
1F
100
AcDbEntity
  8
AM_0
100
AcDbLine
 10
-0.0000000000008153
 20
-10.0
 30
0.0
 11
-0.2001474101569014
 21
-9.466882315243308
 31
0.0
  0
LINE
  5
3F90
330
1F
100
AcDbEntity
  8
AM_0
100
AcDbLine
 10
-0.0000000000008153
 20
-10.0
 30
0.0
 11
-0.0000000000008153
 21
-1.999999999999998
 31
0.0
  0
LINE
  5
3F91
330
1F
100
AcDbEntity
  8
AM_0
100
AcDbLine
 10
-3.812331622020842
 20
-9.720728512420919
 30
0.0
 11
-3.812331622020842
 21
-8.769149225727687
 31
0.0
  0
LINE
  5
3F92
330
1F
100
AcDbEntity
  8
AM_0
100
AcDbLine
 10
-7.62466324404087
 20
-8.914010372795017
 30
0.0
 11
-7.62466324404087
 21
-7.583212880157587
 31
0.0
  0
SPLINE
  5
3F93
330
1F
100
AcDbEntity
  8
AM_0
100
AcDbSpline
210
0.0
220
0.0
230
1.0
 70
     8
 71
     3
 72
     9
 73
     5
 74
     0
 42
0.0000000001
 43
0.0000000001
 40
0.0
 40
0.0
 40
0.0
 40
0.0
 40
1.903742594624469
 40
3.430173214614181
 40
3.430173214614181
 40
3.430173214614181
 40
3.430173214614181
 10
-3.812331622020842
 20
-8.769149225727687
 30
0.0
 10
-4.33603662381614
 20
-8.125748573619507
 30
0.0
 10
-5.471306618461921
 20
-6.720106544006624
 30
0.0
 10
-7.003667475449114
 20
-7.394248179487199
 30
0.0
 10
-7.624663244049538
 20
-7.583212880154404
 30
0.0
  0
SPLINE
  5
3F94
330
1F
100
AcDbEntity
  8
AM_0
100
AcDbSpline
210
0.0
220
0.0
230
1.0
 70
     8
 71
     3
 72
     9
 73
     5
 74
     0
 42
0.0000000001
 43
0.0000000001
 40
0.0
 40
0.0
 40
0.0
 40
0.0
 40
1.72658936472417
 40
3.24728190261914
 40
3.24728190261914
 40
3.24728190261914
 40
3.24728190261914
 10
-3.812331622020842
 20
-9.720728512420919
 30
0.0
 10
-4.259259205405395
 20
-9.11330146932638
 30
0.0
 10
-5.613015358347796
 20
-8.313003941610933
 30
0.0
 10
-7.036263522781995
 20
-8.638961064094697
 30
0.0
 10
-7.62466324404087
 20
-8.914010372795017
 30
0.0
  0
SPLINE
  5
3F95
330
1F
100
AcDbEntity
  8
AM_0
100
AcDbSpline
210
0.0
220
0.0
230
1.0
 70
     8
 71
     3
 72
     8
 73
     4
 74
     0
 42
0.0000000001
 43
0.0000000001
 40
0.0
 40
0.0
 40
0.0
 40
0.0
 40
2.024855066027545
 40
2.024855066027545
 40
2.024855066027545
 40
2.024855066027545
 10
-0.0000000000008153
 20
-10.0
 30
0.0
 10
-1.286569833037946
 20
-10.0
 30
0.0
 10
-2.556575471447758
 20
-9.90236144888513
 30
0.0
 10
-3.812331622020842
 20
-9.720728512420919
 30
0.0
  0
LINE
  5
3F96
330
1F
100
AcDbEntity
  8
AM_0
100
AcDbLine
 10
-4.492017417950163
 20
-1.599999999999907
 30
0.0
 11
-0.2201050688217734
 21
-1.599999999999907
 31
0.0
  0
LINE
  5
3F97
330
1F
100
AcDbEntity
  8
AM_0
100
AcDbLine
 10
-4.492017417950163
 20
-1.599999999999907
 30
0.0
 11
-1.640175594135595
 21
-2.947309530332858
 31
0.0
  0
SPLINE
  5
3F98
330
1F
100
AcDbEntity
  8
AM_0
100
AcDbSpline
210
0.0
220
0.0
230
1.0
 70
     8
 71
     3
 72
     8
 73
     4
 74
     0
 42
0.0000000001
 43
0.0000000001
 40
1.870660592686466
 40
1.870660592686466
 40
1.870660592686466
 40
1.870660592686466
 40
3.826008700541491
 40
3.826008700541491
 40
3.826008700541491
 40
3.826008700541491
 10
-0.2001474101569014
 20
-9.466882315243308
 30
0.0
 10
-1.416311695310869
 20
-9.307714370637766
 30
0.0
 10
-2.619711126460515
 20
-9.071121493072039
 30
0.0
 10
-3.812331622016508
 20
-8.769149225708131
 30
0.0
  0
LINE
  5
3F99
330
1F
100
AcDbEntity
  8
AM_0
100
AcDbLine
 10
-0.0000000000008153
 20
-1.999999999999998
 30
0.0
 11
-1.100525344107339
 21
0.0000000000004559
 31
0.0
  0
LINE
  5
3F9A
330
1F
100
AcDbEntity
  8
AM_0
100
AcDbLine
 10
-0.0000000000008153
 20
0.0000000000000012
 30
0.0
 11
-0.1693487441115373
 21
-1.692240174171273
 31
0.0
  0
LINE
  5
3F9B
330
1F
100
AcDbEntity
  8
AM_0
100
AcDbLine
 10
-4.492017417950163
 20
0.0000000000000012
 30
0.0
 11
-4.492017417950163
 21
-1.599999999999907
 31
0.0
  0
LINE
  5
3F9C
330
1F
100
AcDbEntity
  8
AM_0
100
AcDbLine
 10
-11.9135363188134
 20
6.549068204231844
 30
0.0
 11
-11.9135363188134
 21
7.680485561646039
 31
0.0
  0
LINE
  5
3F9D
330
1F
100
AcDbEntity
  8
AM_0
100
AcDbLine
 10
-15.72586794083343
 20
8.100139386358478
 30
0.0
 11
-15.72586794083343
 21
8.835997290513661
 31
0.0
  0
SPLINE
  5
3F9E
330
1F
100
AcDbEntity
  8
AM_0
100
AcDbSpline
210
0.0
220
0.0
230
1.0
 70
     8
 71
     3
 72
     9
 73
     5
 74
     0
 42
0.0000000001
 43
0.0000000001
 40
0.0
 40
0.0
 40
0.0
 40
0.0
 40
1.596253384393968
 40
3.130156758002996
 40
3.130156758002996
 40
3.130156758002996
 40
3.130156758002996
 10
-11.9135363188134
 20
7.680485561646039
 30
0.0
 10
-12.49871915499018
 20
8.035915619133769
 30
0.0
 10
-13.79997087339653
 20
8.387321179982272
 30
0.0
 10
-15.07742585271341
 20
8.792766087812108
 30
0.0
 10
-15.72586794083343
 20
8.835997290513661
 30
0.0
  0
SPLINE
  5
3F9F
330
1F
100
AcDbEntity
  8
AM_0
100
AcDbSpline
210
0.0
220
0.0
230
1.0
 70
     8
 71
     3
 72
     9
 73
     5
 74
     0
 42
0.0000000001
 43
0.0000000001
 40
0.0
 40
0.0
 40
0.0
 40
0.0
 40
1.509478570089825
 40
3.309158499346873
 40
3.309158499346873
 40
3.309158499346873
 40
3.309158499346873
 10
-11.9135363188134
 20
6.549068204231844
 30
0.0
 10
-12.55177434633495
 20
6.589558742283634
 30
0.0
 10
-14.02540148993525
 20
6.538392654627018
 30
0.0
 10
-15.131527813615
 20
7.599241633106136
 30
0.0
 10
-15.72586794083343
 20
8.100139386358478
 30
0.0
  0
LINE
  5
3FA0
330
1F
100
AcDbEntity
  8
AM_0
100
AcDbLine
 10
-18.58511665734845
 20
8.991603589158785
 30
0.0
 11
-18.58511665734845
 21
9.399325831260741
 31
0.0
  0
SPLINE
  5
3FA1
330
1F
100
AcDbEntity
  8
AM_0
100
AcDbSpline
210
0.0
220
0.0
230
1.0
 70
     8
 71
     3
 72
     9
 73
     5
 74
     0
 42
0.0000000001
 43
0.0000000001
 40
0.0
 40
0.0
 40
0.0
 40
0.0
 40
1.008936993267342
 40
1.777052715134862
 40
1.777052715134862
 40
1.777052715134862
 40
1.777052715134862
 10
-18.58511665734845
 20
9.399325831260741
 30
0.0
 10
-19.2066094316155
 20
9.234381137506263
 30
0.0
 10
-20.35105654784719
 20
8.976628384728885
 30
0.0
 10
-21.4493848617437
 20
9.307191047027119
 30
0.0
 10
-21.92198093200592
 20
9.450195998771052
 30
0.0
  0
SPLINE
  5
3FA2
330
1F
100
AcDbEntity
  8
AM_0
100
AcDbSpline
210
0.0
220
0.0
230
1.0
 70
     8
 71
     3
 72
     9
 73
     5
 74
     0
 42
0.0000000001
 43
0.0000000001
 40
0.0
 40
0.0
 40
0.0
 40
0.0
 40
1.524049486410846
 40
3.246382277554493
 40
3.246382277554493
 40
3.246382277554493
 40
3.246382277554493
 10
-18.58511665734845
 20
8.991603589158785
 30
0.0
 10
-19.18720787273526
 20
8.747212006474978
 30
0.0
 10
-20.66936681541656
 20
8.227475703089178
 30
0.0
 10
-21.75425140655671
 20
9.39930967447602
 30
0.0
 10
-22.39744827936847
 20
9.760594105501242
 30
0.0
  0
SPLINE
  5
3FA3
330
1F
100
AcDbEntity
  8
AM_0
100
AcDbSpline
210
0.0
220
0.0
230
1.0
 70
     8
 71
     3
 72
     8
 73
     4
 74
     0
 42
0.0000000001
 43
0.0000000001
 40
2.130606102564619
 40
2.130606102564619
 40
2.130606102564619
 40
2.130606102564619
 40
3.679329335050426
 40
3.679329335050426
 40
3.679329335050426
 40
3.679329335050426
 10
-18.58511665734845
 20
9.399325831261196
 30
0.0
 10
-17.62452045499723
 20
9.257121382931019
 30
0.0
 10
-16.67176646877468
 20
9.067350150236054
 30
0.0
 10
-15.72586794083776
 20
8.835997290513661
 30
0.0
  0
SPLINE
  5
3FA4
330
1F
100
AcDbEntity
  8
AM_0
100
AcDbSpline
210
0.0
220
0.0
230
1.0
 70
     8
 71
     3
 72
     8
 73
     4
 74
     0
 42
0.0000000001
 43
0.0000000001
 40
3.939746932601999
 40
3.939746932601999
 40
3.939746932601999
 40
3.939746932601999
 40
5.519086939037594
 40
5.519086939037594
 40
5.519086939037594
 40
5.519086939037594
 10
-18.58511665734845
 20
8.991603589158785
 30
0.0
 10
-17.62506270580861
 20
8.735540066981231
 30
0.0
 10
-16.672345917234
 20
8.436227236447848
 30
0.0
 10
-15.72586794083343
 20
8.100139386358025
 30
0.0
  0
LINE
  5
3FA5
330
1F
100
AcDbEntity
  8
AM_0
100
AcDbLine
 10
-10.48391196055588
 20
-7.997428783046416
 30
0.0
 11
-10.48391196055588
 21
-6.432629993521003
 31
0.0
  0
LINE
  5
3FA6
330
1F
100
AcDbEntity
  8
AM_0
100
AcDbLine
 10
-14.29624358257592
 20
-6.418057882072843
 30
0.0
 11
-14.29624358257592
 21
-4.617652612312666
 31
0.0
  0
SPLINE
  5
3FA7
330
1F
100
AcDbEntity
  8
AM_0
100
AcDbSpline
210
0.0
220
0.0
230
1.0
 70
     8
 71
     3
 72
     9
 73
     5
 74
     0
 42
0.0000000001
 43
0.0000000001
 40
0.0
 40
0.0
 40
0.0
 40
0.0
 40
1.80162782053068
 40
3.313189647300303
 40
3.313189647300303
 40
3.313189647300303
 40
3.313189647300303
 10
-10.48391196055588
 20
-7.997428783046416
 30
0.0
 10
-10.95404244025955
 20
-7.36668366661352
 30
0.0
 10
-12.21944748555735
 20
-6.645172368643111
 30
0.0
 10
-13.68724484060733
 20
-6.210621685276264
 30
0.0
 10
-14.29624358257592
 20
-6.418057882072843
 30
0.0
  0
SPLINE
  5
3FA8
330
1F
100
AcDbEntity
  8
AM_0
100
AcDbSpline
210
0.0
220
0.0
230
1.0
 70
     8
 71
     3
 72
     9
 73
     5
 74
     0
 42
0.0000000001
 43
0.0000000001
 40
0.0
 40
0.0
 40
0.0
 40
0.0
 40
2.141059343722855
 40
3.651523002367593
 40
3.651523002367593
 40
3.651523002367593
 40
3.651523002367593
 10
-10.48391196055588
 20
-6.418057882072843
 30
0.0
 10
-11.05634741564045
 20
-5.679972291122982
 30
0.0
 10
-11.96027785715575
 20
-3.807358788938273
 30
0.0
 10
-13.66029462492037
 20
-4.543909474126226
 30
0.0
 10
-14.29624358257592
 20
-4.617652612312666
 30
0.0
  0
LINE
  5
3FA9
330
1F
100
AcDbEntity
  8
AM_0
100
AcDbLine
 10
-17.1554922990866
 20
-5.012550926864603
 30
0.0
 11
-17.15549229909093
 21
-3.097600946719466
 31
0.0
  0
LINE
  5
3FAA
330
1F
100
AcDbEntity
  8
AM_0
100
AcDbLine
 10
-20.96782392111096
 20
-2.922299365979596
 30
0.0
 11
-20.96782392111096
 21
-0.9419504079110071
 31
0.0
  0
SPLINE
  5
3FAB
330
1F
100
AcDbEntity
  8
AM_0
100
AcDbSpline
210
0.0
220
0.0
230
1.0
 70
     8
 71
     3
 72
     8
 73
     4
 74
     0
 42
0.0000000001
 43
0.0000000001
 40
1.999245295235591
 40
1.999245295235591
 40
1.999245295235591
 40
1.999245295235591
 40
2.130230809022907
 40
2.130230809022907
 40
2.130230809022907
 40
2.130230809022907
 10
-22.15917755299222
 20
-9.727579896199584
 30
0.0
 10
-22.07792081065775
 20
-9.715967857051508
 30
0.0
 10
-21.99672381988358
 20
-9.704003609062054
 30
0.0
 10
-21.91558595408003
 20
-9.691690845705124
 30
0.0
  0
SPLINE
  5
3FAC
330
1F
100
AcDbEntity
  8
AM_0
100
AcDbSpline
210
0.0
220
0.0
230
1.0
 70
     8
 71
     3
 72
     9
 73
     5
 74
     0
 42
0.0000000001
 43
0.0000000001
 40
0.0
 40
0.0
 40
0.0
 40
0.0
 40
2.234683413624822
 40
3.734683413624822
 40
3.734683413624822
 40
3.734683413624822
 40
3.734683413624822
 10
-17.15549229909093
 20
-3.097600946778583
 30
0.0
 10
-17.62276030667299
 20
-2.233849321031117
 30
0.0
 10
-18.54408305341425
 20
-0.6678071296771284
 30
0.0
 10
-20.40479477250062
 20
-0.5800342533603919
 30
0.0
 10
-20.96782392111096
 20
-0.8890076451980336
 30
0.0
  0
SPLINE
  5
3FAD
330
1F
100
AcDbEntity
  8
AM_0
100
AcDbSpline
210
0.0
220
0.0
230
1.0
 70
     8
 71
     3
 72
     8
 73
     4
 74
     0
 42
0.0000000001
 43
0.0000000001
 40
0.2298684927509915
 40
0.2298684927509915
 40
0.2298684927509915
 40
0.2298684927509915
 40
2.764560748519282
 40
2.764560748519282
 40
2.764560748519282
 40
2.764560748519282
 10
-22.15917755299222
 20
-9.696899071751884
 30
0.0
 10
-20.55309692883822
 20
-9.670005054651937
 30
0.0
 10
-18.97126607989235
 20
-9.496024575060799
 30
0.0
 10
-17.40935922185912
 20
-9.201195579686098
 30
0.0
  0
SPLINE
  5
3FAE
330
1F
100
AcDbEntity
  8
AM_0
100
AcDbSpline
210
0.0
220
0.0
230
1.0
 70
     8
 71
     3
 72
     9
 73
     5
 74
     0
 42
0.0000000001
 43
0.0000000001
 40
0.0
 40
0.0
 40
0.0
 40
0.0
 40
1.804831497484455
 40
3.407354979375
 40
3.407354979375
 40
3.407354979375
 40
3.407354979375
 10
-17.15549229909093
 20
-5.01255092686233
 30
0.0
 10
-17.74342466344586
 20
-4.499806914489228
 30
0.0
 10
-18.94898376513136
 20
-3.656139164749708
 30
0.0
 10
-20.30101551280668
 20
-3.055674012980245
 30
0.0
 10
-20.96782392111096
 20
-2.922299365979596
 30
0.0
  0
SPLINE
  5
3FAF
330
1F
100
AcDbEntity
  8
AM_0
100
AcDbSpline
210
0.0
220
0.0
230
1.0
 70
     8
 71
     3
 72
     8
 73
     4
 74
     0
 42
0.0000000001
 43
0.0000000001
 40
9.685078621624523
 40
9.685078621624523
 40
9.685078621624523
 40
9.685078621624523
 40
11.31655044551473
 40
11.31655044551473
 40
11.31655044551473
 40
11.31655044551473
 10
-14.29624358257592
 20
-4.617652612312666
 30
0.0
 10
-15.25230323796379
 20
-4.129024132771518
 30
0.0
 10
-16.20500163437478
 20
-3.620008013004734
 30
0.0
 10
-17.15549229911434
 20
-3.09760094676585
 30
0.0
  0
SPLINE
  5
3FB0
330
1F
100
AcDbEntity
  8
AM_0
100
AcDbSpline
210
0.0
220
0.0
230
1.0
 70
     8
 71
     3
 72
     8
 73
     4
 74
     0
 42
0.0000000001
 43
0.0000000001
 40
7.818791612490512
 40
7.818791612490512
 40
7.818791612490512
 40
7.818791612490512
 40
9.443881246512125
 40
9.443881246512125
 40
9.443881246512125
 40
9.443881246512125
 10
-14.29624358257592
 20
-6.418057882072388
 30
0.0
 10
-15.2538397905628
 20
-5.976159471976642
 30
0.0
 10
-16.20652383204746
 20
-5.505306027792356
 30
0.0
 10
-17.15549229909093
 20
-5.01255092686233
 30
0.0
  0
SPLINE
  5
3FB1
330
1F
100
AcDbEntity
  8
AM_0
100
AcDbSpline
210
0.0
220
0.0
230
1.0
 70
     8
 71
     3
 72
     8
 73
     4
 74
     0
 42
0.0000000001
 43
0.0000000001
 40
0.0
 40
0.0
 40
0.0
 40
0.0
 40
4.451443990518192
 40
4.451443990518192
 40
4.451443990518192
 40
4.451443990518192
 10
-18.76559876294614
 20
-9.234889007605033
 30
0.0
 10
-15.93720198149633
 20
-9.234889007605033
 30
0.0
 10
-13.17861259248673
 20
-8.791336828494422
 30
0.0
 10
-10.46819479721191
 20
-8.041705097846715
 30
0.0
  0
SPLINE
  5
3FB2
330
1F
100
AcDbEntity
  8
AM_0
100
AcDbSpline
210
0.0
220
0.0
230
1.0
 70
     8
 71
     3
 72
     9
 73
     5
 74
     0
 42
0.0000000001
 43
0.0000000001
 40
0.0
 40
0.0
 40
0.0
 40
0.0
 40
1.173671883824386
 40
1.360226551015519
 40
1.360226551015519
 40
1.360226551015519
 40
1.360226551015519
 10
-7.148121791288366
 20
9.041849047823236
 30
0.0
 10
-7.612784798418699
 20
8.429858359574156
 30
0.0
 10
-8.422932959228363
 20
7.948669643926678
 30
0.0
 10
-9.291414257440502
 20
7.754311627084917
 30
0.0
 10
-9.411063660247705
 20
7.733377651123193
 30
0.0
  0
SPLINE
  5
3FB3
330
1F
100
AcDbEntity
  8
AM_0
100
AcDbSpline
210
0.0
220
0.0
230
1.0
 70
     8
 71
     3
 72
     8
 73
     4
 74
     0
 42
0.0000000001
 43
0.0000000001
 40
5.928582328726523
 40
5.928582328726523
 40
5.928582328726523
 40
5.928582328726523
 40
7.528098176779675
 40
7.528098176779675
 40
7.528098176779675
 40
7.528098176779675
 10
-7.624663244049538
 20
-7.583212880154404
 30
0.0
 10
-8.583167658884416
 20
-7.232569293487358
 30
0.0
 10
-9.535888209975578
 20
-6.846843812236783
 30
0.0
 10
-10.48391196050908
 20
-6.432629993541467
 30
0.0
  0
SPLINE
  5
3FB4
330
1F
100
AcDbEntity
  8
AM_0
100
AcDbSpline
210
0.0
220
0.0
230
1.0
 70
     8
 71
     3
 72
     8
 73
     4
 74
     0
 42
0.0000000001
 43
0.0000000001
 40
4.096652702081863
 40
4.096652702081863
 40
4.096652702081863
 40
4.096652702081863
 40
5.678228147290397
 40
5.678228147290397
 40
5.678228147290397
 40
5.678228147290397
 10
-7.624663244037403
 20
-8.914010372793198
 30
0.0
 10
-8.584626994745258
 20
-8.649042694559282
 30
0.0
 10
-9.537342226485165
 20
-8.341348224857027
 30
0.0
 10
-10.48391196055588
 20
-7.997428783046416
 30
0.0
  0
SPLINE
  5
3FB5
330
1F
100
AcDbEntity
  8
AM_0
100
AcDbSpline
210
0.0
220
0.0
230
1.0
 70
     8
 71
     3
 72
     8
 73
     4
 74
     0
 42
0.0000000001
 43
0.0000000001
 40
4.542668862435135
 40
4.542668862435135
 40
4.542668862435135
 40
4.542668862435135
 40
14.36247867694493
 40
14.36247867694493
 40
14.36247867694493
 40
14.36247867694493
 10
-1.30572358053997
 20
-7.995233310913135
 30
0.0
 10
-7.280523757540574
 20
-6.314011373145603
 30
0.0
 10
-13.02306126024336
 20
-3.157005686572573
 30
0.0
 10
-18.76559876294614
 20
0.0000000000004559
 30
0.0
  0
SPLINE
  5
3FB6
330
1F
100
AcDbEntity
  8
AM_0
100
AcDbSpline
210
0.0
220
0.0
230
1.0
 70
     8
 71
     3
 72
     8
 73
     4
 74
     0
 42
0.0000000001
 43
0.0000000001
 40
0.7142832446738512
 40
0.7142832446738512
 40
0.7142832446738512
 40
0.7142832446738512
 40
9.361146747480315
 40
9.361146747480315
 40
9.361146747480315
 40
9.361146747480315
 10
-17.40935922165802
 20
9.20119557964881
 30
0.0
 10
-11.95767555892577
 20
8.931566877943625
 30
0.0
 10
-6.756292923260851
 20
7.071539765599483
 30
0.0
 10
-1.646632195071083
 20
4.628716898962013
 30
0.0
  0
SPLINE
  5
3FB7
330
1F
100
AcDbEntity
  8
AM_0
100
AcDbSpline
210
0.0
220
0.0
230
1.0
 70
     8
 71
     3
 72
     8
 73
     4
 74
     0
 42
0.0000000001
 43
0.0000000001
 40
7.657131739025505
 40
7.657131739025505
 40
7.657131739025505
 40
7.657131739025505
 40
9.280732515295124
 40
9.280732515295124
 40
9.280732515295124
 40
9.280732515295124
 10
-11.9135363188134
 20
6.549068204231844
 30
0.0
 10
-10.95582919619145
 20
6.113399854399632
 30
0.0
 10
-10.00314405942977
 20
5.648129134267493
 30
0.0
 10
-9.054287602299247
 20
5.160290052664096
 30
0.0
  0
SPLINE
  5
3FB8
330
1F
100
AcDbEntity
  8
AM_0
100
AcDbSpline
210
0.0
220
0.0
230
1.0
 70
     8
 71
     3
 72
     8
 73
     4
 74
     0
 42
0.0000000001
 43
0.0000000001
 40
5.779271486987545
 40
5.779271486987545
 40
5.779271486987545
 40
5.779271486987545
 40
7.377122246071414
 40
7.377122246071414
 40
7.377122246071414
 40
7.377122246071414
 10
-11.9135363188134
 20
7.680485561646039
 30
0.0
 10
-10.95494154569925
 20
7.336807186048646
 30
0.0
 10
-10.0022198641389
 20
6.95750570660448
 30
0.0
 10
-9.05428760229838
 20
6.549154110289693
 30
0.0
  0
SPLINE
  5
3FB9
330
1F
100
AcDbEntity
  8
AM_0
100
AcDbSpline
210
0.0
220
0.0
230
1.0
 70
     8
 71
     3
 72
     8
 73
     4
 74
     0
 42
0.0000000001
 43
0.0000000001
 40
13.73199344169106
 40
13.73199344169106
 40
13.73199344169106
 40
13.73199344169106
 40
14.43901837670146
 40
14.43901837670146
 40
14.43901837670146
 40
14.43901837670146
 10
-23.82707263762598
 20
0.711931508887575
 30
0.0
 10
-23.41689924770779
 20
0.4750006416416011
 30
0.0
 10
-23.00681974216874
 20
0.2375003208208012
 30
0.0
 10
-22.59674023662968
 20
0.0000000000004559
 30
0.0
  0
LINE
  5
3FBA
330
1F
100
AcDbEntity
  8
AM_0
100
AcDbLine
 10
-27.63940425964601
 20
1.024462863781992
 30
0.0
 11
-27.63940425964601
 21
2.877696188430038
 31
0.0
  0
SPLINE
  5
3FBB
330
1F
100
AcDbEntity
  8
AM_0
100
AcDbSpline
210
0.0
220
0.0
230
1.0
 70
     8
 71
     3
 72
     9
 73
     5
 74
     0
 42
0.0000000001
 43
0.0000000001
 40
0.0
 40
0.0
 40
0.0
 40
0.0
 40
2.134718602092789
 40
3.638419521675699
 40
3.638419521675699
 40
3.638419521675699
 40
3.638419521675699
 10
-23.82707263762598
 20
0.711931508887575
 30
0.0
 10
-24.30696868987856
 20
1.516058780117053
 30
0.0
 10
-25.3215277014099
 20
2.953884960352781
 30
0.0
 10
-27.0209489812015
 20
3.037600458671153
 30
0.0
 10
-27.63940425964601
 20
2.877696188430038
 30
0.0
  0
SPLINE
  5
3FBC
330
1F
100
AcDbEntity
  8
AM_0
100
AcDbSpline
210
0.0
220
0.0
230
1.0
 70
     8
 71
     3
 72
     9
 73
     5
 74
     0
 42
0.0000000001
 43
0.0000000001
 40
0.0
 40
0.0
 40
0.0
 40
0.0
 40
1.603217326944703
 40
3.259613869965475
 40
3.259613869965475
 40
3.259613869965475
 40
3.259613869965475
 10
-29.06902861790352
 20
9.809085340391904
 30
0.0
 10
-28.4491727409627
 20
9.517993466970146
 30
0.0
 10
-27.11982036731921
 20
8.526482026484654
 30
0.0
 10
-25.8787433274669
 20
9.650721369081066
 30
0.0
 10
-25.2566969958835
 20
9.991280414671566
 30
0.0
  0
LINE
  5
3FBD
330
1F
100
AcDbEntity
  8
AM_0
100
AcDbLine
 10
-30.49865297616103
 20
2.703270908590185
 30
0.0
 11
-30.49865297618357
 21
4.412680498228839
 31
0.0
  0
LINE
  5
3FBE
330
1F
100
AcDbEntity
  8
AM_0
100
AcDbLine
 10
-34.31098459818106
 20
4.813329412675103
 30
0.0
 11
-34.31098459818106
 21
6.256696834560444
 31
0.0
  0
SPLINE
  5
3FBF
330
1F
100
AcDbEntity
  8
AM_0
100
AcDbSpline
210
0.0
220
0.0
230
1.0
 70
     8
 71
     3
 72
     9
 73
     5
 74
     0
 42
0.0000000001
 43
0.0000000001
 40
0.0
 40
0.0
 40
0.0
 40
0.0
 40
1.891503755460323
 40
3.409143341102712
 40
3.409143341102712
 40
3.409143341102712
 40
3.409143341102712
 10
-30.49865297616103
 20
4.41268049821747
 30
0.0
 10
-31.11913657623149
 20
4.944550663615038
 30
0.0
 10
-32.13240618957016
 20
6.131650128150657
 30
0.0
 10
-33.66962550868901
 20
6.302770514303229
 30
0.0
 10
-34.31098459818106
 20
6.256696834560444
 30
0.0
  0
SPLINE
  5
3FC0
330
1F
100
AcDbEntity
  8
AM_0
100
AcDbSpline
210
0.0
220
0.0
230
1.0
 70
     8
 71
     3
 72
     9
 73
     5
 74
     0
 42
0.0000000001
 43
0.0000000001
 40
0.0
 40
0.0
 40
0.0
 40
0.0
 40
1.609341566343276
 40
3.411820827695224
 40
3.411820827695224
 40
3.411820827695224
 40
3.411820827695224
 10
-30.49865297616103
 20
2.703270908589731
 30
0.0
 10
-31.14155454503172
 20
2.941144939935172
 30
0.0
 10
-32.51382683359066
 20
3.42814921846838
 30
0.0
 10
-33.74530654144811
 20
4.275283959062251
 30
0.0
 10
-34.31098459817586
 20
4.813329412670555
 30
0.0
  0
SPLINE
  5
3FC1
330
1F
100
AcDbEntity
  8
AM_0
100
AcDbSpline
210
0.0
220
0.0
230
1.0
 70
     8
 71
     3
 72
     9
 73
     5
 74
     0
 42
0.0000000001
 43
0.0000000001
 40
0.0
 40
0.0
 40
0.0
 40
0.0
 40
1.503438351697518
 40
3.260499827787994
 40
3.260499827787994
 40
3.260499827787994
 40
3.260499827787994
 10
-35.74060895643857
 20
8.233391244875294
 30
0.0
 10
-35.11880252107388
 20
8.089038124455132
 30
0.0
 10
-33.66307503570989
 20
7.804977514401465
 30
0.0
 10
-32.48075651648349
 20
8.794660674914307
 30
0.0
 10
-31.92827733441854
 20
9.317925418031336
 30
0.0
  0
SPLINE
  5
3FC2
330
1F
100
AcDbEntity
  8
AM_0
100
AcDbSpline
210
0.0
220
0.0
230
1.0
 70
     8
 71
     3
 72
     8
 73
     4
 74
     0
 42
0.0000000001
 43
0.0000000001
 40
1.666991338825053
 40
1.666991338825053
 40
1.666991338825053
 40
1.666991338825053
 40
3.21070440243455
 40
3.21070440243455
 40
3.21070440243455
 40
3.21070440243455
 10
-29.06902861790006
 20
9.809085340392813
 30
0.0
 10
-30.03028958022261
 20
9.693571369426992
 30
0.0
 10
-30.98303059081415
 20
9.527836077038957
 30
0.0
 10
-31.92827733441854
 20
9.317925418031336
 30
0.0
  0
SPLINE
  5
3FC3
330
1F
100
AcDbEntity
  8
AM_0
100
AcDbSpline
210
0.0
220
0.0
230
1.0
 70
     8
 71
     3
 72
     8
 73
     4
 74
     0
 42
0.0000000001
 43
0.0000000001
 40
9.911909440357588
 40
9.911909440357588
 40
9.911909440357588
 40
9.911909440357588
 40
11.54467281373877
 40
11.54467281373877
 40
11.54467281373877
 40
11.54467281373877
 10
-30.49865297616103
 20
4.412680498217015
 30
0.0
 10
-29.54274954480851
 20
3.918126897288404
 30
0.0
 10
-28.59005206231504
 20
3.404127686145331
 30
0.0
 10
-27.63940425964601
 20
2.877696188430038
 30
0.0
  0
SPLINE
  5
3FC4
330
1F
100
AcDbEntity
  8
AM_0
100
AcDbSpline
210
0.0
220
0.0
230
1.0
 70
     8
 71
     3
 72
     8
 73
     4
 74
     0
 42
0.0000000001
 43
0.0000000001
 40
11.84940637128532
 40
11.84940637128532
 40
11.84940637128532
 40
11.84940637128532
 40
14.48999654934396
 40
14.48999654934396
 40
14.48999654934396
 40
14.48999654934396
 10
-30.49865297616103
 20
2.703270908589731
 30
0.0
 10
-28.97029796564254
 20
1.822353903996373
 30
0.0
 10
-27.44707649768968
 20
0.911176951998642
 30
0.0
 10
-25.92385502973682
 20
0.0000000000004559
 30
0.0
  0
LINE
  5
3FC5
330
1F
100
AcDbEntity
  8
AM_0
100
AcDbLine
 10
-28.83075789152727
 20
-9.836666693685854
 30
0.0
 11
-28.83075789152727
 21
-8.985177502770055
 31
0.0
  0
SPLINE
  5
3FC6
330
1F
100
AcDbEntity
  8
AM_0
100
AcDbSpline
210
0.0
220
0.0
230
1.0
 70
     8
 71
     3
 72
     8
 73
     4
 74
     0
 42
0.0000000001
 43
0.0000000001
 40
1.788970302442027
 40
1.788970302442027
 40
1.788970302442027
 40
1.788970302442027
 40
3.332324051699147
 40
3.332324051699147
 40
3.332324051699147
 40
3.332324051699147
 10
-25.97150917501225
 20
-9.486425122403487
 30
0.0
 10
-26.93227066643203
 20
-9.365916871545778
 30
0.0
 10
-27.88502806193347
 20
-9.196859958115055
 30
0.0
 10
-28.830757891516
 20
-8.985177502715485
 30
0.0
  0
SPLINE
  5
3FC7
330
1F
100
AcDbEntity
  8
AM_0
100
AcDbSpline
210
0.0
220
0.0
230
1.0
 70
     8
 71
     3
 72
     8
 73
     4
 74
     0
 42
0.0000000001
 43
0.0000000001
 40
0.0
 40
0.0
 40
0.0
 40
0.0
 40
1.498423311644514
 40
1.498423311644514
 40
1.498423311644514
 40
1.498423311644514
 10
-25.97150917501225
 20
-9.486425122403487
 30
0.0
 10
-25.40931043036172
 20
-9.177298342214147
 30
0.0
 10
-24.72832966990044
 20
-8.851254359107372
 30
0.0
 10
-24.11733631044766
 20
-9.03164056280684
 30
0.0
  0
LINE
  5
3FC8
330
1F
100
AcDbEntity
  8
AM_0
100
AcDbLine
 10
-25.97150917501052
 20
-9.999955360136027
 30
0.0
 11
-25.97150917505646
 21
-9.486425122398031
 31
0.0
  0
SPLINE
  5
3FC9
330
1F
100
AcDbEntity
  8
AM_0
100
AcDbSpline
210
0.0
220
0.0
230
1.0
 70
     8
 71
     3
 72
     8
 73
     4
 74
     0
 42
0.0000000001
 43
0.0000000001
 40
0.0
 40
0.0
 40
0.0
 40
0.0
 40
1.539536607901005
 40
1.539536607901005
 40
1.539536607901005
 40
1.539536607901005
 10
-25.92385502973682
 20
-9.999999999999543
 30
0.0
 10
-26.90205904533049
 20
-9.999999999999543
 30
0.0
 10
-27.87068753846225
 20
-9.943556559175702
 30
0.0
 10
-28.83075789152727
 20
-9.836666693685854
 30
0.0
  0
SPLINE
  5
3FCA
330
1F
100
AcDbEntity
  8
0
100
AcDbSpline
210
0.0
220
0.0
230
1.0
 70
     8
 71
     3
 72
     8
 73
     4
 74
     0
 42
0.0000000001
 43
0.0000000001
 40
0.0
 40
0.0
 40
0.0
 40
0.0
 40
1.208398095880623
 40
1.208398095880623
 40
1.208398095880623
 40
1.208398095880623
 10
-25.97805147882641
 20
-9.992223916775399
 30
0.0
 10
-26.93780445235033
 20
-9.992223916775401
 30
0.0
 10
-27.88830637812019
 20
-9.937761516152317
 30
0.0
 10
-28.83052276066719
 20
-9.834520794804948
 30
0.0
  0
LINE
  5
3FCB
330
1F
100
AcDbEntity
  8
AM_0
100
AcDbLine
 10
-32.6430895135473
 20
-9.150515658338006
 30
0.0
 11
-32.6430895135473
 21
-7.903201708938467
 31
0.0
  0
LINE
  5
3FCC
330
1F
100
AcDbEntity
  8
AM_0
100
AcDbLine
 10
-35.50233823006232
 20
-8.314498105316943
 30
0.0
 11
-35.50233823006232
 21
-6.818750065024686
 31
0.0
  0
SPLINE
  5
3FCD
330
1F
100
AcDbEntity
  8
AM_0
100
AcDbSpline
210
0.0
220
0.0
230
1.0
 70
     8
 71
     3
 72
     8
 73
     4
 74
     0
 42
0.0000000001
 43
0.0000000001
 40
5.425905956994038
 40
5.425905956994038
 40
5.425905956994038
 40
5.425905956994038
 40
7.019702002723574
 40
7.019702002723574
 40
7.019702002723574
 40
7.019702002723574
 10
-32.6430895135473
 20
-7.903201708938011
 30
0.0
 10
-33.60189570010941
 20
-7.576432259305419
 30
0.0
 10
-34.55462012462723
 20
-7.212774019693369
 30
0.0
 10
-35.50233823006232
 20
-6.818750065024686
 30
0.0
  0
SPLINE
  5
3FCE
330
1F
100
AcDbEntity
  8
AM_0
100
AcDbSpline
210
0.0
220
0.0
230
1.0
 70
     8
 71
     3
 72
     8
 73
     4
 74
     0
 42
0.0000000001
 43
0.0000000001
 40
3.600603813281411
 40
3.600603813281411
 40
3.600603813281411
 40
3.600603813281411
 40
5.175009087017798
 40
5.175009087017798
 40
5.175009087017798
 40
5.175009087017798
 10
-32.64308951354816
 20
-9.150515658326638
 30
0.0
 10
-33.60333549237157
 20
-8.914066268079293
 30
0.0
 10
-34.55605570209102
 20
-8.633255820263912
 30
0.0
 10
-35.50233823006232
 20
-8.314498105316943
 30
0.0
  0
SPLINE
  5
3FCF
330
1F
100
AcDbEntity
  8
0
100
AcDbSpline
210
0.0
220
0.0
230
1.0
 70
     8
 71
     3
 72
     8
 73
     4
 74
     0
 42
0.0000000001
 43
0.0000000001
 40
2.857363517439195
 40
2.857363517439195
 40
2.857363517439195
 40
2.857363517439195
 40
4.11726153057047
 40
4.11726153057047
 40
4.11726153057047
 40
4.11726153057047
 10
-32.64390180144477
 20
-9.153830566576235
 30
0.0
 10
-33.60457194755724
 20
-8.918427147515732
 30
0.0
 10
-34.5576674785814
 20
-8.638430755586291
 30
0.0
 10
-35.50428267938247
 20
-8.320283621150371
 30
0.0
  0
SPLINE
  5
3FD0
330
1F
100
AcDbEntity
  8
AM_0
100
AcDbSpline
210
0.0
220
0.0
230
1.0
 70
     8
 71
     3
 72
     9
 73
     5
 74
     0
 42
0.0000000001
 43
0.0000000001
 40
0.0
 40
0.0
 40
0.0
 40
0.0
 40
1.853196961853059
 40
3.381663674709893
 40
3.381663674709893
 40
3.381663674709893
 40
3.381663674709893
 10
-28.83075789152727
 20
-8.962744589811334
 30
0.0
 10
-29.38085223463822
 20
-8.375157558206558
 30
0.0
 10
-30.51504001288172
 20
-7.041723962369971
 30
0.0
 10
-32.02539919959328
 20
-7.699624296725558
 30
0.0
 10
-32.64308951355077
 20
-7.903201708936649
 30
0.0
  0
SPLINE
  5
3FD1
330
1F
100
AcDbEntity
  8
AM_0
100
AcDbSpline
210
0.0
220
0.0
230
1.0
 70
     8
 71
     3
 72
     9
 73
     5
 74
     0
 42
0.0000000001
 43
0.0000000001
 40
0.0
 40
0.0
 40
0.0
 40
0.0
 40
1.712940807075481
 40
3.245153285734257
 40
3.245153285734257
 40
3.245153285734257
 40
3.245153285734257
 10
-28.83075789152727
 20
-9.836666693685854
 30
0.0
 10
-29.46919667293252
 20
-9.474911809028878
 30
0.0
 10
-30.58693331150996
 20
-8.275131231161349
 30
0.0
 10
-32.01958365857755
 20
-8.961407236551478
 30
0.0
 10
-32.64308951355597
 20
-9.150515658324819
 30
0.0
  0
LINE
  5
3FD2
330
1F
100
AcDbEntity
  8
AM_0
100
AcDbLine
 10
-23.82707263762598
 20
-1.251058082317284
 30
0.0
 11
-23.82707263762598
 21
0.711931508887575
 31
0.0
  0
LINE
  5
3FD3
330
1F
100
AcDbEntity
  8
AM_0
100
AcDbLine
 10
-37.17023331469608
 20
6.240497692811005
 30
0.0
 11
-37.17023331469521
 21
7.435272449933109
 31
0.0
  0
LINE
  5
3FD4
330
1F
100
AcDbEntity
  8
AM_0
100
AcDbLine
 10
-40.98256493671612
 20
7.856848161883592
 30
0.0
 11
-40.98256493671612
 21
8.665704037433899
 31
0.0
  0
SPLINE
  5
3FD5
330
1F
100
AcDbEntity
  8
AM_0
100
AcDbSpline
210
0.0
220
0.0
230
1.0
 70
     8
 71
     3
 72
     9
 73
     5
 74
     0
 42
0.0000000001
 43
0.0000000001
 40
0.0
 40
0.0
 40
0.0
 40
0.0
 40
1.618462504924987
 40
3.151185540897841
 40
3.151185540897841
 40
3.151185540897841
 40
3.151185540897841
 10
-37.17023331469608
 20
7.435272449933565
 30
0.0
 10
-37.77847102383961
 20
7.767151566500683
 30
0.0
 10
-39.02244771051789
 20
8.311226940648651
 30
0.0
 10
-40.34263861645938
 20
8.550672946603878
 30
0.0
 10
-40.98256493671612
 20
8.665704037433899
 30
0.0
  0
SPLINE
  5
3FD6
330
1F
100
AcDbEntity
  8
AM_0
100
AcDbSpline
210
0.0
220
0.0
230
1.0
 70
     8
 71
     3
 72
     9
 73
     5
 74
     0
 42
0.0000000001
 43
0.0000000001
 40
0.0
 40
0.0
 40
0.0
 40
0.0
 40
1.514634011951766
 40
3.318644422736972
 40
3.318644422736972
 40
3.318644422736972
 40
3.318644422736972
 10
-37.17023331469608
 20
6.240497692811005
 30
0.0
 10
-37.80997346314057
 20
6.291544605295412
 30
0.0
 10
-39.28133442702247
 20
6.30562754898196
 30
0.0
 10
-40.3847839073385
 20
7.357383043775874
 30
0.0
 10
-40.98256493671612
 20
7.856848161883592
 30
0.0
  0
SPLINE
  5
3FD7
330
1F
100
AcDbEntity
  8
AM_0
100
AcDbSpline
210
0.0
220
0.0
230
1.0
 70
     8
 71
     3
 72
     8
 73
     4
 74
     0
 42
0.0000000001
 43
0.0000000001
 40
0.3581103616548037
 40
0.3581103616548037
 40
0.3581103616548037
 40
0.3581103616548037
 40
0.4557920900567158
 40
0.4557920900567158
 40
0.4557920900567158
 40
0.4557920900567158
 10
-47.83944098381517
 20
9.691690845705581
 30
0.0
 10
-47.7776401401621
 20
9.690083413168851
 30
0.0
 10
-47.71587498650324
 20
9.688259503780045
 30
0.0
 10
-47.65414527525115
 20
9.686220619277266
 30
0.0
  0
SPLINE
  5
3FD8
330
1F
100
AcDbEntity
  8
AM_0
100
AcDbSpline
210
0.0
220
0.0
230
1.0
 70
     8
 71
     3
 72
     8
 73
     4
 74
     0
 42
0.0000000001
 43
0.0000000001
 40
14.25229543663493
 40
14.25229543663493
 40
14.25229543663493
 40
14.25229543663493
 40
14.43901837670146
 40
14.43901837670146
 40
14.43901837670146
 40
14.43901837670146
 10
-48.84549890713242
 20
0.1881586514364256
 30
0.0
 10
-48.73719654064583
 20
0.1254460938348541
 30
0.0
 10
-48.62889590350576
 20
0.0627230469176551
 30
0.0
 10
-48.52059526636657
 20
0.0000000000004559
 30
0.0
  0
LINE
  5
3FD9
330
1F
100
AcDbEntity
  8
AM_0
100
AcDbLine
 10
-43.84181365323113
 20
8.806442759980654
 30
0.0
 11
-43.84181365323113
 21
9.292773484316059
 31
0.0
  0
SPLINE
  5
3FDA
330
1F
100
AcDbEntity
  8
AM_0
100
AcDbSpline
210
0.0
220
0.0
230
1.0
 70
     8
 71
     3
 72
     9
 73
     5
 74
     0
 42
0.0000000001
 43
0.0000000001
 40
0.0
 40
0.0
 40
0.0
 40
0.0
 40
1.501483287633145
 40
3.044501708991191
 40
3.044501708991191
 40
3.044501708991191
 40
3.044501708991191
 10
-43.84181365323113
 20
9.292773484316059
 30
0.0
 10
-44.47658076567127
 20
9.250959114294294
 30
0.0
 10
-45.76859895829801
 20
9.070092511551765
 30
0.0
 10
-47.04831202957513
 20
9.428842813482019
 30
0.0
 10
-47.65414527525115
 20
9.686220619277266
 30
0.0
  0
SPLINE
  5
3FDB
330
1F
100
AcDbEntity
  8
AM_0
100
AcDbSpline
210
0.0
220
0.0
230
1.0
 70
     8
 71
     3
 72
     9
 73
     5
 74
     0
 42
0.0000000001
 43
0.0000000001
 40
0.0
 40
0.0
 40
0.0
 40
0.0
 40
1.516617987072454
 40
3.248795674012696
 40
3.248795674012696
 40
3.248795674012696
 40
3.248795674012696
 10
-43.84181365323113
 20
8.806442759980654
 30
0.0
 10
-44.47239181859211
 20
8.677576842940759
 30
0.0
 10
-45.91076381494043
 20
8.089857467157248
 30
0.0
 10
-47.04009669206145
 20
9.241540012969583
 30
0.0
 10
-47.65414527525115
 20
9.662951522200273
 30
0.0
  0
SPLINE
  5
3FDC
330
1F
100
AcDbEntity
  8
AM_0
100
AcDbSpline
210
0.0
220
0.0
230
1.0
 70
     8
 71
     3
 72
     8
 73
     4
 74
     0
 42
0.0000000001
 43
0.0000000001
 40
2.489821994174631
 40
2.489821994174631
 40
2.489821994174631
 40
2.489821994174631
 40
4.043019649814397
 40
4.043019649814397
 40
4.043019649814397
 40
4.043019649814397
 10
-43.84181365323113
 20
9.292773484316059
 30
0.0
 10
-42.88203735787011
 20
9.128351771854797
 30
0.0
 10
-41.92991846186286
 20
8.917484276984398
 30
0.0
 10
-40.98446163009748
 20
8.666208182293305
 30
0.0
  0
SPLINE
  5
3FDD
330
1F
100
AcDbEntity
  8
AM_0
100
AcDbSpline
210
0.0
220
0.0
230
1.0
 70
     8
 71
     3
 72
     8
 73
     4
 74
     0
 42
0.0000000001
 43
0.0000000001
 40
4.306226182506206
 40
4.306226182506206
 40
4.306226182506206
 40
4.306226182506206
 40
5.890739774064351
 40
5.890739774064351
 40
5.890739774064351
 40
5.890739774064351
 10
-43.84181365323113
 20
8.806442759980654
 30
0.0
 10
-42.88197170295592
 20
8.529752786327664
 30
0.0
 10
-41.92925852414529
 20
8.211041879405458
 30
0.0
 10
-40.98256493671612
 20
7.856848161883592
 30
0.0
  0
SPLINE
  5
3FDE
330
1F
100
AcDbEntity
  8
AM_0
100
AcDbSpline
210
0.0
220
0.0
230
1.0
 70
     8
 71
     3
 72
     8
 73
     4
 74
     0
 42
0.0000000001
 43
0.0000000001
 40
9.170645305362121
 40
9.170645305362121
 40
9.170645305362121
 40
9.170645305362121
 40
10.79891126818747
 40
10.79891126818747
 40
10.79891126818747
 40
10.79891126818747
 10
-39.31466985208234
 20
-5.073572947897445
 30
0.0
 10
-40.2710808733956
 20
-4.599430851193573
 30
0.0
 10
-41.22378153208855
 20
-4.102783634019032
 30
0.0
 10
-42.17391856873606
 20
-3.590586825369427
 30
0.0
  0
SPLINE
  5
3FDF
330
1F
100
AcDbEntity
  8
AM_0
100
AcDbSpline
210
0.0
220
0.0
230
1.0
 70
     8
 71
     3
 72
     8
 73
     4
 74
     0
 42
0.0000000001
 43
0.0000000001
 40
7.307451768075528
 40
7.307451768075528
 40
7.307451768075528
 40
7.307451768075528
 40
8.927702162744216
 40
8.927702162744216
 40
8.927702162744216
 40
8.927702162744216
 10
-39.31466985208234
 20
-6.826372323757823
 30
0.0
 10
-40.27261467371358
 20
-6.404653398086791
 30
0.0
 10
-41.2253022678446
 20
-5.951945457401961
 30
0.0
 10
-42.17391856859737
 20
-5.475239055237578
 30
0.0
  0
SPLINE
  5
3FE0
330
1F
100
AcDbEntity
  8
0
100
AcDbSpline
210
0.0
220
0.0
230
1.0
 70
     8
 71
     3
 72
     8
 73
     4
 74
     0
 42
0.0000000001
 43
0.0000000001
 40
5.823759290313942
 40
5.823759290313942
 40
5.823759290313942
 40
5.823759290313942
 40
7.120260682552068
 40
7.120260682552068
 40
7.120260682552068
 40
7.120260682552068
 10
-39.31782950727438
 20
-6.833553241634035
 30
0.0
 10
-40.27594740830099
 20
-6.411974516915693
 30
0.0
 10
-41.22877252052805
 20
-5.959236296356598
 30
0.0
 10
-42.17749730220369
 20
-5.482358772756878
 30
0.0
  0
LINE
  5
3FE1
330
1F
100
AcDbEntity
  8
AM_0
100
AcDbLine
 10
-39.31466985208234
 20
-6.826372323757823
 30
0.0
 11
-39.31466985208234
 21
-5.073572947897445
 31
0.0
  0
LINE
  5
3FE2
330
1F
100
AcDbEntity
  8
AM_0
100
AcDbLine
 10
-42.17391856859737
 20
-5.475239055237578
 30
0.0
 11
-42.17391856859737
 21
-3.59058682544446
 31
0.0
  0
SPLINE
  5
3FE3
330
1F
100
AcDbEntity
  8
0
100
AcDbSpline
210
0.0
220
0.0
230
1.0
 70
     8
 71
     3
 72
     8
 73
     4
 74
     0
 42
0.0000000001
 43
0.0000000001
 40
0.0
 40
0.0
 40
0.0
 40
0.0
 40
9.637195575647414
 40
9.637195575647414
 40
9.637195575647414
 40
9.637195575647414
 10
-42.11708462319868
 20
-8.732790518924046
 30
0.0
 10
-40.07596326085827
 20
-8.732790518924046
 30
0.0
 10
-38.06782892134243
 20
-8.511995268048847
 30
0.0
 10
-35.95105727598231
 20
-7.954735965531306
 30
0.0
  0
LINE
  5
3FE4
330
1F
100
AcDbEntity
  8
AM_0
100
AcDbLine
 10
-45.9862501906174
 20
-3.436316860404075
 30
0.0
 11
-45.9862501906174
 21
-1.462334662754982
 31
0.0
  0
SPLINE
  5
3FE5
330
1F
100
AcDbEntity
  8
AM_0
100
AcDbSpline
210
0.0
220
0.0
230
1.0
 70
     8
 71
     3
 72
     9
 73
     5
 74
     0
 42
0.0000000001
 43
0.0000000001
 40
0.0
 40
0.0
 40
0.0
 40
0.0
 40
2.234089429072837
 40
3.734089429072837
 40
3.734089429072837
 40
3.734089429072837
 40
3.734089429072837
 10
-42.17391856859737
 20
-3.59058682544446
 30
0.0
 10
-42.84509215739428
 20
-2.890593250513889
 30
0.0
 10
-43.53759906958543
 20
-0.9821386395438334
 30
0.0
 10
-45.36528066141812
 20
-1.241842564166067
 30
0.0
 10
-45.9862501906174
 20
-1.383062087102642
 30
0.0
  0
SPLINE
  5
3FE6
330
1F
100
AcDbEntity
  8
AM_0
100
AcDbSpline
210
0.0
220
0.0
230
1.0
 70
     8
 71
     3
 72
     9
 73
     5
 74
     0
 42
0.0000000001
 43
0.0000000001
 40
0.0
 40
0.0
 40
0.0
 40
0.0
 40
1.809327783561213
 40
3.396063755099695
 40
3.396063755099695
 40
3.396063755099695
 40
3.396063755099695
 10
-42.17391856859737
 20
-5.475239055237578
 30
0.0
 10
-42.66969320787259
 20
-4.861999237754867
 30
0.0
 10
-43.99373842250173
 20
-4.165007953016315
 30
0.0
 10
-45.31624285808084
 20
-3.492310316462154
 30
0.0
 10
-45.9862501906174
 20
-3.436316860404075
 30
0.0
  0
SPLINE
  5
3FE7
330
1F
100
AcDbEntity
  8
AM_0
100
AcDbSpline
210
0.0
220
0.0
230
1.0
 70
     8
 71
     3
 72
     8
 73
     4
 74
     0
 42
0.0000000001
 43
0.0000000001
 40
12.98298737538389
 40
12.98298737538389
 40
12.98298737538389
 40
12.98298737538389
 40
14.43901837670148
 40
14.43901837670148
 40
14.43901837670148
 40
14.43901837670148
 10
-45.98625019056106
 20
-1.462334662787269
 30
0.0
 10
-46.83157853300008
 20
-0.978205471444652
 30
0.0
 10
-47.67608689968288
 20
-0.4891027357220981
 30
0.0
 10
-48.52059526636657
 20
0.0000000000004559
 30
0.0
  0
LINE
  5
3FE8
330
1F
100
AcDbEntity
  8
AM_0
100
AcDbLine
 10
-48.84549890713242
 20
-1.786456745019676
 30
0.0
 11
-48.84549890713242
 21
0.1881586514364256
 31
0.0
  0
SPLINE
  5
3FE9
330
1F
100
AcDbEntity
  8
AM_0
100
AcDbSpline
210
0.0
220
0.0
230
1.0
 70
     8
 71
     3
 72
     8
 73
     4
 74
     0
 42
0.0000000001
 43
0.0000000001
 40
5.307227569610006
 40
5.307227569610006
 40
5.307227569610006
 40
5.307227569610006
 40
5.635889483499305
 40
5.635889483499305
 40
5.635889483499305
 40
5.635889483499305
 10
-35.74060895643857
 20
8.233391244874384
 30
0.0
 10
-35.9379242099812
 20
8.165528527631979
 30
0.0
 10
-36.13496290530223
 20
8.096035622822457
 30
0.0
 10
-36.33173494073954
 20
8.024970876742827
 30
0.0
  0
SPLINE
  5
3FEA
330
1F
100
AcDbEntity
  8
AM_0
100
AcDbSpline
210
0.0
220
0.0
230
1.0
 70
     8
 71
     3
 72
     8
 73
     4
 74
     0
 42
0.0000000001
 43
0.0000000001
 40
6.150480381241876
 40
6.150480381241876
 40
6.150480381241876
 40
6.150480381241876
 40
7.75241736749254
 40
7.75241736749254
 40
7.75241736749254
 40
7.75241736749254
 10
-37.17023331469608
 20
7.435272449933109
 30
0.0
 10
-36.21186428809494
 20
7.074476759300979
 30
0.0
 10
-35.25914538493128
 20
6.679410372882559
 30
0.0
 10
-34.31098459818106
 20
6.256696834560444
 30
0.0
  0
SPLINE
  5
3FEB
330
1F
100
AcDbEntity
  8
AM_0
100
AcDbSpline
210
0.0
220
0.0
230
1.0
 70
     8
 71
     3
 72
     8
 73
     4
 74
     0
 42
0.0000000001
 43
0.0000000001
 40
8.034594408064972
 40
8.034594408064972
 40
8.034594408064972
 40
8.034594408064972
 40
9.661611892530016
 40
9.661611892530016
 40
9.661611892530016
 40
9.661611892530016
 10
-37.17023331469608
 20
6.240497692810095
 30
0.0
 10
-36.21278614430933
 20
5.790500330790565
 30
0.0
 10
-35.26010352403091
 20
5.312418067583623
 30
0.0
 10
-34.31098459818193
 20
4.813329412673739
 30
0.0
  0
SPLINE
  5
3FEC
330
1F
100
AcDbEntity
  8
AM_0
100
AcDbSpline
210
0.0
220
0.0
230
1.0
 70
     8
 71
     3
 72
     9
 73
     5
 74
     0
 42
0.0000000001
 43
0.0000000001
 40
0.0
 40
0.0
 40
0.0
 40
0.0
 40
1.794998547112939
 40
3.300637214108833
 40
3.300637214108833
 40
3.300637214108833
 40
3.300637214108833
 10
-35.50233823006232
 20
-8.314498105321945
 30
0.0
 10
-36.1137450374616
 20
-7.840240209765337
 30
0.0
 10
-37.19051570137631
 20
-6.815043959724729
 30
0.0
 10
-38.68516597913369
 20
-6.718937950899743
 30
0.0
 10
-39.31466985209101
 20
-6.826372323754184
 30
0.0
  0
SPLINE
  5
3FED
330
1F
100
AcDbEntity
  8
AM_0
100
AcDbSpline
210
0.0
220
0.0
230
1.0
 70
     8
 71
     3
 72
     9
 73
     5
 74
     0
 42
0.0000000001
 43
0.0000000001
 40
0.0
 40
0.0
 40
0.0
 40
0.0
 40
2.127517369033063
 40
3.640030134837918
 40
3.640030134837918
 40
3.640030134837918
 40
3.640030134837918
 10
-35.50233823006232
 20
-6.826372323754184
 30
0.0
 10
-35.98474438491423
 20
-6.02768675290809
 30
0.0
 10
-37.01274517634502
 20
-4.309124547138432
 30
0.0
 10
-38.69081225258829
 20
-4.920500943176214
 30
0.0
 10
-39.31466985212395
 20
-5.073572947876981
 30
0.0
  0
SPLINE
  5
3FEE
330
1F
100
AcDbEntity
  8
AM_0
100
AcDbSpline
210
0.0
220
0.0
230
1.0
 70
     8
 71
     3
 72
     8
 73
     4
 74
     0
 42
0.0000000001
 43
0.0000000001
 40
0.3507760400854742
 40
0.3507760400854742
 40
0.3507760400854742
 40
0.3507760400854742
 40
1.871307041999678
 40
1.871307041999678
 40
1.871307041999678
 40
1.871307041999678
 10
-25.2566969958835
 20
9.991280414671566
 30
0.0
 10
-24.29482636860509
 20
9.966184684868041
 30
0.0
 10
-23.34207018537154
 20
9.887363366179217
 30
0.0
 10
-22.39744827936847
 20
9.760594105501242
 30
0.0
  0
SPLINE
  5
3FEF
330
1F
100
AcDbEntity
  8
AM_0
100
AcDbSpline
210
0.0
220
0.0
230
1.0
 70
     8
 71
     3
 72
     9
 73
     5
 74
     0
 42
0.0000000001
 43
0.0000000001
 40
0.0
 40
0.0
 40
0.0
 40
0.0
 40
1.667714745337139
 40
3.256805083315271
 40
3.256805083315271
 40
3.256805083315271
 40
3.256805083315271
 10
-25.97150917501225
 20
-9.99995536013739
 30
0.0
 10
-25.38074003088832
 20
-9.593541512903989
 30
0.0
 10
-24.12096059719178
 20
-8.553145515644018
 30
0.0
 10
-22.76506145685951
 20
-9.419878891604771
 30
0.0
 10
-22.15917755299222
 20
-9.727579896199584
 30
0.0
  0
SPLINE
  5
3FF0
330
1F
100
AcDbEntity
  8
AM_0
100
AcDbSpline
210
0.0
220
0.0
230
1.0
 70
     8
 71
     3
 72
     8
 73
     4
 74
     0
 42
0.0000000001
 43
0.0000000001
 40
11.62991291415682
 40
11.62991291415682
 40
11.62991291415682
 40
11.62991291415682
 40
14.48999654934396
 40
14.48999654934396
 40
14.48999654934396
 40
14.48999654934396
 10
-20.96782392111096
 20
-2.922299365979596
 30
0.0
 10
-22.62418298713325
 20
-1.973833206548532
 30
0.0
 10
-24.2740190084346
 20
-0.9869166032740384
 30
0.0
 10
-25.92385502973682
 20
0.0000000000000012
 30
0.0
  0
SPLINE
  5
3FF1
330
1F
100
AcDbEntity
  8
AM_0
100
AcDbSpline
210
0.0
220
0.0
230
1.0
 70
     8
 71
     3
 72
     8
 73
     4
 74
     0
 42
0.0000000001
 43
0.0000000001
 40
13.50299628442394
 40
13.50299628442394
 40
13.50299628442394
 40
13.50299628442394
 40
14.43901837670146
 40
14.43901837670146
 40
14.43901837670146
 40
14.43901837670146
 10
-20.96782392111096
 20
-0.9419504079110071
 30
0.0
 10
-21.51094125623251
 20
-0.6288478275737349
 30
0.0
 10
-22.05384074643109
 20
-0.3144239137868668
 30
0.0
 10
-22.59674023662968
 20
0.0000000000004559
 30
0.0
  0
SPLINE
  5
3FF2
330
1F
100
AcDbEntity
  8
AM_0
100
AcDbSpline
210
0.0
220
0.0
230
1.0
 70
     8
 71
     3
 72
     8
 73
     4
 74
     0
 42
0.0000000001
 43
0.0000000001
 40
0.7142832446738512
 40
0.7142832446738512
 40
0.7142832446738512
 40
0.7142832446738512
 40
14.36247867694493
 40
14.36247867694493
 40
14.36247867694493
 40
14.36247867694493
 10
-43.33321425139404
 20
9.20119557964881
 30
0.0
 10
-34.72828553478679
 20
8.77561407095118
 30
0.0
 10
-26.7469421488669
 20
4.387807035475818
 30
0.0
 10
-18.76559876294614
 20
0.0000000000004559
 30
0.0
  0
SPLINE
  5
3FF3
330
1F
100
AcDbEntity
  8
AM_0
100
AcDbSpline
210
0.0
220
0.0
230
1.0
 70
     8
 71
     3
 72
     8
 73
     4
 74
     0
 42
0.0000000001
 43
0.0000000001
 40
0.0
 40
0.0
 40
0.0
 40
0.0
 40
21.54371801541793
 40
21.54371801541793
 40
21.54371801541793
 40
21.54371801541793
 10
-18.76559876294614
 20
-9.234889007605033
 30
0.0
 10
-27.89135403473062
 20
-9.234889007605032
 30
0.0
 10
-36.29040391370682
 20
-4.617444503802287
 30
0.0
 10
-44.68945379268302
 20
0.0000000000004559
 30
0.0
  0
DIMENSION
  5
3FF4
330
1F
100
AcDbEntity
  8
AM_5
100
AcDbDimension
  2
*D30
 10
14.00000099999916
 20
-9.999999999998557
 30
0.0
 11
10.90000099999916
 21
0.0000000000015752
 31
0.0
 70
    32
  1
%%c<>
  3
AM_JIS
100
AcDbAlignedDimension
 13
-0.0000000000021201
 23
10.0000000000017
 33
0.0
 14
0.0000000000005196
 24
-9.999999999998554
 34
0.0
 50
90.00000000000003
100
AcDbRotatedDimension
1001
GENIUS_GENDTOL_13
1000

1000
h7
1000

1040
0.0
  0
LINE
  5
4001
330
1F
100
AcDbEntity
  8
AM_0
100
AcDbLine
 10
-55.35143771564743
 20
7.839777147476545
 30
0.0
 11
-53.84305178509697
 21
8.753514051175445
 31
0.0
  0
LINE
  5
4002
330
1F
100
AcDbEntity
  8
AM_0
100
AcDbLine
 10
-55.35143771564743
 20
7.839777147476545
 30
0.0
 11
-53.84305178509697
 21
8.753514051175445
 31
0.0
  0
SPLINE
  5
4003
330
1F
100
AcDbEntity
  8
AM_0
100
AcDbSpline
210
0.0
220
0.0
230
1.0
 70
     8
 71
     3
 72
     8
 73
     4
 74
     0
 42
0.0000000001
 43
0.0000000001
 40
10.42795179099413
 40
10.42795179099413
 40
10.42795179099413
 40
10.42795179099413
 40
12.06337302160172
 40
12.06337302160172
 40
12.06337302160172
 40
12.06337302160172
 10
-55.51707924566747
 20
3.938156820042442
 30
0.0
 10
-54.56153388853377
 20
3.431188118552674
 30
0.0
 10
-53.60883829135964
 20
2.906934262551205
 30
0.0
 10
-52.65783052929547
 20
2.37244288090642
 30
0.0
  0
LINE
  5
4004
330
1F
100
AcDbEntity
  8
AM_0
100
AcDbLine
 10
-50.00100000000262
 20
9.933575556826379
 30
0.0
 11
-50.00100000000266
 21
9.248640447615647
 31
0.0
  0
ELLIPSE
  5
4005
330
1F
100
AcDbEntity
  8
AM_0
100
AcDbEllipse
 10
-51.80929517313088
 20
5.802625505612463
 30
0.0
 11
5.056996178185781
 21
2.848531058823086
 31
0.0
210
0.0
220
0.0
230
1.0
 40
0.6159035323795747
 41
1.42116411046877
 42
1.626602972334795
  0
ELLIPSE
  5
4006
330
1F
100
AcDbEntity
  8
AM_0
100
AcDbEllipse
 10
-54.24438823064931
 20
5.863713778854636
 30
0.0
 11
-0.0000000000000634
 21
2.292163863580652
 31
0.0
210
0.0
220
0.0
230
1.0
 40
0.9530829055050118
 41
0.5157909989585039
 42
2.610186101355234
  0
ELLIPSE
  5
4007
330
1F
100
AcDbEntity
  8
AM_0
100
AcDbEllipse
 10
-54.24438823064931
 20
5.863713778854636
 30
0.0
 11
-0.0000000000000634
 21
2.292163863580652
 31
0.0
210
0.0
220
0.0
230
1.0
 40
0.9530829055050118
 41
0.5157909989585039
 42
2.610186101355234
  0
LINE
  5
4008
330
1F
100
AcDbEntity
  8
AM_0
100
AcDbLine
 10
-50.00049440671886
 20
-7.661690438738786
 30
0.0
 11
-50.00049440671886
 21
-9.248614523309758
 31
0.0
  0
LINE
  5
4009
330
1F
100
AcDbEntity
  8
AM_0
100
AcDbLine
 10
-55.35143771563876
 20
-2.102841369326577
 30
0.0
 11
-53.84305178509697
 21
-1.189104465632225
 31
0.0
  0
SPLINE
  5
400A
330
1F
100
AcDbEntity
  8
0
100
AcDbSpline
210
0.0
220
0.0
230
1.0
 70
     8
 71
     3
 72
     8
 73
     4
 74
     0
 42
0.0000000001
 43
0.0000000001
 40
1.140063819971138
 40
1.140063819971138
 40
1.140063819971138
 40
1.140063819971138
 40
2.790246636948332
 40
2.790246636948332
 40
2.790246636948332
 40
2.790246636948332
 10
-49.99949440671886
 20
-8.60676448428603
 30
0.0
 10
-51.29227194851667
 20
-8.487242810228051
 30
0.0
 10
-52.57280384320405
 20
-8.285756154351474
 30
0.0
 10
-53.84305178509697
 20
-8.015434916183949
 30
0.0
  0
ELLIPSE
  5
400B
330
1F
100
AcDbEntity
  8
AM_0
100
AcDbEllipse
 10
-51.85475167688295
 20
-5.303163451897924
 30
0.0
 11
-0.0000000000000956
 21
4.612766835923437
 31
0.0
210
0.0
220
0.0
230
1.0
 40
0.95308290550501
 41
-0.5562700788786752
 42
0.5778980406257706
  0
ELLIPSE
  5
400C
330
1F
100
AcDbEntity
  8
AM_0
100
AcDbEllipse
 10
-53.39329880388663
 20
-4.721010967438794
 30
0.0
 11
-0.0000000000000612
 21
3.328049276807627
 31
0.0
210
0.0
220
0.0
230
1.0
 40
0.9530829055050057
 41
0.6653545353675457
 42
2.99932055745796
  0
LINE
  5
400D
330
1F
100
AcDbEntity
  8
AM_0
100
AcDbLine
 10
-50.00049440671886
 20
-1.103381460345188
 30
0.0
 11
-50.00049440671886
 21
2.872461828210362
 31
0.0
  0
SPLINE
  5
400E
330
1F
100
AcDbEntity
  8
AM_0
100
AcDbSpline
210
0.0
220
0.0
230
1.0
 70
     8
 71
     3
 72
     9
 73
     5
 74
     0
 42
0.0000000001
 43
0.0000000001
 40
0.0
 40
0.0
 40
0.0
 40
0.0
 40
2.15832142038773
 40
3.660803471549535
 40
3.660803471549535
 40
3.660803471549535
 40
3.660803471549535
 10
-48.84549890713242
 20
0.1881586514364256
 30
0.0
 10
-49.40071273011186
 20
0.9502671202748304
 30
0.0
 10
-50.29109931858601
 20
2.493466995061559
 30
0.0
 10
-52.04757142248344
 20
2.56200092520657
 30
0.0
 10
-52.65783052915245
 20
2.372442880826385
 30
0.0
  0
SPLINE
  5
400F
330
1F
100
AcDbEntity
  8
AM_0
100
AcDbSpline
210
0.0
220
0.0
230
1.0
 70
     8
 71
     3
 72
     8
 73
     4
 74
     0
 42
0.0000000001
 43
0.0000000001
 40
0.9752450858540601
 40
0.9752450858540601
 40
0.9752450858540601
 40
0.9752450858540601
 40
2.229997198220355
 40
2.229997198220355
 40
2.229997198220355
 40
2.229997198220355
 10
-50.00000000000262
 20
9.933575556826378
 30
0.0
 10
-49.21229951785921
 20
9.877254793332797
 30
0.0
 10
-48.43053154041887
 20
9.785964556422642
 30
0.0
 10
-47.65414527525115
 20
9.662951522200273
 30
0.0
  0
SPLINE
  5
4010
330
1F
100
AcDbEntity
  8
AM_0
100
AcDbSpline
210
0.0
220
0.0
230
1.0
 70
     8
 71
     3
 72
     8
 73
     4
 74
     0
 42
0.0000000001
 43
0.0000000001
 40
11.10916553453163
 40
11.10916553453163
 40
11.10916553453163
 40
11.10916553453163
 40
13.42219740580175
 40
13.42219740580175
 40
13.42219740580175
 40
13.42219740580175
 10
-45.9862501906174
 20
-3.436316860301302
 30
0.0
 10
-47.32789129498441
 20
-2.681619418978242
 30
0.0
 10
-48.66448926132569
 20
-1.897194924757967
 30
0.0
 10
-49.99949440671886
 20
-1.103381460344734
 30
0.0
  0
SPLINE
  5
4011
330
1F
100
AcDbEntity
  8
0
100
AcDbSpline
210
0.0
220
0.0
230
1.0
 70
     8
 71
     3
 72
     8
 73
     4
 74
     0
 42
0.0000000001
 43
0.0000000001
 40
8.865611173425079
 40
8.865611173425079
 40
8.865611173425079
 40
8.865611173425079
 40
10.49949233464396
 40
10.49949233464396
 40
10.49949233464396
 40
10.49949233464396
 10
-45.98963455637298
 20
-3.442328002901756
 30
0.0
 10
-47.17405042141235
 20
-2.775483639193546
 30
0.0
 10
-48.35450375260665
 20
-2.085311203737008
 30
0.0
 10
-49.53338118281429
 20
-1.385861186631244
 30
0.0
  0
SPLINE
  5
4012
330
1F
100
AcDbEntity
  8
0
100
AcDbSpline
210
0.0
220
0.0
230
1.0
 70
     8
 71
     3
 72
     8
 73
     4
 74
     0
 42
0.0000000001
 43
0.0000000001
 40
0.0
 40
0.0
 40
0.0
 40
0.0
 40
3.445482686890237
 40
3.445482686890237
 40
3.445482686890237
 40
3.445482686890237
 10
-41.94994116357697
 20
-8.732790518924046
 30
0.0
 10
-44.68646670531806
 20
-8.732790518924046
 30
0.0
 10
-47.36369910337685
 20
-8.33591794863878
 30
0.0
 10
-49.99949440671886
 20
-7.661690438738786
 30
0.0
  0
SPLINE
  5
4013
330
1F
100
AcDbEntity
  8
AM_0
100
AcDbSpline
210
0.0
220
0.0
230
1.0
 70
     8
 71
     3
 72
     8
 73
     4
 74
     0
 42
0.0000000001
 43
0.0000000001
 40
11.33959573889505
 40
11.33959573889505
 40
11.33959573889505
 40
11.33959573889505
 40
14.36247867694493
 40
14.36247867694493
 40
14.36247867694493
 40
14.36247867694493
 10
-49.99949440671886
 20
2.872461828210362
 30
0.0
 10
-48.2249639432732
 20
1.943674838013522
 30
0.0
 10
-46.45720886797811
 20
0.9718374190069894
 30
0.0
 10
-44.68945379268302
 20
0.0000000000004559
 30
0.0
  0
SPLINE
  5
4014
330
1F
100
AcDbEntity
  8
0
100
AcDbSpline
210
0.0
220
0.0
230
1.0
 70
     8
 71
     3
 72
     8
 73
     4
 74
     0
 42
0.0000000001
 43
0.0000000001
 40
4.041712701031851
 40
4.041712701031851
 40
4.041712701031851
 40
4.041712701031851
 40
9.964098609850829
 40
9.964098609850829
 40
9.964098609850829
 40
9.964098609850829
 10
-49.98812272781738
 20
-9.248391654231637
 30
0.0
 10
-46.97216614238301
 20
-9.086236869366834
 30
0.0
 10
-43.44259304190996
 20
-8.911358647726501
 30
0.0
 10
-42.23101965208657
 20
-8.743938899467137
 30
0.0
  0
DIMENSION
  5
4015
330
1F
100
AcDbEntity
  8
AM_5
100
AcDbDimension
  2
*D31
 10
-50.00049440671886
 20
-24.41666666666572
 30
0.0
 11
-25.00024720335916
 21
-21.31666666666571
 31
0.0
 70
    32
  1
<>
  3
AM_JIS
100
AcDbAlignedDimension
 13
0.0000000000005196
 23
-9.999999999998554
 33
0.0
 14
-50.00049440671886
 24
-8.606672014316529
 34
0.0
 50
0.0000000000001188
100
AcDbRotatedDimension
1001
GENIUS_GENDTOL_13
1000

1000
h7
1000

1040
0.0
  0
LINE
  5
4045
330
1F
100
AcDbEntity
  8
AM_0
100
AcDbLine
 10
-61.14469931713991
 20
9.482088619230703
 30
0.0
 11
-50.0000000000025
 21
9.248640447615647
 31
0.0
  0
ARC
  5
4046
330
1F
100
AcDbEntity
  8
AM_0
100
AcDbCircle
 10
-61.12375689725656
 20
10.48186930270554
 30
0.0
 40
1.0
100
AcDbArc
 50
208.8075604483203
 51
268.8000000000001
  0
LINE
  5
4047
330
1F
100
AcDbEntity
  8
AM_0
100
AcDbLine
 10
-61.14469931713991
 20
-9.482088619232362
 30
0.0
 11
-50.0000000000025
 21
-9.248640447617306
 31
0.0
  0
ARC
  5
4048
330
1F
100
AcDbEntity
  8
AM_0
100
AcDbCircle
 10
-61.12375689725656
 20
-10.4818693027072
 30
0.0
 40
1.0
100
AcDbArc
 50
91.19999999999986
 51
151.1924395516795
  0
VIEWPORT
  5
110
330
101
100
AcDbEntity
 67
     1
  8
0
100
AcDbViewport
 10
420.5
 20
297.0
 30
0.0
 40
948.9782706766916
 41
628.452
 68
     1
 69
     1
1001
ACAD
1000
MVIEW
1002
{
1070
    16
1010
0.0
1020
0.0
1030
0.0
1010
0.0
1020
0.0
1030
1.0
1040
0.0
1040
628.452
1040
420.5
1040
297.0
1040
50.0
1040
0.0
1040
0.0
1070
     0
1070
   100
1070
     1
1070
     1
1070
     0
1070
     0
1070
     0
1070
     0
1040
0.0
1040
0.0
1040
0.0
1040
10.0
1040
10.0
1040
10.0
1040
10.0
1070
     0
1002
{
1002
}
1002
}
  0
ENDSEC
  0
SECTION
  2
OBJECTS
  0
DICTIONARY
  5
C
330
0
100
AcDbDictionary
  3
ACAD_GROUP
350
D
  3
ACAD_LAYOUT
350
1A
  3
ACAD_MLINESTYLE
350
17
  3
ACAD_PLOTSETTINGS
350
19
  3
ACAD_PLOTSTYLENAME
350
E
  3
ACDBVARIABLEDICTIONARY
350
34
  3
ACMDICTIONARY
350
43
  3
AMG
350
2B
  3
AMGSNAPSETTINGS
350
6E
  3
DWGPROPS
350
4086
  3
ACDBHEADERROUNDTRIPXREC
350
4093
  0
DICTIONARY
  5
74
330
1F
100
AcDbDictionary
280
     1
  3
ACAD_INDEX
360
4088
  3
ACAD_LAYOUTSELFREF
360
40B6
  0
DICTIONARY
  5
40BB
330
101
100
AcDbDictionary
280
     1
  3
ACAD_LAYOUTSELFREF
360
40BC
  0
DICTIONARY
  5
D
102
{ACAD_REACTORS
330
C
102
}
330
C
100
AcDbDictionary
  0
DICTIONARY
  5
1A
102
{ACAD_REACTORS
330
C
102
}
330
C
100
AcDbDictionary
  0
DICTIONARY
  5
17
102
{ACAD_REACTORS
330
C
102
}
330
C
100
AcDbDictionary
  3
STANDARD
350
18
  0
DICTIONARY
  5
19
102
{ACAD_REACTORS
330
C
102
}
330
C
100
AcDbDictionary
  0
ACDBDICTIONARYWDFLT
  5
E
102
{ACAD_REACTORS
330
C
102
}
330
C
100
AcDbDictionary
281
     1
  3
Normal
350
F
100
AcDbDictionaryWithDefault
340
F
  0
DICTIONARY
  5
34
102
{ACAD_REACTORS
330
C
102
}
330
C
100
AcDbDictionary
  3
INDEXCTL
350
35
  3
SORTENTS
350
B5E
  0
DICTIONARY
  5
43
102
{ACAD_REACTORS
330
C
102
}
330
C
100
AcDbDictionary
  3
ACMSTDDICTIONARY
350
260
  0
DICTIONARY
  5
2B
102
{ACAD_REACTORS
330
C
102
}
330
C
100
AcDbDictionary
  3
ACMGSETTINGS
350
2C
  0
DICTIONARY
  5
6E
102
{ACAD_REACTORS
330
C
102
}
330
C
100
AcDbDictionary
  0
XRECORD
  5
4086
102
{ACAD_REACTORS
330
C
102
}
330
C
100
AcDbXrecord
  1
DWGPROPS COOKIE
  2

  3

  4

  6

  7

  8

  9

300
AmdtFileType=82
301
=
302
=
303
=
304
=
305
=
306
=
307
=
308
=
309
=
 40
0.5511298495370371
 41
2452838.620506898
 42
2452852.91912456
  1

 90
        1
  0
DICTIONARY
  5
4093
102
{ACAD_REACTORS
330
C
102
}
330
C
100
AcDbDictionary
  3
TSTACKALIGN
350
4094
  3
TSTACKSIZE
350
4095
  3
HYPERLINKBASE
350
4096
  3
STYLESHEET
350
4097
  3
LAYOUTDICT
350
4098
  3
PLOTSETDICT
350
4099
  3
PLOTSTYLNAMDICT
350
409A
  3
LWETCUNION
350
409B
  3
INSUNITS
350
409C
  3
CEPSNTYPE
350
409D
  3
FINGERPRINTGUID
350
409E
  3
VERSIONGUID
350
409F
  3
PSVPSCALE
350
40A0
  3
DIMSTYLEDATA
350
40A1
  3
PUCSORTHOREF
350
40A2
  3
PUCSORTHOVIEW
350
40A3
  3
PUCSBASE
350
40A4
  3
PUCSORGTOP
350
40A5
  3
PUCSORGBOTTOM
350
40A6
  3
PUCSORGLEFT
350
40A7
  3
PUCSORGRIGHT
350
40A8
  3
PUCSORGFRONT
350
40A9
  3
PUCSORGBACK
350
40AA
  3
UCSORTHOREF
350
40AB
  3
UCSORTHOVIEW
350
40AC
  3
UCSBASE
350
40AD
  3
UCSORGTOP
350
40AE
  3
UCSORGBOTTOM
350
40AF
  3
UCSORGLEFT
350
40B0
  3
UCSORGRIGHT
350
40B1
  3
UCSORGFRONT
350
40B2
  3
UCSORGBACK
350
40B3
  0
DICTIONARY
  5
4088
102
{ACAD_REACTORS
330
74
102
}
330
74
100
AcDbDictionary
  3
*A1
350
4089
  0
XRECORD
  5
40B6
102
{ACAD_REACTORS
330
74
102
}
330
74
100
AcDbXrecord
340
1F
  0
XRECORD
  5
40BC
102
{ACAD_REACTORS
330
40BB
102
}
330
40BB
100
AcDbXrecord
340
101
  0
MLINESTYLE
  5
18
102
{ACAD_REACTORS
330
17
102
}
330
17
100
AcDbMlineStyle
  2
STANDARD
 70
     0
  3

 62
   256
 51
90.0
 52
90.0
 71
     2
 49
0.5
 62
   256
  6
BYLAYER
 49
-0.5
 62
   256
  6
BYLAYER
  0
ACDBPLACEHOLDER
  5
F
102
{ACAD_REACTORS
330
E
102
}
330
E
100
AcDbPlaceHolder
280
     0
  0
DICTIONARYVAR
  5
35
102
{ACAD_REACTORS
330
34
102
}
330
34
100
DictionaryVariables
280
     0
  1
1
  0
DICTIONARYVAR
  5
B5E
102
{ACAD_REACTORS
330
34
102
}
330
34
100
DictionaryVariables
280
     0
  1
96
  0
DICTIONARY
  5
260
102
{ACAD_REACTORS
330
43
102
}
330
43
100
AcDbDictionary
  0
DICTIONARY
  5
2C
102
{ACAD_REACTORS
330
2B
102
}
330
2B
100
AcDbDictionary
  3
DWGSETTINGS
350
2D
  0
XRECORD
  5
4094
102
{ACAD_REACTORS
330
4093
102
}
330
4093
100
AcDbXrecord
 90
        1
  0
XRECORD
  5
4095
102
{ACAD_REACTORS
330
4093
102
}
330
4093
100
AcDbXrecord
 90
       70
  0
XRECORD
  5
4096
102
{ACAD_REACTORS
330
4093
102
}
330
4093
100
AcDbXrecord
  1

  0
XRECORD
  5
4097
102
{ACAD_REACTORS
330
4093
102
}
330
4093
100
AcDbXrecord
  1
ASAMI.ctb
  0
XRECORD
  5
4098
102
{ACAD_REACTORS
330
4093
102
}
330
4093
100
AcDbXrecord
340
1A
  0
XRECORD
  5
4099
102
{ACAD_REACTORS
330
4093
102
}
330
4093
100
AcDbXrecord
340
19
  0
XRECORD
  5
409A
102
{ACAD_REACTORS
330
4093
102
}
330
4093
100
AcDbXrecord
340
E
  0
XRECORD
  5
409B
102
{ACAD_REACTORS
330
4093
102
}
330
4093
100
AcDbXrecord
 90
    10781
  0
XRECORD
  5
409C
102
{ACAD_REACTORS
330
4093
102
}
330
4093
100
AcDbXrecord
 90
        4
  0
XRECORD
  5
409D
102
{ACAD_REACTORS
330
4093
102
}
330
4093
100
AcDbXrecord
 90
        0
  0
XRECORD
  5
409E
102
{ACAD_REACTORS
330
4093
102
}
330
4093
100
AcDbXrecord
  1
{AFB28963-8C59-40AE-9337-C84526B81ACE}
  0
XRECORD
  5
409F
102
{ACAD_REACTORS
330
4093
102
}
330
4093
100
AcDbXrecord
  1
{6103DDA8-015B-46BF-8483-14E115FC453A}
  0
XRECORD
  5
40A0
102
{ACAD_REACTORS
330
4093
102
}
330
4093
100
AcDbXrecord
 40
0.0
  0
XRECORD
  5
40A1
102
{ACAD_REACTORS
330
4093
102
}
330
4093
100
AcDbXrecord
1000
DSTYLE
1002
{
1070
    79
 70
     2
1070
   341
340
59
1070
   342
340
59
1070
   371
 70
    -1
1070
   372
 70
    -1
1002
}
  0
XRECORD
  5
40A2
102
{ACAD_REACTORS
330
4093
102
}
330
4093
100
AcDbXrecord
340
0
  0
XRECORD
  5
40A3
102
{ACAD_REACTORS
330
4093
102
}
330
4093
100
AcDbXrecord
 70
     0
  0
XRECORD
  5
40A4
102
{ACAD_REACTORS
330
4093
102
}
330
4093
100
AcDbXrecord
340
0
  0
XRECORD
  5
40A5
102
{ACAD_REACTORS
330
4093
102
}
330
4093
100
AcDbXrecord
 10
0.0
 20
0.0
 30
0.0
  0
XRECORD
  5
40A6
102
{ACAD_REACTORS
330
4093
102
}
330
4093
100
AcDbXrecord
 10
0.0
 20
0.0
 30
0.0
  0
XRECORD
  5
40A7
102
{ACAD_REACTORS
330
4093
102
}
330
4093
100
AcDbXrecord
 10
0.0
 20
0.0
 30
0.0
  0
XRECORD
  5
40A8
102
{ACAD_REACTORS
330
4093
102
}
330
4093
100
AcDbXrecord
 10
0.0
 20
0.0
 30
0.0
  0
XRECORD
  5
40A9
102
{ACAD_REACTORS
330
4093
102
}
330
4093
100
AcDbXrecord
 10
0.0
 20
0.0
 30
0.0
  0
XRECORD
  5
40AA
102
{ACAD_REACTORS
330
4093
102
}
330
4093
100
AcDbXrecord
 10
0.0
 20
0.0
 30
0.0
  0
XRECORD
  5
40AB
102
{ACAD_REACTORS
330
4093
102
}
330
4093
100
AcDbXrecord
340
0
  0
XRECORD
  5
40AC
102
{ACAD_REACTORS
330
4093
102
}
330
4093
100
AcDbXrecord
 70
     0
  0
XRECORD
  5
40AD
102
{ACAD_REACTORS
330
4093
102
}
330
4093
100
AcDbXrecord
340
0
  0
XRECORD
  5
40AE
102
{ACAD_REACTORS
330
4093
102
}
330
4093
100
AcDbXrecord
 10
0.0
 20
0.0
 30
0.0
  0
XRECORD
  5
40AF
102
{ACAD_REACTORS
330
4093
102
}
330
4093
100
AcDbXrecord
 10
0.0
 20
0.0
 30
0.0
  0
XRECORD
  5
40B0
102
{ACAD_REACTORS
330
4093
102
}
330
4093
100
AcDbXrecord
 10
0.0
 20
0.0
 30
0.0
  0
XRECORD
  5
40B1
102
{ACAD_REACTORS
330
4093
102
}
330
4093
100
AcDbXrecord
 10
0.0
 20
0.0
 30
0.0
  0
XRECORD
  5
40B2
102
{ACAD_REACTORS
330
4093
102
}
330
4093
100
AcDbXrecord
 10
0.0
 20
0.0
 30
0.0
  0
XRECORD
  5
40B3
102
{ACAD_REACTORS
330
4093
102
}
330
4093
100
AcDbXrecord
 10
0.0
 20
0.0
 30
0.0
  0
LAYER_INDEX
  5
4089
102
{ACAD_REACTORS
330
4088
102
}
330
4088
100
AcDbIndex
 40
2453151.884503565
100
AcDbLayerIndex
  8
0
360
408A
 90
        8
  8
AM_0
360
408B
 90
      142
  8
AM_11
360
408C
 90
        0
  8
AM_7
360
408D
 90
        1
  8
AM_5
360
408E
 90
        5
  8
Defpoints
360
408F
 90
        0
  8
AM_6
360
4090
 90
        1
  8
AM_CL
360
4091
 90
        0
  0
XRECORD
  5
2D
102
{ACAD_REACTORS
330
2C
102
}
330
2C
100
AcDbXrecord
  1
VERSION
140
15.0
  1
PRODUCT
  2
AutoCAD Mechanical 2000
  0
IDBUFFER
  5
408A
330
0
100
AcDbIdBuffer
330
3FCA
330
3FCF
330
3FE0
330
3FE3
330
400A
330
4011
330
4012
330
4014
  0
IDBUFFER
  5
408B
330
0
100
AcDbIdBuffer
330
3FEA
330
3FEB
330
3FEC
330
3FED
330
3FEE
330
3FEF
330
3FF0
330
3FF1
330
3FF2
330
3FF3
330
4001
330
4002
330
4003
330
4004
330
4005
330
4006
330
4007
330
4008
330
4009
330
400B
330
400C
330
400D
330
400E
330
400F
330
4010
330
4013
330
4045
330
4046
330
4047
330
4048
330
3CA3
330
3CA6
330
3CA7
330
3CA8
330
3CA9
330
3CAA
330
3CAC
330
3F7D
330
3F7E
330
3F7F
330
3F80
330
3F81
330
3F82
330
3F83
330
3F84
330
3F85
330
3F86
330
3F87
330
3F88
330
3F89
330
3F8A
330
3F8B
330
3F8C
330
3F8D
330
3F8E
330
3F8F
330
3F90
330
3F91
330
3F92
330
3F93
330
3F94
330
3F95
330
3F96
330
3F97
330
3F98
330
3F99
330
3F9A
330
3F9B
330
3F9C
330
3F9D
330
3F9E
330
3F9F
330
3FA0
330
3FA1
330
3FA2
330
3FA3
330
3FA4
330
3FA5
330
3FA6
330
3FA7
330
3FA8
330
3FA9
330
3FAA
330
3FAB
330
3FAC
330
3FAD
330
3FAE
330
3FAF
330
3FB0
330
3FB1
330
3FB2
330
3FB3
330
3FB4
330
3FB5
330
3FB6
330
3FB7
330
3FB8
330
3FB9
330
3FBA
330
3FBB
330
3FBC
330
3FBD
330
3FBE
330
3FBF
330
3FC0
330
3FC1
330
3FC2
330
3FC3
330
3FC4
330
3FC5
330
3FC6
330
3FC7
330
3FC8
330
3FC9
330
3FCB
330
3FCC
330
3FCD
330
3FCE
330
3FD0
330
3FD1
330
3FD2
330
3FD3
330
3FD4
330
3FD5
330
3FD6
330
3FD7
330
3FD8
330
3FD9
330
3FDA
330
3FDB
330
3FDC
330
3FDD
330
3FDE
330
3FDF
330
3FE1
330
3FE2
330
3FE4
330
3FE5
330
3FE6
330
3FE7
330
3FE8
330
3FE9
  0
IDBUFFER
  5
408C
330
0
100
AcDbIdBuffer
  0
IDBUFFER
  5
408D
330
0
100
AcDbIdBuffer
330
2A1C
  0
IDBUFFER
  5
408E
330
0
100
AcDbIdBuffer
330
3CA4
330
3CA5
330
3F70
330
3FF4
330
4015
  0
IDBUFFER
  5
408F
330
0
100
AcDbIdBuffer
  0
IDBUFFER
  5
4090
330
0
100
AcDbIdBuffer
330
C58
  0
IDBUFFER
  5
4091
330
0
100
AcDbIdBuffer
  0
ENDSEC
  0
EOF
