  0
SECTION
  2
HEADER
  9
$ACADVER
  1
AC1014
  9
$ACADMAINTVER
 70
     9
  9
$DWGCODEPAGE
  3
ANSI_932
  9
$INSBASE
 10
0.0
 20
0.0
 30
0.0
  9
$EXTMIN
 10
-193.4819232346324
 20
-71.50000050499885
 30
-0.00000001
  9
$EXTMAX
 10
18.1257891477818
 20
17.30604801404513
 30
0.00000001
  9
$LIMMIN
 10
-217.7411330874534
 20
-109.8452424855918
  9
$LIMMAX
 10
54.20405632071766
 20
53.11720228014952
  9
$ORTHOMODE
 70
     0
  9
$REGENMODE
 70
     1
  9
$FILLMODE
 70
     1
  9
$QTEXTMODE
 70
     0
  9
$MIRRTEXT
 70
     0
  9
$DRAGMODE
 70
     2
  9
$LTSCALE
 40
0.3
  9
$OSMODE
 70
    55
  9
$ATTMODE
 70
     1
  9
$TEXTSIZE
 40
2.5
  9
$TRACEWID
 40
1.0
  9
$TEXTSTYLE
  7
STANDARD
  9
$CLAYER
  8
AM_0
  9
$CELTYPE
  6
BYLAYER
  9
$CECOLOR
 62
   256
  9
$CELTSCALE
 40
1.0
  9
$DELOBJ
 70
     1
  9
$DISPSILH
 70
     0
  9
$DIMSCALE
 40
1.0
  9
$DIMASZ
 40
2.5
  9
$DIMEXO
 40
1.0
  9
$DIMDLI
 40
12.0
  9
$DIMRND
 40
0.0
  9
$DIMDLE
 40
0.0
  9
$DIMEXE
 40
1.0
  9
$DIMTP
 40
0.1
  9
$DIMTM
 40
0.1
  9
$DIMTXT
 40
3.2
  9
$DIMCEN
 40
0.0
  9
$DIMTSZ
 40
0.0
  9
$DIMTOL
 70
     0
  9
$DIMLIM
 70
     0
  9
$DIMTIH
 70
     0
  9
$DIMTOH
 70
     0
  9
$DIMSE1
 70
     0
  9
$DIMSE2
 70
     0
  9
$DIMTAD
 70
     3
  9
$DIMZIN
 70
     8
  9
$DIMBLK
  1
OPEN30
  9
$DIMASO
 70
     1
  9
$DIMSHO
 70
     1
  9
$DIMPOST
  1

  9
$DIMAPOST
  1
"
  9
$DIMALT
 70
     0
  9
$DIMALTD
 70
     2
  9
$DIMALTF
 40
0.0393701
  9
$DIMLFAC
 40
1.0
  9
$DIMTOFL
 70
     1
  9
$DIMTVP
 40
0.0
  9
$DIMTIX
 70
     0
  9
$DIMSOXD
 70
     0
  9
$DIMSAH
 70
     0
  9
$DIMBLK1
  1

  9
$DIMBLK2
  1

  9
$DIMSTYLE
  2
AM_JIS
  9
$DIMCLRD
 70
   256
  9
$DIMCLRE
 70
   256
  9
$DIMCLRT
 70
     2
  9
$DIMTFAC
 40
0.71
  9
$DIMGAP
 40
1.5
  9
$DIMJUST
 70
     0
  9
$DIMSD1
 70
     0
  9
$DIMSD2
 70
     0
  9
$DIMTOLJ
 70
     0
  9
$DIMTZIN
 70
     0
  9
$DIMALTZ
 70
     0
  9
$DIMALTTZ
 70
     0
  9
$DIMFIT
 70
     3
  9
$DIMUPT
 70
     0
  9
$DIMUNIT
 70
     2
  9
$DIMDEC
 70
     3
  9
$DIMTDEC
 70
     3
  9
$DIMALTU
 70
     2
  9
$DIMALTTD
 70
     2
  9
$DIMTXSTY
  7
ASAMI
  9
$DIMAUNIT
 70
     0
  9
$LUNITS
 70
     2
  9
$LUPREC
 70
     2
  9
$SKETCHINC
 40
1.0
  9
$FILLETRAD
 40
0.5
  9
$AUNITS
 70
     0
  9
$AUPREC
 70
     0
  9
$MENU
  1
.
  9
$ELEVATION
 40
0.0
  9
$PELEVATION
 40
0.0
  9
$THICKNESS
 40
0.0
  9
$LIMCHECK
 70
     0
  9
$BLIPMODE
 70
     0
  9
$CHAMFERA
 40
2.5
  9
$CHAMFERB
 40
2.5
  9
$CHAMFERC
 40
20.0
  9
$CHAMFERD
 40
0.0
  9
$SKPOLY
 70
     0
  9
$TDCREATE
 40
2452838.620506898
  9
$TDUPDATE
 40
2453151.885336921
  9
$TDINDWG
 40
0.5727279051
  9
$TDUSRTIMER
 40
0.5727279051
  9
$USRTIMER
 70
     1
  9
$ANGBASE
 50
0.0
  9
$ANGDIR
 70
     0
  9
$PDMODE
 70
     0
  9
$PDSIZE
 40
0.0
  9
$PLINEWID
 40
0.0
  9
$COORDS
 70
     1
  9
$SPLFRAME
 70
     0
  9
$SPLINETYPE
 70
     6
  9
$SPLINESEGS
 70
     8
  9
$ATTDIA
 70
     1
  9
$ATTREQ
 70
     1
  9
$HANDLING
 70
 12289
  9
$HANDSEED
  5
4801
  9
$SURFTAB1
 70
     6
  9
$SURFTAB2
 70
     6
  9
$SURFTYPE
 70
     6
  9
$SURFU
 70
     6
  9
$SURFV
 70
     6
  9
$UCSNAME
  2

  9
$UCSORG
 10
-0.0000000000047788
 20
0.0000000000391898
 30
0.0
  9
$UCSXDIR
 10
1.0
 20
0.0
 30
0.0
  9
$UCSYDIR
 10
0.0
 20
1.0
 30
0.0
  9
$PUCSNAME
  2

  9
$PUCSORG
 10
0.0
 20
0.0
 30
0.0
  9
$PUCSXDIR
 10
1.0
 20
0.0
 30
0.0
  9
$PUCSYDIR
 10
0.0
 20
1.0
 30
0.0
  9
$USERI1
 70
     0
  9
$USERI2
 70
     0
  9
$USERI3
 70
     0
  9
$USERI4
 70
     0
  9
$USERI5
 70
     0
  9
$USERR1
 40
0.0
  9
$USERR2
 40
0.0
  9
$USERR3
 40
0.0
  9
$USERR4
 40
0.0
  9
$USERR5
 40
0.0
  9
$WORLDVIEW
 70
     1
  9
$SHADEDGE
 70
     3
  9
$SHADEDIF
 70
    70
  9
$TILEMODE
 70
     1
  9
$MAXACTVP
 70
    64
  9
$PINSBASE
 10
0.0
 20
0.0
 30
0.0
  9
$PLIMCHECK
 70
     0
  9
$PEXTMIN
 10
1.000000000000000E+20
 20
1.000000000000000E+20
 30
1.000000000000000E+20
  9
$PEXTMAX
 10
-1.000000000000000E+20
 20
-1.000000000000000E+20
 30
-1.000000000000000E+20
  9
$PLIMMIN
 10
0.0
 20
0.0
  9
$PLIMMAX
 10
841.0
 20
594.0
  9
$UNITMODE
 70
     0
  9
$VISRETAIN
 70
     1
  9
$PLINEGEN
 70
     0
  9
$PSLTSCALE
 70
     0
  9
$TREEDEPTH
 70
  3020
  9
$PICKSTYLE
 70
     0
  9
$CMLSTYLE
  2
STANDARD
  9
$CMLJUST
 70
     0
  9
$CMLSCALE
 40
20.0
  9
$PROXYGRAPHICS
 70
     1
  9
$MEASUREMENT
 70
     1
  0
ENDSEC
  0
SECTION
  2
CLASSES
  0
CLASS
  1
ACDBDICTIONARYWDFLT
  2
AcDbDictionaryWithDefault
  3
AutoCAD 2000
 90
        0
280
     0
281
     0
  0
CLASS
  1
ACDBPLACEHOLDER
  2
AcDbPlaceHolder
  3
AutoCAD 2000
 90
        0
280
     0
281
     0
  0
CLASS
  1
LAYOUT
  2
AcDbLayout
  3
AutoCAD 2000
 90
        0
280
     0
281
     0
  0
CLASS
  1
AMGSETTINGSOBJ
  2
AmgSettingsObj
  3
"AcadM|Product Description: AutoCAD Mechanical 2000|Company: Autodesk"
 90
        0
280
     0
281
     0
  0
CLASS
  1
ACME_DOCUMENT
  2
AcMeDbDoc
  3
AcMeServices
 90
        0
280
     0
281
     0
  0
CLASS
  1
ACMESCOPE
  2
AcMeScope
  3
AcMeServices
 90
        0
280
     0
281
     0
  0
CLASS
  1
ACMECOMMANDHISTORY
  2
AcMeCommandHistory
  3
AcMeServices
 90
        0
280
     0
281
     0
  0
CLASS
  1
DICTIONARYVAR
  2
AcDbDictionaryVar
  3
AutoCAD 2000
 90
        0
280
     0
281
     0
  0
CLASS
  1
ACIMSYSVARMAN
  2
AcImSysVarManager
  3
AcMeServices
 90
        0
280
     0
281
     0
  0
CLASS
  1
ACIMREALSYSVAR
  2
AcImRealSysVar
  3
AcMeServices
 90
        0
280
     0
281
     0
  0
CLASS
  1
ACIMINTSYSVAR
  2
AcImIntSysVar
  3
AcMeServices
 90
        0
280
     0
281
     0
  0
CLASS
  1
ACMEDRAWINGMAN
  2
AcMeDrawingMan
  3
AcMeServices
 90
        0
280
     0
281
     0
  0
CLASS
  1
ACMEVIEW
  2
AcMeView
  3
AcMeServices
 90
        0
280
     0
281
     0
  0
CLASS
  1
ACDBENTITYCACHE
  2
AcMeEntityCache
  3
AcMeServices
 90
        0
280
     0
281
     0
  0
CLASS
  1
GSMANAGER
  2
AcMeGSManager
  3
AcMeServices
 90
        0
280
     0
281
     0
  0
CLASS
  1
AmdtInternalReactor
  2
AmdtInternalReactor
  3
AcMeServices
 90
        0
280
     0
281
     0
  0
CLASS
  1
ACMESTATEMGR
  2
AcMeStateMgr
  3
AcMeServices
 90
        0
280
     0
281
     0
  0
CLASS
  1
ACME_DATABASE
  2
AcMeDbDatabase
  3
AcMeServices
 90
        0
280
     0
281
     0
  0
CLASS
  1
ACRFINSADJUSTERMGR
  2
AcRfInsAdjusterMgr
  3
AcMeServices
 90
        0
280
     0
281
     0
  0
CLASS
  1
ACMDATADICTIONARY
  2
AcmDataDictionary
  3
"AcmSymBB|Product Description: AutoCAD Mechanical 2000|Company: Autodesk"
 90
        0
280
     0
281
     0
  0
CLASS
  1
ACMDATAENTRYBLOCK
  2
AcmDataEntryBlock
  3
"AcmSymBB|Product Description: AutoCAD Mechanical 2000|Company: Autodesk"
 90
        0
280
     0
281
     0
  0
CLASS
  1
AMGOBJPROPCFG
  2
AmgObjPropCfg
  3
"AmgLay|Product Description: AutoCAD Mechanical 2000|Company: Autodesk"
 90
        1
280
     0
281
     0
  0
CLASS
  1
ACAMGFILTERDAT
  2
AcAmgFilterDat
  3
"AcadM|Product Description: AutoCAD Mechanical 2000|Company: Autodesk"
 90
        0
280
     0
281
     0
  0
CLASS
  1
LAYER_INDEX
  2
AcDbLayerIndex
  3
AutoCAD 2000
 90
        0
280
     0
281
     0
  0
CLASS
  1
IDBUFFER
  2
AcDbIdBuffer
  3
AutoCAD 2000
 90
        0
280
     0
281
     0
  0
CLASS
  1
ACIMSTRSYSVAR
  2
AcImStrSysVar
  3
AcMeServices
 90
        0
280
     0
281
     0
  0
CLASS
  1
ACMSTANDARDJIS
  2
AcmStandardJIS
  3
"AcmSymBB|Product Description: AutoCAD Mechanical 2000|Company: Autodesk"
 90
        0
280
     0
281
     0
  0
CLASS
  1
ACMSURFSTANDARDJIS
  2
AcmSurfTextStdJIS
  3
"AcmSymBB|Product Description: AutoCAD Mechanical 2000|Company: Autodesk"
 90
        0
280
     0
281
     0
  0
CLASS
  1
ACMFCFSTANDARDJIS
  2
AcmFCFStdJIS
  3
"AcmSymBB|Product Description: AutoCAD Mechanical 2000|Company: Autodesk"
 90
        0
280
     0
281
     0
  0
CLASS
  1
ACMWELDSTANDARDJIS
  2
AcmWeldingStdJIS
  3
"AcmSymBB|Product Description: AutoCAD Mechanical 2000|Company: Autodesk"
 90
        0
280
     0
281
     0
  0
CLASS
  1
ACMIDSTANDARDJIS
  2
AcmIdStdJIS
  3
"AcmSymBB|Product Description: AutoCAD Mechanical 2000|Company: Autodesk"
 90
        0
280
     0
281
     0
  0
CLASS
  1
ACMDATUMSTANDARDJIS
  2
AcmDatumStdJIS
  3
"AcmSymBB|Product Description: AutoCAD Mechanical 2000|Company: Autodesk"
 90
        0
280
     0
281
     0
  0
CLASS
  1
ACMBOMSTANDARDJIS
  2
AcmBOMStdJIS
  3
"AcmSymBB|Product Description: AutoCAD Mechanical 2000|Company: Autodesk"
 90
        0
280
     0
281
     0
  0
CLASS
  1
ACMSTANDARDANSI
  2
AcmStandardANSI
  3
"AcmSymBB|Product Description: AutoCAD Mechanical 2000|Company: Autodesk"
 90
        0
280
     0
281
     0
  0
CLASS
  1
ACMSURFSTANDARDANSI
  2
AcmSurfTextStdANSI
  3
"AcmSymBB|Product Description: AutoCAD Mechanical 2000|Company: Autodesk"
 90
        0
280
     0
281
     0
  0
CLASS
  1
ACMFCFSTANDARDANSI
  2
AcmFCFStdANSI
  3
"AcmSymBB|Product Description: AutoCAD Mechanical 2000|Company: Autodesk"
 90
        0
280
     0
281
     0
  0
CLASS
  1
ACMWELDSTANDARDANSI
  2
AcmWeldingStdANSI
  3
"AcmSymBB|Product Description: AutoCAD Mechanical 2000|Company: Autodesk"
 90
        0
280
     0
281
     0
  0
CLASS
  1
ACMIDSTANDARDANSI
  2
AcmIdStdANSI
  3
"AcmSymBB|Product Description: AutoCAD Mechanical 2000|Company: Autodesk"
 90
        0
280
     0
281
     0
  0
CLASS
  1
ACMDATUMSTANDARDANSI
  2
AcmDatumStdANSI
  3
"AcmSymBB|Product Description: AutoCAD Mechanical 2000|Company: Autodesk"
 90
        0
280
     0
281
     0
  0
CLASS
  1
ACMBOMSTANDARDANSI
  2
AcmBOMStdANSI
  3
"AcmSymBB|Product Description: AutoCAD Mechanical 2000|Company: Autodesk"
 90
        0
280
     0
281
     0
  0
CLASS
  1
ACMSTANDARDBSI
  2
AcmStandardBSI
  3
"AcmSymBB|Product Description: AutoCAD Mechanical 2000|Company: Autodesk"
 90
        0
280
     0
281
     0
  0
CLASS
  1
ACMSURFSTANDARDBSI
  2
AcmSurfTextStdBSI
  3
"AcmSymBB|Product Description: AutoCAD Mechanical 2000|Company: Autodesk"
 90
        0
280
     0
281
     0
  0
CLASS
  1
ACMFCFSTANDARDBSI
  2
AcmFCFStdBSI
  3
"AcmSymBB|Product Description: AutoCAD Mechanical 2000|Company: Autodesk"
 90
        0
280
     0
281
     0
  0
CLASS
  1
ACMWELDSTANDARDBSI
  2
AcmWeldingStdBSI
  3
"AcmSymBB|Product Description: AutoCAD Mechanical 2000|Company: Autodesk"
 90
        0
280
     0
281
     0
  0
CLASS
  1
ACMIDSTANDARDBSI
  2
AcmIdStdBSI
  3
"AcmSymBB|Product Description: AutoCAD Mechanical 2000|Company: Autodesk"
 90
        0
280
     0
281
     0
  0
CLASS
  1
ACMDATUMSTANDARDBSI
  2
AcmDatumStdBSI
  3
"AcmSymBB|Product Description: AutoCAD Mechanical 2000|Company: Autodesk"
 90
        0
280
     0
281
     0
  0
CLASS
  1
ACMBOMSTANDARDBSI
  2
AcmBOMStdBSI
  3
"AcmSymBB|Product Description: AutoCAD Mechanical 2000|Company: Autodesk"
 90
        0
280
     0
281
     0
  0
CLASS
  1
LONG_TRANSACTION
  2
AcDbLongTransaction
  3
AutoCAD 2000
 90
        0
280
     0
281
     0
  0
CLASS
  1
LWPOLYLINE
  2
AcDbPolyline
  3
AutoCAD 2000
 90
        0
280
     0
281
     1
  0
CLASS
  1
HATCH
  2
AcDbHatch
  3
AutoCAD 2000
 90
        0
280
     0
281
     1
  0
CLASS
  1
XRECORD
  2
AcDbXrecord
  3
AutoCAD 2000
 90
        0
280
     0
281
     0
  0
ENDSEC
  0
SECTION
  2
TABLES
  0
TABLE
  2
VPORT
  5
8
330
0
100
AcDbSymbolTable
 70
     3
  0
VPORT
  5
47D6
330
8
100
AcDbSymbolTableRecord
100
AcDbViewportTableRecord
  2
*ACTIVE
 70
     0
 10
0.0
 20
0.0
 11
1.0
 21
1.0
 12
-85.56135857703173
 22
-17.32924486869573
 13
0.0
 23
0.0
 14
2.5
 24
2.5
 15
10.0
 25
10.0
 16
0.0
 26
0.0
 36
1.0
 17
0.0
 27
0.0
 37
0.0
 40
230.1309038045688
 41
1.56570841889117
 42
50.0
 43
0.0
 44
0.0
 50
0.0
 51
0.0
 71
     0
 72
   100
 73
     1
 74
     3
 75
     0
 76
     0
 77
     0
 78
     0
  0
ENDTAB
  0
TABLE
  2
LTYPE
  5
5
330
0
100
AcDbSymbolTable
 70
    10
  0
LTYPE
  5
14
330
5
100
AcDbSymbolTableRecord
100
AcDbLinetypeTableRecord
  2
BYBLOCK
 70
     0
  3

 72
    65
 73
     0
 40
0.0
  0
LTYPE
  5
15
330
5
100
AcDbSymbolTableRecord
100
AcDbLinetypeTableRecord
  2
BYLAYER
 70
     0
  3

 72
    65
 73
     0
 40
0.0
  0
LTYPE
  5
16
330
5
100
AcDbSymbolTableRecord
100
AcDbLinetypeTableRecord
  2
CONTINUOUS
 70
     0
  3
Solid line
 72
    65
 73
     0
 40
0.0
  0
LTYPE
  5
4B
330
5
100
AcDbSymbolTableRecord
100
AcDbLinetypeTableRecord
  2
AM_ISO02W050
 70
     0
  3
__ __ __ __ __ __ __ __ __ __ __ __ __ __ __
 72
    65
 73
     2
 40
7.5
 49
6.0
 74
     0
 49
-1.5
 74
     0
  0
LTYPE
  5
4C
330
5
100
AcDbSymbolTableRecord
100
AcDbLinetypeTableRecord
  2
AM_ISO08W050
 70
     0
  3
____ . ____ . ____ . ____ . ____ . ____ . ____
 72
    65
 73
     4
 40
18.0
 49
12.0
 74
     0
 49
-1.5
 74
     0
 49
3.0
 74
     0
 49
-1.5
 74
     0
  0
LTYPE
  5
4D
330
5
100
AcDbSymbolTableRecord
100
AcDbLinetypeTableRecord
  2
AM_ISO09W050
 70
     0
  3
_____ . . _____ . . _____ . . ____ .. ____
 72
    65
 73
     6
 40
22.5
 49
12.0
 74
     0
 49
-1.5
 74
     0
 49
3.0
 74
     0
 49
-1.5
 74
     0
 49
3.0
 74
     0
 49
-1.5
 74
     0
  0
LTYPE
  5
4E
330
5
100
AcDbSymbolTableRecord
100
AcDbLinetypeTableRecord
  2
AMCONSTR
 70
     0
  3
_______________________
 72
    65
 73
     2
 40
9999.0
 49
9999.0
 74
     0
 49
0.0
 74
     0
  0
LTYPE
  5
4F
330
5
100
AcDbSymbolTableRecord
100
AcDbLinetypeTableRecord
  2
AM_ISO02W050X2
 70
     0
  3
 _ _ _ _ _ _ _ _ _ _ _ _
 72
    65
 73
     2
 40
3.75
 49
3.0
 74
     0
 49
-0.75
 74
     0
  0
LTYPE
  5
50
330
5
100
AcDbSymbolTableRecord
100
AcDbLinetypeTableRecord
  2
AM_ISO08W050X2
 70
     0
  3
__ . __ . __ . __ . __ . __
 72
    65
 73
     4
 40
9.0
 49
6.0
 74
     0
 49
-0.75
 74
     0
 49
1.5
 74
     0
 49
-0.75
 74
     0
  0
LTYPE
  5
53
330
5
100
AcDbSymbolTableRecord
100
AcDbLinetypeTableRecord
  2
AMZIGZAG
 70
     0
  3
/\/-/\/-/\/-/\/-/\/-/\/
 72
    65
 73
     2
 40
11.00009999999999
 49
0.0001
 74
     4
 75
   135
340
52
 46
0.04
 50
0.0
 44
0.0
 45
0.0
 49
-11.0
 74
     0
  0
LTYPE
  5
166
330
5
100
AcDbSymbolTableRecord
100
AcDbLinetypeTableRecord
  2
ACJISTGL
 70
     0
  3
_ _ _ _ _
 72
    65
 73
     2
 40
3.0
 49
2.0
 74
     0
 49
-1.0
 74
     0
  0
LTYPE
  5
26A
330
5
100
AcDbSymbolTableRecord
100
AcDbLinetypeTableRecord
  2
ACJISTGB
 70
     0
  3
__ . . __ . .
 72
    65
 73
     6
 40
9.0
 49
4.0
 74
     0
 49
-1.0
 74
     0
 49
1.0
 74
     0
 49
-1.0
 74
     0
 49
1.0
 74
     0
 49
-1.0
 74
     0
  0
ENDTAB
  0
TABLE
  2
LAYER
  5
2
330
0
100
AcDbSymbolTable
 70
     8
  0
LAYER
  5
10
330
2
100
AcDbSymbolTableRecord
100
AcDbLayerTableRecord
  2
0
 70
     0
 62
     7
  6
CONTINUOUS
  0
LAYER
  5
3F9
330
2
100
AcDbSymbolTableRecord
100
AcDbLayerTableRecord
  2
AM_0
 70
     0
 62
     7
  6
CONTINUOUS
  0
LAYER
  5
BD6
330
2
100
AcDbSymbolTableRecord
100
AcDbLayerTableRecord
  2
AM_11
 70
     0
 62
     3
  6
AM_ISO09W050
  0
LAYER
  5
BD7
330
2
100
AcDbSymbolTableRecord
100
AcDbLayerTableRecord
  2
AM_7
 70
     0
 62
     4
  6
AM_ISO08W050
  0
LAYER
  5
BD8
330
2
100
AcDbSymbolTableRecord
100
AcDbLayerTableRecord
  2
AM_5
 70
     0
 62
     3
  6
CONTINUOUS
  0
LAYER
  5
BD9
330
2
100
AcDbSymbolTableRecord
100
AcDbLayerTableRecord
  2
DEFPOINTS
 70
     0
 62
     7
  6
CONTINUOUS
  0
LAYER
  5
BDA
330
2
100
AcDbSymbolTableRecord
100
AcDbLayerTableRecord
  2
AM_6
 70
     0
 62
     2
  6
CONTINUOUS
  0
LAYER
  5
2398
330
2
100
AcDbSymbolTableRecord
100
AcDbLayerTableRecord
  2
AM_CL
 70
     0
 62
     1
  6
AMCONSTR
  0
ENDTAB
  0
TABLE
  2
STYLE
  5
3
330
0
100
AcDbSymbolTable
 70
     5
  0
STYLE
  5
11
330
3
100
AcDbSymbolTableRecord
100
AcDbTextStyleTableRecord
  2
STANDARD
 70
     0
 40
0.0
 41
1.0
 50
0.0
 71
     0
 42
2.5
  3
simplex.shx
  4
EXTFONT.SHX
  0
STYLE
  5
52
330
3
100
AcDbSymbolTableRecord
100
AcDbTextStyleTableRecord
  2

 70
     1
 40
0.0
 41
1.0
 50
0.0
 71
     0
 42
2.5
  3
ltypeshp.shx
  4

  0
STYLE
  5
6B
330
3
100
AcDbSymbolTableRecord
100
AcDbTextStyleTableRecord
  2
ASAMI
 70
     0
 40
0.0
 41
1.0
 50
0.0
 71
     0
 42
2.5
  3
simplex.shx
  4
EXTFONT.SHX
  0
STYLE
  5
262
330
3
100
AcDbSymbolTableRecord
100
AcDbTextStyleTableRecord
  2
ACJISTS
 70
     0
 40
1.0
 41
1.0
 50
0.0
 71
     0
 42
2.5
  3
simplex.shx
  4
bigfont.shx
  0
STYLE
  5
269
330
3
100
AcDbSymbolTableRecord
100
AcDbTextStyleTableRecord
  2
ACJISGDT
 70
     0
 40
0.0
 41
1.0
 50
0.0
 71
     0
 42
2.5
  3
amgdtans.shx
  4

  0
ENDTAB
  0
TABLE
  2
VIEW
  5
6
330
0
100
AcDbSymbolTable
 70
     0
  0
ENDTAB
  0
TABLE
  2
UCS
  5
7
330
0
100
AcDbSymbolTable
 70
     0
  0
ENDTAB
  0
TABLE
  2
APPID
  5
9
330
0
100
AcDbSymbolTable
 70
    14
  0
APPID
  5
12
330
9
100
AcDbSymbolTableRecord
100
AcDbRegAppTableRecord
  2
ACAD
 70
     0
  0
APPID
  5
30
330
9
100
AcDbSymbolTableRecord
100
AcDbRegAppTableRecord
  2
MCAD_NO_VIS
 70
     0
  0
APPID
  5
31
330
9
100
AcDbSymbolTableRecord
100
AcDbRegAppTableRecord
  2
ACAD_TEMP_GRAPHIC
 70
     0
  0
APPID
  5
2C2
330
9
100
AcDbSymbolTableRecord
100
AcDbRegAppTableRecord
  2
GENIUS_GENDTOL_13
 70
     0
  0
APPID
  5
339
330
9
100
AcDbSymbolTableRecord
100
AcDbRegAppTableRecord
  2
GENIUS_GENODEF_13
 70
     0
  0
APPID
  5
33A
330
9
100
AcDbSymbolTableRecord
100
AcDbRegAppTableRecord
  2
GENIUS_GENOBJ-N-RSBK_13
 70
     0
  0
APPID
  5
33B
330
9
100
AcDbSymbolTableRecord
100
AcDbRegAppTableRecord
  2
GENIUS_GENOBJ-N-LIB_13
 70
     0
  0
APPID
  5
33C
330
9
100
AcDbSymbolTableRecord
100
AcDbRegAppTableRecord
  2
GENIUS_GENSCALE_13
 70
     0
  0
APPID
  5
378
330
9
100
AcDbSymbolTableRecord
100
AcDbRegAppTableRecord
  2
GENIUS_GENDIMSH_14
 70
     0
  0
APPID
  5
BDB
330
9
100
AcDbSymbolTableRecord
100
AcDbRegAppTableRecord
  2
GENIUS_GENOBJ-N-CEN_13
 70
     0
  0
APPID
  5
BDC
330
9
100
AcDbSymbolTableRecord
100
AcDbRegAppTableRecord
  2
GENIUS_GENFIL_13
 70
     0
  0
APPID
  5
BDD
330
9
100
AcDbSymbolTableRecord
100
AcDbRegAppTableRecord
  2
GENIUS_GENOBJ-N-FIL_13
 70
     0
  0
APPID
  5
12AD
330
9
100
AcDbSymbolTableRecord
100
AcDbRegAppTableRecord
  2
GENIUS_GENOREF_13
 70
     0
  0
APPID
  5
28FE
330
9
100
AcDbSymbolTableRecord
100
AcDbRegAppTableRecord
  2
GENIUS_GENOBJ-N-CHA_13
 70
     0
  0
ENDTAB
  0
TABLE
  2
DIMSTYLE
  5
A
330
0
100
AcDbSymbolTable
 70
     8
  0
DIMSTYLE
105
58
102
{ACAD_REACTORS
330
39DA
330
39DB
330
3B05
330
3B8E
330
3B8F
330
3DAA
330
3DAC
330
3EE1
330
3F6E
330
3F59
330
41A5
330
41BA
330
412D
330
430D
330
4312
330
4381
330
43E3
330
440E
330
4410
330
4578
330
46E4
330
46B5
330
4743
330
477E
102
}
330
A
100
AcDbSymbolTableRecord
100
AcDbDimStyleTableRecord
  2
AM_JIS
 70
     0
  3

  4
"
  5
OPEN30
  6

  7

 40
1.0
 41
2.5
 42
1.0
 43
12.0
 44
1.0
 45
0.0
 46
0.0
 47
0.1
 48
0.1
140
3.2
141
0.0
142
0.0
143
0.0393701
144
1.0
145
0.0
146
0.71
147
1.5
 71
     0
 72
     0
 73
     0
 74
     0
 75
     0
 76
     0
 77
     3
 78
     8
170
     0
171
     2
172
     1
173
     0
174
     0
175
     0
176
   256
177
   256
178
     2
270
     2
271
     3
272
     3
273
     2
274
     2
340
6B
275
     0
280
     0
281
     0
282
     0
283
     0
284
     0
285
     0
286
     0
287
     3
288
     0
  0
DIMSTYLE
105
5F
330
A
100
AcDbSymbolTableRecord
100
AcDbDimStyleTableRecord
  2
AM_JIS$3
 70
     0
  3

  4
"
  5
OPEN30
  6

  7

 40
1.0
 41
2.5
 42
1.0
 43
10.0
 44
1.0
 45
0.0
 46
0.0
 47
0.1
 48
0.1
140
3.2
141
0.0
142
0.0
143
0.0393701
144
1.0
145
0.0
146
0.71
147
1.5
 71
     0
 72
     0
 73
     0
 74
     1
 75
     0
 76
     0
 77
     3
 78
     8
170
     0
171
     2
172
     0
173
     0
174
     0
175
     0
176
   256
177
   256
178
     2
270
     2
271
     2
272
     3
273
     2
274
     2
340
6B
275
     0
280
     0
281
     0
282
     0
283
     0
284
     0
285
     0
286
     0
287
     0
288
     1
  0
DIMSTYLE
105
60
330
A
100
AcDbSymbolTableRecord
100
AcDbDimStyleTableRecord
  2
AM_JIS$4
 70
     0
  3

  4
"
  5
OPEN30
  6

  7

 40
1.0
 41
2.5
 42
1.0
 43
10.0
 44
1.0
 45
0.0
 46
0.0
 47
0.1
 48
0.1
140
3.2
141
0.0
142
0.0
143
0.0393701
144
1.0
145
0.0
146
0.71
147
1.5
 71
     0
 72
     0
 73
     0
 74
     1
 75
     0
 76
     0
 77
     3
 78
     8
170
     0
171
     2
172
     0
173
     0
174
     0
175
     0
176
   256
177
   256
178
     2
270
     2
271
     2
272
     3
273
     2
274
     2
340
6B
275
     0
280
     0
281
     0
282
     0
283
     0
284
     0
285
     0
286
     0
287
     0
288
     1
  0
DIMSTYLE
105
61
330
A
100
AcDbSymbolTableRecord
100
AcDbDimStyleTableRecord
  2
AM_JIS$6
 70
     0
  3

  4
"
  5
OPEN30
  6

  7

 40
1.0
 41
2.5
 42
1.0
 43
10.0
 44
1.0
 45
0.0
 46
0.0
 47
0.1
 48
0.1
140
3.2
141
0.0
142
0.0
143
0.0393701
144
1.0
145
0.0
146
0.71
147
1.5
 71
     0
 72
     0
 73
     0
 74
     0
 75
     0
 76
     0
 77
     0
 78
     8
170
     0
171
     2
172
     1
173
     0
174
     0
175
     0
176
   256
177
   256
178
     2
270
     2
271
     2
272
     2
273
     2
274
     2
340
6B
275
     0
280
     0
281
     0
282
     0
283
     0
284
     0
285
     0
286
     0
287
     3
288
     0
  0
DIMSTYLE
105
62
330
A
100
AcDbSymbolTableRecord
100
AcDbDimStyleTableRecord
  2
AM_JIS$7
 70
     0
  3

  4
"
  5
OPEN30
  6

  7

 40
1.0
 41
2.5
 42
1.0
 43
10.0
 44
1.0
 45
0.0
 46
0.0
 47
0.1
 48
0.1
140
3.2
141
0.0
142
0.0
143
0.0393701
144
1.0
145
0.0
146
0.71
147
1.5
 71
     0
 72
     0
 73
     0
 74
     0
 75
     0
 76
     0
 77
     3
 78
     8
170
     0
171
     2
172
     1
173
     0
174
     0
175
     0
176
   256
177
   256
178
     2
270
     2
271
     2
272
     3
273
     2
274
     2
340
6B
275
     0
280
     0
281
     0
282
     0
283
     0
284
     0
285
     0
286
     0
287
     3
288
     0
  0
DIMSTYLE
105
63
330
A
100
AcDbSymbolTableRecord
100
AcDbDimStyleTableRecord
  2
AM_JIS$SF
 70
     0
  3

  4
"
  5
OPEN30
  6

  7

 40
1.0
 41
2.5
 42
1.0
 43
10.0
 44
1.0
 45
0.0
 46
0.0
 47
0.1
 48
0.1
140
3.2
141
0.0
142
0.0
143
0.0393701
144
1.0
145
0.0
146
0.71
147
1.5
 71
     0
 72
     0
 73
     0
 74
     0
 75
     1
 76
     1
 77
     3
 78
     8
170
     0
171
     2
172
     1
173
     0
174
     0
175
     0
176
   256
177
   256
178
     2
270
     2
271
     2
272
     2
273
     2
274
     2
340
6B
275
     0
280
     0
281
     0
282
     0
283
     0
284
     0
285
     0
286
     0
287
     3
288
     0
  0
DIMSTYLE
105
68
330
A
100
AcDbSymbolTableRecord
100
AcDbDimStyleTableRecord
  2
AM_JIS$SH
 70
     0
  3

  4
"
  5

  6
GENAXEH
  7
OPEN30
 40
1.0
 41
2.5
 42
1.0
 43
10.0
 44
1.0
 45
0.0
 46
0.0
 47
0.1
 48
0.1
140
3.2
141
0.0
142
0.0
143
0.0393701
144
2.0
145
0.0
146
0.71
147
1.5
 71
     0
 72
     0
 73
     0
 74
     0
 75
     1
 76
     1
 77
     3
 78
     8
170
     0
171
     2
172
     1
173
     1
174
     0
175
     0
176
   256
177
   256
178
     2
270
     2
271
     2
272
     2
273
     2
274
     2
340
6B
275
     0
280
     0
281
     0
282
     0
283
     0
284
     0
285
     0
286
     0
287
     3
288
     0
  0
DIMSTYLE
105
B34
330
A
100
AcDbSymbolTableRecord
100
AcDbDimStyleTableRecord
  2
AM_JIS$2
 70
     0
  3

  4
"
  5
OPEN30
  6

  7

 40
1.0
 41
2.5
 42
1.0
 43
12.0
 44
1.0
 45
0.0
 46
0.0
 47
0.1
 48
0.1
140
3.2
141
0.0
142
0.0
143
0.0393701
144
1.0
145
0.0
146
0.71
147
1.5
 71
     0
 72
     0
 73
     0
 74
     0
 75
     0
 76
     0
 77
     3
 78
     8
170
     0
171
     2
172
     1
173
     0
174
     0
175
     0
176
   256
177
   256
178
     2
270
     2
271
     3
272
     3
273
     2
274
     2
340
6B
275
     0
280
     0
281
     0
282
     0
283
     0
284
     0
285
     0
286
     0
287
     3
288
     0
  0
ENDTAB
  0
TABLE
  2
BLOCK_RECORD
  5
1
330
0
100
AcDbSymbolTable
 70
    57
  0
BLOCK_RECORD
  5
1F
102
{ACAD_XDICTIONARY
360
74
102
}
330
1
100
AcDbSymbolTableRecord
100
AcDbBlockTableRecord
  2
*MODEL_SPACE
  0
BLOCK_RECORD
  5
101
102
{ACAD_XDICTIONARY
360
47FF
102
}
330
1
100
AcDbSymbolTableRecord
100
AcDbBlockTableRecord
  2
*PAPER_SPACE
  0
BLOCK_RECORD
  5
59
330
1
100
AcDbSymbolTableRecord
100
AcDbBlockTableRecord
  2
_OPEN30
  0
BLOCK_RECORD
  5
64
330
1
100
AcDbSymbolTableRecord
100
AcDbBlockTableRecord
  2
GENAXEH
  0
BLOCK_RECORD
  5
2D16
330
1
100
AcDbSymbolTableRecord
100
AcDbBlockTableRecord
  2
*D7
  0
BLOCK_RECORD
  5
2E8E
330
1
100
AcDbSymbolTableRecord
100
AcDbBlockTableRecord
  2
*D9
  0
BLOCK_RECORD
  5
3444
330
1
100
AcDbSymbolTableRecord
100
AcDbBlockTableRecord
  2
*D10
  0
BLOCK_RECORD
  5
3A66
330
1
100
AcDbSymbolTableRecord
100
AcDbBlockTableRecord
  2
*D13
  0
BLOCK_RECORD
  5
3A73
330
1
100
AcDbSymbolTableRecord
100
AcDbBlockTableRecord
  2
*D14
  0
BLOCK_RECORD
  5
3C27
330
1
100
AcDbSymbolTableRecord
100
AcDbBlockTableRecord
  2
*D17
  0
BLOCK_RECORD
  5
3C34
330
1
100
AcDbSymbolTableRecord
100
AcDbBlockTableRecord
  2
*D18
  0
BLOCK_RECORD
  5
3CB0
330
1
100
AcDbSymbolTableRecord
100
AcDbBlockTableRecord
  2
*D22
  0
BLOCK_RECORD
  5
3E39
330
1
100
AcDbSymbolTableRecord
100
AcDbBlockTableRecord
  2
*D26
  0
BLOCK_RECORD
  5
3E47
330
1
100
AcDbSymbolTableRecord
100
AcDbBlockTableRecord
  2
*D27
  0
BLOCK_RECORD
  5
3FF5
330
1
100
AcDbSymbolTableRecord
100
AcDbBlockTableRecord
  2
*D30
  0
BLOCK_RECORD
  5
4016
330
1
100
AcDbSymbolTableRecord
100
AcDbBlockTableRecord
  2
*D31
  0
BLOCK_RECORD
  5
40BD
330
1
100
AcDbSymbolTableRecord
100
AcDbBlockTableRecord
  2
*D35
  0
BLOCK_RECORD
  5
4241
330
1
100
AcDbSymbolTableRecord
100
AcDbBlockTableRecord
  2
*D40
  0
BLOCK_RECORD
  5
4262
330
1
100
AcDbSymbolTableRecord
100
AcDbBlockTableRecord
  2
*D41
  0
BLOCK_RECORD
  5
431A
330
1
100
AcDbSymbolTableRecord
100
AcDbBlockTableRecord
  2
*D45
  0
BLOCK_RECORD
  5
4326
330
1
100
AcDbSymbolTableRecord
100
AcDbBlockTableRecord
  2
*D46
  0
BLOCK_RECORD
  5
4332
330
1
100
AcDbSymbolTableRecord
100
AcDbBlockTableRecord
  2
*D47
  0
BLOCK_RECORD
  5
4411
330
1
100
AcDbSymbolTableRecord
100
AcDbBlockTableRecord
  2
*D49
  0
BLOCK_RECORD
  5
447F
330
1
100
AcDbSymbolTableRecord
100
AcDbBlockTableRecord
  2
*D50
  0
BLOCK_RECORD
  5
44B6
330
1
100
AcDbSymbolTableRecord
100
AcDbBlockTableRecord
  2
*D51
  0
BLOCK_RECORD
  5
4606
330
1
100
AcDbSymbolTableRecord
100
AcDbBlockTableRecord
  2
*D53
  0
BLOCK_RECORD
  5
4744
330
1
100
AcDbSymbolTableRecord
100
AcDbBlockTableRecord
  2
*D55
  0
BLOCK_RECORD
  5
477F
330
1
100
AcDbSymbolTableRecord
100
AcDbBlockTableRecord
  2
*D56
  0
ENDTAB
  0
ENDSEC
  0
SECTION
  2
BLOCKS
  0
BLOCK
  5
20
330
1F
100
AcDbEntity
  8
0
100
AcDbBlockBegin
  2
*MODEL_SPACE
 70
     0
 10
0.0
 20
0.0
 30
0.0
  3
*MODEL_SPACE
  1

  0
ENDBLK
  5
21
330
1F
100
AcDbEntity
  8
0
100
AcDbBlockEnd
  0
BLOCK
  5
103
330
101
100
AcDbEntity
 67
     1
  8
0
100
AcDbBlockBegin
  2
*PAPER_SPACE
 70
     0
 10
0.0
 20
0.0
 30
0.0
  3
*PAPER_SPACE
  1

  0
ENDBLK
  5
104
330
101
100
AcDbEntity
 67
     1
  8
0
100
AcDbBlockEnd
  0
BLOCK
  5
5D
330
59
100
AcDbEntity
  8
0
100
AcDbBlockBegin
  2
_OPEN30
 70
     0
 10
0.0
 20
0.0
 30
0.0
  3
_OPEN30
  1

  0
LINE
  5
5A
330
59
100
AcDbEntity
  8
0
 62
     0
100
AcDbLine
 10
-1.0
 20
0.26794919
 30
0.0
 11
0.0
 21
0.0
 31
0.0
  0
LINE
  5
5B
330
59
100
AcDbEntity
  8
0
 62
     0
100
AcDbLine
 10
0.0
 20
0.0
 30
0.0
 11
-1.0
 21
-0.26794919
 31
0.0
  0
LINE
  5
5C
330
59
100
AcDbEntity
  8
0
 62
     0
100
AcDbLine
 10
0.0
 20
0.0
 30
0.0
 11
-1.0
 21
0.0
 31
0.0
  0
ENDBLK
  5
5E
330
59
100
AcDbEntity
  8
0
100
AcDbBlockEnd
  0
BLOCK
  5
66
330
64
100
AcDbEntity
  8
0
100
AcDbBlockBegin
  2
GENAXEH
 70
     0
 10
0.0
 20
0.0
 30
0.0
  3
GENAXEH
  1

  0
LINE
  5
65
330
64
100
AcDbEntity
  8
0
100
AcDbLine
 10
-1.0
 20
0.0
 30
0.0
 11
1.0
 21
0.0
 31
0.0
  0
ENDBLK
  5
67
330
64
100
AcDbEntity
  8
0
100
AcDbBlockEnd
  0
BLOCK
  5
2D20
330
2D16
100
AcDbEntity
  8
0
100
AcDbBlockBegin
  2
*D7
 70
     1
 10
0.0
 20
0.0
 30
0.0
  3
*D7
  1

  0
LINE
  5
382C
330
2D16
100
AcDbEntity
  8
AM_5
100
AcDbLine
 10
0.0000000000003967
 20
-7.999999999998988
 30
0.0
 11
0.0000000000003958
 21
-23.00000100999878
 31
0.0
  0
LINE
  5
382D
330
2D16
100
AcDbEntity
  8
AM_5
100
AcDbLine
 10
-39.34560213853521
 20
-8.43831374379522
 30
0.0
 11
-39.34560213853521
 21
-23.00000100999878
 31
0.0
  0
LINE
  5
382E
330
2D16
100
AcDbEntity
  8
AM_5
100
AcDbLine
 10
-2.499999999999604
 20
-22.00000100999878
 30
0.0
 11
-36.84560213853521
 21
-22.00000100999878
 31
0.0
  0
INSERT
  5
382F
330
2D16
100
AcDbEntity
  8
AM_5
100
AcDbBlockReference
  2
_OPEN30
 10
0.0000000000003959
 20
-22.00000100999878
 30
0.0
 41
2.5
 42
2.5
 43
2.5
  0
INSERT
  5
3830
330
2D16
100
AcDbEntity
  8
AM_5
100
AcDbBlockReference
  2
_OPEN30
 10
-39.34560213853521
 20
-22.00000100999878
 30
0.0
 41
2.5
 42
2.5
 43
2.5
 50
180.0
  0
MTEXT
  5
3831
330
2D16
100
AcDbEntity
  8
AM_5
 62
     2
100
AcDbMText
 10
-19.6728010692674
 20
-18.90000100999878
 30
0.0
 40
3.2
 41
0.0
 71
     5
 72
     1
  1
39.346
  7
ASAMI
1001
ACAD
1000
MTEXTBEGIN
1070
    73
1070
     1
1070
    44
1040
1.0
1070
    74
1070
     0
1000
MTEXTEND
  0
POINT
  5
3832
330
2D16
100
AcDbEntity
  8
DEFPOINTS
 62
     0
100
AcDbPoint
 10
0.0000000000003968
 20
-6.999999999998988
 30
0.0
  0
POINT
  5
3833
330
2D16
100
AcDbEntity
  8
DEFPOINTS
 62
     0
100
AcDbPoint
 10
-39.34560213853521
 20
-7.43831374379522
 30
0.0
  0
POINT
  5
3834
330
2D16
100
AcDbEntity
  8
DEFPOINTS
 62
     0
100
AcDbPoint
 10
-39.34560213853521
 20
-22.00000100999878
 30
0.0
  0
ENDBLK
  5
2D21
330
2D16
100
AcDbEntity
  8
0
100
AcDbBlockEnd
  0
BLOCK
  5
2E98
330
2E8E
100
AcDbEntity
  8
0
100
AcDbBlockBegin
  2
*D9
 70
     1
 10
0.0
 20
0.0
 30
0.0
  3
*D9
  1

  0
LINE
  5
3604
330
2E8E
100
AcDbEntity
  8
AM_5
100
AcDbLine
 10
-110.000000000002
 20
-7.999999999998797
 30
0.0
 11
-110.000000000002
 21
-35.00000100999872
 31
0.0
  0
LINE
  5
3605
330
2E8E
100
AcDbEntity
  8
AM_5
100
AcDbLine
 10
-0.0000000000021041
 20
-8.000000000000666
 30
0.0
 11
-0.0000000000021058
 21
-35.00000100999872
 31
0.0
  0
LINE
  5
3606
330
2E8E
100
AcDbEntity
  8
AM_5
100
AcDbLine
 10
-107.500000000002
 20
-34.00000100999872
 30
0.0
 11
-2.500000000002105
 21
-34.00000100999872
 31
0.0
  0
INSERT
  5
3607
330
2E8E
100
AcDbEntity
  8
AM_5
100
AcDbBlockReference
  2
_OPEN30
 10
-110.000000000002
 20
-34.00000100999872
 30
0.0
 41
2.5
 42
2.5
 43
2.5
 50
180.0
  0
INSERT
  5
3608
330
2E8E
100
AcDbEntity
  8
AM_5
100
AcDbBlockReference
  2
_OPEN30
 10
-0.0000000000021057
 20
-34.00000100999872
 30
0.0
 41
2.5
 42
2.5
 43
2.5
  0
MTEXT
  5
3609
330
2E8E
100
AcDbEntity
  8
AM_5
 62
     2
100
AcDbMText
 10
-55.00000000000207
 20
-30.90000100999872
 30
0.0
 40
3.2
 41
0.0
 71
     5
 72
     1
  1
110
  7
ASAMI
1001
ACAD
1000
MTEXTBEGIN
1070
    73
1070
     1
1070
    44
1040
1.0
1070
    74
1070
     0
1000
MTEXTEND
  0
POINT
  5
360A
330
2E8E
100
AcDbEntity
  8
DEFPOINTS
 62
     0
100
AcDbPoint
 10
-110.000000000002
 20
-6.999999999998797
 30
0.0
  0
POINT
  5
360B
330
2E8E
100
AcDbEntity
  8
DEFPOINTS
 62
     0
100
AcDbPoint
 10
-0.0000000000021041
 20
-7.000000000000666
 30
0.0
  0
POINT
  5
360C
330
2E8E
100
AcDbEntity
  8
DEFPOINTS
 62
     0
100
AcDbPoint
 10
-0.0000000000021057
 20
-34.00000100999872
 30
0.0
  0
ENDBLK
  5
2E99
330
2E8E
100
AcDbEntity
  8
0
100
AcDbBlockEnd
  0
BLOCK
  5
344E
330
3444
100
AcDbEntity
  8
0
100
AcDbBlockBegin
  2
*D10
 70
     1
 10
0.0
 20
0.0
 30
0.0
  3
*D10
  1

  0
LINE
  5
3450
330
3444
100
AcDbEntity
  8
AM_5
100
AcDbLine
 10
0.9999999999983195
 20
7.500000000001278
 30
0.0
 11
18.12578914778185
 21
7.500000000001273
 31
0.0
  0
LINE
  5
3451
330
3444
100
AcDbEntity
  8
AM_5
100
AcDbLine
 10
1.000000000000396
 20
-7.499999999998915
 30
0.0
 11
18.12578914778185
 21
-7.49999999999892
 31
0.0
  0
LINE
  5
3452
330
3444
100
AcDbEntity
  8
AM_5
100
AcDbLine
 10
17.12578914778185
 20
5.000000000001274
 30
0.0
 11
17.12578914778185
 21
-4.999999999998919
 31
0.0
  0
INSERT
  5
3453
330
3444
100
AcDbEntity
  8
AM_5
100
AcDbBlockReference
  2
_OPEN30
 10
17.12578914778185
 20
7.500000000001274
 30
0.0
 41
2.5
 42
2.5
 43
2.5
 50
90.0
  0
INSERT
  5
3454
330
3444
100
AcDbEntity
  8
AM_5
100
AcDbBlockReference
  2
_OPEN30
 10
17.12578914778185
 20
-7.499999999998919
 30
0.0
 41
2.5
 42
2.5
 43
2.5
 50
270.0
  0
MTEXT
  5
3455
330
3444
100
AcDbEntity
  8
AM_5
 62
     2
100
AcDbMText
 10
14.02578914778185
 20
0.0000000000011802
 30
0.0
 40
3.2
 41
0.0
 71
     5
 72
     1
  1
%%c15
  7
ASAMI
 11
0.0000000000000001
 21
1.0
 31
0.0
1001
ACAD
1000
MTEXTBEGIN
1070
    73
1070
     1
1070
    44
1040
1.0
1070
    74
1070
     0
1000
MTEXTEND
  0
POINT
  5
3456
330
3444
100
AcDbEntity
  8
DEFPOINTS
 62
     0
100
AcDbPoint
 10
-0.0000000000016804
 20
7.500000000001278
 30
0.0
  0
POINT
  5
3457
330
3444
100
AcDbEntity
  8
DEFPOINTS
 62
     0
100
AcDbPoint
 10
0.0000000000003968
 20
-7.499999999998915
 30
0.0
  0
POINT
  5
3458
330
3444
100
AcDbEntity
  8
DEFPOINTS
 62
     0
100
AcDbPoint
 10
17.12578914778185
 20
-7.499999999998919
 30
0.0
  0
ENDBLK
  5
344F
330
3444
100
AcDbEntity
  8
0
100
AcDbBlockEnd
  0
BLOCK
  5
3A70
330
3A66
100
AcDbEntity
  8
0
100
AcDbBlockBegin
  2
*D13
 70
     1
 10
0.0
 20
0.0
 30
0.0
  3
*D13
  1

  0
LINE
  5
3A7F
330
3A66
100
AcDbEntity
  8
AM_5
100
AcDbLine
 10
0.0000000000004043
 20
-7.999999999998988
 30
0.0
 11
0.0000000000004034
 21
-23.00000100999878
 31
0.0
  0
LINE
  5
3A80
330
3A66
100
AcDbEntity
  8
AM_5
100
AcDbLine
 10
-39.99959552537509
 20
-8.43831374379522
 30
0.0
 11
-39.99959552537509
 21
-23.00000100999878
 31
0.0
  0
LINE
  5
3A81
330
3A66
100
AcDbEntity
  8
AM_5
100
AcDbLine
 10
-2.499999999999596
 20
-22.00000100999878
 30
0.0
 11
-37.4995955253751
 21
-22.00000100999878
 31
0.0
  0
INSERT
  5
3A82
330
3A66
100
AcDbEntity
  8
AM_5
100
AcDbBlockReference
  2
_OPEN30
 10
0.0000000000004034
 20
-22.00000100999878
 30
0.0
 41
2.5
 42
2.5
 43
2.5
  0
INSERT
  5
3A83
330
3A66
100
AcDbEntity
  8
AM_5
100
AcDbBlockReference
  2
_OPEN30
 10
-39.99959552537509
 20
-22.00000100999878
 30
0.0
 41
2.5
 42
2.5
 43
2.5
 50
180.0
  0
MTEXT
  5
3A84
330
3A66
100
AcDbEntity
  8
AM_5
 62
     2
100
AcDbMText
 10
-19.99979776268734
 20
-18.90000100999878
 30
0.0
 40
3.2
 41
0.0
 71
     5
 72
     1
  1
40
  7
ASAMI
1001
ACAD
1000
MTEXTBEGIN
1070
    73
1070
     1
1070
    44
1040
1.0
1070
    74
1070
     0
1000
MTEXTEND
  0
POINT
  5
3A85
330
3A66
100
AcDbEntity
  8
DEFPOINTS
 62
     0
100
AcDbPoint
 10
0.0000000000004043
 20
-6.999999999998988
 30
0.0
  0
POINT
  5
3A86
330
3A66
100
AcDbEntity
  8
DEFPOINTS
 62
     0
100
AcDbPoint
 10
-39.99959552537509
 20
-7.43831374379522
 30
0.0
  0
POINT
  5
3A87
330
3A66
100
AcDbEntity
  8
DEFPOINTS
 62
     0
100
AcDbPoint
 10
-39.99959552537509
 20
-22.00000100999878
 30
0.0
  0
ENDBLK
  5
3A71
330
3A66
100
AcDbEntity
  8
0
100
AcDbBlockEnd
  0
BLOCK
  5
3A7D
330
3A73
100
AcDbEntity
  8
0
100
AcDbBlockBegin
  2
*D14
 70
     1
 10
0.0
 20
0.0
 30
0.0
  3
*D14
  1

  0
LINE
  5
3A88
330
3A73
100
AcDbEntity
  8
AM_5
100
AcDbLine
 10
0.9999999999982925
 20
7.500000000001278
 30
0.0
 11
18.41045000536965
 21
7.500000000001273
 31
0.0
  0
LINE
  5
3A89
330
3A73
100
AcDbEntity
  8
AM_5
100
AcDbLine
 10
1.000000000000404
 20
-7.499999999998915
 30
0.0
 11
18.41045000536965
 21
-7.49999999999892
 31
0.0
  0
LINE
  5
3A8A
330
3A73
100
AcDbEntity
  8
AM_5
100
AcDbLine
 10
17.41045000536965
 20
5.000000000001274
 30
0.0
 11
17.41045000536965
 21
-4.999999999998919
 31
0.0
  0
INSERT
  5
3A8B
330
3A73
100
AcDbEntity
  8
AM_5
100
AcDbBlockReference
  2
_OPEN30
 10
17.41045000536965
 20
7.500000000001274
 30
0.0
 41
2.5
 42
2.5
 43
2.5
 50
90.0
  0
INSERT
  5
3A8C
330
3A73
100
AcDbEntity
  8
AM_5
100
AcDbBlockReference
  2
_OPEN30
 10
17.41045000536965
 20
-7.499999999998919
 30
0.0
 41
2.5
 42
2.5
 43
2.5
 50
270.0
  0
MTEXT
  5
3A8D
330
3A73
100
AcDbEntity
  8
AM_5
 62
     2
100
AcDbMText
 10
14.31045000536965
 20
0.0000000000011801
 30
0.0
 40
3.2
 41
0.0
 71
     5
 72
     1
  1
%%c15
  7
ASAMI
 11
0.0000000000000001
 21
1.0
 31
0.0
1001
ACAD
1000
MTEXTBEGIN
1070
    73
1070
     1
1070
    44
1040
1.0
1070
    74
1070
     0
1000
MTEXTEND
  0
POINT
  5
3A8E
330
3A73
100
AcDbEntity
  8
DEFPOINTS
 62
     0
100
AcDbPoint
 10
-0.0000000000017074
 20
7.500000000001278
 30
0.0
  0
POINT
  5
3A8F
330
3A73
100
AcDbEntity
  8
DEFPOINTS
 62
     0
100
AcDbPoint
 10
0.0000000000004043
 20
-7.499999999998915
 30
0.0
  0
POINT
  5
3A90
330
3A73
100
AcDbEntity
  8
DEFPOINTS
 62
     0
100
AcDbPoint
 10
17.41045000536965
 20
-7.499999999998919
 30
0.0
  0
ENDBLK
  5
3A7E
330
3A73
100
AcDbEntity
  8
0
100
AcDbBlockEnd
  0
BLOCK
  5
3C31
330
3C27
100
AcDbEntity
  8
0
100
AcDbBlockBegin
  2
*D17
 70
     1
 10
0.0
 20
0.0
 30
0.0
  3
*D17
  1

  0
LINE
  5
3C49
330
3C27
100
AcDbEntity
  8
AM_5
100
AcDbLine
 10
0.0000000000004043
 20
-8.466666666665588
 30
0.0
 11
0.0000000000004033
 21
-24.4666677439987
 31
0.0
  0
LINE
  5
3C4A
330
3C27
100
AcDbEntity
  8
AM_5
100
AcDbLine
 10
-39.99959552537509
 20
-8.934201326714902
 30
0.0
 11
-39.99959552537509
 21
-24.4666677439987
 31
0.0
  0
LINE
  5
3C4B
330
3C27
100
AcDbEntity
  8
AM_5
100
AcDbLine
 10
-2.499999999999596
 20
-23.4666677439987
 30
0.0
 11
-37.4995955253751
 21
-23.4666677439987
 31
0.0
  0
INSERT
  5
3C4C
330
3C27
100
AcDbEntity
  8
AM_5
100
AcDbBlockReference
  2
_OPEN30
 10
0.0000000000004034
 20
-23.4666677439987
 30
0.0
 41
2.5
 42
2.5
 43
2.5
  0
INSERT
  5
3C4D
330
3C27
100
AcDbEntity
  8
AM_5
100
AcDbBlockReference
  2
_OPEN30
 10
-39.99959552537509
 20
-23.4666677439987
 30
0.0
 41
2.5
 42
2.5
 43
2.5
 50
180.0
  0
MTEXT
  5
3C4E
330
3C27
100
AcDbEntity
  8
AM_5
 62
     2
100
AcDbMText
 10
-19.99979776268734
 20
-20.3666677439987
 30
0.0
 40
3.2
 41
0.0
 71
     5
 72
     1
  1
40
  7
ASAMI
1001
ACAD
1000
MTEXTBEGIN
1070
    73
1070
     1
1070
    44
1040
1.0
1070
    74
1070
     0
1000
MTEXTEND
  0
POINT
  5
3C4F
330
3C27
100
AcDbEntity
  8
DEFPOINTS
 62
     0
100
AcDbPoint
 10
0.0000000000004043
 20
-7.466666666665587
 30
0.0
  0
POINT
  5
3C50
330
3C27
100
AcDbEntity
  8
DEFPOINTS
 62
     0
100
AcDbPoint
 10
-39.99959552537509
 20
-7.934201326714901
 30
0.0
  0
POINT
  5
3C51
330
3C27
100
AcDbEntity
  8
DEFPOINTS
 62
     0
100
AcDbPoint
 10
-39.99959552537509
 20
-23.4666677439987
 30
0.0
  0
ENDBLK
  5
3C32
330
3C27
100
AcDbEntity
  8
0
100
AcDbBlockEnd
  0
BLOCK
  5
3C3E
330
3C34
100
AcDbEntity
  8
0
100
AcDbBlockBegin
  2
*D18
 70
     1
 10
0.0
 20
0.0
 30
0.0
  3
*D18
  1

  0
LINE
  5
3C52
330
3C34
100
AcDbEntity
  8
AM_5
100
AcDbLine
 10
0.9999999999982925
 20
8.000000000001364
 30
0.0
 11
18.41045000536965
 21
8.000000000001358
 31
0.0
  0
LINE
  5
3C53
330
3C34
100
AcDbEntity
  8
AM_5
100
AcDbLine
 10
1.000000000000404
 20
-7.999999999998842
 30
0.0
 11
18.41045000536965
 21
-7.999999999998848
 31
0.0
  0
LINE
  5
3C54
330
3C34
100
AcDbEntity
  8
AM_5
100
AcDbLine
 10
17.41045000536965
 20
5.500000000001358
 30
0.0
 11
17.41045000536965
 21
-5.499999999998847
 31
0.0
  0
INSERT
  5
3C55
330
3C34
100
AcDbEntity
  8
AM_5
100
AcDbBlockReference
  2
_OPEN30
 10
17.41045000536965
 20
8.000000000001358
 30
0.0
 41
2.5
 42
2.5
 43
2.5
 50
90.0
  0
INSERT
  5
3C56
330
3C34
100
AcDbEntity
  8
AM_5
100
AcDbBlockReference
  2
_OPEN30
 10
17.41045000536965
 20
-7.999999999998847
 30
0.0
 41
2.5
 42
2.5
 43
2.5
 50
270.0
  0
MTEXT
  5
3C57
330
3C34
100
AcDbEntity
  8
AM_5
 62
     2
100
AcDbMText
 10
14.31045000536965
 20
0.0000000000012588
 30
0.0
 40
3.2
 41
0.0
 71
     5
 72
     1
  1
%%c16
  7
ASAMI
 11
0.0000000000000001
 21
1.0
 31
0.0
1001
ACAD
1000
MTEXTBEGIN
1070
    73
1070
     1
1070
    44
1040
1.0
1070
    74
1070
     0
1000
MTEXTEND
  0
POINT
  5
3C58
330
3C34
100
AcDbEntity
  8
DEFPOINTS
 62
     0
100
AcDbPoint
 10
-0.0000000000017074
 20
8.000000000001364
 30
0.0
  0
POINT
  5
3C59
330
3C34
100
AcDbEntity
  8
DEFPOINTS
 62
     0
100
AcDbPoint
 10
0.0000000000004043
 20
-7.999999999998842
 30
0.0
  0
POINT
  5
3C5A
330
3C34
100
AcDbEntity
  8
DEFPOINTS
 62
     0
100
AcDbPoint
 10
17.41045000536965
 20
-7.999999999998847
 30
0.0
  0
ENDBLK
  5
3C3F
330
3C34
100
AcDbEntity
  8
0
100
AcDbBlockEnd
  0
BLOCK
  5
3CBA
330
3CB0
100
AcDbEntity
  8
0
100
AcDbBlockBegin
  2
*D22
 70
     1
 10
0.0
 20
0.0
 30
0.0
  3
*D22
  1

  0
LINE
  5
3CF8
330
3CB0
100
AcDbEntity
  8
AM_5
100
AcDbLine
 10
0.0000000000003978
 20
-10.37499999999905
 30
0.0
 11
0.0000000000003962
 21
-37.00000100999899
 31
0.0
  0
LINE
  5
3CF9
330
3CB0
100
AcDbEntity
  8
AM_5
100
AcDbLine
 10
-132.0000000000021
 20
-9.749999999998745
 30
0.0
 11
-132.0000000000021
 21
-37.00000100999899
 31
0.0
  0
LINE
  5
3CFA
330
3CB0
100
AcDbEntity
  8
AM_5
100
AcDbLine
 10
-2.499999999999603
 20
-36.00000100999899
 30
0.0
 11
-129.5000000000021
 21
-36.00000100999899
 31
0.0
  0
INSERT
  5
3CFB
330
3CB0
100
AcDbEntity
  8
AM_5
100
AcDbBlockReference
  2
_OPEN30
 10
0.0000000000003963
 20
-36.00000100999899
 30
0.0
 41
2.5
 42
2.5
 43
2.5
  0
INSERT
  5
3CFC
330
3CB0
100
AcDbEntity
  8
AM_5
100
AcDbBlockReference
  2
_OPEN30
 10
-132.0000000000021
 20
-36.00000100999899
 30
0.0
 41
2.5
 42
2.5
 43
2.5
 50
180.0
  0
MTEXT
  5
3CFD
330
3CB0
100
AcDbEntity
  8
AM_5
 62
     2
100
AcDbMText
 10
-66.00000000000085
 20
-32.90000100999899
 30
0.0
 40
3.2
 41
0.0
 71
     5
 72
     1
  1
132
  7
ASAMI
1001
ACAD
1000
MTEXTBEGIN
1070
    73
1070
     1
1070
    44
1040
1.0
1070
    74
1070
     0
1000
MTEXTEND
  0
POINT
  5
3CFE
330
3CB0
100
AcDbEntity
  8
DEFPOINTS
 62
     0
100
AcDbPoint
 10
0.0000000000003979
 20
-9.374999999999054
 30
0.0
  0
POINT
  5
3CFF
330
3CB0
100
AcDbEntity
  8
DEFPOINTS
 62
     0
100
AcDbPoint
 10
-132.0000000000021
 20
-8.749999999998745
 30
0.0
  0
POINT
  5
3D00
330
3CB0
100
AcDbEntity
  8
DEFPOINTS
 62
     0
100
AcDbPoint
 10
-132.0000000000021
 20
-36.00000100999899
 30
0.0
  0
ENDBLK
  5
3CBB
330
3CB0
100
AcDbEntity
  8
0
100
AcDbBlockEnd
  0
BLOCK
  5
3E43
330
3E39
100
AcDbEntity
  8
0
100
AcDbBlockBegin
  2
*D26
 70
     1
 10
0.0
 20
0.0
 30
0.0
  3
*D26
  1

  0
LINE
  5
3ECB
330
3E39
100
AcDbEntity
  8
AM_5
100
AcDbLine
 10
0.0000000000005196
 20
-9.999999999998697
 30
0.0
 11
0.0000000000005186
 21
-25.0000010099988
 31
0.0
  0
LINE
  5
3ECC
330
3E39
100
AcDbEntity
  8
AM_5
100
AcDbLine
 10
-50.00049440671886
 20
-8.746004812884876
 30
0.0
 11
-50.00049440671886
 21
-25.0000010099988
 31
0.0
  0
LINE
  5
3ECD
330
3E39
100
AcDbEntity
  8
AM_5
100
AcDbLine
 10
-2.499999999999481
 20
-24.00000100999879
 30
0.0
 11
-47.50049440671886
 21
-24.00000100999879
 31
0.0
  0
INSERT
  5
3ECE
330
3E39
100
AcDbEntity
  8
AM_5
100
AcDbBlockReference
  2
_OPEN30
 10
0.0000000000005187
 20
-24.00000100999879
 30
0.0
 41
2.5
 42
2.5
 43
2.5
  0
INSERT
  5
3ECF
330
3E39
100
AcDbEntity
  8
AM_5
100
AcDbBlockReference
  2
_OPEN30
 10
-50.00049440671886
 20
-24.00000100999879
 30
0.0
 41
2.5
 42
2.5
 43
2.5
 50
180.0
  0
MTEXT
  5
3ED0
330
3E39
100
AcDbEntity
  8
AM_5
 62
     2
100
AcDbMText
 10
-25.00024720335916
 20
-20.90000100999879
 30
0.0
 40
3.2
 41
0.0
 71
     5
 72
     1
  1
50
  7
ASAMI
1001
ACAD
1000
MTEXTBEGIN
1070
    73
1070
     1
1070
    44
1040
1.0
1070
    74
1070
     0
1000
MTEXTEND
  0
POINT
  5
3ED1
330
3E39
100
AcDbEntity
  8
DEFPOINTS
 62
     0
100
AcDbPoint
 10
0.0000000000005196
 20
-8.999999999998697
 30
0.0
  0
POINT
  5
3ED2
330
3E39
100
AcDbEntity
  8
DEFPOINTS
 62
     0
100
AcDbPoint
 10
-50.00049440671886
 20
-7.746004812884876
 30
0.0
  0
POINT
  5
3ED3
330
3E39
100
AcDbEntity
  8
DEFPOINTS
 62
     0
100
AcDbPoint
 10
-50.00049440671886
 20
-24.00000100999879
 30
0.0
  0
ENDBLK
  5
3E44
330
3E39
100
AcDbEntity
  8
0
100
AcDbBlockEnd
  0
BLOCK
  5
3E51
330
3E47
100
AcDbEntity
  8
0
100
AcDbBlockBegin
  2
*D27
 70
     1
 10
0.0
 20
0.0
 30
0.0
  3
*D27
  1

  0
LINE
  5
3EC0
330
3E47
100
AcDbEntity
  8
AM_5
100
AcDbLine
 10
0.9999999999978799
 20
9.000000000001534
 30
0.0
 11
18.12578914778185
 21
9.000000000001529
 31
0.0
  0
LINE
  5
3EC1
330
3E47
100
AcDbEntity
  8
AM_5
100
AcDbLine
 10
1.000000000000519
 20
-8.999999999998697
 30
0.0
 11
18.12578914778185
 21
-8.999999999998703
 31
0.0
  0
LINE
  5
3EC2
330
3E47
100
AcDbEntity
  8
AM_5
100
AcDbLine
 10
17.12578914778185
 20
6.500000000001529
 30
0.0
 11
17.12578914778185
 21
-6.499999999998703
 31
0.0
  0
INSERT
  5
3EC3
330
3E47
100
AcDbEntity
  8
AM_5
100
AcDbBlockReference
  2
_OPEN30
 10
17.12578914778185
 20
9.000000000001529
 30
0.0
 41
2.5
 42
2.5
 43
2.5
 50
90.0
  0
INSERT
  5
3EC4
330
3E47
100
AcDbEntity
  8
AM_5
100
AcDbBlockReference
  2
_OPEN30
 10
17.12578914778184
 20
-8.999999999998703
 30
0.0
 41
2.5
 42
2.5
 43
2.5
 50
270.0
  0
MTEXT
  5
3EC5
330
3E47
100
AcDbEntity
  8
AM_5
 62
     2
100
AcDbMText
 10
14.02578914778185
 20
0.000000000001416
 30
0.0
 40
3.2
 41
0.0
 71
     5
 72
     1
  1
%%c18
  7
ASAMI
 11
0.0000000000000001
 21
1.0
 31
0.0
1001
ACAD
1000
MTEXTBEGIN
1070
    73
1070
     1
1070
    44
1040
1.0
1070
    74
1070
     0
1000
MTEXTEND
  0
POINT
  5
3EC6
330
3E47
100
AcDbEntity
  8
DEFPOINTS
 62
     0
100
AcDbPoint
 10
-0.0000000000021201
 20
9.000000000001534
 30
0.0
  0
POINT
  5
3EC7
330
3E47
100
AcDbEntity
  8
DEFPOINTS
 62
     0
100
AcDbPoint
 10
0.0000000000005196
 20
-8.999999999998697
 30
0.0
  0
POINT
  5
3EC8
330
3E47
100
AcDbEntity
  8
DEFPOINTS
 62
     0
100
AcDbPoint
 10
17.12578914778184
 20
-8.999999999998703
 30
0.0
  0
ENDBLK
  5
3E52
330
3E47
100
AcDbEntity
  8
0
100
AcDbBlockEnd
  0
BLOCK
  5
3FFF
330
3FF5
100
AcDbEntity
  8
0
100
AcDbBlockBegin
  2
*D30
 70
     1
 10
0.0
 20
0.0
 30
0.0
  3
*D30
  1

  0
LINE
  5
406E
330
3FF5
100
AcDbEntity
  8
AM_5
100
AcDbLine
 10
0.9999999999978799
 20
10.0000000000017
 30
0.0
 11
15.00000099999916
 21
10.0000000000017
 31
0.0
  0
LINE
  5
406F
330
3FF5
100
AcDbEntity
  8
AM_5
100
AcDbLine
 10
1.000000000000519
 20
-9.999999999998554
 30
0.0
 11
15.00000099999916
 21
-9.999999999998559
 31
0.0
  0
LINE
  5
4070
330
3FF5
100
AcDbEntity
  8
AM_5
100
AcDbLine
 10
14.00000099999917
 20
7.500000000001701
 30
0.0
 11
14.00000099999916
 21
-7.499999999998557
 31
0.0
  0
INSERT
  5
4071
330
3FF5
100
AcDbEntity
  8
AM_5
100
AcDbBlockReference
  2
_OPEN30
 10
14.00000099999917
 20
10.0000000000017
 30
0.0
 41
2.5
 42
2.5
 43
2.5
 50
90.0
  0
INSERT
  5
4072
330
3FF5
100
AcDbEntity
  8
AM_5
100
AcDbBlockReference
  2
_OPEN30
 10
14.00000099999916
 20
-9.999999999998557
 30
0.0
 41
2.5
 42
2.5
 43
2.5
 50
270.0
  0
MTEXT
  5
4073
330
3FF5
100
AcDbEntity
  8
AM_5
 62
     2
100
AcDbMText
 10
10.90000099999916
 20
0.0000000000015752
 30
0.0
 40
3.2
 41
0.0
 71
     5
 72
     1
  1
%%c20
  7
ASAMI
 11
0.0000000000000001
 21
1.0
 31
0.0
1001
ACAD
1000
MTEXTBEGIN
1070
    73
1070
     1
1070
    44
1040
1.0
1070
    74
1070
     0
1000
MTEXTEND
  0
POINT
  5
4074
330
3FF5
100
AcDbEntity
  8
DEFPOINTS
 62
     0
100
AcDbPoint
 10
-0.0000000000021201
 20
10.0000000000017
 30
0.0
  0
POINT
  5
4075
330
3FF5
100
AcDbEntity
  8
DEFPOINTS
 62
     0
100
AcDbPoint
 10
0.0000000000005196
 20
-9.999999999998554
 30
0.0
  0
POINT
  5
4076
330
3FF5
100
AcDbEntity
  8
DEFPOINTS
 62
     0
100
AcDbPoint
 10
14.00000099999916
 20
-9.999999999998557
 30
0.0
  0
ENDBLK
  5
4000
330
3FF5
100
AcDbEntity
  8
0
100
AcDbBlockEnd
  0
BLOCK
  5
4020
330
4016
100
AcDbEntity
  8
0
100
AcDbBlockBegin
  2
*D31
 70
     1
 10
0.0
 20
0.0
 30
0.0
  3
*D31
  1

  0
LINE
  5
404A
330
4016
100
AcDbEntity
  8
AM_5
100
AcDbLine
 10
0.0000000000005196
 20
-10.99999999999855
 30
0.0
 11
0.0000000000005187
 21
-25.41666666666571
 31
0.0
  0
LINE
  5
404B
330
4016
100
AcDbEntity
  8
AM_5
100
AcDbLine
 10
-50.00049440671886
 20
-9.606672014316529
 30
0.0
 11
-50.00049440671886
 21
-25.41666666666571
 31
0.0
  0
LINE
  5
404C
330
4016
100
AcDbEntity
  8
AM_5
100
AcDbLine
 10
-2.499999999999481
 20
-24.41666666666572
 30
0.0
 11
-47.50049440671886
 21
-24.41666666666572
 31
0.0
  0
INSERT
  5
404D
330
4016
100
AcDbEntity
  8
AM_5
100
AcDbBlockReference
  2
_OPEN30
 10
0.0000000000005187
 20
-24.41666666666572
 30
0.0
 41
2.5
 42
2.5
 43
2.5
  0
INSERT
  5
404E
330
4016
100
AcDbEntity
  8
AM_5
100
AcDbBlockReference
  2
_OPEN30
 10
-50.00049440671886
 20
-24.41666666666572
 30
0.0
 41
2.5
 42
2.5
 43
2.5
 50
180.0
  0
MTEXT
  5
404F
330
4016
100
AcDbEntity
  8
AM_5
 62
     2
100
AcDbMText
 10
-25.00024720335916
 20
-21.31666666666571
 30
0.0
 40
3.2
 41
0.0
 71
     5
 72
     1
  1
50
  7
ASAMI
1001
ACAD
1000
MTEXTBEGIN
1070
    73
1070
     1
1070
    44
1040
1.0
1070
    74
1070
     0
1000
MTEXTEND
  0
POINT
  5
4050
330
4016
100
AcDbEntity
  8
DEFPOINTS
 62
     0
100
AcDbPoint
 10
0.0000000000005196
 20
-9.999999999998554
 30
0.0
  0
POINT
  5
4051
330
4016
100
AcDbEntity
  8
DEFPOINTS
 62
     0
100
AcDbPoint
 10
-50.00049440671886
 20
-8.606672014316529
 30
0.0
  0
POINT
  5
4052
330
4016
100
AcDbEntity
  8
DEFPOINTS
 62
     0
100
AcDbPoint
 10
-50.00049440671886
 20
-24.41666666666572
 30
0.0
  0
ENDBLK
  5
4021
330
4016
100
AcDbEntity
  8
0
100
AcDbBlockEnd
  0
BLOCK
  5
40C7
330
40BD
100
AcDbEntity
  8
0
100
AcDbBlockBegin
  2
*D35
 70
     1
 10
0.0
 20
0.0
 30
0.0
  3
*D35
  1

  0
LINE
  5
4105
330
40BD
100
AcDbEntity
  8
AM_5
100
AcDbLine
 10
0.0000000000003978
 20
-13.71874999999911
 30
0.0
 11
0.0000000000003962
 21
-39.7187499999995
 31
0.0
  0
LINE
  5
4106
330
40BD
100
AcDbEntity
  8
AM_5
100
AcDbLine
 10
-145.0000000000021
 20
-11.93749999999872
 30
0.0
 11
-145.0000000000021
 21
-39.7187499999995
 31
0.0
  0
LINE
  5
4107
330
40BD
100
AcDbEntity
  8
AM_5
100
AcDbLine
 10
-2.499999999999603
 20
-38.7187499999995
 30
0.0
 11
-142.5000000000021
 21
-38.7187499999995
 31
0.0
  0
INSERT
  5
4108
330
40BD
100
AcDbEntity
  8
AM_5
100
AcDbBlockReference
  2
_OPEN30
 10
0.0000000000003963
 20
-38.7187499999995
 30
0.0
 41
2.5
 42
2.5
 43
2.5
  0
INSERT
  5
4109
330
40BD
100
AcDbEntity
  8
AM_5
100
AcDbBlockReference
  2
_OPEN30
 10
-145.0000000000021
 20
-38.7187499999995
 30
0.0
 41
2.5
 42
2.5
 43
2.5
 50
180.0
  0
MTEXT
  5
410A
330
40BD
100
AcDbEntity
  8
AM_5
 62
     2
100
AcDbMText
 10
-72.50000000000085
 20
-35.6187499999995
 30
0.0
 40
3.2
 41
0.0
 71
     5
 72
     1
  1
145
  7
ASAMI
1001
ACAD
1000
MTEXTBEGIN
1070
    73
1070
     1
1070
    44
1040
1.0
1070
    74
1070
     0
1000
MTEXTEND
  0
POINT
  5
410B
330
40BD
100
AcDbEntity
  8
DEFPOINTS
 62
     0
100
AcDbPoint
 10
0.0000000000003978
 20
-12.71874999999911
 30
0.0
  0
POINT
  5
410C
330
40BD
100
AcDbEntity
  8
DEFPOINTS
 62
     0
100
AcDbPoint
 10
-145.0000000000021
 20
-10.93749999999872
 30
0.0
  0
POINT
  5
410D
330
40BD
100
AcDbEntity
  8
DEFPOINTS
 62
     0
100
AcDbPoint
 10
-145.0000000000021
 20
-38.7187499999995
 30
0.0
  0
ENDBLK
  5
40C8
330
40BD
100
AcDbEntity
  8
0
100
AcDbBlockEnd
  0
BLOCK
  5
424B
330
4241
100
AcDbEntity
  8
0
100
AcDbBlockBegin
  2
*D40
 70
     1
 10
0.0
 20
0.0
 30
0.0
  3
*D40
  1

  0
LINE
  5
42CA
330
4241
100
AcDbEntity
  8
AM_5
100
AcDbLine
 10
0.9999999999974672
 20
12.50000000000213
 30
0.0
 11
18.12578914778184
 21
12.50000000000212
 31
0.0
  0
LINE
  5
42CB
330
4241
100
AcDbEntity
  8
AM_5
100
AcDbLine
 10
1.000000000000635
 20
-12.49999999999819
 30
0.0
 11
18.12578914778183
 21
-12.49999999999819
 31
0.0
  0
LINE
  5
42CC
330
4241
100
AcDbEntity
  8
AM_5
100
AcDbLine
 10
17.12578914778184
 20
10.00000000000212
 30
0.0
 11
17.12578914778183
 21
-9.999999999998196
 31
0.0
  0
INSERT
  5
42CD
330
4241
100
AcDbEntity
  8
AM_5
100
AcDbBlockReference
  2
_OPEN30
 10
17.12578914778184
 20
12.50000000000212
 30
0.0
 41
2.5
 42
2.5
 43
2.5
 50
90.0
  0
INSERT
  5
42CE
330
4241
100
AcDbEntity
  8
AM_5
100
AcDbBlockReference
  2
_OPEN30
 10
17.12578914778183
 20
-12.49999999999819
 30
0.0
 41
2.5
 42
2.5
 43
2.5
 50
270.0
  0
MTEXT
  5
42CF
330
4241
100
AcDbEntity
  8
AM_5
 62
     2
100
AcDbMText
 10
14.02578914778183
 20
0.0000000000019675
 30
0.0
 40
3.2
 41
0.0
 71
     5
 72
     1
  1
%%c25
  7
ASAMI
 11
0.0000000000000001
 21
1.0
 31
0.0
1001
ACAD
1000
MTEXTBEGIN
1070
    73
1070
     1
1070
    44
1040
1.0
1070
    74
1070
     0
1000
MTEXTEND
  0
POINT
  5
42D0
330
4241
100
AcDbEntity
  8
DEFPOINTS
 62
     0
100
AcDbPoint
 10
-0.0000000000025327
 20
12.50000000000213
 30
0.0
  0
POINT
  5
42D1
330
4241
100
AcDbEntity
  8
DEFPOINTS
 62
     0
100
AcDbPoint
 10
0.0000000000006349
 20
-12.49999999999819
 30
0.0
  0
POINT
  5
42D2
330
4241
100
AcDbEntity
  8
DEFPOINTS
 62
     0
100
AcDbPoint
 10
17.12578914778183
 20
-12.49999999999819
 30
0.0
  0
ENDBLK
  5
424C
330
4241
100
AcDbEntity
  8
0
100
AcDbBlockEnd
  0
BLOCK
  5
426C
330
4262
100
AcDbEntity
  8
0
100
AcDbBlockBegin
  2
*D41
 70
     1
 10
0.0
 20
0.0
 30
0.0
  3
*D41
  1

  0
LINE
  5
42AF
330
4262
100
AcDbEntity
  8
AM_5
100
AcDbLine
 10
0.0000000000006349
 20
-13.49999999999819
 30
0.0
 11
0.0000000000006338
 21
-30.89843749999908
 31
0.0
  0
LINE
  5
42B0
330
4262
100
AcDbEntity
  8
AM_5
100
AcDbLine
 10
-59.99959328806262
 20
-12.4980169724643
 30
0.0
 11
-59.99959328806262
 21
-30.89843749999908
 31
0.0
  0
LINE
  5
42B1
330
4262
100
AcDbEntity
  8
AM_5
100
AcDbLine
 10
-2.499999999999366
 20
-29.89843749999908
 30
0.0
 11
-57.49959328806262
 21
-29.89843749999908
 31
0.0
  0
INSERT
  5
42B2
330
4262
100
AcDbEntity
  8
AM_5
100
AcDbBlockReference
  2
_OPEN30
 10
0.0000000000006339
 20
-29.89843749999908
 30
0.0
 41
2.5
 42
2.5
 43
2.5
  0
INSERT
  5
42B3
330
4262
100
AcDbEntity
  8
AM_5
100
AcDbBlockReference
  2
_OPEN30
 10
-59.99959328806262
 20
-29.89843749999908
 30
0.0
 41
2.5
 42
2.5
 43
2.5
 50
180.0
  0
MTEXT
  5
42B4
330
4262
100
AcDbEntity
  8
AM_5
 62
     2
100
AcDbMText
 10
-29.99979664403099
 20
-26.79843749999908
 30
0.0
 40
3.2
 41
0.0
 71
     5
 72
     1
  1
60
  7
ASAMI
1001
ACAD
1000
MTEXTBEGIN
1070
    73
1070
     1
1070
    44
1040
1.0
1070
    74
1070
     0
1000
MTEXTEND
  0
POINT
  5
42B5
330
4262
100
AcDbEntity
  8
DEFPOINTS
 62
     0
100
AcDbPoint
 10
0.0000000000006349
 20
-12.49999999999819
 30
0.0
  0
POINT
  5
42B6
330
4262
100
AcDbEntity
  8
DEFPOINTS
 62
     0
100
AcDbPoint
 10
-59.99959328806262
 20
-11.49801697246431
 30
0.0
  0
POINT
  5
42B7
330
4262
100
AcDbEntity
  8
DEFPOINTS
 62
     0
100
AcDbPoint
 10
-59.99959328806262
 20
-29.89843749999908
 30
0.0
  0
ENDBLK
  5
426D
330
4262
100
AcDbEntity
  8
0
100
AcDbBlockEnd
  0
BLOCK
  5
4324
330
431A
100
AcDbEntity
  8
0
100
AcDbBlockBegin
  2
*D45
 70
     1
 10
0.0
 20
0.0
 30
0.0
  3
*D45
  1

  0
LINE
  5
4503
330
431A
100
AcDbEntity
  8
AM_5
100
AcDbLine
 10
-170.0000000000021
 20
-15.99999999999873
 30
0.0
 11
-189.7819232346324
 21
-15.99999999999872
 31
0.0
  0
LINE
  5
4504
330
431A
100
AcDbEntity
  8
AM_5
100
AcDbLine
 10
-170.000000000002
 20
16.00000000000115
 30
0.0
 11
-189.7819232346324
 21
16.00000000000115
 31
0.0
  0
LINE
  5
4505
330
431A
100
AcDbEntity
  8
AM_5
100
AcDbLine
 10
-188.7819232346324
 20
-13.49999999999872
 30
0.0
 11
-188.7819232346324
 21
13.50000000000115
 31
0.0
  0
INSERT
  5
4506
330
431A
100
AcDbEntity
  8
AM_5
100
AcDbBlockReference
  2
_OPEN30
 10
-188.7819232346324
 20
-15.99999999999872
 30
0.0
 41
2.5
 42
2.5
 43
2.5
 50
270.0
  0
INSERT
  5
4507
330
431A
100
AcDbEntity
  8
AM_5
100
AcDbBlockReference
  2
_OPEN30
 10
-188.7819232346324
 20
16.00000000000115
 30
0.0
 41
2.5
 42
2.5
 43
2.5
 50
90.0
  0
MTEXT
  5
4508
330
431A
100
AcDbEntity
  8
AM_5
 62
     2
100
AcDbMText
 10
-191.8819232346324
 20
0.0000000000011861
 30
0.0
 40
3.2
 41
0.0
 71
     5
 72
     1
  1
%%c32
  7
ASAMI
 11
0.0000000000000001
 21
1.0
 31
0.0
1001
ACAD
1000
MTEXTBEGIN
1070
    73
1070
     1
1070
    44
1040
1.0
1070
    74
1070
     0
1000
MTEXTEND
  0
POINT
  5
4509
330
431A
100
AcDbEntity
  8
DEFPOINTS
 62
     0
100
AcDbPoint
 10
-169.000000000002
 20
-15.99999999999873
 30
0.0
  0
POINT
  5
450A
330
431A
100
AcDbEntity
  8
DEFPOINTS
 62
     0
100
AcDbPoint
 10
-169.000000000002
 20
16.00000000000115
 30
0.0
  0
POINT
  5
450B
330
431A
100
AcDbEntity
  8
DEFPOINTS
 62
     0
100
AcDbPoint
 10
-188.7819232346324
 20
16.00000000000115
 30
0.0
  0
ENDBLK
  5
4325
330
431A
100
AcDbEntity
  8
0
100
AcDbBlockEnd
  0
BLOCK
  5
4330
330
4326
100
AcDbEntity
  8
0
100
AcDbBlockBegin
  2
*D46
 70
     1
 10
0.0
 20
0.0
 30
0.0
  3
*D46
  1

  0
LINE
  5
44FA
330
4326
100
AcDbEntity
  8
AM_5
100
AcDbLine
 10
-170.0000000000021
 20
-14.99999999999873
 30
0.0
 11
-170.0000000000021
 21
-38.00000050499842
 31
0.0
  0
LINE
  5
44FB
330
4326
100
AcDbEntity
  8
AM_5
100
AcDbLine
 10
-85.00000000000211
 20
-16.99999999999869
 30
0.0
 11
-85.00000000000211
 21
-38.00000050499842
 31
0.0
  0
LINE
  5
44FC
330
4326
100
AcDbEntity
  8
AM_5
100
AcDbLine
 10
-167.5000000000021
 20
-37.00000050499842
 30
0.0
 11
-87.50000000000211
 21
-37.00000050499842
 31
0.0
  0
INSERT
  5
44FD
330
4326
100
AcDbEntity
  8
AM_5
100
AcDbBlockReference
  2
_OPEN30
 10
-170.0000000000021
 20
-37.00000050499842
 30
0.0
 41
2.5
 42
2.5
 43
2.5
 50
180.0
  0
INSERT
  5
44FE
330
4326
100
AcDbEntity
  8
AM_5
100
AcDbBlockReference
  2
_OPEN30
 10
-85.00000000000211
 20
-37.00000050499842
 30
0.0
 41
2.5
 42
2.5
 43
2.5
  0
MTEXT
  5
44FF
330
4326
100
AcDbEntity
  8
AM_5
 62
     2
100
AcDbMText
 10
-127.5000000000021
 20
-33.90000050499842
 30
0.0
 40
3.2
 41
0.0
 71
     5
 72
     1
  1
85
  7
ASAMI
1001
ACAD
1000
MTEXTBEGIN
1070
    73
1070
     1
1070
    44
1040
1.0
1070
    74
1070
     0
1000
MTEXTEND
  0
POINT
  5
4500
330
4326
100
AcDbEntity
  8
DEFPOINTS
 62
     0
100
AcDbPoint
 10
-170.0000000000021
 20
-13.99999999999873
 30
0.0
  0
POINT
  5
4501
330
4326
100
AcDbEntity
  8
DEFPOINTS
 62
     0
100
AcDbPoint
 10
-85.00000000000211
 20
-15.99999999999869
 30
0.0
  0
POINT
  5
4502
330
4326
100
AcDbEntity
  8
DEFPOINTS
 62
     0
100
AcDbPoint
 10
-85.00000000000211
 20
-37.00000050499842
 30
0.0
  0
ENDBLK
  5
4331
330
4326
100
AcDbEntity
  8
0
100
AcDbBlockEnd
  0
BLOCK
  5
433C
330
4332
100
AcDbEntity
  8
0
100
AcDbBlockBegin
  2
*D47
 70
     1
 10
0.0
 20
0.0
 30
0.0
  3
*D47
  1

  0
LINE
  5
436B
330
4332
100
AcDbEntity
  8
AM_5
100
AcDbLine
 10
0.0000000000003978
 20
-15.99999999999922
 30
0.0
 11
0.0000000000003962
 21
-43.00000100999912
 31
0.0
  0
LINE
  5
436C
330
4332
100
AcDbEntity
  8
AM_5
100
AcDbLine
 10
-170.0000000000021
 20
-14.99999999999873
 30
0.0
 11
-170.0000000000021
 21
-43.00000100999912
 31
0.0
  0
LINE
  5
436D
330
4332
100
AcDbEntity
  8
AM_5
100
AcDbLine
 10
-2.499999999999603
 20
-42.00000100999912
 30
0.0
 11
-167.5000000000021
 21
-42.00000100999912
 31
0.0
  0
INSERT
  5
436E
330
4332
100
AcDbEntity
  8
AM_5
100
AcDbBlockReference
  2
_OPEN30
 10
0.0000000000003963
 20
-42.00000100999912
 30
0.0
 41
2.5
 42
2.5
 43
2.5
  0
INSERT
  5
436F
330
4332
100
AcDbEntity
  8
AM_5
100
AcDbBlockReference
  2
_OPEN30
 10
-170.0000000000021
 20
-42.00000100999912
 30
0.0
 41
2.5
 42
2.5
 43
2.5
 50
180.0
  0
MTEXT
  5
4370
330
4332
100
AcDbEntity
  8
AM_5
 62
     2
100
AcDbMText
 10
-85.00000000000085
 20
-38.90000100999912
 30
0.0
 40
3.2
 41
0.0
 71
     5
 72
     1
  1
170
  7
ASAMI
1001
ACAD
1000
MTEXTBEGIN
1070
    73
1070
     1
1070
    44
1040
1.0
1070
    74
1070
     0
1000
MTEXTEND
  0
POINT
  5
4371
330
4332
100
AcDbEntity
  8
DEFPOINTS
 62
     0
100
AcDbPoint
 10
0.0000000000003979
 20
-14.99999999999922
 30
0.0
  0
POINT
  5
4372
330
4332
100
AcDbEntity
  8
DEFPOINTS
 62
     0
100
AcDbPoint
 10
-170.0000000000021
 20
-13.99999999999873
 30
0.0
  0
POINT
  5
4373
330
4332
100
AcDbEntity
  8
DEFPOINTS
 62
     0
100
AcDbPoint
 10
-170.0000000000021
 20
-42.00000100999912
 30
0.0
  0
ENDBLK
  5
433D
330
4332
100
AcDbEntity
  8
0
100
AcDbBlockEnd
  0
BLOCK
  5
441B
330
4411
100
AcDbEntity
  8
0
100
AcDbBlockBegin
  2
*D49
 70
     1
 10
0.0
 20
0.0
 30
0.0
  3
*D49
  1

  0
LINE
  5
44E8
330
4411
100
AcDbEntity
  8
AM_5
100
AcDbLine
 10
0.0000000000004736
 20
-20.19999999999901
 30
0.0
 11
0.0000000000004718
 21
-50.00000050499877
 31
0.0
  0
LINE
  5
44E9
330
4411
100
AcDbEntity
  8
AM_5
100
AcDbLine
 10
-170.0000000000021
 20
-24.00000050499876
 30
0.0
 11
-170.0000000000021
 21
-50.00000050499877
 31
0.0
  0
LINE
  5
44EA
330
4411
100
AcDbEntity
  8
AM_5
100
AcDbLine
 10
-2.499999999999527
 20
-49.00000050499876
 30
0.0
 11
-167.5000000000021
 21
-49.00000050499876
 31
0.0
  0
INSERT
  5
44EB
330
4411
100
AcDbEntity
  8
AM_5
100
AcDbBlockReference
  2
_OPEN30
 10
0.0000000000004719
 20
-49.00000050499876
 30
0.0
 41
2.5
 42
2.5
 43
2.5
  0
INSERT
  5
44EC
330
4411
100
AcDbEntity
  8
AM_5
100
AcDbBlockReference
  2
_OPEN30
 10
-170.0000000000021
 20
-49.00000050499876
 30
0.0
 41
2.5
 42
2.5
 43
2.5
 50
180.0
  0
MTEXT
  5
44ED
330
4411
100
AcDbEntity
  8
AM_5
 62
     2
100
AcDbMText
 10
-85.00000000000081
 20
-45.90000050499877
 30
0.0
 40
3.2
 41
0.0
 71
     5
 72
     1
  1
170
  7
ASAMI
1001
ACAD
1000
MTEXTBEGIN
1070
    73
1070
     1
1070
    44
1040
1.0
1070
    74
1070
     0
1000
MTEXTEND
  0
POINT
  5
44EE
330
4411
100
AcDbEntity
  8
DEFPOINTS
 62
     0
100
AcDbPoint
 10
0.0000000000004737
 20
-19.19999999999901
 30
0.0
  0
POINT
  5
44EF
330
4411
100
AcDbEntity
  8
DEFPOINTS
 62
     0
100
AcDbPoint
 10
-170.0000000000021
 20
-23.00000050499876
 30
0.0
  0
POINT
  5
44F0
330
4411
100
AcDbEntity
  8
DEFPOINTS
 62
     0
100
AcDbPoint
 10
-170.0000000000021
 20
-49.00000050499876
 30
0.0
  0
ENDBLK
  5
441C
330
4411
100
AcDbEntity
  8
0
100
AcDbBlockEnd
  0
BLOCK
  5
4489
330
447F
100
AcDbEntity
  8
0
100
AcDbBlockBegin
  2
*D50
 70
     1
 10
0.0
 20
0.0
 30
0.0
  3
*D50
  1

  0
LINE
  5
450C
330
447F
100
AcDbEntity
  8
AM_5
100
AcDbLine
 10
0.9999999999970546
 20
16.00000000000273
 30
0.0
 11
18.1257891477818
 21
16.00000000000272
 31
0.0
  0
LINE
  5
450D
330
447F
100
AcDbEntity
  8
AM_5
100
AcDbLine
 10
1.00000000000075
 20
-15.99999999999768
 30
0.0
 11
18.1257891477818
 21
-15.99999999999769
 31
0.0
  0
LINE
  5
450E
330
447F
100
AcDbEntity
  8
AM_5
100
AcDbLine
 10
17.1257891477818
 20
13.50000000000272
 30
0.0
 11
17.1257891477818
 21
-13.49999999999769
 31
0.0
  0
INSERT
  5
450F
330
447F
100
AcDbEntity
  8
AM_5
100
AcDbBlockReference
  2
_OPEN30
 10
17.1257891477818
 20
16.00000000000272
 30
0.0
 41
2.5
 42
2.5
 43
2.5
 50
90.0
  0
INSERT
  5
4510
330
447F
100
AcDbEntity
  8
AM_5
100
AcDbBlockReference
  2
_OPEN30
 10
17.1257891477818
 20
-15.99999999999769
 30
0.0
 41
2.5
 42
2.5
 43
2.5
 50
270.0
  0
MTEXT
  5
4511
330
447F
100
AcDbEntity
  8
AM_5
 62
     2
100
AcDbMText
 10
14.0257891477818
 20
0.00000000000252
 30
0.0
 40
3.2
 41
0.0
 71
     5
 72
     1
  1
%%c32
  7
ASAMI
 11
0.0000000000000001
 21
1.0
 31
0.0
1001
ACAD
1000
MTEXTBEGIN
1070
    73
1070
     1
1070
    44
1040
1.0
1070
    74
1070
     0
1000
MTEXTEND
  0
POINT
  5
4512
330
447F
100
AcDbEntity
  8
DEFPOINTS
 62
     0
100
AcDbPoint
 10
-0.0000000000029454
 20
16.00000000000273
 30
0.0
  0
POINT
  5
4513
330
447F
100
AcDbEntity
  8
DEFPOINTS
 62
     0
100
AcDbPoint
 10
0.0000000000007502
 20
-15.99999999999768
 30
0.0
  0
POINT
  5
4514
330
447F
100
AcDbEntity
  8
DEFPOINTS
 62
     0
100
AcDbPoint
 10
17.1257891477818
 20
-15.99999999999769
 30
0.0
  0
ENDBLK
  5
448A
330
447F
100
AcDbEntity
  8
0
100
AcDbBlockEnd
  0
BLOCK
  5
44C0
330
44B6
100
AcDbEntity
  8
0
100
AcDbBlockBegin
  2
*D51
 70
     1
 10
0.0
 20
0.0
 30
0.0
  3
*D51
  1

  0
LINE
  5
44F1
330
44B6
100
AcDbEntity
  8
AM_5
100
AcDbLine
 10
0.0000000000007502
 20
-16.99999999999768
 30
0.0
 11
0.0000000000007489
 21
-38.00000050499833
 31
0.0
  0
LINE
  5
44F2
330
44B6
100
AcDbEntity
  8
AM_5
100
AcDbLine
 10
-69.99952550273971
 20
-15.71746172475431
 30
0.0
 11
-69.99952550273971
 21
-38.00000050499833
 31
0.0
  0
LINE
  5
44F3
330
44B6
100
AcDbEntity
  8
AM_5
100
AcDbLine
 10
-2.499999999999251
 20
-37.00000050499833
 30
0.0
 11
-67.49952550273971
 21
-37.00000050499833
 31
0.0
  0
INSERT
  5
44F4
330
44B6
100
AcDbEntity
  8
AM_5
100
AcDbBlockReference
  2
_OPEN30
 10
0.0000000000007489
 20
-37.00000050499833
 30
0.0
 41
2.5
 42
2.5
 43
2.5
  0
INSERT
  5
44F5
330
44B6
100
AcDbEntity
  8
AM_5
100
AcDbBlockReference
  2
_OPEN30
 10
-69.99952550273971
 20
-37.00000050499833
 30
0.0
 41
2.5
 42
2.5
 43
2.5
 50
180.0
  0
MTEXT
  5
44F6
330
44B6
100
AcDbEntity
  8
AM_5
 62
     2
100
AcDbMText
 10
-34.99976275136948
 20
-33.90000050499833
 30
0.0
 40
3.2
 41
0.0
 71
     5
 72
     1
  1
70
  7
ASAMI
1001
ACAD
1000
MTEXTBEGIN
1070
    73
1070
     1
1070
    44
1040
1.0
1070
    74
1070
     0
1000
MTEXTEND
  0
POINT
  5
44F7
330
44B6
100
AcDbEntity
  8
DEFPOINTS
 62
     0
100
AcDbPoint
 10
0.0000000000007502
 20
-15.99999999999768
 30
0.0
  0
POINT
  5
44F8
330
44B6
100
AcDbEntity
  8
DEFPOINTS
 62
     0
100
AcDbPoint
 10
-69.99952550273971
 20
-14.71746172475431
 30
0.0
  0
POINT
  5
44F9
330
44B6
100
AcDbEntity
  8
DEFPOINTS
 62
     0
100
AcDbPoint
 10
-69.99952550273971
 20
-37.00000050499833
 30
0.0
  0
ENDBLK
  5
44C1
330
44B6
100
AcDbEntity
  8
0
100
AcDbBlockEnd
  0
BLOCK
  5
4610
330
4606
100
AcDbEntity
  8
0
100
AcDbBlockBegin
  2
*D53
 70
     1
 10
0.0
 20
0.0
 30
0.0
  3
*D53
  1

  0
LINE
  5
4648
330
4606
100
AcDbEntity
  8
AM_5
100
AcDbLine
 10
0.9999999999970546
 20
15.00000000000255
 30
0.0
 11
18.1257891477818
 21
15.00000000000255
 31
0.0
  0
LINE
  5
4649
330
4606
100
AcDbEntity
  8
AM_5
100
AcDbLine
 10
1.00000000000075
 20
-14.99999999999783
 30
0.0
 11
18.1257891477818
 21
-14.99999999999783
 31
0.0
  0
LINE
  5
464A
330
4606
100
AcDbEntity
  8
AM_5
100
AcDbLine
 10
17.1257891477818
 20
12.50000000000255
 30
0.0
 11
17.1257891477818
 21
-12.49999999999783
 31
0.0
  0
INSERT
  5
464B
330
4606
100
AcDbEntity
  8
AM_5
100
AcDbBlockReference
  2
_OPEN30
 10
17.1257891477818
 20
15.00000000000255
 30
0.0
 41
2.5
 42
2.5
 43
2.5
 50
90.0
  0
INSERT
  5
464C
330
4606
100
AcDbEntity
  8
AM_5
100
AcDbBlockReference
  2
_OPEN30
 10
17.1257891477818
 20
-14.99999999999783
 30
0.0
 41
2.5
 42
2.5
 43
2.5
 50
270.0
  0
MTEXT
  5
464D
330
4606
100
AcDbEntity
  8
AM_5
 62
     2
100
AcDbMText
 10
14.0257891477818
 20
0.000000000002361
 30
0.0
 40
3.2
 41
0.0
 71
     5
 72
     1
  1
%%c30
  7
ASAMI
 11
0.0000000000000001
 21
1.0
 31
0.0
1001
ACAD
1000
MTEXTBEGIN
1070
    73
1070
     1
1070
    44
1040
1.0
1070
    74
1070
     0
1000
MTEXTEND
  0
POINT
  5
464E
330
4606
100
AcDbEntity
  8
DEFPOINTS
 62
     0
100
AcDbPoint
 10
-0.0000000000029454
 20
15.00000000000255
 30
0.0
  0
POINT
  5
464F
330
4606
100
AcDbEntity
  8
DEFPOINTS
 62
     0
100
AcDbPoint
 10
0.0000000000007502
 20
-14.99999999999783
 30
0.0
  0
POINT
  5
4650
330
4606
100
AcDbEntity
  8
DEFPOINTS
 62
     0
100
AcDbPoint
 10
17.1257891477818
 20
-14.99999999999783
 30
0.0
  0
ENDBLK
  5
4611
330
4606
100
AcDbEntity
  8
0
100
AcDbBlockEnd
  0
BLOCK
  5
474E
330
4744
100
AcDbEntity
  8
0
100
AcDbBlockBegin
  2
*D55
 70
     1
 10
0.0
 20
0.0
 30
0.0
  3
*D55
  1

  0
LINE
  5
4793
330
4744
100
AcDbEntity
  8
AM_5
100
AcDbLine
 10
0.9999999999970546
 20
16.00000000000011
 30
0.0
 11
18.1257891477818
 21
16.00000000000011
 31
0.0
  0
LINE
  5
4794
330
4744
100
AcDbEntity
  8
AM_5
100
AcDbLine
 10
1.00000000000075
 20
-16.00000000000029
 30
0.0
 11
18.1257891477818
 21
-16.0000000000003
 31
0.0
  0
LINE
  5
4795
330
4744
100
AcDbEntity
  8
AM_5
100
AcDbLine
 10
17.1257891477818
 20
13.50000000000011
 30
0.0
 11
17.1257891477818
 21
-13.5000000000003
 31
0.0
  0
INSERT
  5
4796
330
4744
100
AcDbEntity
  8
AM_5
100
AcDbBlockReference
  2
_OPEN30
 10
17.1257891477818
 20
16.00000000000011
 30
0.0
 41
2.5
 42
2.5
 43
2.5
 50
90.0
  0
INSERT
  5
4797
330
4744
100
AcDbEntity
  8
AM_5
100
AcDbBlockReference
  2
_OPEN30
 10
17.1257891477818
 20
-16.0000000000003
 30
0.0
 41
2.5
 42
2.5
 43
2.5
 50
270.0
  0
MTEXT
  5
4798
330
4744
100
AcDbEntity
  8
AM_5
 62
     2
100
AcDbMText
 10
14.0257891477818
 20
-0.000000000000093
 30
0.0
 40
3.2
 41
0.0
 71
     5
 72
     1
  1
%%c32
  7
ASAMI
 11
0.0000000000000001
 21
1.0
 31
0.0
1001
ACAD
1000
MTEXTBEGIN
1070
    73
1070
     1
1070
    44
1040
1.0
1070
    74
1070
     0
1000
MTEXTEND
  0
POINT
  5
4799
330
4744
100
AcDbEntity
  8
DEFPOINTS
 62
     0
100
AcDbPoint
 10
-0.0000000000029454
 20
16.00000000000011
 30
0.0
  0
POINT
  5
479A
330
4744
100
AcDbEntity
  8
DEFPOINTS
 62
     0
100
AcDbPoint
 10
0.0000000000007502
 20
-16.00000000000029
 30
0.0
  0
POINT
  5
479B
330
4744
100
AcDbEntity
  8
DEFPOINTS
 62
     0
100
AcDbPoint
 10
17.1257891477818
 20
-16.0000000000003
 30
0.0
  0
ENDBLK
  5
474F
330
4744
100
AcDbEntity
  8
0
100
AcDbBlockEnd
  0
BLOCK
  5
4789
330
477F
100
AcDbEntity
  8
0
100
AcDbBlockBegin
  2
*D56
 70
     1
 10
0.0
 20
0.0
 30
0.0
  3
*D56
  1

  0
LINE
  5
47B2
330
477F
100
AcDbEntity
  8
AM_5
100
AcDbLine
 10
0.0000000000007502
 20
-18.0666666666668
 30
0.0
 11
0.0000000000007489
 21
-38.00000050499851
 31
0.0
  0
LINE
  5
47B3
330
477F
100
AcDbEntity
  8
AM_5
100
AcDbLine
 10
-69.99952550273971
 20
-16.69862583974055
 30
0.0
 11
-69.99952550273971
 21
-38.00000050499851
 31
0.0
  0
LINE
  5
47B4
330
477F
100
AcDbEntity
  8
AM_5
100
AcDbLine
 10
-2.49999999999925
 20
-37.00000050499851
 30
0.0
 11
-67.49952550273971
 21
-37.00000050499851
 31
0.0
  0
INSERT
  5
47B5
330
477F
100
AcDbEntity
  8
AM_5
100
AcDbBlockReference
  2
_OPEN30
 10
0.000000000000749
 20
-37.00000050499851
 30
0.0
 41
2.5
 42
2.5
 43
2.5
  0
INSERT
  5
47B6
330
477F
100
AcDbEntity
  8
AM_5
100
AcDbBlockReference
  2
_OPEN30
 10
-69.99952550273971
 20
-37.00000050499851
 30
0.0
 41
2.5
 42
2.5
 43
2.5
 50
180.0
  0
MTEXT
  5
47B7
330
477F
100
AcDbEntity
  8
AM_5
 62
     2
100
AcDbMText
 10
-34.99976275136948
 20
-33.90000050499851
 30
0.0
 40
3.2
 41
0.0
 71
     5
 72
     1
  1
70
  7
ASAMI
1001
ACAD
1000
MTEXTBEGIN
1070
    73
1070
     1
1070
    44
1040
1.0
1070
    74
1070
     0
1000
MTEXTEND
  0
POINT
  5
47B8
330
477F
100
AcDbEntity
  8
DEFPOINTS
 62
     0
100
AcDbPoint
 10
0.0000000000007502
 20
-17.06666666666681
 30
0.0
  0
POINT
  5
47B9
330
477F
100
AcDbEntity
  8
DEFPOINTS
 62
     0
100
AcDbPoint
 10
-69.99952550273971
 20
-15.69862583974054
 30
0.0
  0
POINT
  5
47BA
330
477F
100
AcDbEntity
  8
DEFPOINTS
 62
     0
100
AcDbPoint
 10
-69.99952550273971
 20
-37.00000050499851
 30
0.0
  0
ENDBLK
  5
478A
330
477F
100
AcDbEntity
  8
0
100
AcDbBlockEnd
  0
ENDSEC
  0
SECTION
  2
ENTITIES
  0
TEXT
  5
C58
330
1F
100
AcDbEntity
  8
AM_6
100
AcDbText
 10
-106.3095238095246
 20
-71.50000050499883
 30
0.0
 40
5.0
  1
RMES4320C
 50
0.0000000000002036
 72
     4
 11
-85.00000000000081
 21
-69.00000050499876
 31
0.0
100
AcDbText
  0
LINE
  5
2A1C
330
1F
100
AcDbEntity
  8
AM_7
100
AcDbLine
 10
-174.7819222346326
 20
0.0000000000012068
 30
0.0
 11
3.125788147781861
 21
0.0000000000011897
 31
0.0
1001
GENIUS_GENODEF_13
1002
{
1000
HIER
1070
     0
1002
}
1002
{
1000
MANEDIT
1070
     0
1002
}
1002
{
1000
NOSEL
1070
     0
1002
}
1002
{
1000
BEHIND
1070
     0
1002
}
1002
{
1000
REACTOR
1002
}
1001
GENIUS_GENOBJ-N-CEN_13
1002
{
1000
OWNER
1000
GEN
1002
}
  0
LINE
  5
430C
330
1F
100
AcDbEntity
  8
AM_0
100
AcDbLine
 10
-169.000000000002
 20
16.00000000000115
 30
0.0
 11
-85.00000000000204
 21
16.00000000000115
 31
0.0
  0
DIMENSION
  5
430D
330
1F
100
AcDbEntity
  8
AM_5
100
AcDbDimension
  2
*D45
 10
-188.7819232346324
 20
16.00000000000115
 30
0.0
 11
-191.8819232346324
 21
0.0000000000011861
 31
0.0
 70
    32
  1
%%c<>
  3
AM_JIS
100
AcDbAlignedDimension
 13
-169.000000000002
 23
-15.99999999999873
 33
0.0
 14
-169.000000000002
 24
16.00000000000115
 34
0.0
 50
270.0
100
AcDbRotatedDimension
1001
GENIUS_GENDTOL_13
1000

1000
h7
1000

1040
0.0
  0
LINE
  5
430E
330
1F
100
AcDbEntity
  8
AM_0
100
AcDbLine
 10
-169.000000000002
 20
16.00000000000115
 30
0.0
 11
-169.000000000002
 21
-15.99999999999873
 31
0.0
  0
LINE
  5
430F
330
1F
100
AcDbEntity
  8
AM_0
100
AcDbLine
 10
-170.0000000000021
 20
-13.99999999999873
 30
0.0
 11
-170.000000000002
 21
14.00000000000115
 31
0.0
  0
LINE
  5
4310
330
1F
100
AcDbEntity
  8
AM_0
100
AcDbLine
 10
-170.000000000002
 20
14.00000000000115
 30
0.0
 11
-169.000000000002
 21
16.00000000000115
 31
0.0
1001
GENIUS_GENFIL_13
1070
     0
1040
1.0
1040
1.0
1040
20.0
1040
0.0
1002
{
1002
}
1001
GENIUS_GENODEF_13
1002
{
1000
HIER
1070
     0
1002
}
1002
{
1000
MANEDIT
1070
     0
1002
}
1002
{
1000
NOSEL
1070
     0
1002
}
1002
{
1000
BEHIND
1070
     0
1002
}
1002
{
1000
REACTOR
1002
}
1001
GENIUS_GENOBJ-N-CHA_13
1002
{
1000
OWNER
1000
GEN
1002
}
  0
LINE
  5
4311
330
1F
100
AcDbEntity
  8
AM_0
100
AcDbLine
 10
-169.000000000002
 20
-15.99999999999873
 30
0.0
 11
-85.00000000000211
 21
-15.99999999999881
 31
0.0
  0
DIMENSION
  5
4312
330
1F
100
AcDbEntity
  8
AM_5
100
AcDbDimension
  2
*D46
 10
-85.00000000000211
 20
-37.00000050499842
 30
0.0
 11
-127.5000000000021
 21
-33.90000050499842
 31
0.0
 70
    32
  1
<>
  3
AM_JIS
100
AcDbAlignedDimension
 13
-170.0000000000021
 23
-13.99999999999873
 33
0.0
 14
-85.00000000000211
 24
-15.99999999999869
 34
0.0
 50
0.0000000000002264
100
AcDbRotatedDimension
1001
GENIUS_GENDTOL_13
1000

1000
h7
1000

1040
0.0
  0
LINE
  5
4314
330
1F
100
AcDbEntity
  8
AM_0
100
AcDbLine
 10
-170.0000000000021
 20
-13.99999999999873
 30
0.0
 11
-169.000000000002
 21
-15.99999999999873
 31
0.0
1001
GENIUS_GENFIL_13
1070
     0
1040
1.0
1040
1.0
1040
20.0
1040
0.0
1002
{
1002
}
1001
GENIUS_GENODEF_13
1002
{
1000
HIER
1070
     0
1002
}
1002
{
1000
MANEDIT
1070
     0
1002
}
1002
{
1000
NOSEL
1070
     0
1002
}
1002
{
1000
BEHIND
1070
     0
1002
}
1002
{
1000
REACTOR
1002
}
1001
GENIUS_GENOBJ-N-CHA_13
1002
{
1000
OWNER
1000
GEN
1002
}
  0
LINE
  5
4316
330
1F
100
AcDbEntity
  8
AM_0
100
AcDbLine
 10
-85.00000000000211
 20
-15.99999999999869
 30
0.0
 11
-85.00000000000211
 21
16.00000000000115
 31
0.0
  0
DIMENSION
  5
4410
330
1F
100
AcDbEntity
  8
AM_5
100
AcDbDimension
  2
*D49
 10
-170.0000000000021
 20
-49.00000050499876
 30
0.0
 11
-85.00000000000081
 21
-45.90000050499877
 31
0.0
 70
    32
  1
<>
  3
AM_JIS
100
AcDbAlignedDimension
 13
0.0000000000004737
 23
-19.19999999999901
 33
0.0
 14
-170.0000000000021
 24
-23.00000050499876
 34
0.0
 50
0.0000000000002484
100
AcDbRotatedDimension
1001
GENIUS_GENDTOL_13
1000

1000
h7
1000

1040
0.0
  0
LINE
  5
46EE
330
1F
100
AcDbEntity
  8
AM_0
100
AcDbLine
 10
-0.0000000000011187
 20
-0.0000000000026089
 30
0.0
 11
-0.2802063742196393
 21
3.199999999998119
 31
0.0
  0
LINE
  5
46EF
330
1F
100
AcDbEntity
  8
AM_0
100
AcDbLine
 10
-0.0000000000011187
 20
-0.0000000000026089
 30
0.0
 11
-0.0000000000011187
 21
15.99999999999738
 31
0.0
  0
LINE
  5
46F0
330
1F
100
AcDbEntity
  8
AM_0
100
AcDbLine
 10
-7.338738372389673
 20
4.936958592485036
 30
0.0
 11
-7.338738372389673
 21
7.606927521679181
 31
0.0
  0
LINE
  5
46F1
330
1F
100
AcDbEntity
  8
AM_0
100
AcDbLine
 10
-2.84882937943823
 20
8.534850604831017
 30
0.0
 11
-6.288824385130205
 21
9.627050952087605
 31
0.0
  0
LINE
  5
46F2
330
1F
100
AcDbEntity
  8
AM_0
100
AcDbLine
 10
-0.2802063742196393
 20
3.199999999998119
 30
0.0
 11
-2.84882937943823
 21
8.534850604831017
 31
0.0
  0
LINE
  5
46F3
330
1F
100
AcDbEntity
  8
AM_0
100
AcDbLine
 10
-0.0000000000011187
 20
-0.0000000000026089
 30
0.0
 11
-6.288824385130205
 21
-0.0000000000026089
 31
0.0
  0
SPLINE
  5
46F4
330
1F
100
AcDbEntity
  8
AM_0
100
AcDbSpline
210
0.0
220
0.0
230
1.0
 70
     8
 71
     3
 72
     8
 73
     4
 74
     0
 42
0.0000000001
 43
0.0000000001
 40
11.46537929237052
 40
11.46537929237052
 40
11.46537929237052
 40
11.46537929237052
 40
14.48999654934396
 40
14.48999654934396
 40
14.48999654934396
 40
14.48999654934396
 10
-7.338738372390886
 20
4.936958592485763
 30
0.0
 10
-4.885291755626051
 20
3.339812811324674
 30
0.0
 10
-2.442645877813584
 20
1.669906405661033
 30
0.0
 10
-0.0000000000011187
 20
-0.0000000000018813
 30
0.0
  0
SPLINE
  5
46F5
330
1F
100
AcDbEntity
  8
AM_0
100
AcDbSpline
210
0.0
220
0.0
230
1.0
 70
     8
 71
     3
 72
     8
 73
     4
 74
     0
 42
0.0000000001
 43
0.0000000001
 40
0.0
 40
0.0
 40
0.0
 40
0.0
 40
4.294232294743062
 40
4.294232294743062
 40
4.294232294743062
 40
4.294232294743062
 10
-0.8005896406245964
 20
15.99999999999738
 30
0.0
 10
0.9516148430068406
 20
13.78407325965392
 30
0.0
 10
-3.779285664081666
 20
10.14616818768032
 30
0.0
 10
-6.288824385130205
 20
9.627050952087605
 30
0.0
  0
SPLINE
  5
46F6
330
1F
100
AcDbEntity
  8
AM_0
100
AcDbSpline
210
0.0
220
0.0
230
1.0
 70
     8
 71
     3
 72
     8
 73
     4
 74
     0
 42
0.0000000001
 43
0.0000000001
 40
9.532359626456116
 40
9.532359626456116
 40
9.532359626456116
 40
9.532359626456116
 40
12.40023413887867
 40
12.40023413887867
 40
12.40023413887867
 40
12.40023413887867
 10
-7.338738372412728
 20
7.606927521693005
 30
0.0
 10
-4.984318347951392
 20
6.243542204558918
 30
0.0
 10
-2.644906340894533
 20
4.776121699108927
 30
0.0
 10
-0.311730371615594
 20
3.265473141146078
 30
0.0
  0
LINE
  5
46F7
330
1F
100
AcDbEntity
  8
AM_0
100
AcDbLine
 10
-0.2802063742196393
 20
-4.246073134604074
 30
0.0
 11
-0.0000000000011187
 21
-3.200000000002608
 31
0.0
  0
LINE
  5
46F8
330
1F
100
AcDbEntity
  8
AM_0
100
AcDbLine
 10
-2.296245831789811
 20
-4.715695248535184
 30
0.0
 11
-0.2802063742196393
 21
-4.246073134604074
 31
0.0
  0
LINE
  5
46F9
330
1F
100
AcDbEntity
  8
AM_0
100
AcDbLine
 10
-0.0000000000011187
 20
-16.00000000000261
 30
0.0
 11
-0.2802063742196393
 21
-15.1470117043919
 31
0.0
  0
LINE
  5
46FA
330
1F
100
AcDbEntity
  8
AM_0
100
AcDbLine
 10
-0.2802063742196393
 20
-15.1470117043919
 30
0.0
 11
-1.828013012759576
 21
-12.79237329748036
 31
0.0
  0
LINE
  5
46FB
330
1F
100
AcDbEntity
  8
AM_0
100
AcDbLine
 10
-0.2802063742196393
 20
-15.1470117043919
 30
0.0
 11
-0.2802063742196393
 21
-4.246073134604074
 31
0.0
  0
LINE
  5
46FC
330
1F
100
AcDbEntity
  8
AM_0
100
AcDbLine
 10
-0.0000000000011187
 20
-16.00000000000261
 30
0.0
 11
-0.0000000000011187
 21
-3.200000000002608
 31
0.0
  0
LINE
  5
46FD
330
1F
100
AcDbEntity
  8
AM_0
100
AcDbLine
 10
-5.337264270829157
 20
-15.55316561987608
 30
0.0
 11
-5.337264270829157
 21
-14.03063876116691
 31
0.0
  0
SPLINE
  5
46FE
330
1F
100
AcDbEntity
  8
AM_0
100
AcDbSpline
210
0.0
220
0.0
230
1.0
 70
     8
 71
     3
 72
     8
 73
     4
 74
     0
 42
0.0000000001
 43
0.0000000001
 40
0.0
 40
0.0
 40
0.0
 40
0.0
 40
2.024855066027545
 40
2.024855066027545
 40
2.024855066027545
 40
2.024855066027545
 10
-0.0000000000011187
 20
-16.00000000000261
 30
0.0
 10
-1.801197766253101
 20
-16.00000000000261
 30
0.0
 10
-3.579205660026838
 20
-15.84377831821882
 30
0.0
 10
-5.337264270829157
 20
-15.55316561987608
 30
0.0
  0
LINE
  5
46FF
330
1F
100
AcDbEntity
  8
AM_0
100
AcDbLine
 10
-6.288824385130205
 20
-2.560000000002463
 30
0.0
 11
-0.30814709635046
 21
-2.560000000002463
 31
0.0
  0
LINE
  5
4700
330
1F
100
AcDbEntity
  8
AM_0
100
AcDbLine
 10
-6.288824385130205
 20
-2.560000000002463
 30
0.0
 11
-2.296245831789811
 21
-4.715695248535184
 31
0.0
  0
SPLINE
  5
4701
330
1F
100
AcDbEntity
  8
AM_0
100
AcDbSpline
210
0.0
220
0.0
230
1.0
 70
     8
 71
     3
 72
     8
 73
     4
 74
     0
 42
0.0000000001
 43
0.0000000001
 40
1.870660592686466
 40
1.870660592686466
 40
1.870660592686466
 40
1.870660592686466
 40
3.826008700541491
 40
3.826008700541491
 40
3.826008700541491
 40
3.826008700541491
 10
-0.2802063742196393
 20
-15.1470117043919
 30
0.0
 10
-1.982836373435194
 20
-14.89234299302303
 30
0.0
 10
-3.667595577044698
 20
-14.51379438891787
 30
0.0
 10
-5.337264270823089
 20
-14.03063876113562
 30
0.0
  0
ELLIPSE
  5
4702
330
1F
100
AcDbEntity
  8
AM_0
100
AcDbEllipse
 10
5.299031263986753
 20
-8.14041652709972
 30
0.0
 11
-0.0000000000000058
 21
9.730233969651379
 31
0.0
210
0.0
220
0.0
230
1.0
 40
0.8339475423168787
 41
1.211124581303815
 42
2.069278538290226
  0
LINE
  5
4703
330
1F
100
AcDbEntity
  8
AM_0
100
AcDbLine
 10
-0.0000000000011187
 20
-3.200000000002608
 30
0.0
 11
-1.540735481750252
 21
-0.0000000000018813
 31
0.0
  0
LINE
  5
4704
330
1F
100
AcDbEntity
  8
AM_0
100
AcDbLine
 10
-0.0000000000011187
 20
-0.0000000000026089
 30
0.0
 11
-0.2370882417561294
 21
-2.707584278676649
 31
0.0
  0
LINE
  5
4705
330
1F
100
AcDbEntity
  8
AM_0
100
AcDbLine
 10
-6.288824385130205
 20
-0.0000000000026089
 30
0.0
 11
-6.288824385130205
 21
-2.560000000002463
 31
0.0
  0
SPLINE
  5
4706
330
1F
100
AcDbEntity
  8
AM_0
100
AcDbSpline
210
0.0
220
0.0
230
1.0
 70
     8
 71
     3
 72
     9
 73
     5
 74
     0
 42
0.0000000001
 43
0.0000000001
 40
0.0
 40
0.0
 40
0.0
 40
0.0
 40
1.173671883824386
 40
1.360226551015519
 40
1.360226551015519
 40
1.360226551015519
 40
1.360226551015519
 10
-10.00737050780369
 20
14.46695847651456
 30
0.0
 10
-10.65789871778615
 20
13.48777337531604
 30
0.0
 10
-11.79210614291968
 20
12.71787143028007
 30
0.0
 10
-13.00797996041668
 20
12.40689860333325
 30
0.0
 10
-13.17548912434676
 20
12.3734042417945
 30
0.0
  0
LINE
  5
4707
330
1F
100
AcDbEntity
  8
AM_0
100
AcDbLine
 10
-12.67600264321771
 20
8.256464084259217
 30
0.0
 11
-12.67600264321771
 21
10.47864657646089
 31
0.0
  0
LINE
  5
4708
330
1F
100
AcDbEntity
  8
AM_0
100
AcDbLine
 10
-16.67895084633873
 20
10.47850912676834
 30
0.0
 11
-16.67895084633873
 21
12.28877689863105
 31
0.0
  0
LINE
  5
4709
330
1F
100
AcDbEntity
  8
AM_0
100
AcDbLine
 10
-22.01621511716677
 20
12.96022301817095
 30
0.0
 11
-22.01621511716677
 21
14.13759566481925
 31
0.0
  0
SPLINE
  5
470A
330
1F
100
AcDbEntity
  8
AM_0
100
AcDbSpline
210
0.0
220
0.0
230
1.0
 70
     8
 71
     3
 72
     9
 73
     5
 74
     0
 42
0.0000000001
 43
0.0000000001
 40
0.0
 40
0.0
 40
0.0
 40
0.0
 40
1.509478570089825
 40
3.309158499346873
 40
3.309158499346873
 40
3.309158499346873
 40
3.309158499346873
 10
-16.67895084633873
 20
10.47850912676834
 30
0.0
 10
-17.57248408486892
 20
10.5432939876512
 30
0.0
 10
-19.63556208590933
 20
10.46142824740061
 30
0.0
 10
-21.18413893906097
 20
12.1587866129672
 30
0.0
 10
-22.01621511716677
 20
12.96022301817095
 30
0.0
  0
SPLINE
  5
470B
330
1F
100
AcDbEntity
  8
AM_0
100
AcDbSpline
210
0.0
220
0.0
230
1.0
 70
     8
 71
     3
 72
     9
 73
     5
 74
     0
 42
0.0000000001
 43
0.0000000001
 40
0.0
 40
0.0
 40
0.0
 40
0.0
 40
1.596253384393968
 40
3.130156758002996
 40
3.130156758002996
 40
3.130156758002996
 40
3.130156758002996
 10
-16.67895084633873
 20
12.28877689863105
 30
0.0
 10
-17.49820681698624
 20
12.85746499061142
 30
0.0
 10
-19.31995922275512
 20
13.41971388796902
 30
0.0
 10
-21.10839619379875
 20
14.06842574049676
 30
0.0
 10
-22.01621511716677
 20
14.13759566481925
 30
0.0
  0
SPLINE
  5
470C
330
1F
100
AcDbEntity
  8
AM_0
100
AcDbSpline
210
0.0
220
0.0
230
1.0
 70
     8
 71
     3
 72
     8
 73
     4
 74
     0
 42
0.0000000001
 43
0.0000000001
 40
7.657131739025505
 40
7.657131739025505
 40
7.657131739025505
 40
7.657131739025505
 40
9.280732515295124
 40
9.280732515295124
 40
9.280732515295124
 40
9.280732515295124
 10
-16.67895084633873
 20
10.47850912676834
 30
0.0
 10
-15.33816087466801
 20
9.7814397670368
 30
0.0
 10
-14.00440168320166
 20
9.037006614825378
 30
0.0
 10
-12.67600264321892
 20
8.256464084259942
 30
0.0
  0
SPLINE
  5
470D
330
1F
100
AcDbEntity
  8
AM_0
100
AcDbSpline
210
0.0
220
0.0
230
1.0
 70
     8
 71
     3
 72
     8
 73
     4
 74
     0
 42
0.0000000001
 43
0.0000000001
 40
5.779271486987545
 40
5.779271486987545
 40
5.779271486987545
 40
5.779271486987545
 40
7.377122246071414
 40
7.377122246071414
 40
7.377122246071414
 40
7.377122246071414
 10
-16.67895084633873
 20
12.28877689863105
 30
0.0
 10
-15.33691816397894
 20
11.73889149767522
 30
0.0
 10
-14.00310780979444
 20
11.13200913056455
 30
0.0
 10
-12.67600264321771
 20
10.47864657646089
 30
0.0
  0
LINE
  5
470E
330
1F
100
AcDbEntity
  8
AM_0
100
AcDbLine
 10
-10.67452854165719
 20
-14.26241659647463
 30
0.0
 11
-10.67452854165719
 21
-12.13314060825475
 31
0.0
  0
LINE
  5
470F
330
1F
100
AcDbEntity
  8
AM_0
100
AcDbLine
 10
-14.67747674477822
 20
-12.79588605287687
 30
0.0
 11
-14.67747674477822
 21
-10.29220798963621
 31
0.0
  0
SPLINE
  5
4710
330
1F
100
AcDbEntity
  8
AM_0
100
AcDbSpline
210
0.0
220
0.0
230
1.0
 70
     8
 71
     3
 72
     8
 73
     4
 74
     0
 42
0.0000000001
 43
0.0000000001
 40
5.928582328726523
 40
5.928582328726523
 40
5.928582328726523
 40
5.928582328726523
 40
7.528098176779675
 40
7.528098176779675
 40
7.528098176779675
 40
7.528098176779675
 10
-10.67452854166933
 20
-12.13314060824965
 30
0.0
 10
-12.01643472243816
 20
-11.57211086958238
 30
0.0
 10
-13.35024349396578
 20
-10.95495009958146
 30
0.0
 10
-14.67747674471269
 20
-10.29220798966895
 30
0.0
  0
SPLINE
  5
4711
330
1F
100
AcDbEntity
  8
AM_0
100
AcDbSpline
210
0.0
220
0.0
230
1.0
 70
     8
 71
     3
 72
     8
 73
     4
 74
     0
 42
0.0000000001
 43
0.0000000001
 40
4.096652702081863
 40
4.096652702081863
 40
4.096652702081863
 40
4.096652702081863
 40
5.678228147290397
 40
5.678228147290397
 40
5.678228147290397
 40
5.678228147290397
 10
-10.67452854165234
 20
-14.26241659647172
 30
0.0
 10
-12.01847779264334
 20
-13.83846831129746
 30
0.0
 10
-13.35227911707921
 20
-13.34615715977385
 30
0.0
 10
-14.67747674477822
 20
-12.79588605287687
 30
0.0
  0
LINE
  5
4712
330
1F
100
AcDbEntity
  8
AM_0
100
AcDbLine
 10
-20.01474101560626
 20
-10.26889261131916
 30
0.0
 11
-20.01474101560626
 21
-7.388244179702877
 31
0.0
  0
SPLINE
  5
4713
330
1F
100
AcDbEntity
  8
AM_0
100
AcDbSpline
210
0.0
220
0.0
230
1.0
 70
     8
 71
     3
 72
     9
 73
     5
 74
     0
 42
0.0000000001
 43
0.0000000001
 40
0.0
 40
0.0
 40
0.0
 40
0.0
 40
1.80162782053068
 40
3.313189647300303
 40
3.313189647300303
 40
3.313189647300303
 40
3.313189647300303
 10
-14.67747674477822
 20
-12.79588605287687
 30
0.0
 10
-15.33565941636335
 20
-11.78669386658424
 30
0.0
 10
-17.10722647978027
 20
-10.63227578983159
 30
0.0
 10
-19.16214277685024
 20
-9.936994696444635
 30
0.0
 10
-20.01474101560626
 20
-10.26889261131916
 30
0.0
  0
SPLINE
  5
4714
330
1F
100
AcDbEntity
  8
AM_0
100
AcDbSpline
210
0.0
220
0.0
230
1.0
 70
     8
 71
     3
 72
     9
 73
     5
 74
     0
 42
0.0000000001
 43
0.0000000001
 40
0.0
 40
0.0
 40
0.0
 40
0.0
 40
2.141059343722855
 40
3.651523002367593
 40
3.651523002367593
 40
3.651523002367593
 40
3.651523002367593
 10
-14.67747674477822
 20
-10.26889261131916
 30
0.0
 10
-15.47888638189661
 20
-9.087955665799384
 30
0.0
 10
-16.74438900001803
 20
-6.091774062303847
 30
0.0
 10
-19.12441247488849
 20
-7.270255158604573
 30
0.0
 10
-20.01474101560626
 20
-7.388244179702877
 30
0.0
  0
SPLINE
  5
4715
330
1F
100
AcDbEntity
  8
AM_0
100
AcDbSpline
210
0.0
220
0.0
230
1.0
 70
     8
 71
     3
 72
     8
 73
     4
 74
     0
 42
0.0000000001
 43
0.0000000001
 40
0.0
 40
0.0
 40
0.0
 40
0.0
 40
3.835275104118792
 40
3.835275104118792
 40
3.835275104118792
 40
3.835275104118792
 10
-0.0000000000011187
 20
15.99999999999738
 30
0.0
 10
-3.411646130336101
 20
15.99999999999738
 30
0.0
 10
-6.740096055518224
 20
15.43953762147751
 30
0.0
 10
-10.00737050780369
 20
14.46695847651456
 30
0.0
  0
SPLINE
  5
4716
330
1F
100
AcDbEntity
  8
AM_0
100
AcDbSpline
210
0.0
220
0.0
230
1.0
 70
     8
 71
     3
 72
     9
 73
     5
 74
     0
 42
0.0000000001
 43
0.0000000001
 40
0.0
 40
0.0
 40
0.0
 40
0.0
 40
1.903742594624469
 40
3.430173214614181
 40
3.430173214614181
 40
3.430173214614181
 40
3.430173214614181
 10
-5.337264270829157
 20
-14.03063876116691
 30
0.0
 10
-6.070451273342573
 20
-13.00119771779382
 30
0.0
 10
-7.659829265846668
 20
-10.75217047041321
 30
0.0
 10
-9.805134465628738
 20
-11.83079708718213
 30
0.0
 10
-10.67452854166933
 20
-12.13314060824965
 30
0.0
  0
SPLINE
  5
4717
330
1F
100
AcDbEntity
  8
AM_0
100
AcDbSpline
210
0.0
220
0.0
230
1.0
 70
     8
 71
     3
 72
     9
 73
     5
 74
     0
 42
0.0000000001
 43
0.0000000001
 40
0.0
 40
0.0
 40
0.0
 40
0.0
 40
1.72658936472417
 40
3.24728190261914
 40
3.24728190261914
 40
3.24728190261914
 40
3.24728190261914
 10
-5.337264270829157
 20
-15.55316561987608
 30
0.0
 10
-5.962962887567531
 20
-14.58128235092481
 30
0.0
 10
-7.858221501686892
 20
-13.3008063065801
 30
0.0
 10
-9.850768931894771
 20
-13.82233770255412
 30
0.0
 10
-10.67452854165719
 20
-14.26241659647463
 30
0.0
  0
SPLINE
  5
4718
330
1F
100
AcDbEntity
  8
AM_0
100
AcDbSpline
210
0.0
220
0.0
230
1.0
 70
     8
 71
     3
 72
     9
 73
     5
 74
     0
 42
0.0000000001
 43
0.0000000001
 40
0.0
 40
0.0
 40
0.0
 40
0.0
 40
1.862990800602817
 40
3.382267404545521
 40
3.382267404545521
 40
3.382267404545521
 40
3.382267404545521
 10
-7.338738372389673
 20
7.606927521679181
 30
0.0
 10
-8.242067841415822
 20
8.369660754337255
 30
0.0
 10
-9.641441075513997
 20
10.24285644209964
 30
0.0
 10
-11.77821348141918
 20
10.56942941315596
 30
0.0
 10
-12.67600264321771
 20
10.47864657646089
 30
0.0
  0
SPLINE
  5
4719
330
1F
100
AcDbEntity
  8
AM_0
100
AcDbSpline
210
0.0
220
0.0
230
1.0
 70
     8
 71
     3
 72
     9
 73
     5
 74
     0
 42
0.0000000001
 43
0.0000000001
 40
0.0
 40
0.0
 40
0.0
 40
0.0
 40
1.59747099413338
 40
3.403889013946459
 40
3.403889013946459
 40
3.403889013946459
 40
3.403889013946459
 10
-7.338738372389673
 20
4.936958592485036
 30
0.0
 10
-8.255941556431164
 20
5.221240311846128
 30
0.0
 10
-10.20645412250894
 20
5.986137174875315
 30
0.0
 10
-11.79668547438054
 20
7.522748993289057
 30
0.0
 10
-12.67600264321771
 20
8.256464084259217
 30
0.0
  0
LINE
  5
471A
330
1F
100
AcDbEntity
  8
AM_0
100
AcDbLine
 10
-26.01916332028781
 20
14.38656574265144
 30
0.0
 11
-26.01916332028781
 21
15.03892133001457
 31
0.0
  0
SPLINE
  5
471B
330
1F
100
AcDbEntity
  8
AM_0
100
AcDbSpline
210
0.0
220
0.0
230
1.0
 70
     8
 71
     3
 72
     8
 73
     4
 74
     0
 42
0.0000000001
 43
0.0000000001
 40
0.3507760400854742
 40
0.3507760400854742
 40
0.3507760400854742
 40
0.3507760400854742
 40
1.871307041999678
 40
1.871307041999678
 40
1.871307041999678
 40
1.871307041999678
 10
-35.35937579423688
 20
15.98604866347189
 30
0.0
 10
-34.01275691604711
 20
15.94589549578625
 30
0.0
 10
-32.67889825952014
 20
15.81978138588413
 30
0.0
 10
-31.35642759111584
 20
15.61695056879937
 30
0.0
  0
SPLINE
  5
471C
330
1F
100
AcDbEntity
  8
AM_0
100
AcDbSpline
210
0.0
220
0.0
230
1.0
 70
     8
 71
     3
 72
     8
 73
     4
 74
     0
 42
0.0000000001
 43
0.0000000001
 40
13.73199344169106
 40
13.73199344169106
 40
13.73199344169106
 40
13.73199344169106
 40
14.43901837670146
 40
14.43901837670146
 40
14.43901837670146
 40
14.43901837670146
 10
-33.35790169267636
 20
1.139090414217509
 30
0.0
 10
-32.78365894679089
 20
0.7600010266239511
 30
0.0
 10
-32.20954763903622
 20
0.3800005133106712
 30
0.0
 10
-31.63543633128153
 20
-0.0000000000018813
 30
0.0
  0
SPLINE
  5
471D
330
1F
100
AcDbEntity
  8
AM_0
100
AcDbSpline
210
0.0
220
0.0
230
1.0
 70
     8
 71
     3
 72
     9
 73
     5
 74
     0
 42
0.0000000001
 43
0.0000000001
 40
0.0
 40
0.0
 40
0.0
 40
0.0
 40
1.008936993267342
 40
1.777052715134862
 40
1.777052715134862
 40
1.777052715134862
 40
1.777052715134862
 10
-26.01916332028781
 20
15.03892133001457
 30
0.0
 10
-26.88925320426168
 20
14.77500982000741
 30
0.0
 10
-28.49147916698604
 20
14.3626054155636
 30
0.0
 10
-30.02913880644117
 20
14.89150567524078
 30
0.0
 10
-30.69077330480827
 20
15.12031359803107
 30
0.0
  0
SPLINE
  5
471E
330
1F
100
AcDbEntity
  8
AM_0
100
AcDbSpline
210
0.0
220
0.0
230
1.0
 70
     8
 71
     3
 72
     9
 73
     5
 74
     0
 42
0.0000000001
 43
0.0000000001
 40
0.0
 40
0.0
 40
0.0
 40
0.0
 40
1.524049486410846
 40
3.246382277554493
 40
3.246382277554493
 40
3.246382277554493
 40
3.246382277554493
 10
-26.01916332028781
 20
14.38656574265144
 30
0.0
 10
-26.86209102182934
 20
13.99553921035735
 30
0.0
 10
-28.93711354158316
 20
13.16396112494007
 30
0.0
 10
-30.45595196917938
 20
15.03889547915902
 30
0.0
 10
-31.35642759111584
 20
15.61695056879937
 30
0.0
  0
LINE
  5
471F
330
1F
100
AcDbEntity
  8
AM_0
100
AcDbLine
 10
-24.01768921872122
 20
-8.020081482985975
 30
0.0
 11
-24.01768921872729
 21
-4.956161514753757
 31
0.0
  0
LINE
  5
4720
330
1F
100
AcDbEntity
  8
AM_0
100
AcDbLine
 10
-29.35495348955533
 20
-4.675678985569964
 30
0.0
 11
-29.35495348955533
 21
-1.507120652660222
 31
0.0
  0
SPLINE
  5
4721
330
1F
100
AcDbEntity
  8
AM_0
100
AcDbSpline
210
0.0
220
0.0
230
1.0
 70
     8
 71
     3
 72
     8
 73
     4
 74
     0
 42
0.0000000001
 43
0.0000000001
 40
1.999245295235591
 40
1.999245295235591
 40
1.999245295235591
 40
1.999245295235591
 40
2.130230809022907
 40
2.130230809022907
 40
2.130230809022907
 40
2.130230809022907
 10
-31.02284857418909
 20
-15.56412783392194
 30
0.0
 10
-30.90908913492084
 20
-15.54554857128502
 30
0.0
 10
-30.795413347837
 20
-15.52640577450189
 30
0.0
 10
-30.68182033571202
 20
-15.50670535313081
 30
0.0
  0
SPLINE
  5
4722
330
1F
100
AcDbEntity
  8
AM_0
100
AcDbSpline
210
0.0
220
0.0
230
1.0
 70
     8
 71
     3
 72
     9
 73
     5
 74
     0
 42
0.0000000001
 43
0.0000000001
 40
0.0
 40
0.0
 40
0.0
 40
0.0
 40
2.234683413624822
 40
3.734683413624822
 40
3.734683413624822
 40
3.734683413624822
 40
3.734683413624822
 10
-24.01768921872729
 20
-4.956161514848345
 30
0.0
 10
-24.67186442934217
 20
-3.574158913652399
 30
0.0
 10
-25.96171627477993
 20
-1.068491407486016
 30
0.0
 10
-28.56671268150085
 20
-0.9280548053792376
 30
0.0
 10
-29.35495348955533
 20
-1.422412232319464
 30
0.0
  0
SPLINE
  5
4723
330
1F
100
AcDbEntity
  8
AM_0
100
AcDbSpline
210
0.0
220
0.0
230
1.0
 70
     8
 71
     3
 72
     9
 73
     5
 74
     0
 42
0.0000000001
 43
0.0000000001
 40
0.0
 40
0.0
 40
0.0
 40
0.0
 40
1.804831497484455
 40
3.407354979375
 40
3.407354979375
 40
3.407354979375
 40
3.407354979375
 10
-24.01768921872729
 20
-8.020081482982337
 30
0.0
 10
-24.84079452882419
 20
-7.199691063185377
 30
0.0
 10
-26.52857727118389
 20
-5.849822663602144
 30
0.0
 10
-28.42142171792934
 20
-4.889078420771004
 30
0.0
 10
-29.35495348955533
 20
-4.675678985569964
 30
0.0
  0
SPLINE
  5
4724
330
1F
100
AcDbEntity
  8
AM_0
100
AcDbSpline
210
0.0
220
0.0
230
1.0
 70
     8
 71
     3
 72
     8
 73
     4
 74
     0
 42
0.0000000001
 43
0.0000000001
 40
0.2298684927509915
 40
0.2298684927509915
 40
0.2298684927509915
 40
0.2298684927509915
 40
2.764560748519282
 40
2.764560748519282
 40
2.764560748519282
 40
2.764560748519282
 10
-31.02284857418909
 20
-15.51503851480562
 30
0.0
 10
-28.77433570037348
 20
-15.47200808744571
 30
0.0
 10
-26.55977251184927
 20
-15.19363932009988
 30
0.0
 10
-24.37310291060275
 20
-14.72191292750036
 30
0.0
  0
LINE
  5
4725
330
1F
100
AcDbEntity
  8
AM_0
100
AcDbLine
 10
-33.35790169267636
 20
-2.001692931710266
 30
0.0
 11
-33.35790169267636
 21
1.139090414217509
 31
0.0
  0
SPLINE
  5
4726
330
1F
100
AcDbEntity
  8
AM_0
100
AcDbSpline
210
0.0
220
0.0
230
1.0
 70
     8
 71
     3
 72
     8
 73
     4
 74
     0
 42
0.0000000001
 43
0.0000000001
 40
13.50299628442394
 40
13.50299628442394
 40
13.50299628442394
 40
13.50299628442394
 40
14.43901837670146
 40
14.43901837670146
 40
14.43901837670146
 40
14.43901837670146
 10
-29.35495348955533
 20
-1.507120652660222
 30
0.0
 10
-30.11531775872549
 20
-1.006156524120586
 30
0.0
 10
-30.87537704500352
 20
-0.5030782620615977
 30
0.0
 10
-31.63543633128153
 20
-0.0000000000018813
 30
0.0
  0
LINE
  5
4727
330
1F
100
AcDbEntity
  8
AM_0
100
AcDbLine
 10
-38.6951659635044
 20
1.639140582048578
 30
0.0
 11
-38.6951659635044
 21
4.60431390148545
 31
0.0
  0
LINE
  5
4728
330
1F
100
AcDbEntity
  8
AM_0
100
AcDbLine
 10
-42.69811416662542
 20
4.325233453741685
 30
0.0
 11
-42.69811416665699
 21
7.060288797163533
 31
0.0
  0
SPLINE
  5
4729
330
1F
100
AcDbEntity
  8
AM_0
100
AcDbSpline
210
0.0
220
0.0
230
1.0
 70
     8
 71
     3
 72
     9
 73
     5
 74
     0
 42
0.0000000001
 43
0.0000000001
 40
0.0
 40
0.0
 40
0.0
 40
0.0
 40
1.609341566343276
 40
3.411820827695224
 40
3.411820827695224
 40
3.411820827695224
 40
3.411820827695224
 10
-42.69811416662542
 20
4.325233453740959
 30
0.0
 10
-43.59817636304438
 20
4.705831903893664
 30
0.0
 10
-45.51935756702691
 20
5.485038749546798
 30
0.0
 10
-47.24342915802733
 20
6.840454334496993
 30
0.0
 10
-48.03537843744619
 20
7.701327060270279
 30
0.0
  0
LINE
  5
472A
330
1F
100
AcDbEntity
  8
AM_0
100
AcDbLine
 10
-48.03537843745346
 20
7.701327060277555
 30
0.0
 11
-48.03537843745346
 21
10.0107149352941
 31
0.0
  0
SPLINE
  5
472B
330
1F
100
AcDbEntity
  8
AM_0
100
AcDbSpline
210
0.0
220
0.0
230
1.0
 70
     8
 71
     3
 72
     9
 73
     5
 74
     0
 42
0.0000000001
 43
0.0000000001
 40
0.0
 40
0.0
 40
0.0
 40
0.0
 40
1.891503755460323
 40
3.409143341102712
 40
3.409143341102712
 40
3.409143341102712
 40
3.409143341102712
 10
-42.69811416662542
 20
7.060288797145343
 30
0.0
 10
-43.56679120672406
 20
7.911281061781449
 30
0.0
 10
-44.9853686653982
 20
9.81064020503844
 30
0.0
 10
-47.1374757121646
 20
10.08443282288255
 30
0.0
 10
-48.03537843745346
 20
10.0107149352941
 30
0.0
  0
SPLINE
  5
472C
330
1F
100
AcDbEntity
  8
AM_0
100
AcDbSpline
210
0.0
220
0.0
230
1.0
 70
     8
 71
     3
 72
     8
 73
     4
 74
     0
 42
0.0000000001
 43
0.0000000001
 40
1.666991338825053
 40
1.666991338825053
 40
1.666991338825053
 40
1.666991338825053
 40
3.21070440243455
 40
3.21070440243455
 40
3.21070440243455
 40
3.21070440243455
 10
-40.69664006506005
 20
15.69453654462589
 30
0.0
 10
-42.04240541231164
 20
15.50971419108057
 30
0.0
 10
-43.37624282713979
 20
15.24453772325972
 30
0.0
 10
-44.69958826818594
 20
14.90868066884752
 30
0.0
  0
SPLINE
  5
472D
330
1F
100
AcDbEntity
  8
AM_0
100
AcDbSpline
210
0.0
220
0.0
230
1.0
 70
     8
 71
     3
 72
     8
 73
     4
 74
     0
 42
0.0000000001
 43
0.0000000001
 40
9.911909440357588
 40
9.911909440357588
 40
9.911909440357588
 40
9.911909440357588
 40
11.54467281373877
 40
11.54467281373877
 40
11.54467281373877
 40
11.54467281373877
 10
-42.69811416662542
 20
7.060288797144614
 30
0.0
 10
-41.35984936273189
 20
6.269003035658837
 30
0.0
 10
-40.02607288724104
 20
5.446604297829918
 30
0.0
 10
-38.6951659635044
 20
4.60431390148545
 30
0.0
  0
SPLINE
  5
472E
330
1F
100
AcDbEntity
  8
AM_0
100
AcDbSpline
210
0.0
220
0.0
230
1.0
 70
     8
 71
     3
 72
     8
 73
     4
 74
     0
 42
0.0000000001
 43
0.0000000001
 40
11.84940637128532
 40
11.84940637128532
 40
11.84940637128532
 40
11.84940637128532
 40
14.48999654934396
 40
14.48999654934396
 40
14.48999654934396
 40
14.48999654934396
 10
-42.69811416662542
 20
4.325233453740959
 30
0.0
 10
-40.55841715189953
 20
2.915766246391587
 30
0.0
 10
-38.42590709676553
 20
1.457883123195216
 30
0.0
 10
-36.29339704163153
 20
-0.0000000000018813
 30
0.0
  0
LINE
  5
472F
330
1F
100
AcDbEntity
  8
AM_0
100
AcDbLine
 10
-36.3601128450147
 20
-15.99992857622025
 30
0.0
 11
-36.36011284507902
 21
-15.17828019583946
 31
0.0
  0
LINE
  5
4730
330
1F
100
AcDbEntity
  8
AM_0
100
AcDbLine
 10
-40.36306104813816
 20
-15.73866670989997
 30
0.0
 11
-40.36306104813816
 21
-14.37628400443469
 31
0.0
  0
SPLINE
  5
4731
330
1F
100
AcDbEntity
  8
AM_0
100
AcDbSpline
210
0.0
220
0.0
230
1.0
 70
     8
 71
     3
 72
     8
 73
     4
 74
     0
 42
0.0000000001
 43
0.0000000001
 40
1.788970302442027
 40
1.788970302442027
 40
1.788970302442027
 40
1.788970302442027
 40
3.332324051699147
 40
3.332324051699147
 40
3.332324051699147
 40
3.332324051699147
 10
-36.36011284501712
 20
-15.17828019584819
 30
0.0
 10
-37.70517893300483
 20
-14.98546699447585
 30
0.0
 10
-39.03903928670684
 20
-14.7149759329867
 30
0.0
 10
-40.36306104812239
 20
-14.37628400434738
 30
0.0
  0
SPLINE
  5
4732
330
1F
100
AcDbEntity
  8
AM_0
100
AcDbSpline
210
0.0
220
0.0
230
1.0
 70
     8
 71
     3
 72
     8
 73
     4
 74
     0
 42
0.0000000001
 43
0.0000000001
 40
0.0
 40
0.0
 40
0.0
 40
0.0
 40
1.539536607901005
 40
1.539536607901005
 40
1.539536607901005
 40
1.539536607901005
 10
-36.29339704163153
 20
-16.00000000000187
 30
0.0
 10
-37.66288266346267
 20
-16.00000000000187
 30
0.0
 10
-39.01896255384714
 20
-15.90969049468373
 30
0.0
 10
-40.36306104813816
 20
-15.73866670989997
 30
0.0
  0
SPLINE
  5
4733
330
1F
100
AcDbEntity
  8
0
100
AcDbSpline
210
0.0
220
0.0
230
1.0
 70
     8
 71
     3
 72
     8
 73
     4
 74
     0
 42
0.0000000001
 43
0.0000000001
 40
0.0
 40
0.0
 40
0.0
 40
0.0
 40
1.208398095880623
 40
1.208398095880623
 40
1.208398095880623
 40
1.208398095880623
 10
-36.36927207035695
 20
-15.98755826684325
 30
0.0
 10
-37.71292623329044
 20
-15.98755826684325
 30
0.0
 10
-39.04362892936824
 20
-15.90041842584631
 30
0.0
 10
-40.36273186493405
 20
-15.73523327169052
 30
0.0
  0
LINE
  5
4734
330
1F
100
AcDbEntity
  8
AM_0
100
AcDbLine
 10
-45.7003253189662
 20
-14.64082505334342
 30
0.0
 11
-45.7003253189662
 21
-12.64512273430415
 31
0.0
  0
SPLINE
  5
4735
330
1F
100
AcDbEntity
  8
AM_0
100
AcDbSpline
210
0.0
220
0.0
230
1.0
 70
     8
 71
     3
 72
     9
 73
     5
 74
     0
 42
0.0000000001
 43
0.0000000001
 40
0.0
 40
0.0
 40
0.0
 40
0.0
 40
1.853196961853059
 40
3.381663674709893
 40
3.381663674709893
 40
3.381663674709893
 40
3.381663674709893
 10
-40.36306104813816
 20
-14.34039134370074
 30
0.0
 10
-41.13319312849348
 20
-13.4002520931331
 30
0.0
 10
-42.72105601803438
 20
-11.26675833979456
 30
0.0
 10
-44.83555887943057
 20
-12.3193988747635
 30
0.0
 10
-45.70032531897105
 20
-12.64512273430125
 30
0.0
  0
SPLINE
  5
4736
330
1F
100
AcDbEntity
  8
AM_0
100
AcDbSpline
210
0.0
220
0.0
230
1.0
 70
     8
 71
     3
 72
     9
 73
     5
 74
     0
 42
0.0000000001
 43
0.0000000001
 40
0.0
 40
0.0
 40
0.0
 40
0.0
 40
1.712940807075481
 40
3.245153285734257
 40
3.245153285734257
 40
3.245153285734257
 40
3.245153285734257
 10
-40.36306104813816
 20
-15.73866670989997
 30
0.0
 10
-41.25687534210551
 20
-15.15985889444881
 30
0.0
 10
-42.82170663611393
 20
-13.24020996986077
 30
0.0
 10
-44.82741712200855
 20
-14.33825157848497
 30
0.0
 10
-45.70032531897833
 20
-14.64082505332232
 30
0.0
  0
SPLINE
  5
4737
330
1F
100
AcDbEntity
  8
AM_0
100
AcDbSpline
210
0.0
220
0.0
230
1.0
 70
     8
 71
     3
 72
     9
 73
     5
 74
     0
 42
0.0000000001
 43
0.0000000001
 40
0.0
 40
0.0
 40
0.0
 40
0.0
 40
1.603217326944703
 40
3.259613869965475
 40
3.259613869965475
 40
3.259613869965475
 40
3.259613869965475
 10
-40.6966400650649
 20
15.69453654462443
 30
0.0
 10
-39.82884183734776
 20
15.22878954714962
 30
0.0
 10
-37.96774851424688
 20
13.64237124237283
 30
0.0
 10
-36.23024065845364
 20
15.44115419052709
 30
0.0
 10
-35.35937579423688
 20
15.98604866347189
 30
0.0
  0
SPLINE
  5
4738
330
1F
100
AcDbEntity
  8
AM_0
100
AcDbSpline
210
0.0
220
0.0
230
1.0
 70
     8
 71
     3
 72
     9
 73
     5
 74
     0
 42
0.0000000001
 43
0.0000000001
 40
0.0
 40
0.0
 40
0.0
 40
0.0
 40
2.134718602092789
 40
3.638419521675699
 40
3.638419521675699
 40
3.638419521675699
 40
3.638419521675699
 10
-33.35790169267636
 20
1.139090414217509
 30
0.0
 10
-34.02975616582995
 20
2.425694048184675
 30
0.0
 10
-35.45013878197385
 20
4.726215936561839
 30
0.0
 10
-37.82932857368207
 20
4.860160733871235
 30
0.0
 10
-38.6951659635044
 20
4.60431390148545
 30
0.0
  0
SPLINE
  5
4739
330
1F
100
AcDbEntity
  8
AM_0
100
AcDbSpline
210
0.0
220
0.0
230
1.0
 70
     8
 71
     3
 72
     8
 73
     4
 74
     0
 42
0.0000000001
 43
0.0000000001
 40
0.0
 40
0.0
 40
0.0
 40
0.0
 40
1.498423311644514
 40
1.498423311644514
 40
1.498423311644514
 40
1.498423311644514
 10
-36.36011284501712
 20
-15.17828019584819
 30
0.0
 10
-35.57303460250639
 20
-14.68367734754524
 30
0.0
 10
-34.6196615378606
 20
-14.16200697457441
 30
0.0
 10
-33.76427083462671
 20
-14.45062490049355
 30
0.0
  0
SPLINE
  5
473A
330
1F
100
AcDbEntity
  8
AM_0
100
AcDbSpline
210
0.0
220
0.0
230
1.0
 70
     8
 71
     3
 72
     9
 73
     5
 74
     0
 42
0.0000000001
 43
0.0000000001
 40
0.0
 40
0.0
 40
0.0
 40
0.0
 40
1.667714745337139
 40
3.256805083315271
 40
3.256805083315271
 40
3.256805083315271
 40
3.256805083315271
 10
-36.36011284501712
 20
-15.99992857622243
 30
0.0
 10
-35.53303604324362
 20
-15.34966642064899
 30
0.0
 10
-33.76934483606847
 20
-13.68503282503304
 30
0.0
 10
-31.87108603960329
 20
-15.07180622657024
 30
0.0
 10
-31.02284857418909
 20
-15.56412783392194
 30
0.0
  0
SPLINE
  5
473B
330
1F
100
AcDbEntity
  8
AM_0
100
AcDbSpline
210
0.0
220
0.0
230
1.0
 70
     8
 71
     3
 72
     8
 73
     4
 74
     0
 42
0.0000000001
 43
0.0000000001
 40
11.62991291415682
 40
11.62991291415682
 40
11.62991291415682
 40
11.62991291415682
 40
14.48999654934396
 40
14.48999654934396
 40
14.48999654934396
 40
14.48999654934396
 10
-29.35495348955533
 20
-4.675678985569964
 30
0.0
 10
-31.67385618198653
 20
-3.158133130480263
 30
0.0
 10
-33.98362661180842
 20
-1.579066565241072
 30
0.0
 10
-36.29339704163153
 20
-0.0000000000026089
 30
0.0
  0
SPLINE
  5
473C
330
1F
100
AcDbEntity
  8
AM_0
100
AcDbSpline
210
0.0
220
0.0
230
1.0
 70
     8
 71
     3
 72
     8
 73
     4
 74
     0
 42
0.0000000001
 43
0.0000000001
 40
2.130606102564619
 40
2.130606102564619
 40
2.130606102564619
 40
2.130606102564619
 40
3.679329335050426
 40
3.679329335050426
 40
3.679329335050426
 40
3.679329335050426
 10
-26.01916332028781
 20
15.0389213300153
 30
0.0
 10
-24.67432863699611
 20
14.81139421268702
 30
0.0
 10
-23.34047305628454
 20
14.50776024037507
 30
0.0
 10
-22.01621511717284
 20
14.13759566481925
 30
0.0
  0
SPLINE
  5
473D
330
1F
100
AcDbEntity
  8
AM_0
100
AcDbSpline
210
0.0
220
0.0
230
1.0
 70
     8
 71
     3
 72
     8
 73
     4
 74
     0
 42
0.0000000001
 43
0.0000000001
 40
3.939746932601999
 40
3.939746932601999
 40
3.939746932601999
 40
3.939746932601999
 40
5.519086939037594
 40
5.519086939037594
 40
5.519086939037594
 40
5.519086939037594
 10
-26.01916332028781
 20
14.38656574265144
 30
0.0
 10
-24.67508778813204
 20
13.97686410716736
 30
0.0
 10
-23.34128428412757
 20
13.49796357831394
 30
0.0
 10
-22.01621511716677
 20
12.96022301817023
 30
0.0
  0
SPLINE
  5
473E
330
1F
100
AcDbEntity
  8
AM_0
100
AcDbSpline
210
0.0
220
0.0
230
1.0
 70
     8
 71
     3
 72
     8
 73
     4
 74
     0
 42
0.0000000001
 43
0.0000000001
 40
9.685078621624523
 40
9.685078621624523
 40
9.685078621624523
 40
9.685078621624523
 40
11.31655044551473
 40
11.31655044551473
 40
11.31655044551473
 40
11.31655044551473
 10
-20.01474101560626
 20
-7.388244179702877
 30
0.0
 10
-21.35322453314929
 20
-6.606438612437039
 30
0.0
 10
-22.68700228812468
 20
-5.792012820810186
 30
0.0
 10
-24.01768921876005
 20
-4.956161514827971
 30
0.0
  0
SPLINE
  5
473F
330
1F
100
AcDbEntity
  8
AM_0
100
AcDbSpline
210
0.0
220
0.0
230
1.0
 70
     8
 71
     3
 72
     8
 73
     4
 74
     0
 42
0.0000000001
 43
0.0000000001
 40
7.818791612490512
 40
7.818791612490512
 40
7.818791612490512
 40
7.818791612490512
 40
9.443881246512125
 40
9.443881246512125
 40
9.443881246512125
 40
9.443881246512125
 10
-20.01474101560626
 20
-10.26889261131843
 30
0.0
 10
-21.3553757067879
 20
-9.56185515516524
 30
0.0
 10
-22.68913336486642
 20
-8.808489644470382
 30
0.0
 10
-24.01768921872729
 20
-8.020081482982337
 30
0.0
  0
SPLINE
  5
4740
330
1F
100
AcDbEntity
  8
AM_0
100
AcDbSpline
210
0.0
220
0.0
230
1.0
 70
     8
 71
     3
 72
     8
 73
     4
 74
     0
 42
0.0000000001
 43
0.0000000001
 40
0.7142832446738512
 40
0.7142832446738512
 40
0.7142832446738512
 40
0.7142832446738512
 40
9.361146747480315
 40
9.361146747480315
 40
9.361146747480315
 40
9.361146747480315
 10
-24.37310291032121
 20
14.72191292743548
 30
0.0
 10
-16.74074578249606
 20
14.29050700470719
 30
0.0
 10
-9.458810092565169
 20
11.31446362495656
 30
0.0
 10
-2.305285073099494
 20
7.40594703833661
 30
0.0
  0
SPLINE
  5
4741
330
1F
100
AcDbEntity
  8
AM_0
100
AcDbSpline
210
0.0
220
0.0
230
1.0
 70
     8
 71
     3
 72
     8
 73
     4
 74
     0
 42
0.0000000001
 43
0.0000000001
 40
0.0
 40
0.0
 40
0.0
 40
0.0
 40
4.451443990518192
 40
4.451443990518192
 40
4.451443990518192
 40
4.451443990518192
 10
-26.27183826812458
 20
-14.77582241217066
 30
0.0
 10
-22.31208277409485
 20
-14.77582241217066
 30
0.0
 10
-18.4500576294814
 20
-14.06613892559368
 30
0.0
 10
-14.65547271609665
 20
-12.86672815655735
 30
0.0
  0
SPLINE
  5
4742
330
1F
100
AcDbEntity
  8
AM_0
100
AcDbSpline
210
0.0
220
0.0
230
1.0
 70
     8
 71
     3
 72
     8
 73
     4
 74
     0
 42
0.0000000001
 43
0.0000000001
 40
4.542668862435135
 40
4.542668862435135
 40
4.542668862435135
 40
4.542668862435135
 40
14.36247867694493
 40
14.36247867694493
 40
14.36247867694493
 40
14.36247867694493
 10
-1.828013012755935
 20
-12.79237329746362
 30
0.0
 10
-10.19273326055678
 20
-10.10241819703557
 30
0.0
 10
-18.23228576434068
 20
-5.051209098518728
 30
0.0
 10
-26.27183826812458
 20
-0.0000000000018813
 30
0.0
  0
DIMENSION
  5
4743
330
1F
100
AcDbEntity
  8
AM_5
100
AcDbDimension
  2
*D55
 10
17.1257891477818
 20
-16.0000000000003
 30
0.0
 11
14.0257891477818
 21
-0.000000000000093
 31
0.0
 70
    32
  1
%%c<>
  3
AM_JIS
100
AcDbAlignedDimension
 13
-0.0000000000029454
 23
16.00000000000011
 33
0.0
 14
0.0000000000007502
 24
-16.00000000000029
 34
0.0
 50
90.00000000000003
100
AcDbRotatedDimension
1001
GENIUS_GENDTOL_13
1000

1000
h7
1000

1040
0.0
  0
LINE
  5
4750
330
1F
100
AcDbEntity
  8
AM_0
100
AcDbLine
 10
-52.0383266405745
 20
9.984796308494997
 30
0.0
 11
-52.03832664057328
 21
11.89643591989036
 31
0.0
  0
SPLINE
  5
4751
330
1F
100
AcDbEntity
  8
AM_0
100
AcDbSpline
210
0.0
220
0.0
230
1.0
 70
     8
 71
     3
 72
     8
 73
     4
 74
     0
 42
0.0000000001
 43
0.0000000001
 40
5.307227569610006
 40
5.307227569610006
 40
5.307227569610006
 40
5.307227569610006
 40
5.635889483499305
 40
5.635889483499305
 40
5.635889483499305
 40
5.635889483499305
 10
-50.03685253901398
 20
13.1734259917964
 30
0.0
 10
-50.31309389397366
 20
13.06484564420855
 30
0.0
 10
-50.58894806742311
 20
12.95365699651332
 30
0.0
 10
-50.86442891703534
 20
12.83995340278591
 30
0.0
  0
LINE
  5
4752
330
1F
100
AcDbEntity
  8
AM_0
100
AcDbLine
 10
-57.37559091140255
 20
12.57095705901113
 30
0.0
 11
-57.37559091140255
 21
13.86512645989163
 31
0.0
  0
LINE
  5
4753
330
1F
100
AcDbEntity
  8
AM_0
100
AcDbLine
 10
-61.37853911452356
 20
14.09030841596643
 30
0.0
 11
-61.37853911452356
 21
14.86843757490308
 31
0.0
  0
SPLINE
  5
4754
330
1F
100
AcDbEntity
  8
AM_0
100
AcDbSpline
210
0.0
220
0.0
230
1.0
 70
     8
 71
     3
 72
     8
 73
     4
 74
     0
 42
0.0000000001
 43
0.0000000001
 40
2.489821994174631
 40
2.489821994174631
 40
2.489821994174631
 40
2.489821994174631
 40
4.043019649814397
 40
4.043019649814397
 40
4.043019649814397
 40
4.043019649814397
 10
-61.37853911452356
 20
14.86843757490308
 30
0.0
 10
-60.03485230101814
 20
14.60536283496506
 30
0.0
 10
-58.70188584660798
 20
14.26797484317242
 30
0.0
 10
-57.37824628213646
 20
13.86593309166667
 30
0.0
  0
SPLINE
  5
4755
330
1F
100
AcDbEntity
  8
AM_0
100
AcDbSpline
210
0.0
220
0.0
230
1.0
 70
     8
 71
     3
 72
     8
 73
     4
 74
     0
 42
0.0000000001
 43
0.0000000001
 40
4.306226182506206
 40
4.306226182506206
 40
4.306226182506206
 40
4.306226182506206
 40
5.890739774064351
 40
5.890739774064351
 40
5.890739774064351
 40
5.890739774064351
 10
-61.37853911452356
 20
14.09030841596643
 30
0.0
 10
-60.03476038413827
 20
13.64760445812165
 30
0.0
 10
-58.70096193380339
 20
13.13766700704612
 30
0.0
 10
-57.37559091140255
 20
12.57095705901113
 30
0.0
  0
SPLINE
  5
4756
330
1F
100
AcDbEntity
  8
AM_0
100
AcDbSpline
210
0.0
220
0.0
230
1.0
 70
     8
 71
     3
 72
     9
 73
     5
 74
     0
 42
0.0000000001
 43
0.0000000001
 40
0.0
 40
0.0
 40
0.0
 40
0.0
 40
1.514634011951766
 40
3.318644422736972
 40
3.318644422736972
 40
3.318644422736972
 40
3.318644422736972
 10
-52.0383266405745
 20
9.984796308494997
 30
0.0
 10
-52.93396284839678
 20
10.06647136847005
 30
0.0
 10
-54.99386819783143
 20
10.08900407836852
 30
0.0
 10
-56.53869747027388
 20
11.77181287003879
 30
0.0
 10
-57.37559091140255
 20
12.57095705901113
 30
0.0
  0
SPLINE
  5
4757
330
1F
100
AcDbEntity
  8
AM_0
100
AcDbSpline
210
0.0
220
0.0
230
1.0
 70
     8
 71
     3
 72
     9
 73
     5
 74
     0
 42
0.0000000001
 43
0.0000000001
 40
0.0
 40
0.0
 40
0.0
 40
0.0
 40
1.618462504924987
 40
3.151185540897841
 40
3.151185540897841
 40
3.151185540897841
 40
3.151185540897841
 10
-52.0383266405745
 20
11.89643591989109
 30
0.0
 10
-52.88985943337544
 20
12.42744250639848
 30
0.0
 10
-54.63142679472502
 20
13.29796310503523
 30
0.0
 10
-56.47969406304312
 20
13.68107671456359
 30
0.0
 10
-57.37559091140255
 20
13.86512645989163
 30
0.0
  0
LINE
  5
4758
330
1F
100
AcDbEntity
  8
AM_0
100
AcDbLine
 10
-49.70327352208723
 20
-13.30319696850972
 30
0.0
 11
-49.70327352208723
 21
-10.91000010404211
 31
0.0
  0
SPLINE
  5
4759
330
1F
100
AcDbEntity
  8
AM_0
100
AcDbSpline
210
0.0
220
0.0
230
1.0
 70
     8
 71
     3
 72
     9
 73
     5
 74
     0
 42
0.0000000001
 43
0.0000000001
 40
0.0
 40
0.0
 40
0.0
 40
0.0
 40
1.794998547112939
 40
3.300637214108833
 40
3.300637214108833
 40
3.300637214108833
 40
3.300637214108833
 10
-49.70327352208723
 20
-13.30319696851772
 30
0.0
 10
-50.55924305244623
 20
-12.54438433562715
 30
0.0
 10
-52.06672198192682
 20
-10.90407033556217
 30
0.0
 10
-54.15923237078715
 20
-10.7503007214422
 30
0.0
 10
-55.0405377929274
 20
-10.9221957180093
 30
0.0
  0
LINE
  5
475A
330
1F
100
AcDbEntity
  8
AM_0
100
AcDbLine
 10
-55.04053779291527
 20
-10.92219571801513
 30
0.0
 11
-55.04053779291527
 21
-8.117716716638524
 31
0.0
  0
SPLINE
  5
475B
330
1F
100
AcDbEntity
  8
AM_0
100
AcDbSpline
210
0.0
220
0.0
230
1.0
 70
     8
 71
     3
 72
     9
 73
     5
 74
     0
 42
0.0000000001
 43
0.0000000001
 40
0.0
 40
0.0
 40
0.0
 40
0.0
 40
2.127517369033063
 40
3.640030134837918
 40
3.640030134837918
 40
3.640030134837918
 40
3.640030134837918
 10
-49.70327352208723
 20
-10.9221957180093
 30
0.0
 10
-50.37864213887989
 20
-9.644298804655557
 30
0.0
 10
-51.81784324688301
 20
-6.894599275424101
 30
0.0
 10
-54.16713715362359
 20
-7.872801509084554
 30
0.0
 10
-55.04053779297351
 20
-8.117716716605782
 30
0.0
  0
LINE
  5
475C
330
1F
100
AcDbEntity
  8
AM_0
100
AcDbLine
 10
-59.0434859960363
 20
-8.760382488382735
 30
0.0
 11
-59.0434859960363
 21
-5.744938920713748
 31
0.0
  0
SPLINE
  5
475D
330
1F
100
AcDbEntity
  8
AM_0
100
AcDbSpline
210
0.0
220
0.0
230
1.0
 70
     8
 71
     3
 72
     8
 73
     4
 74
     0
 42
0.0000000001
 43
0.0000000001
 40
7.307451768075528
 40
7.307451768075528
 40
7.307451768075528
 40
7.307451768075528
 40
8.927702162744216
 40
8.927702162744216
 40
8.927702162744216
 40
8.927702162744216
 10
-55.04053779291527
 20
-10.92219571801513
 30
0.0
 10
-56.38166054319899
 20
-10.24744543694147
 30
0.0
 10
-57.71542317498242
 20
-9.523112731845749
 30
0.0
 10
-59.0434859960363
 20
-8.760382488382735
 30
0.0
  0
SPLINE
  5
475E
330
1F
100
AcDbEntity
  8
0
100
AcDbSpline
210
0.0
220
0.0
230
1.0
 70
     8
 71
     3
 72
     8
 73
     4
 74
     0
 42
0.0000000001
 43
0.0000000001
 40
5.823759290313942
 40
5.823759290313942
 40
5.823759290313942
 40
5.823759290313942
 40
7.120260682552068
 40
7.120260682552068
 40
7.120260682552068
 40
7.120260682552068
 10
-55.04496131018411
 20
-10.93368518661707
 30
0.0
 10
-56.38632637162137
 20
-10.25915922706772
 30
0.0
 10
-57.72028152873925
 20
-9.534778074173168
 30
0.0
 10
-59.04849622308514
 20
-8.771774036413617
 30
0.0
  0
SPLINE
  5
475F
330
1F
100
AcDbEntity
  8
AM_0
100
AcDbSpline
210
0.0
220
0.0
230
1.0
 70
     8
 71
     3
 72
     8
 73
     4
 74
     0
 42
0.0000000001
 43
0.0000000001
 40
9.170645305362121
 40
9.170645305362121
 40
9.170645305362121
 40
9.170645305362121
 40
10.79891126818747
 40
10.79891126818747
 40
10.79891126818747
 40
10.79891126818747
 10
-55.04053779291527
 20
-8.117716716638524
 30
0.0
 10
-56.37951322275382
 20
-7.359089361912328
 30
0.0
 10
-57.71329414492396
 20
-6.564453814433062
 30
0.0
 10
-59.04348599623047
 20
-5.744938920593694
 30
0.0
  0
SPLINE
  5
4760
330
1F
100
AcDbEntity
  8
0
100
AcDbSpline
210
0.0
220
0.0
230
1.0
 70
     8
 71
     3
 72
     8
 73
     4
 74
     0
 42
0.0000000001
 43
0.0000000001
 40
0.0
 40
0.0
 40
0.0
 40
0.0
 40
9.637195575647414
 40
9.637195575647414
 40
9.637195575647414
 40
9.637195575647414
 10
-58.96391847247814
 20
-13.97246483028108
 30
0.0
 10
-56.10634856520157
 20
-13.97246483028108
 30
0.0
 10
-53.29496048987938
 20
-13.61919242888076
 30
0.0
 10
-50.33148018637522
 20
-12.7275775448527
 30
0.0
  0
SPLINE
  5
4761
330
1F
100
AcDbEntity
  8
AM_0
100
AcDbSpline
210
0.0
220
0.0
230
1.0
 70
     8
 71
     3
 72
     8
 73
     4
 74
     0
 42
0.0000000001
 43
0.0000000001
 40
0.3581103616548037
 40
0.3581103616548037
 40
0.3581103616548037
 40
0.3581103616548037
 40
0.4557920900567158
 40
0.4557920900567158
 40
0.4557920900567158
 40
0.4557920900567158
 10
-66.97521737734122
 20
15.50670535312631
 30
0.0
 10
-66.88869619622693
 20
15.50413346106755
 30
0.0
 10
-66.80222498110452
 20
15.50121520604546
 30
0.0
 10
-66.71580338535161
 20
15.49795299084101
 30
0.0
  0
SPLINE
  5
4762
330
1F
100
AcDbEntity
  8
AM_0
100
AcDbSpline
210
0.0
220
0.0
230
1.0
 70
     8
 71
     3
 72
     8
 73
     4
 74
     0
 42
0.0000000001
 43
0.0000000001
 40
14.25229543663493
 40
14.25229543663493
 40
14.25229543663493
 40
14.25229543663493
 40
14.43901837670146
 40
14.43901837670146
 40
14.43901837670146
 40
14.43901837670146
 10
-68.38369846998538
 20
0.3010538422956702
 30
0.0
 10
-68.23207515690413
 20
0.2007137501331559
 30
0.0
 10
-68.08045426490804
 20
0.1003568750656373
 30
0.0
 10
-67.92883337291318
 20
-0.0000000000018813
 30
0.0
  0
LINE
  5
4763
330
1F
100
AcDbEntity
  8
AM_0
100
AcDbLine
 10
-70.00023333333698
 20
15.89372089091959
 30
0.0
 11
-70.00023333333704
 21
14.99803057510414
 31
0.0
  0
ELLIPSE
  5
4764
330
1F
100
AcDbEntity
  8
AM_0
100
AcDbEllipse
 10
-69.2144068641134
 20
5.346954785280769
 30
0.0
 11
-0.0000000000045331
 21
10.87329052993607
 31
0.0
210
0.0
220
0.0
230
1.0
 40
0.9374999999999738
 41
0.4534941077930661
 42
0.6496021569223478
  0
SPLINE
  5
4765
330
1F
100
AcDbEntity
  8
AM_0
100
AcDbSpline
210
0.0
220
0.0
230
1.0
 70
     8
 71
     3
 72
     8
 73
     4
 74
     0
 42
0.0000000001
 43
0.0000000001
 40
0.9752450858540601
 40
0.9752450858540601
 40
0.9752450858540601
 40
0.9752450858540601
 40
2.229997198220355
 40
2.229997198220355
 40
2.229997198220355
 40
2.229997198220355
 10
-70.00000000000365
 20
15.89372089091959
 30
0.0
 10
-68.89721932500286
 20
15.80360766932986
 30
0.0
 10
-67.8027441565864
 20
15.65754329027361
 30
0.0
 10
-66.71580338535161
 20
15.46072243551782
 30
0.0
  0
SPLINE
  5
4766
330
1F
100
AcDbEntity
  8
AM_0
100
AcDbSpline
210
0.0
220
0.0
230
1.0
 70
     8
 71
     3
 72
     8
 73
     4
 74
     0
 42
0.0000000001
 43
0.0000000001
 40
11.33959573889505
 40
11.33959573889505
 40
11.33959573889505
 40
11.33959573889505
 40
14.36247867694493
 40
14.36247867694493
 40
14.36247867694493
 40
14.36247867694493
 10
-69.99929216940639
 20
4.59593892513397
 30
0.0
 10
-67.51494952058244
 20
3.109879740819025
 30
0.0
 10
-65.04009241516932
 20
1.554939870408572
 30
0.0
 10
-62.56523530975621
 20
-0.0000000000018813
 30
0.0
  0
SPLINE
  5
4767
330
1F
100
AcDbEntity
  8
AM_0
100
AcDbSpline
210
0.0
220
0.0
230
1.0
 70
     8
 71
     3
 72
     9
 73
     5
 74
     0
 42
0.0000000001
 43
0.0000000001
 40
0.0
 40
0.0
 40
0.0
 40
0.0
 40
2.15832142038773
 40
3.660803471549535
 40
3.660803471549535
 40
3.660803471549535
 40
3.660803471549535
 10
-68.38369846998538
 20
0.3010538422956702
 30
0.0
 10
-69.16099782215659
 20
1.520427392437117
 30
0.0
 10
-70.4075390460204
 20
3.989547192095884
 30
0.0
 10
-72.8665999914768
 20
4.099201480327902
 30
0.0
 10
-73.7209627408134
 20
3.795908609319605
 30
0.0
  0
LINE
  5
4768
330
1F
100
AcDbEntity
  8
AM_0
100
AcDbLine
 10
-64.38075026686435
 20
-5.498106976649131
 30
0.0
 11
-64.38075026686435
 21
-2.339735460410583
 31
0.0
  0
LINE
  5
4769
330
1F
100
AcDbEntity
  8
AM_0
100
AcDbLine
 10
-69.99952550273971
 20
-12.25870470198467
 30
0.0
 11
-69.99952550273971
 21
-14.93224483690044
 31
0.0
  0
SPLINE
  5
476A
330
1F
100
AcDbEntity
  8
0
100
AcDbSpline
210
0.0
220
0.0
230
1.0
 70
     8
 71
     3
 72
     8
 73
     4
 74
     0
 42
0.0000000001
 43
0.0000000001
 40
1.140063819971138
 40
1.140063819971138
 40
1.140063819971138
 40
1.140063819971138
 40
2.790246636948332
 40
2.790246636948332
 40
2.790246636948332
 40
2.790246636948332
 10
-69.99929216940639
 20
-13.77082317486025
 30
0.0
 10
-71.80918072792332
 20
-13.57958849636749
 30
0.0
 10
-73.60192538048565
 20
-13.25720984696497
 30
0.0
 10
-75.38027249913572
 20
-12.82469586589693
 30
0.0
  0
SPLINE
  5
476B
330
1F
100
AcDbEntity
  8
AM_0
100
AcDbSpline
210
0.0
220
0.0
230
1.0
 70
     8
 71
     3
 72
     8
 73
     4
 74
     0
 42
0.0000000001
 43
0.0000000001
 40
11.10916553453163
 40
11.10916553453163
 40
11.10916553453163
 40
11.10916553453163
 40
13.42219740580175
 40
13.42219740580175
 40
13.42219740580175
 40
13.42219740580175
 10
-64.38075026686435
 20
-5.498106976484694
 30
0.0
 10
-66.25904781297816
 20
-4.290591070367798
 30
0.0
 10
-68.13028496585594
 20
-3.035511879615359
 30
0.0
 10
-69.99929216940639
 20
-1.765410336554185
 30
0.0
  0
SPLINE
  5
476C
330
1F
100
AcDbEntity
  8
0
100
AcDbSpline
210
0.0
220
0.0
230
1.0
 70
     8
 71
     3
 72
     8
 73
     4
 74
     0
 42
0.0000000001
 43
0.0000000001
 40
8.865611173425079
 40
8.865611173425079
 40
8.865611173425079
 40
8.865611173425079
 40
10.49949233464396
 40
10.49949233464396
 40
10.49949233464396
 40
10.49949233464396
 10
-64.38548837892216
 20
-5.507724804645421
 30
0.0
 10
-66.04367058997728
 20
-4.440773822712284
 30
0.0
 10
-67.6963052536493
 20
-3.336497925981824
 30
0.0
 10
-69.34673365593998
 20
-2.217377898612602
 30
0.0
  0
SPLINE
  5
476D
330
1F
100
AcDbEntity
  8
AM_0
100
AcDbSpline
210
0.0
220
0.0
230
1.0
 70
     8
 71
     3
 72
     8
 73
     4
 74
     0
 42
0.0000000001
 43
0.0000000001
 40
12.98298737538389
 40
12.98298737538389
 40
12.98298737538389
 40
12.98298737538389
 40
14.43901837670148
 40
14.43901837670148
 40
14.43901837670148
 40
14.43901837670148
 10
-64.38075026678546
 20
-2.339735460462241
 30
0.0
 10
-65.56420994620009
 20
-1.565128754314053
 30
0.0
 10
-66.74652165955603
 20
-0.7825643771579677
 30
0.0
 10
-67.92883337291318
 20
-0.0000000000018813
 30
0.0
  0
LINE
  5
476E
330
1F
100
AcDbEntity
  8
AM_0
100
AcDbLine
 10
-68.38369846998538
 20
-2.858330792034093
 30
0.0
 11
-68.38369846998538
 21
0.3010538422956702
 31
0.0
  0
LINE
  5
476F
330
1F
100
AcDbEntity
  8
AM_0
100
AcDbLine
 10
-69.99952550273971
 20
-1.765410336554911
 30
0.0
 11
-69.99952550273971
 21
4.59593892513397
 31
0.0
  0
SPLINE
  5
4770
330
1F
100
AcDbEntity
  8
AM_0
100
AcDbSpline
210
0.0
220
0.0
230
1.0
 70
     8
 71
     3
 72
     9
 73
     5
 74
     0
 42
0.0000000001
 43
0.0000000001
 40
0.0
 40
0.0
 40
0.0
 40
0.0
 40
1.501483287633145
 40
3.044501708991191
 40
3.044501708991191
 40
3.044501708991191
 40
3.044501708991191
 10
-61.37853911452356
 20
14.86843757490308
 30
0.0
 10
-62.26721307193976
 20
14.80153458286826
 30
0.0
 10
-64.07603854161719
 20
14.51214801848021
 30
0.0
 10
-65.86763684140517
 20
15.08614850156861
 30
0.0
 10
-66.71580338535161
 20
15.49795299084101
 30
0.0
  0
SPLINE
  5
4771
330
1F
100
AcDbEntity
  8
AM_0
100
AcDbSpline
210
0.0
220
0.0
230
1.0
 70
     8
 71
     3
 72
     9
 73
     5
 74
     0
 42
0.0000000001
 43
0.0000000001
 40
0.0
 40
0.0
 40
0.0
 40
0.0
 40
1.516617987072454
 40
3.248795674012696
 40
3.248795674012696
 40
3.248795674012696
 40
3.248795674012696
 10
-61.37853911452356
 20
14.09030841596643
 30
0.0
 10
-62.26134854602894
 20
13.8841229487026
 30
0.0
 10
-64.27506934091659
 20
12.94377194744898
 30
0.0
 10
-65.85613536888601
 20
14.78646402074872
 30
0.0
 10
-66.71580338535161
 20
15.46072243551782
 30
0.0
  0
SPLINE
  5
4772
330
1F
100
AcDbEntity
  8
AM_0
100
AcDbSpline
210
0.0
220
0.0
230
1.0
 70
     8
 71
     3
 72
     9
 73
     5
 74
     0
 42
0.0000000001
 43
0.0000000001
 40
0.0
 40
0.0
 40
0.0
 40
0.0
 40
2.234089429072837
 40
3.734089429072837
 40
3.734089429072837
 40
3.734089429072837
 40
3.734089429072837
 10
-59.0434859960363
 20
-5.744938920713748
 30
0.0
 10
-59.98312902035197
 20
-4.624949200824834
 30
0.0
 10
-60.95263869741959
 20
-1.571421823272744
 30
0.0
 10
-63.51139292598535
 20
-1.986948102668318
 30
0.0
 10
-64.38075026686435
 20
-2.212899339366839
 30
0.0
  0
SPLINE
  5
4773
330
1F
100
AcDbEntity
  8
AM_0
100
AcDbSpline
210
0.0
220
0.0
230
1.0
 70
     8
 71
     3
 72
     9
 73
     5
 74
     0
 42
0.0000000001
 43
0.0000000001
 40
0.0
 40
0.0
 40
0.0
 40
0.0
 40
1.809327783561213
 40
3.396063755099695
 40
3.396063755099695
 40
3.396063755099695
 40
3.396063755099695
 10
-59.0434859960363
 20
-8.760382488382735
 30
0.0
 10
-59.73757049102161
 20
-7.779198780410399
 30
0.0
 10
-61.59123379150241
 20
-6.664012724828716
 30
0.0
 10
-63.44274000131317
 20
-5.587696506342058
 30
0.0
 10
-64.38075026686435
 20
-5.498106976649131
 30
0.0
  0
SPLINE
  5
4774
330
1F
100
AcDbEntity
  8
0
100
AcDbSpline
210
0.0
220
0.0
230
1.0
 70
     8
 71
     3
 72
     8
 73
     4
 74
     0
 42
0.0000000001
 43
0.0000000001
 40
0.0
 40
0.0
 40
0.0
 40
0.0
 40
3.445482686890237
 40
3.445482686890237
 40
3.445482686890237
 40
3.445482686890237
 10
-58.72991762900774
 20
-13.97246483028108
 30
0.0
 10
-62.56105338744527
 20
-13.97246483028108
 30
0.0
 10
-66.30917874472757
 20
-13.33746871782466
 30
0.0
 10
-69.99929216940639
 20
-12.25870470198467
 30
0.0
  0
SPLINE
  5
4775
330
1F
100
AcDbEntity
  8
0
100
AcDbSpline
210
0.0
220
0.0
230
1.0
 70
     8
 71
     3
 72
     8
 73
     4
 74
     0
 42
0.0000000001
 43
0.0000000001
 40
4.041712701031851
 40
4.041712701031851
 40
4.041712701031851
 40
4.041712701031851
 40
9.964098609850829
 40
9.964098609850829
 40
9.964098609850829
 40
9.964098609850829
 10
-69.99952550273971
 20
-14.93224483690044
 30
0.0
 10
-65.75825220561307
 20
-14.57892121801897
 30
0.0
 10
-60.81963025867393
 20
-14.25817383636501
 30
0.0
 10
-59.12342751292118
 20
-13.99030223915002
 30
0.0
  0
ELLIPSE
  5
4776
330
1F
100
AcDbEntity
  8
AM_0
100
AcDbEllipse
 10
-75.94214352290901
 20
9.381942046164809
 30
0.0
 11
-0.000000000000039
 21
3.667462181729049
 31
0.0
210
0.0
220
0.0
230
1.0
 40
0.8339475423168812
 41
0.5157909989585235
 42
2.61018610135525
  0
ELLIPSE
  5
4777
330
1F
100
AcDbEntity
  8
AM_0
100
AcDbEllipse
 10
-75.94214352290901
 20
9.381942046164809
 30
0.0
 11
-0.000000000000039
 21
3.667462181729049
 31
0.0
210
0.0
220
0.0
230
1.0
 40
0.8339475423168812
 41
0.5157909989585235
 42
2.61018610135525
  0
LINE
  5
4778
330
1F
100
AcDbEntity
  8
AM_0
100
AcDbLine
 10
-77.49201280190638
 20
12.54364343595986
 30
0.0
 11
-75.38027249913572
 21
14.0056224818781
 31
0.0
  0
LINE
  5
4779
330
1F
100
AcDbEntity
  8
AM_0
100
AcDbLine
 10
-77.49201280190638
 20
12.54364343595986
 30
0.0
 11
-75.38027249913572
 21
14.0056224818781
 31
0.0
  0
SPLINE
  5
477A
330
1F
100
AcDbEntity
  8
AM_0
100
AcDbSpline
210
0.0
220
0.0
230
1.0
 70
     8
 71
     3
 72
     8
 73
     4
 74
     0
 42
0.0000000001
 43
0.0000000001
 40
10.42795179099413
 40
10.42795179099413
 40
10.42795179099413
 40
10.42795179099413
 40
12.06337302160172
 40
12.06337302160172
 40
12.06337302160172
 40
12.06337302160172
 10
-77.72391094393443
 20
6.301050912065297
 30
0.0
 10
-76.38614744394726
 20
5.489900989681669
 30
0.0
 10
-75.05237360790349
 20
4.651094820079317
 30
0.0
 10
-73.72096274101363
 20
3.795908609447662
 30
0.0
  0
LINE
  5
477B
330
1F
100
AcDbEntity
  8
AM_0
100
AcDbLine
 10
-77.49201280189424
 20
-3.364546190925135
 30
0.0
 11
-75.38027249913572
 21
-1.902567145014171
 31
0.0
  0
ELLIPSE
  5
477C
330
1F
100
AcDbEntity
  8
AM_0
100
AcDbEllipse
 10
-74.75061832544127
 20
-7.553617547904681
 30
0.0
 11
0.0000000000000298
 21
5.324878842892195
 31
0.0
210
0.0
220
0.0
230
1.0
 40
0.8339475423168812
 41
0.6653545353675661
 42
2.999320557457989
  0
ELLIPSE
  5
477D
330
1F
100
AcDbEntity
  8
AM_0
100
AcDbEllipse
 10
-72.59665234763611
 20
-8.485061523039291
 30
0.0
 11
-0.0000000000000701
 21
7.380426937477502
 31
0.0
210
0.0
220
0.0
230
1.0
 40
0.8339475423168856
 41
-0.5562700788786652
 42
0.5778980406257817
  0
DIMENSION
  5
477E
330
1F
100
AcDbEntity
  8
AM_5
100
AcDbDimension
  2
*D56
 10
-69.99952550273971
 20
-37.00000050499851
 30
0.0
 11
-34.99976275136948
 21
-33.90000050499851
 31
0.0
 70
    32
  1
<>
  3
AM_JIS
100
AcDbAlignedDimension
 13
0.0000000000007502
 23
-17.06666666666681
 33
0.0
 14
-69.99952550273971
 24
-15.69862583974054
 34
0.0
 50
0.0000000000001448
100
AcDbRotatedDimension
1001
GENIUS_GENDTOL_13
1000

1000
h7
1000

1040
0.0
  0
SPLINE
  5
478B
330
1F
100
AcDbEntity
  8
AM_0
100
AcDbSpline
210
0.0
220
0.0
230
1.0
 70
     8
 71
     3
 72
     9
 73
     5
 74
     0
 42
0.0000000001
 43
0.0000000001
 40
0.0
 40
0.0
 40
0.0
 40
0.0
 40
1.503438351697518
 40
3.260499827787994
 40
3.260499827787994
 40
3.260499827787994
 40
3.260499827787994
 10
-50.03685253901398
 20
13.17342599179786
 30
0.0
 10
-49.16632352950342
 20
12.9424609991256
 30
0.0
 10
-47.12830504999383
 20
12.48796402303973
 30
0.0
 10
-45.47305912307687
 20
14.07145707986028
 30
0.0
 10
-44.69958826818594
 20
14.90868066884752
 30
0.0
  0
SPLINE
  5
478C
330
1F
100
AcDbEntity
  8
AM_0
100
AcDbSpline
210
0.0
220
0.0
230
1.0
 70
     8
 71
     3
 72
     8
 73
     4
 74
     0
 42
0.0000000001
 43
0.0000000001
 40
6.150480381241876
 40
6.150480381241876
 40
6.150480381241876
 40
6.150480381241876
 40
7.75241736749254
 40
7.75241736749254
 40
7.75241736749254
 40
7.75241736749254
 10
-52.0383266405745
 20
11.89643591989036
 30
0.0
 10
-50.6966100033329
 20
11.31916281487895
 30
0.0
 10
-49.36280353890377
 20
10.68705659660948
 30
0.0
 10
-48.03537843745346
 20
10.0107149352941
 30
0.0
  0
SPLINE
  5
478D
330
1F
100
AcDbEntity
  8
AM_0
100
AcDbSpline
210
0.0
220
0.0
230
1.0
 70
     8
 71
     3
 72
     8
 73
     4
 74
     0
 42
0.0000000001
 43
0.0000000001
 40
8.034594408064972
 40
8.034594408064972
 40
8.034594408064972
 40
8.034594408064972
 40
9.661611892530016
 40
9.661611892530016
 40
9.661611892530016
 40
9.661611892530016
 10
-52.0383266405745
 20
9.984796308493542
 30
0.0
 10
-50.69790060203303
 20
9.264800529262293
 30
0.0
 10
-49.36414493364325
 20
8.499868908131187
 30
0.0
 10
-48.03537843745468
 20
7.701327060275371
 30
0.0
  0
SPLINE
  5
478E
330
1F
100
AcDbEntity
  8
AM_0
100
AcDbSpline
210
0.0
220
0.0
230
1.0
 70
     8
 71
     3
 72
     8
 73
     4
 74
     0
 42
0.0000000001
 43
0.0000000001
 40
5.425905956994038
 40
5.425905956994038
 40
5.425905956994038
 40
5.425905956994038
 40
7.019702002723574
 40
7.019702002723574
 40
7.019702002723574
 40
7.019702002723574
 10
-45.7003253189662
 20
-12.64512273430343
 30
0.0
 10
-47.04265398015315
 20
-12.12229161489128
 30
0.0
 10
-48.3764681744781
 20
-11.540438431512
 30
0.0
 10
-49.70327352208723
 20
-10.91000010404211
 30
0.0
  0
SPLINE
  5
478F
330
1F
100
AcDbEntity
  8
AM_0
100
AcDbSpline
210
0.0
220
0.0
230
1.0
 70
     8
 71
     3
 72
     8
 73
     4
 74
     0
 42
0.0000000001
 43
0.0000000001
 40
3.600603813281411
 40
3.600603813281411
 40
3.600603813281411
 40
3.600603813281411
 40
5.175009087017798
 40
5.175009087017798
 40
5.175009087017798
 40
5.175009087017798
 10
-45.70032531896742
 20
-14.64082505332523
 30
0.0
 10
-47.04466968932018
 20
-14.26250602892948
 30
0.0
 10
-48.37847798292741
 20
-13.81320931242487
 30
0.0
 10
-49.70327352208723
 20
-13.30319696850972
 30
0.0
  0
SPLINE
  5
4790
330
1F
100
AcDbEntity
  8
0
100
AcDbSpline
210
0.0
220
0.0
230
1.0
 70
     8
 71
     3
 72
     8
 73
     4
 74
     0
 42
0.0000000001
 43
0.0000000001
 40
2.857363517439195
 40
2.857363517439195
 40
2.857363517439195
 40
2.857363517439195
 40
4.11726153057047
 40
4.11726153057047
 40
4.11726153057047
 40
4.11726153057047
 10
-45.70146252202266
 20
-14.64612890652458
 30
0.0
 10
-47.04640072658012
 20
-14.26948343602778
 30
0.0
 10
-48.38073447001395
 20
-13.82148920894067
 30
0.0
 10
-49.70599575113544
 20
-13.3124537938432
 30
0.0
  0
SPLINE
  5
4791
330
1F
100
AcDbEntity
  8
AM_0
100
AcDbSpline
210
0.0
220
0.0
230
1.0
 70
     8
 71
     3
 72
     8
 73
     4
 74
     0
 42
0.0000000001
 43
0.0000000001
 40
0.7142832446738512
 40
0.7142832446738512
 40
0.7142832446738512
 40
0.7142832446738512
 40
14.36247867694493
 40
14.36247867694493
 40
14.36247867694493
 40
14.36247867694493
 10
-60.66649995195163
 20
14.72191292743548
 30
0.0
 10
-48.61959974870149
 20
14.04098251351928
 30
0.0
 10
-37.44571900841364
 20
7.020491256758699
 30
0.0
 10
-26.27183826812458
 20
-0.0000000000018813
 30
0.0
  0
SPLINE
  5
4792
330
1F
100
AcDbEntity
  8
AM_0
100
AcDbSpline
210
0.0
220
0.0
230
1.0
 70
     8
 71
     3
 72
     8
 73
     4
 74
     0
 42
0.0000000001
 43
0.0000000001
 40
0.0
 40
0.0
 40
0.0
 40
0.0
 40
21.54371801541793
 40
21.54371801541793
 40
21.54371801541793
 40
21.54371801541793
 10
-26.27183826812458
 20
-14.77582241217066
 30
0.0
 10
-39.04789564862285
 20
-14.77582241217066
 30
0.0
 10
-50.80656547918954
 20
-7.387911206086269
 30
0.0
 10
-62.56523530975621
 20
-0.0000000000018813
 30
0.0
  0
LINE
  5
47AD
330
1F
100
AcDbEntity
  8
AM_0
100
AcDbLine
 10
-84.15133418424375
 20
15.47159971393813
 30
0.0
 11
-70.00000000000373
 21
14.99803057510414
 31
0.0
  0
ARC
  5
47AE
330
1F
100
AcDbEntity
  8
AM_0
100
AcDbCircle
 10
-84.11788827839762
 20
16.4710402431254
 30
0.0
 40
1.0
100
AcDbArc
 50
208.1018421718574
 51
268.0833332999995
  0
ARC
  5
47AF
330
1F
100
AcDbEntity
  8
AM_0
100
AcDbCircle
 10
-84.11788827839762
 20
-16.47104024304944
 30
0.0
 40
1.0
100
AcDbArc
 50
91.91666670000042
 51
151.8981578281425
  0
LINE
  5
47B0
330
1F
100
AcDbEntity
  8
AM_0
100
AcDbLine
 10
-84.15133418424375
 20
-15.47159971386216
 30
0.0
 11
-70.00000000000373
 21
-14.99803057502818
 31
0.0
  0
VIEWPORT
  5
110
330
101
100
AcDbEntity
 67
     1
  8
0
100
AcDbViewport
 10
420.5
 20
297.0
 30
0.0
 40
948.9782706766916
 41
628.452
 68
     1
 69
     1
1001
ACAD
1000
MVIEW
1002
{
1070
    16
1010
0.0
1020
0.0
1030
0.0
1010
0.0
1020
0.0
1030
1.0
1040
0.0
1040
628.452
1040
420.5
1040
297.0
1040
50.0
1040
0.0
1040
0.0
1070
     0
1070
   100
1070
     1
1070
     1
1070
     0
1070
     0
1070
     0
1070
     0
1040
0.0
1040
0.0
1040
0.0
1040
10.0
1040
10.0
1040
10.0
1040
10.0
1070
     0
1002
{
1002
}
1002
}
  0
ENDSEC
  0
SECTION
  2
OBJECTS
  0
DICTIONARY
  5
C
330
0
100
AcDbDictionary
  3
ACAD_GROUP
350
D
  3
ACAD_LAYOUT
350
1A
  3
ACAD_MLINESTYLE
350
17
  3
ACAD_PLOTSETTINGS
350
19
  3
ACAD_PLOTSTYLENAME
350
E
  3
ACDBVARIABLEDICTIONARY
350
34
  3
ACMDICTIONARY
350
43
  3
AMG
350
2B
  3
AMGSNAPSETTINGS
350
6E
  3
DWGPROPS
350
47CA
  3
ACDBHEADERROUNDTRIPXREC
350
47D7
  0
DICTIONARY
  5
74
330
1F
100
AcDbDictionary
280
     1
  3
ACAD_INDEX
360
47CC
  3
ACAD_LAYOUTSELFREF
360
47FA
  0
DICTIONARY
  5
47FF
330
101
100
AcDbDictionary
280
     1
  3
ACAD_LAYOUTSELFREF
360
4800
  0
DICTIONARY
  5
D
102
{ACAD_REACTORS
330
C
102
}
330
C
100
AcDbDictionary
  0
DICTIONARY
  5
1A
102
{ACAD_REACTORS
330
C
102
}
330
C
100
AcDbDictionary
  0
DICTIONARY
  5
17
102
{ACAD_REACTORS
330
C
102
}
330
C
100
AcDbDictionary
  3
STANDARD
350
18
  0
DICTIONARY
  5
19
102
{ACAD_REACTORS
330
C
102
}
330
C
100
AcDbDictionary
  0
ACDBDICTIONARYWDFLT
  5
E
102
{ACAD_REACTORS
330
C
102
}
330
C
100
AcDbDictionary
281
     1
  3
Normal
350
F
100
AcDbDictionaryWithDefault
340
F
  0
DICTIONARY
  5
34
102
{ACAD_REACTORS
330
C
102
}
330
C
100
AcDbDictionary
  3
INDEXCTL
350
35
  3
SORTENTS
350
B5E
  0
DICTIONARY
  5
43
102
{ACAD_REACTORS
330
C
102
}
330
C
100
AcDbDictionary
  3
ACMSTDDICTIONARY
350
260
  0
DICTIONARY
  5
2B
102
{ACAD_REACTORS
330
C
102
}
330
C
100
AcDbDictionary
  3
ACMGSETTINGS
350
2C
  0
DICTIONARY
  5
6E
102
{ACAD_REACTORS
330
C
102
}
330
C
100
AcDbDictionary
  0
XRECORD
  5
47CA
102
{ACAD_REACTORS
330
C
102
}
330
C
100
AcDbXrecord
  1
DWGPROPS COOKIE
  2

  3

  4

  6

  7

  8

  9

300
AmdtFileType=82
301
=
302
=
303
=
304
=
305
=
306
=
307
=
308
=
309
=
 40
0.572488275462963
 41
2452838.620506898
 42
2452852.940482812
  1

 90
        1
  0
DICTIONARY
  5
47D7
102
{ACAD_REACTORS
330
C
102
}
330
C
100
AcDbDictionary
  3
TSTACKALIGN
350
47D8
  3
TSTACKSIZE
350
47D9
  3
HYPERLINKBASE
350
47DA
  3
STYLESHEET
350
47DB
  3
LAYOUTDICT
350
47DC
  3
PLOTSETDICT
350
47DD
  3
PLOTSTYLNAMDICT
350
47DE
  3
LWETCUNION
350
47DF
  3
INSUNITS
350
47E0
  3
CEPSNTYPE
350
47E1
  3
FINGERPRINTGUID
350
47E2
  3
VERSIONGUID
350
47E3
  3
PSVPSCALE
350
47E4
  3
DIMSTYLEDATA
350
47E5
  3
PUCSORTHOREF
350
47E6
  3
PUCSORTHOVIEW
350
47E7
  3
PUCSBASE
350
47E8
  3
PUCSORGTOP
350
47E9
  3
PUCSORGBOTTOM
350
47EA
  3
PUCSORGLEFT
350
47EB
  3
PUCSORGRIGHT
350
47EC
  3
PUCSORGFRONT
350
47ED
  3
PUCSORGBACK
350
47EE
  3
UCSORTHOREF
350
47EF
  3
UCSORTHOVIEW
350
47F0
  3
UCSBASE
350
47F1
  3
UCSORGTOP
350
47F2
  3
UCSORGBOTTOM
350
47F3
  3
UCSORGLEFT
350
47F4
  3
UCSORGRIGHT
350
47F5
  3
UCSORGFRONT
350
47F6
  3
UCSORGBACK
350
47F7
  0
DICTIONARY
  5
47CC
102
{ACAD_REACTORS
330
74
102
}
330
74
100
AcDbDictionary
  3
*A1
350
47CD
  0
XRECORD
  5
47FA
102
{ACAD_REACTORS
330
74
102
}
330
74
100
AcDbXrecord
340
1F
  0
XRECORD
  5
4800
102
{ACAD_REACTORS
330
47FF
102
}
330
47FF
100
AcDbXrecord
340
101
  0
MLINESTYLE
  5
18
102
{ACAD_REACTORS
330
17
102
}
330
17
100
AcDbMlineStyle
  2
STANDARD
 70
     0
  3

 62
   256
 51
90.0
 52
90.0
 71
     2
 49
0.5
 62
   256
  6
BYLAYER
 49
-0.5
 62
   256
  6
BYLAYER
  0
ACDBPLACEHOLDER
  5
F
102
{ACAD_REACTORS
330
E
102
}
330
E
100
AcDbPlaceHolder
280
     0
  0
DICTIONARYVAR
  5
35
102
{ACAD_REACTORS
330
34
102
}
330
34
100
DictionaryVariables
280
     0
  1
1
  0
DICTIONARYVAR
  5
B5E
102
{ACAD_REACTORS
330
34
102
}
330
34
100
DictionaryVariables
280
     0
  1
96
  0
DICTIONARY
  5
260
102
{ACAD_REACTORS
330
43
102
}
330
43
100
AcDbDictionary
  0
DICTIONARY
  5
2C
102
{ACAD_REACTORS
330
2B
102
}
330
2B
100
AcDbDictionary
  3
DWGSETTINGS
350
2D
  0
XRECORD
  5
47D8
102
{ACAD_REACTORS
330
47D7
102
}
330
47D7
100
AcDbXrecord
 90
        1
  0
XRECORD
  5
47D9
102
{ACAD_REACTORS
330
47D7
102
}
330
47D7
100
AcDbXrecord
 90
       70
  0
XRECORD
  5
47DA
102
{ACAD_REACTORS
330
47D7
102
}
330
47D7
100
AcDbXrecord
  1

  0
XRECORD
  5
47DB
102
{ACAD_REACTORS
330
47D7
102
}
330
47D7
100
AcDbXrecord
  1
ASAMI.ctb
  0
XRECORD
  5
47DC
102
{ACAD_REACTORS
330
47D7
102
}
330
47D7
100
AcDbXrecord
340
1A
  0
XRECORD
  5
47DD
102
{ACAD_REACTORS
330
47D7
102
}
330
47D7
100
AcDbXrecord
340
19
  0
XRECORD
  5
47DE
102
{ACAD_REACTORS
330
47D7
102
}
330
47D7
100
AcDbXrecord
340
E
  0
XRECORD
  5
47DF
102
{ACAD_REACTORS
330
47D7
102
}
330
47D7
100
AcDbXrecord
 90
    10781
  0
XRECORD
  5
47E0
102
{ACAD_REACTORS
330
47D7
102
}
330
47D7
100
AcDbXrecord
 90
        4
  0
XRECORD
  5
47E1
102
{ACAD_REACTORS
330
47D7
102
}
330
47D7
100
AcDbXrecord
 90
        0
  0
XRECORD
  5
47E2
102
{ACAD_REACTORS
330
47D7
102
}
330
47D7
100
AcDbXrecord
  1
{AFB28963-8C59-40AE-9337-C84526B81ACE}
  0
XRECORD
  5
47E3
102
{ACAD_REACTORS
330
47D7
102
}
330
47D7
100
AcDbXrecord
  1
{34091033-B429-4AE3-A4EC-D32B30B32FED}
  0
XRECORD
  5
47E4
102
{ACAD_REACTORS
330
47D7
102
}
330
47D7
100
AcDbXrecord
 40
0.0
  0
XRECORD
  5
47E5
102
{ACAD_REACTORS
330
47D7
102
}
330
47D7
100
AcDbXrecord
1000
DSTYLE
1002
{
1070
    79
 70
     2
1070
   341
340
59
1070
   342
340
59
1070
   371
 70
    -1
1070
   372
 70
    -1
1002
}
  0
XRECORD
  5
47E6
102
{ACAD_REACTORS
330
47D7
102
}
330
47D7
100
AcDbXrecord
340
0
  0
XRECORD
  5
47E7
102
{ACAD_REACTORS
330
47D7
102
}
330
47D7
100
AcDbXrecord
 70
     0
  0
XRECORD
  5
47E8
102
{ACAD_REACTORS
330
47D7
102
}
330
47D7
100
AcDbXrecord
340
0
  0
XRECORD
  5
47E9
102
{ACAD_REACTORS
330
47D7
102
}
330
47D7
100
AcDbXrecord
 10
0.0
 20
0.0
 30
0.0
  0
XRECORD
  5
47EA
102
{ACAD_REACTORS
330
47D7
102
}
330
47D7
100
AcDbXrecord
 10
0.0
 20
0.0
 30
0.0
  0
XRECORD
  5
47EB
102
{ACAD_REACTORS
330
47D7
102
}
330
47D7
100
AcDbXrecord
 10
0.0
 20
0.0
 30
0.0
  0
XRECORD
  5
47EC
102
{ACAD_REACTORS
330
47D7
102
}
330
47D7
100
AcDbXrecord
 10
0.0
 20
0.0
 30
0.0
  0
XRECORD
  5
47ED
102
{ACAD_REACTORS
330
47D7
102
}
330
47D7
100
AcDbXrecord
 10
0.0
 20
0.0
 30
0.0
  0
XRECORD
  5
47EE
102
{ACAD_REACTORS
330
47D7
102
}
330
47D7
100
AcDbXrecord
 10
0.0
 20
0.0
 30
0.0
  0
XRECORD
  5
47EF
102
{ACAD_REACTORS
330
47D7
102
}
330
47D7
100
AcDbXrecord
340
0
  0
XRECORD
  5
47F0
102
{ACAD_REACTORS
330
47D7
102
}
330
47D7
100
AcDbXrecord
 70
     0
  0
XRECORD
  5
47F1
102
{ACAD_REACTORS
330
47D7
102
}
330
47D7
100
AcDbXrecord
340
0
  0
XRECORD
  5
47F2
102
{ACAD_REACTORS
330
47D7
102
}
330
47D7
100
AcDbXrecord
 10
0.0
 20
0.0
 30
0.0
  0
XRECORD
  5
47F3
102
{ACAD_REACTORS
330
47D7
102
}
330
47D7
100
AcDbXrecord
 10
0.0
 20
0.0
 30
0.0
  0
XRECORD
  5
47F4
102
{ACAD_REACTORS
330
47D7
102
}
330
47D7
100
AcDbXrecord
 10
0.0
 20
0.0
 30
0.0
  0
XRECORD
  5
47F5
102
{ACAD_REACTORS
330
47D7
102
}
330
47D7
100
AcDbXrecord
 10
0.0
 20
0.0
 30
0.0
  0
XRECORD
  5
47F6
102
{ACAD_REACTORS
330
47D7
102
}
330
47D7
100
AcDbXrecord
 10
0.0
 20
0.0
 30
0.0
  0
XRECORD
  5
47F7
102
{ACAD_REACTORS
330
47D7
102
}
330
47D7
100
AcDbXrecord
 10
0.0
 20
0.0
 30
0.0
  0
LAYER_INDEX
  5
47CD
102
{ACAD_REACTORS
330
47CC
102
}
330
47CC
100
AcDbIndex
 40
2453151.885336921
100
AcDbLayerIndex
  8
0
360
47CE
 90
        8
  8
AM_0
360
47CF
 90
      142
  8
AM_11
360
47D0
 90
        0
  8
AM_7
360
47D1
 90
        1
  8
AM_5
360
47D2
 90
        5
  8
Defpoints
360
47D3
 90
        0
  8
AM_6
360
47D4
 90
        1
  8
AM_CL
360
47D5
 90
        0
  0
XRECORD
  5
2D
102
{ACAD_REACTORS
330
2C
102
}
330
2C
100
AcDbXrecord
  1
VERSION
140
15.0
  1
PRODUCT
  2
AutoCAD Mechanical 2000
  0
IDBUFFER
  5
47CE
330
0
100
AcDbIdBuffer
330
4733
330
475E
330
4760
330
476A
330
476C
330
4774
330
4775
330
4790
  0
IDBUFFER
  5
47CF
330
0
100
AcDbIdBuffer
330
4767
330
4768
330
4769
330
476B
330
476D
330
476E
330
476F
330
4770
330
4771
330
4772
330
4773
330
4776
330
4777
330
4778
330
4779
330
477A
330
477B
330
477C
330
477D
330
478B
330
478C
330
478D
330
478E
330
478F
330
4791
330
4792
330
47AD
330
47AE
330
47AF
330
47B0
330
430C
330
430E
330
430F
330
4310
330
4311
330
4314
330
4316
330
46EE
330
46EF
330
46F0
330
46F1
330
46F2
330
46F3
330
46F4
330
46F5
330
46F6
330
46F7
330
46F8
330
46F9
330
46FA
330
46FB
330
46FC
330
46FD
330
46FE
330
46FF
330
4700
330
4701
330
4702
330
4703
330
4704
330
4705
330
4706
330
4707
330
4708
330
4709
330
470A
330
470B
330
470C
330
470D
330
470E
330
470F
330
4710
330
4711
330
4712
330
4713
330
4714
330
4715
330
4716
330
4717
330
4718
330
4719
330
471A
330
471B
330
471C
330
471D
330
471E
330
471F
330
4720
330
4721
330
4722
330
4723
330
4724
330
4725
330
4726
330
4727
330
4728
330
4729
330
472A
330
472B
330
472C
330
472D
330
472E
330
472F
330
4730
330
4731
330
4732
330
4734
330
4735
330
4736
330
4737
330
4738
330
4739
330
473A
330
473B
330
473C
330
473D
330
473E
330
473F
330
4740
330
4741
330
4742
330
4750
330
4751
330
4752
330
4753
330
4754
330
4755
330
4756
330
4757
330
4758
330
4759
330
475A
330
475B
330
475C
330
475D
330
475F
330
4761
330
4762
330
4763
330
4764
330
4765
330
4766
  0
IDBUFFER
  5
47D0
330
0
100
AcDbIdBuffer
  0
IDBUFFER
  5
47D1
330
0
100
AcDbIdBuffer
330
2A1C
  0
IDBUFFER
  5
47D2
330
0
100
AcDbIdBuffer
330
430D
330
4312
330
4410
330
4743
330
477E
  0
IDBUFFER
  5
47D3
330
0
100
AcDbIdBuffer
  0
IDBUFFER
  5
47D4
330
0
100
AcDbIdBuffer
330
C58
  0
IDBUFFER
  5
47D5
330
0
100
AcDbIdBuffer
  0
ENDSEC
  0
EOF
