  0
SECTION
  2
HEADER
  9
$ACADVER
  1
AC1014
  9
$ACADMAINTVER
 70
     9
  9
$DWGCODEPAGE
  3
ANSI_932
  9
$INSBASE
 10
0.0
 20
0.0
 30
0.0
  9
$EXTMIN
 10
-198.7000000000067
 20
-70.37593605994631
 30
-0.00000001
  9
$EXTMAX
 10
15.0000000000014
 20
18.96319139042707
 30
0.00000001
  9
$LIMMIN
 10
-223.0385313648798
 20
-102.2736011477003
  9
$LIMMAX
 10
43.94106346701869
 20
45.97201945664198
  9
$ORTHOMODE
 70
     0
  9
$REGENMODE
 70
     1
  9
$FILLMODE
 70
     1
  9
$QTEXTMODE
 70
     0
  9
$MIRRTEXT
 70
     0
  9
$DRAGMODE
 70
     2
  9
$LTSCALE
 40
0.3
  9
$OSMODE
 70
    55
  9
$ATTMODE
 70
     1
  9
$TEXTSIZE
 40
2.5
  9
$TRACEWID
 40
1.0
  9
$TEXTSTYLE
  7
STANDARD
  9
$CLAYER
  8
AM_0
  9
$CELTYPE
  6
BYLAYER
  9
$CECOLOR
 62
   256
  9
$CELTSCALE
 40
1.0
  9
$DELOBJ
 70
     1
  9
$DISPSILH
 70
     0
  9
$DIMSCALE
 40
1.0
  9
$DIMASZ
 40
2.5
  9
$DIMEXO
 40
1.0
  9
$DIMDLI
 40
12.0
  9
$DIMRND
 40
0.0
  9
$DIMDLE
 40
0.0
  9
$DIMEXE
 40
1.0
  9
$DIMTP
 40
0.1
  9
$DIMTM
 40
0.1
  9
$DIMTXT
 40
3.2
  9
$DIMCEN
 40
0.0
  9
$DIMTSZ
 40
0.0
  9
$DIMTOL
 70
     0
  9
$DIMLIM
 70
     0
  9
$DIMTIH
 70
     0
  9
$DIMTOH
 70
     0
  9
$DIMSE1
 70
     0
  9
$DIMSE2
 70
     0
  9
$DIMTAD
 70
     3
  9
$DIMZIN
 70
     8
  9
$DIMBLK
  1
OPEN30
  9
$DIMASO
 70
     1
  9
$DIMSHO
 70
     1
  9
$DIMPOST
  1

  9
$DIMAPOST
  1
"
  9
$DIMALT
 70
     0
  9
$DIMALTD
 70
     2
  9
$DIMALTF
 40
0.0393701
  9
$DIMLFAC
 40
1.0
  9
$DIMTOFL
 70
     1
  9
$DIMTVP
 40
0.0
  9
$DIMTIX
 70
     0
  9
$DIMSOXD
 70
     0
  9
$DIMSAH
 70
     0
  9
$DIMBLK1
  1

  9
$DIMBLK2
  1

  9
$DIMSTYLE
  2
AM_JIS
  9
$DIMCLRD
 70
   256
  9
$DIMCLRE
 70
   256
  9
$DIMCLRT
 70
     2
  9
$DIMTFAC
 40
0.71
  9
$DIMGAP
 40
1.5
  9
$DIMJUST
 70
     0
  9
$DIMSD1
 70
     0
  9
$DIMSD2
 70
     0
  9
$DIMTOLJ
 70
     0
  9
$DIMTZIN
 70
     0
  9
$DIMALTZ
 70
     0
  9
$DIMALTTZ
 70
     0
  9
$DIMFIT
 70
     3
  9
$DIMUPT
 70
     0
  9
$DIMUNIT
 70
     2
  9
$DIMDEC
 70
     3
  9
$DIMTDEC
 70
     3
  9
$DIMALTU
 70
     2
  9
$DIMALTTD
 70
     2
  9
$DIMTXSTY
  7
ASAMI
  9
$DIMAUNIT
 70
     0
  9
$LUNITS
 70
     2
  9
$LUPREC
 70
     2
  9
$SKETCHINC
 40
1.0
  9
$FILLETRAD
 40
0.5
  9
$AUNITS
 70
     0
  9
$AUPREC
 70
     0
  9
$MENU
  1
.
  9
$ELEVATION
 40
0.0
  9
$PELEVATION
 40
0.0
  9
$THICKNESS
 40
0.0
  9
$LIMCHECK
 70
     0
  9
$BLIPMODE
 70
     0
  9
$CHAMFERA
 40
2.5
  9
$CHAMFERB
 40
2.5
  9
$CHAMFERC
 40
20.0
  9
$CHAMFERD
 40
0.0
  9
$SKPOLY
 70
     0
  9
$TDCREATE
 40
2452838.620506898
  9
$TDUPDATE
 40
2453151.885623923
  9
$TDINDWG
 40
0.5866703704
  9
$TDUSRTIMER
 40
0.5866703704
  9
$USRTIMER
 70
     1
  9
$ANGBASE
 50
0.0
  9
$ANGDIR
 70
     0
  9
$PDMODE
 70
     0
  9
$PDSIZE
 40
0.0
  9
$PLINEWID
 40
0.0
  9
$COORDS
 70
     1
  9
$SPLFRAME
 70
     0
  9
$SPLINETYPE
 70
     6
  9
$SPLINESEGS
 70
     8
  9
$ATTDIA
 70
     1
  9
$ATTREQ
 70
     1
  9
$HANDLING
 70
 12289
  9
$HANDSEED
  5
4B35
  9
$SURFTAB1
 70
     6
  9
$SURFTAB2
 70
     6
  9
$SURFTYPE
 70
     6
  9
$SURFU
 70
     6
  9
$SURFV
 70
     6
  9
$UCSNAME
  2

  9
$UCSORG
 10
-0.0000000000047788
 20
0.0000000000391898
 30
0.0
  9
$UCSXDIR
 10
1.0
 20
0.0
 30
0.0
  9
$UCSYDIR
 10
0.0
 20
1.0
 30
0.0
  9
$PUCSNAME
  2

  9
$PUCSORG
 10
0.0
 20
0.0
 30
0.0
  9
$PUCSXDIR
 10
1.0
 20
0.0
 30
0.0
  9
$PUCSYDIR
 10
0.0
 20
1.0
 30
0.0
  9
$USERI1
 70
     0
  9
$USERI2
 70
     0
  9
$USERI3
 70
     0
  9
$USERI4
 70
     0
  9
$USERI5
 70
     0
  9
$USERR1
 40
0.0
  9
$USERR2
 40
0.0
  9
$USERR3
 40
0.0
  9
$USERR4
 40
0.0
  9
$USERR5
 40
0.0
  9
$WORLDVIEW
 70
     1
  9
$SHADEDGE
 70
     3
  9
$SHADEDIF
 70
    70
  9
$TILEMODE
 70
     1
  9
$MAXACTVP
 70
    64
  9
$PINSBASE
 10
0.0
 20
0.0
 30
0.0
  9
$PLIMCHECK
 70
     0
  9
$PEXTMIN
 10
1.000000000000000E+20
 20
1.000000000000000E+20
 30
1.000000000000000E+20
  9
$PEXTMAX
 10
-1.000000000000000E+20
 20
-1.000000000000000E+20
 30
-1.000000000000000E+20
  9
$PLIMMIN
 10
0.0
 20
0.0
  9
$PLIMMAX
 10
841.0
 20
594.0
  9
$UNITMODE
 70
     0
  9
$VISRETAIN
 70
     1
  9
$PLINEGEN
 70
     0
  9
$PSLTSCALE
 70
     0
  9
$TREEDEPTH
 70
  3020
  9
$PICKSTYLE
 70
     0
  9
$CMLSTYLE
  2
STANDARD
  9
$CMLJUST
 70
     0
  9
$CMLSCALE
 40
20.0
  9
$PROXYGRAPHICS
 70
     1
  9
$MEASUREMENT
 70
     1
  0
ENDSEC
  0
SECTION
  2
CLASSES
  0
CLASS
  1
ACDBDICTIONARYWDFLT
  2
AcDbDictionaryWithDefault
  3
AutoCAD 2000
 90
        0
280
     0
281
     0
  0
CLASS
  1
ACDBPLACEHOLDER
  2
AcDbPlaceHolder
  3
AutoCAD 2000
 90
        0
280
     0
281
     0
  0
CLASS
  1
LAYOUT
  2
AcDbLayout
  3
AutoCAD 2000
 90
        0
280
     0
281
     0
  0
CLASS
  1
AMGSETTINGSOBJ
  2
AmgSettingsObj
  3
"AcadM|Product Description: AutoCAD Mechanical 2000|Company: Autodesk"
 90
        0
280
     0
281
     0
  0
CLASS
  1
ACME_DOCUMENT
  2
AcMeDbDoc
  3
AcMeServices
 90
        0
280
     0
281
     0
  0
CLASS
  1
ACMESCOPE
  2
AcMeScope
  3
AcMeServices
 90
        0
280
     0
281
     0
  0
CLASS
  1
ACMECOMMANDHISTORY
  2
AcMeCommandHistory
  3
AcMeServices
 90
        0
280
     0
281
     0
  0
CLASS
  1
DICTIONARYVAR
  2
AcDbDictionaryVar
  3
AutoCAD 2000
 90
        0
280
     0
281
     0
  0
CLASS
  1
ACIMSYSVARMAN
  2
AcImSysVarManager
  3
AcMeServices
 90
        0
280
     0
281
     0
  0
CLASS
  1
ACIMREALSYSVAR
  2
AcImRealSysVar
  3
AcMeServices
 90
        0
280
     0
281
     0
  0
CLASS
  1
ACIMINTSYSVAR
  2
AcImIntSysVar
  3
AcMeServices
 90
        0
280
     0
281
     0
  0
CLASS
  1
ACMEDRAWINGMAN
  2
AcMeDrawingMan
  3
AcMeServices
 90
        0
280
     0
281
     0
  0
CLASS
  1
ACMEVIEW
  2
AcMeView
  3
AcMeServices
 90
        0
280
     0
281
     0
  0
CLASS
  1
ACDBENTITYCACHE
  2
AcMeEntityCache
  3
AcMeServices
 90
        0
280
     0
281
     0
  0
CLASS
  1
GSMANAGER
  2
AcMeGSManager
  3
AcMeServices
 90
        0
280
     0
281
     0
  0
CLASS
  1
AmdtInternalReactor
  2
AmdtInternalReactor
  3
AcMeServices
 90
        0
280
     0
281
     0
  0
CLASS
  1
ACMESTATEMGR
  2
AcMeStateMgr
  3
AcMeServices
 90
        0
280
     0
281
     0
  0
CLASS
  1
ACME_DATABASE
  2
AcMeDbDatabase
  3
AcMeServices
 90
        0
280
     0
281
     0
  0
CLASS
  1
ACRFINSADJUSTERMGR
  2
AcRfInsAdjusterMgr
  3
AcMeServices
 90
        0
280
     0
281
     0
  0
CLASS
  1
ACMDATADICTIONARY
  2
AcmDataDictionary
  3
"AcmSymBB|Product Description: AutoCAD Mechanical 2000|Company: Autodesk"
 90
        0
280
     0
281
     0
  0
CLASS
  1
ACMDATAENTRYBLOCK
  2
AcmDataEntryBlock
  3
"AcmSymBB|Product Description: AutoCAD Mechanical 2000|Company: Autodesk"
 90
        0
280
     0
281
     0
  0
CLASS
  1
AMGOBJPROPCFG
  2
AmgObjPropCfg
  3
"AmgLay|Product Description: AutoCAD Mechanical 2000|Company: Autodesk"
 90
        1
280
     0
281
     0
  0
CLASS
  1
ACAMGFILTERDAT
  2
AcAmgFilterDat
  3
"AcadM|Product Description: AutoCAD Mechanical 2000|Company: Autodesk"
 90
        0
280
     0
281
     0
  0
CLASS
  1
LAYER_INDEX
  2
AcDbLayerIndex
  3
AutoCAD 2000
 90
        0
280
     0
281
     0
  0
CLASS
  1
IDBUFFER
  2
AcDbIdBuffer
  3
AutoCAD 2000
 90
        0
280
     0
281
     0
  0
CLASS
  1
ACIMSTRSYSVAR
  2
AcImStrSysVar
  3
AcMeServices
 90
        0
280
     0
281
     0
  0
CLASS
  1
ACMSTANDARDJIS
  2
AcmStandardJIS
  3
"AcmSymBB|Product Description: AutoCAD Mechanical 2000|Company: Autodesk"
 90
        0
280
     0
281
     0
  0
CLASS
  1
ACMSURFSTANDARDJIS
  2
AcmSurfTextStdJIS
  3
"AcmSymBB|Product Description: AutoCAD Mechanical 2000|Company: Autodesk"
 90
        0
280
     0
281
     0
  0
CLASS
  1
ACMFCFSTANDARDJIS
  2
AcmFCFStdJIS
  3
"AcmSymBB|Product Description: AutoCAD Mechanical 2000|Company: Autodesk"
 90
        0
280
     0
281
     0
  0
CLASS
  1
ACMWELDSTANDARDJIS
  2
AcmWeldingStdJIS
  3
"AcmSymBB|Product Description: AutoCAD Mechanical 2000|Company: Autodesk"
 90
        0
280
     0
281
     0
  0
CLASS
  1
ACMIDSTANDARDJIS
  2
AcmIdStdJIS
  3
"AcmSymBB|Product Description: AutoCAD Mechanical 2000|Company: Autodesk"
 90
        0
280
     0
281
     0
  0
CLASS
  1
ACMDATUMSTANDARDJIS
  2
AcmDatumStdJIS
  3
"AcmSymBB|Product Description: AutoCAD Mechanical 2000|Company: Autodesk"
 90
        0
280
     0
281
     0
  0
CLASS
  1
ACMBOMSTANDARDJIS
  2
AcmBOMStdJIS
  3
"AcmSymBB|Product Description: AutoCAD Mechanical 2000|Company: Autodesk"
 90
        0
280
     0
281
     0
  0
CLASS
  1
ACMSTANDARDANSI
  2
AcmStandardANSI
  3
"AcmSymBB|Product Description: AutoCAD Mechanical 2000|Company: Autodesk"
 90
        0
280
     0
281
     0
  0
CLASS
  1
ACMSURFSTANDARDANSI
  2
AcmSurfTextStdANSI
  3
"AcmSymBB|Product Description: AutoCAD Mechanical 2000|Company: Autodesk"
 90
        0
280
     0
281
     0
  0
CLASS
  1
ACMFCFSTANDARDANSI
  2
AcmFCFStdANSI
  3
"AcmSymBB|Product Description: AutoCAD Mechanical 2000|Company: Autodesk"
 90
        0
280
     0
281
     0
  0
CLASS
  1
ACMWELDSTANDARDANSI
  2
AcmWeldingStdANSI
  3
"AcmSymBB|Product Description: AutoCAD Mechanical 2000|Company: Autodesk"
 90
        0
280
     0
281
     0
  0
CLASS
  1
ACMIDSTANDARDANSI
  2
AcmIdStdANSI
  3
"AcmSymBB|Product Description: AutoCAD Mechanical 2000|Company: Autodesk"
 90
        0
280
     0
281
     0
  0
CLASS
  1
ACMDATUMSTANDARDANSI
  2
AcmDatumStdANSI
  3
"AcmSymBB|Product Description: AutoCAD Mechanical 2000|Company: Autodesk"
 90
        0
280
     0
281
     0
  0
CLASS
  1
ACMBOMSTANDARDANSI
  2
AcmBOMStdANSI
  3
"AcmSymBB|Product Description: AutoCAD Mechanical 2000|Company: Autodesk"
 90
        0
280
     0
281
     0
  0
CLASS
  1
ACMSTANDARDBSI
  2
AcmStandardBSI
  3
"AcmSymBB|Product Description: AutoCAD Mechanical 2000|Company: Autodesk"
 90
        0
280
     0
281
     0
  0
CLASS
  1
ACMSURFSTANDARDBSI
  2
AcmSurfTextStdBSI
  3
"AcmSymBB|Product Description: AutoCAD Mechanical 2000|Company: Autodesk"
 90
        0
280
     0
281
     0
  0
CLASS
  1
ACMFCFSTANDARDBSI
  2
AcmFCFStdBSI
  3
"AcmSymBB|Product Description: AutoCAD Mechanical 2000|Company: Autodesk"
 90
        0
280
     0
281
     0
  0
CLASS
  1
ACMWELDSTANDARDBSI
  2
AcmWeldingStdBSI
  3
"AcmSymBB|Product Description: AutoCAD Mechanical 2000|Company: Autodesk"
 90
        0
280
     0
281
     0
  0
CLASS
  1
ACMIDSTANDARDBSI
  2
AcmIdStdBSI
  3
"AcmSymBB|Product Description: AutoCAD Mechanical 2000|Company: Autodesk"
 90
        0
280
     0
281
     0
  0
CLASS
  1
ACMDATUMSTANDARDBSI
  2
AcmDatumStdBSI
  3
"AcmSymBB|Product Description: AutoCAD Mechanical 2000|Company: Autodesk"
 90
        0
280
     0
281
     0
  0
CLASS
  1
ACMBOMSTANDARDBSI
  2
AcmBOMStdBSI
  3
"AcmSymBB|Product Description: AutoCAD Mechanical 2000|Company: Autodesk"
 90
        0
280
     0
281
     0
  0
CLASS
  1
LONG_TRANSACTION
  2
AcDbLongTransaction
  3
AutoCAD 2000
 90
        0
280
     0
281
     0
  0
CLASS
  1
LWPOLYLINE
  2
AcDbPolyline
  3
AutoCAD 2000
 90
        0
280
     0
281
     1
  0
CLASS
  1
HATCH
  2
AcDbHatch
  3
AutoCAD 2000
 90
        0
280
     0
281
     1
  0
CLASS
  1
XRECORD
  2
AcDbXrecord
  3
AutoCAD 2000
 90
        0
280
     0
281
     0
  0
ENDSEC
  0
SECTION
  2
TABLES
  0
TABLE
  2
VPORT
  5
8
330
0
100
AcDbSymbolTable
 70
     3
  0
VPORT
  5
4B0A
330
8
100
AcDbSymbolTableRecord
100
AcDbViewportTableRecord
  2
*ACTIVE
 70
     0
 10
0.0
 20
0.0
 11
1.0
 21
1.0
 12
-91.84350737708838
 22
-25.69401501414643
 13
0.0
 23
0.0
 14
2.5
 24
2.5
 15
10.0
 25
10.0
 16
0.0
 26
0.0
 36
1.0
 17
0.0
 27
0.0
 37
0.0
 40
137.0584003219207
 41
1.56570841889117
 42
50.0
 43
0.0
 44
0.0
 50
0.0
 51
0.0
 71
     0
 72
   100
 73
     1
 74
     3
 75
     0
 76
     0
 77
     0
 78
     0
  0
ENDTAB
  0
TABLE
  2
LTYPE
  5
5
330
0
100
AcDbSymbolTable
 70
    10
  0
LTYPE
  5
14
330
5
100
AcDbSymbolTableRecord
100
AcDbLinetypeTableRecord
  2
BYBLOCK
 70
     0
  3

 72
    65
 73
     0
 40
0.0
  0
LTYPE
  5
15
330
5
100
AcDbSymbolTableRecord
100
AcDbLinetypeTableRecord
  2
BYLAYER
 70
     0
  3

 72
    65
 73
     0
 40
0.0
  0
LTYPE
  5
16
330
5
100
AcDbSymbolTableRecord
100
AcDbLinetypeTableRecord
  2
CONTINUOUS
 70
     0
  3
Solid line
 72
    65
 73
     0
 40
0.0
  0
LTYPE
  5
4B
330
5
100
AcDbSymbolTableRecord
100
AcDbLinetypeTableRecord
  2
AM_ISO02W050
 70
     0
  3
__ __ __ __ __ __ __ __ __ __ __ __ __ __ __
 72
    65
 73
     2
 40
7.5
 49
6.0
 74
     0
 49
-1.5
 74
     0
  0
LTYPE
  5
4C
330
5
100
AcDbSymbolTableRecord
100
AcDbLinetypeTableRecord
  2
AM_ISO08W050
 70
     0
  3
____ . ____ . ____ . ____ . ____ . ____ . ____
 72
    65
 73
     4
 40
18.0
 49
12.0
 74
     0
 49
-1.5
 74
     0
 49
3.0
 74
     0
 49
-1.5
 74
     0
  0
LTYPE
  5
4D
330
5
100
AcDbSymbolTableRecord
100
AcDbLinetypeTableRecord
  2
AM_ISO09W050
 70
     0
  3
_____ . . _____ . . _____ . . ____ .. ____
 72
    65
 73
     6
 40
22.5
 49
12.0
 74
     0
 49
-1.5
 74
     0
 49
3.0
 74
     0
 49
-1.5
 74
     0
 49
3.0
 74
     0
 49
-1.5
 74
     0
  0
LTYPE
  5
4E
330
5
100
AcDbSymbolTableRecord
100
AcDbLinetypeTableRecord
  2
AMCONSTR
 70
     0
  3
_______________________
 72
    65
 73
     2
 40
9999.0
 49
9999.0
 74
     0
 49
0.0
 74
     0
  0
LTYPE
  5
4F
330
5
100
AcDbSymbolTableRecord
100
AcDbLinetypeTableRecord
  2
AM_ISO02W050X2
 70
     0
  3
 _ _ _ _ _ _ _ _ _ _ _ _
 72
    65
 73
     2
 40
3.75
 49
3.0
 74
     0
 49
-0.75
 74
     0
  0
LTYPE
  5
50
330
5
100
AcDbSymbolTableRecord
100
AcDbLinetypeTableRecord
  2
AM_ISO08W050X2
 70
     0
  3
__ . __ . __ . __ . __ . __
 72
    65
 73
     4
 40
9.0
 49
6.0
 74
     0
 49
-0.75
 74
     0
 49
1.5
 74
     0
 49
-0.75
 74
     0
  0
LTYPE
  5
53
330
5
100
AcDbSymbolTableRecord
100
AcDbLinetypeTableRecord
  2
AMZIGZAG
 70
     0
  3
/\/-/\/-/\/-/\/-/\/-/\/
 72
    65
 73
     2
 40
11.00009999999999
 49
0.0001
 74
     4
 75
   135
340
52
 46
0.04
 50
0.0
 44
0.0
 45
0.0
 49
-11.0
 74
     0
  0
LTYPE
  5
166
330
5
100
AcDbSymbolTableRecord
100
AcDbLinetypeTableRecord
  2
ACJISTGL
 70
     0
  3
_ _ _ _ _
 72
    65
 73
     2
 40
3.0
 49
2.0
 74
     0
 49
-1.0
 74
     0
  0
LTYPE
  5
26A
330
5
100
AcDbSymbolTableRecord
100
AcDbLinetypeTableRecord
  2
ACJISTGB
 70
     0
  3
__ . . __ . .
 72
    65
 73
     6
 40
9.0
 49
4.0
 74
     0
 49
-1.0
 74
     0
 49
1.0
 74
     0
 49
-1.0
 74
     0
 49
1.0
 74
     0
 49
-1.0
 74
     0
  0
ENDTAB
  0
TABLE
  2
LAYER
  5
2
330
0
100
AcDbSymbolTable
 70
     8
  0
LAYER
  5
10
330
2
100
AcDbSymbolTableRecord
100
AcDbLayerTableRecord
  2
0
 70
     0
 62
     7
  6
CONTINUOUS
  0
LAYER
  5
3F9
330
2
100
AcDbSymbolTableRecord
100
AcDbLayerTableRecord
  2
AM_0
 70
     0
 62
     7
  6
CONTINUOUS
  0
LAYER
  5
BD6
330
2
100
AcDbSymbolTableRecord
100
AcDbLayerTableRecord
  2
AM_11
 70
     0
 62
     3
  6
AM_ISO09W050
  0
LAYER
  5
BD7
330
2
100
AcDbSymbolTableRecord
100
AcDbLayerTableRecord
  2
AM_7
 70
     0
 62
     4
  6
AM_ISO08W050
  0
LAYER
  5
BD8
330
2
100
AcDbSymbolTableRecord
100
AcDbLayerTableRecord
  2
AM_5
 70
     0
 62
     3
  6
CONTINUOUS
  0
LAYER
  5
BD9
330
2
100
AcDbSymbolTableRecord
100
AcDbLayerTableRecord
  2
DEFPOINTS
 70
     0
 62
     7
  6
CONTINUOUS
  0
LAYER
  5
BDA
330
2
100
AcDbSymbolTableRecord
100
AcDbLayerTableRecord
  2
AM_6
 70
     0
 62
     2
  6
CONTINUOUS
  0
LAYER
  5
2398
330
2
100
AcDbSymbolTableRecord
100
AcDbLayerTableRecord
  2
AM_CL
 70
     0
 62
     1
  6
AMCONSTR
  0
ENDTAB
  0
TABLE
  2
STYLE
  5
3
330
0
100
AcDbSymbolTable
 70
     5
  0
STYLE
  5
11
330
3
100
AcDbSymbolTableRecord
100
AcDbTextStyleTableRecord
  2
STANDARD
 70
     0
 40
0.0
 41
1.0
 50
0.0
 71
     0
 42
2.5
  3
simplex.shx
  4
EXTFONT.SHX
  0
STYLE
  5
52
330
3
100
AcDbSymbolTableRecord
100
AcDbTextStyleTableRecord
  2

 70
     1
 40
0.0
 41
1.0
 50
0.0
 71
     0
 42
2.5
  3
ltypeshp.shx
  4

  0
STYLE
  5
6B
330
3
100
AcDbSymbolTableRecord
100
AcDbTextStyleTableRecord
  2
ASAMI
 70
     0
 40
0.0
 41
1.0
 50
0.0
 71
     0
 42
2.5
  3
simplex.shx
  4
EXTFONT.SHX
  0
STYLE
  5
262
330
3
100
AcDbSymbolTableRecord
100
AcDbTextStyleTableRecord
  2
ACJISTS
 70
     0
 40
1.0
 41
1.0
 50
0.0
 71
     0
 42
2.5
  3
simplex.shx
  4
bigfont.shx
  0
STYLE
  5
269
330
3
100
AcDbSymbolTableRecord
100
AcDbTextStyleTableRecord
  2
ACJISGDT
 70
     0
 40
0.0
 41
1.0
 50
0.0
 71
     0
 42
2.5
  3
amgdtans.shx
  4

  0
ENDTAB
  0
TABLE
  2
VIEW
  5
6
330
0
100
AcDbSymbolTable
 70
     0
  0
ENDTAB
  0
TABLE
  2
UCS
  5
7
330
0
100
AcDbSymbolTable
 70
     0
  0
ENDTAB
  0
TABLE
  2
APPID
  5
9
330
0
100
AcDbSymbolTable
 70
    14
  0
APPID
  5
12
330
9
100
AcDbSymbolTableRecord
100
AcDbRegAppTableRecord
  2
ACAD
 70
     0
  0
APPID
  5
30
330
9
100
AcDbSymbolTableRecord
100
AcDbRegAppTableRecord
  2
MCAD_NO_VIS
 70
     0
  0
APPID
  5
31
330
9
100
AcDbSymbolTableRecord
100
AcDbRegAppTableRecord
  2
ACAD_TEMP_GRAPHIC
 70
     0
  0
APPID
  5
2C2
330
9
100
AcDbSymbolTableRecord
100
AcDbRegAppTableRecord
  2
GENIUS_GENDTOL_13
 70
     0
  0
APPID
  5
339
330
9
100
AcDbSymbolTableRecord
100
AcDbRegAppTableRecord
  2
GENIUS_GENODEF_13
 70
     0
  0
APPID
  5
33A
330
9
100
AcDbSymbolTableRecord
100
AcDbRegAppTableRecord
  2
GENIUS_GENOBJ-N-RSBK_13
 70
     0
  0
APPID
  5
33B
330
9
100
AcDbSymbolTableRecord
100
AcDbRegAppTableRecord
  2
GENIUS_GENOBJ-N-LIB_13
 70
     0
  0
APPID
  5
33C
330
9
100
AcDbSymbolTableRecord
100
AcDbRegAppTableRecord
  2
GENIUS_GENSCALE_13
 70
     0
  0
APPID
  5
378
330
9
100
AcDbSymbolTableRecord
100
AcDbRegAppTableRecord
  2
GENIUS_GENDIMSH_14
 70
     0
  0
APPID
  5
BDB
330
9
100
AcDbSymbolTableRecord
100
AcDbRegAppTableRecord
  2
GENIUS_GENOBJ-N-CEN_13
 70
     0
  0
APPID
  5
BDC
330
9
100
AcDbSymbolTableRecord
100
AcDbRegAppTableRecord
  2
GENIUS_GENFIL_13
 70
     0
  0
APPID
  5
BDD
330
9
100
AcDbSymbolTableRecord
100
AcDbRegAppTableRecord
  2
GENIUS_GENOBJ-N-FIL_13
 70
     0
  0
APPID
  5
12AD
330
9
100
AcDbSymbolTableRecord
100
AcDbRegAppTableRecord
  2
GENIUS_GENOREF_13
 70
     0
  0
APPID
  5
28FE
330
9
100
AcDbSymbolTableRecord
100
AcDbRegAppTableRecord
  2
GENIUS_GENOBJ-N-CHA_13
 70
     0
  0
ENDTAB
  0
TABLE
  2
DIMSTYLE
  5
A
330
0
100
AcDbSymbolTable
 70
     8
  0
DIMSTYLE
105
58
102
{ACAD_REACTORS
330
4811
330
4812
330
4918
330
497A
330
49BA
102
}
330
A
100
AcDbSymbolTableRecord
100
AcDbDimStyleTableRecord
  2
AM_JIS
 70
     0
  3

  4
"
  5
OPEN30
  6

  7

 40
1.0
 41
2.5
 42
1.0
 43
12.0
 44
1.0
 45
0.0
 46
0.0
 47
0.1
 48
0.1
140
3.2
141
0.0
142
0.0
143
0.0393701
144
1.0
145
0.0
146
0.71
147
1.5
 71
     0
 72
     0
 73
     0
 74
     0
 75
     0
 76
     0
 77
     3
 78
     8
170
     0
171
     2
172
     1
173
     0
174
     0
175
     0
176
   256
177
   256
178
     2
270
     2
271
     3
272
     3
273
     2
274
     2
340
6B
275
     0
280
     0
281
     0
282
     0
283
     0
284
     0
285
     0
286
     0
287
     3
288
     0
  0
DIMSTYLE
105
5F
330
A
100
AcDbSymbolTableRecord
100
AcDbDimStyleTableRecord
  2
AM_JIS$3
 70
     0
  3

  4
"
  5
OPEN30
  6

  7

 40
1.0
 41
2.5
 42
1.0
 43
10.0
 44
1.0
 45
0.0
 46
0.0
 47
0.1
 48
0.1
140
3.2
141
0.0
142
0.0
143
0.0393701
144
1.0
145
0.0
146
0.71
147
1.5
 71
     0
 72
     0
 73
     0
 74
     1
 75
     0
 76
     0
 77
     3
 78
     8
170
     0
171
     2
172
     0
173
     0
174
     0
175
     0
176
   256
177
   256
178
     2
270
     2
271
     2
272
     3
273
     2
274
     2
340
6B
275
     0
280
     0
281
     0
282
     0
283
     0
284
     0
285
     0
286
     0
287
     0
288
     1
  0
DIMSTYLE
105
60
330
A
100
AcDbSymbolTableRecord
100
AcDbDimStyleTableRecord
  2
AM_JIS$4
 70
     0
  3

  4
"
  5
OPEN30
  6

  7

 40
1.0
 41
2.5
 42
1.0
 43
10.0
 44
1.0
 45
0.0
 46
0.0
 47
0.1
 48
0.1
140
3.2
141
0.0
142
0.0
143
0.0393701
144
1.0
145
0.0
146
0.71
147
1.5
 71
     0
 72
     0
 73
     0
 74
     1
 75
     0
 76
     0
 77
     3
 78
     8
170
     0
171
     2
172
     0
173
     0
174
     0
175
     0
176
   256
177
   256
178
     2
270
     2
271
     2
272
     3
273
     2
274
     2
340
6B
275
     0
280
     0
281
     0
282
     0
283
     0
284
     0
285
     0
286
     0
287
     0
288
     1
  0
DIMSTYLE
105
61
330
A
100
AcDbSymbolTableRecord
100
AcDbDimStyleTableRecord
  2
AM_JIS$6
 70
     0
  3

  4
"
  5
OPEN30
  6

  7

 40
1.0
 41
2.5
 42
1.0
 43
10.0
 44
1.0
 45
0.0
 46
0.0
 47
0.1
 48
0.1
140
3.2
141
0.0
142
0.0
143
0.0393701
144
1.0
145
0.0
146
0.71
147
1.5
 71
     0
 72
     0
 73
     0
 74
     0
 75
     0
 76
     0
 77
     0
 78
     8
170
     0
171
     2
172
     1
173
     0
174
     0
175
     0
176
   256
177
   256
178
     2
270
     2
271
     2
272
     2
273
     2
274
     2
340
6B
275
     0
280
     0
281
     0
282
     0
283
     0
284
     0
285
     0
286
     0
287
     3
288
     0
  0
DIMSTYLE
105
62
330
A
100
AcDbSymbolTableRecord
100
AcDbDimStyleTableRecord
  2
AM_JIS$7
 70
     0
  3

  4
"
  5
OPEN30
  6

  7

 40
1.0
 41
2.5
 42
1.0
 43
10.0
 44
1.0
 45
0.0
 46
0.0
 47
0.1
 48
0.1
140
3.2
141
0.0
142
0.0
143
0.0393701
144
1.0
145
0.0
146
0.71
147
1.5
 71
     0
 72
     0
 73
     0
 74
     0
 75
     0
 76
     0
 77
     3
 78
     8
170
     0
171
     2
172
     1
173
     0
174
     0
175
     0
176
   256
177
   256
178
     2
270
     2
271
     2
272
     3
273
     2
274
     2
340
6B
275
     0
280
     0
281
     0
282
     0
283
     0
284
     0
285
     0
286
     0
287
     3
288
     0
  0
DIMSTYLE
105
63
330
A
100
AcDbSymbolTableRecord
100
AcDbDimStyleTableRecord
  2
AM_JIS$SF
 70
     0
  3

  4
"
  5
OPEN30
  6

  7

 40
1.0
 41
2.5
 42
1.0
 43
10.0
 44
1.0
 45
0.0
 46
0.0
 47
0.1
 48
0.1
140
3.2
141
0.0
142
0.0
143
0.0393701
144
1.0
145
0.0
146
0.71
147
1.5
 71
     0
 72
     0
 73
     0
 74
     0
 75
     1
 76
     1
 77
     3
 78
     8
170
     0
171
     2
172
     1
173
     0
174
     0
175
     0
176
   256
177
   256
178
     2
270
     2
271
     2
272
     2
273
     2
274
     2
340
6B
275
     0
280
     0
281
     0
282
     0
283
     0
284
     0
285
     0
286
     0
287
     3
288
     0
  0
DIMSTYLE
105
68
330
A
100
AcDbSymbolTableRecord
100
AcDbDimStyleTableRecord
  2
AM_JIS$SH
 70
     0
  3

  4
"
  5

  6
GENAXEH
  7
OPEN30
 40
1.0
 41
2.5
 42
1.0
 43
10.0
 44
1.0
 45
0.0
 46
0.0
 47
0.1
 48
0.1
140
3.2
141
0.0
142
0.0
143
0.0393701
144
2.0
145
0.0
146
0.71
147
1.5
 71
     0
 72
     0
 73
     0
 74
     0
 75
     1
 76
     1
 77
     3
 78
     8
170
     0
171
     2
172
     1
173
     1
174
     0
175
     0
176
   256
177
   256
178
     2
270
     2
271
     2
272
     2
273
     2
274
     2
340
6B
275
     0
280
     0
281
     0
282
     0
283
     0
284
     0
285
     0
286
     0
287
     3
288
     0
  0
DIMSTYLE
105
B34
330
A
100
AcDbSymbolTableRecord
100
AcDbDimStyleTableRecord
  2
AM_JIS$2
 70
     0
  3

  4
"
  5
OPEN30
  6

  7

 40
1.0
 41
2.5
 42
1.0
 43
12.0
 44
1.0
 45
0.0
 46
0.0
 47
0.1
 48
0.1
140
3.2
141
0.0
142
0.0
143
0.0393701
144
1.0
145
0.0
146
0.71
147
1.5
 71
     0
 72
     0
 73
     0
 74
     0
 75
     0
 76
     0
 77
     3
 78
     8
170
     0
171
     2
172
     1
173
     0
174
     0
175
     0
176
   256
177
   256
178
     2
270
     2
271
     3
272
     3
273
     2
274
     2
340
6B
275
     0
280
     0
281
     0
282
     0
283
     0
284
     0
285
     0
286
     0
287
     3
288
     0
  0
ENDTAB
  0
TABLE
  2
BLOCK_RECORD
  5
1
330
0
100
AcDbSymbolTable
 70
    32
  0
BLOCK_RECORD
  5
1F
102
{ACAD_XDICTIONARY
360
74
102
}
330
1
100
AcDbSymbolTableRecord
100
AcDbBlockTableRecord
  2
*MODEL_SPACE
  0
BLOCK_RECORD
  5
101
102
{ACAD_XDICTIONARY
360
4B33
102
}
330
1
100
AcDbSymbolTableRecord
100
AcDbBlockTableRecord
  2
*PAPER_SPACE
  0
BLOCK_RECORD
  5
59
330
1
100
AcDbSymbolTableRecord
100
AcDbBlockTableRecord
  2
_OPEN30
  0
BLOCK_RECORD
  5
64
330
1
100
AcDbSymbolTableRecord
100
AcDbBlockTableRecord
  2
GENAXEH
  0
BLOCK_RECORD
  5
482B
330
1
100
AcDbSymbolTableRecord
100
AcDbBlockTableRecord
  2
*D27
  0
BLOCK_RECORD
  5
4837
330
1
100
AcDbSymbolTableRecord
100
AcDbBlockTableRecord
  2
*D28
  0
BLOCK_RECORD
  5
4919
330
1
100
AcDbSymbolTableRecord
100
AcDbBlockTableRecord
  2
*D29
  0
BLOCK_RECORD
  5
497B
330
1
100
AcDbSymbolTableRecord
100
AcDbBlockTableRecord
  2
*D30
  0
BLOCK_RECORD
  5
49BB
330
1
100
AcDbSymbolTableRecord
100
AcDbBlockTableRecord
  2
*D31
  0
ENDTAB
  0
ENDSEC
  0
SECTION
  2
BLOCKS
  0
BLOCK
  5
20
330
1F
100
AcDbEntity
  8
0
100
AcDbBlockBegin
  2
*MODEL_SPACE
 70
     0
 10
0.0
 20
0.0
 30
0.0
  3
*MODEL_SPACE
  1

  0
ENDBLK
  5
21
330
1F
100
AcDbEntity
  8
0
100
AcDbBlockEnd
  0
BLOCK
  5
103
330
101
100
AcDbEntity
 67
     1
  8
0
100
AcDbBlockBegin
  2
*PAPER_SPACE
 70
     0
 10
0.0
 20
0.0
 30
0.0
  3
*PAPER_SPACE
  1

  0
ENDBLK
  5
104
330
101
100
AcDbEntity
 67
     1
  8
0
100
AcDbBlockEnd
  0
BLOCK
  5
5D
330
59
100
AcDbEntity
  8
0
100
AcDbBlockBegin
  2
_OPEN30
 70
     0
 10
0.0
 20
0.0
 30
0.0
  3
_OPEN30
  1

  0
LINE
  5
5A
330
59
100
AcDbEntity
  8
0
 62
     0
100
AcDbLine
 10
-1.0
 20
0.26794919
 30
0.0
 11
0.0
 21
0.0
 31
0.0
  0
LINE
  5
5B
330
59
100
AcDbEntity
  8
0
 62
     0
100
AcDbLine
 10
0.0
 20
0.0
 30
0.0
 11
-1.0
 21
-0.26794919
 31
0.0
  0
LINE
  5
5C
330
59
100
AcDbEntity
  8
0
 62
     0
100
AcDbLine
 10
0.0
 20
0.0
 30
0.0
 11
-1.0
 21
0.0
 31
0.0
  0
ENDBLK
  5
5E
330
59
100
AcDbEntity
  8
0
100
AcDbBlockEnd
  0
BLOCK
  5
66
330
64
100
AcDbEntity
  8
0
100
AcDbBlockBegin
  2
GENAXEH
 70
     0
 10
0.0
 20
0.0
 30
0.0
  3
GENAXEH
  1

  0
LINE
  5
65
330
64
100
AcDbEntity
  8
0
100
AcDbLine
 10
-1.0
 20
0.0
 30
0.0
 11
1.0
 21
0.0
 31
0.0
  0
ENDBLK
  5
67
330
64
100
AcDbEntity
  8
0
100
AcDbBlockEnd
  0
BLOCK
  5
4835
330
482B
100
AcDbEntity
  8
0
100
AcDbBlockBegin
  2
*D27
 70
     1
 10
0.0
 20
0.0
 30
0.0
  3
*D27
  1

  0
LINE
  5
49F5
330
482B
100
AcDbEntity
  8
AM_5
100
AcDbLine
 10
-180.0000000000068
 20
-14.99999999995953
 30
0.0
 11
-180.0000000000068
 21
-36.87593605994583
 31
0.0
  0
LINE
  5
49F6
330
482B
100
AcDbEntity
  8
AM_5
100
AcDbLine
 10
-95.00000000000682
 20
-16.9999999999595
 30
0.0
 11
-95.00000000000682
 21
-36.87593605994583
 31
0.0
  0
LINE
  5
49F7
330
482B
100
AcDbEntity
  8
AM_5
100
AcDbLine
 10
-177.5000000000068
 20
-35.87593605994582
 30
0.0
 11
-97.50000000000682
 21
-35.87593605994582
 31
0.0
  0
INSERT
  5
49F8
330
482B
100
AcDbEntity
  8
AM_5
100
AcDbBlockReference
  2
_OPEN30
 10
-180.0000000000068
 20
-35.87593605994582
 30
0.0
 41
2.5
 42
2.5
 43
2.5
 50
180.0
  0
INSERT
  5
49F9
330
482B
100
AcDbEntity
  8
AM_5
100
AcDbBlockReference
  2
_OPEN30
 10
-95.00000000000682
 20
-35.87593605994582
 30
0.0
 41
2.5
 42
2.5
 43
2.5
  0
MTEXT
  5
49FA
330
482B
100
AcDbEntity
  8
AM_5
 62
     2
100
AcDbMText
 10
-137.5000000000068
 20
-32.77593605994582
 30
0.0
 40
3.2
 41
0.0
 71
     5
 72
     1
  1
85
  7
ASAMI
1001
ACAD
1000
MTEXTBEGIN
1070
    73
1070
     1
1070
    44
1040
1.0
1070
    74
1070
     0
1000
MTEXTEND
  0
POINT
  5
49FB
330
482B
100
AcDbEntity
  8
DEFPOINTS
 62
     0
100
AcDbPoint
 10
-180.0000000000068
 20
-13.99999999995953
 30
0.0
  0
POINT
  5
49FC
330
482B
100
AcDbEntity
  8
DEFPOINTS
 62
     0
100
AcDbPoint
 10
-95.00000000000682
 20
-15.9999999999595
 30
0.0
  0
POINT
  5
49FD
330
482B
100
AcDbEntity
  8
DEFPOINTS
 62
     0
100
AcDbPoint
 10
-95.00000000000682
 20
-35.87593605994582
 30
0.0
  0
ENDBLK
  5
4836
330
482B
100
AcDbEntity
  8
0
100
AcDbBlockEnd
  0
BLOCK
  5
4841
330
4837
100
AcDbEntity
  8
0
100
AcDbBlockBegin
  2
*D28
 70
     1
 10
0.0
 20
0.0
 30
0.0
  3
*D28
  1

  0
LINE
  5
4A64
330
4837
100
AcDbEntity
  8
AM_5
100
AcDbLine
 10
-180.0000000000068
 20
-15.99999999995953
 30
0.0
 11
-195.0000000000068
 21
-15.99999999995953
 31
0.0
  0
LINE
  5
4A65
330
4837
100
AcDbEntity
  8
AM_5
100
AcDbLine
 10
-180.0000000000067
 20
16.00000000004034
 30
0.0
 11
-195.0000000000068
 21
16.00000000004035
 31
0.0
  0
LINE
  5
4A66
330
4837
100
AcDbEntity
  8
AM_5
100
AcDbLine
 10
-194.0000000000068
 20
-13.49999999995953
 30
0.0
 11
-194.0000000000068
 21
13.50000000004035
 31
0.0
  0
INSERT
  5
4A67
330
4837
100
AcDbEntity
  8
AM_5
100
AcDbBlockReference
  2
_OPEN30
 10
-194.0000000000068
 20
-15.99999999995953
 30
0.0
 41
2.5
 42
2.5
 43
2.5
 50
270.0
  0
INSERT
  5
4A68
330
4837
100
AcDbEntity
  8
AM_5
100
AcDbBlockReference
  2
_OPEN30
 10
-194.0000000000068
 20
16.00000000004035
 30
0.0
 41
2.5
 42
2.5
 43
2.5
 50
90.0
  0
MTEXT
  5
4A69
330
4837
100
AcDbEntity
  8
AM_5
 62
     2
100
AcDbMText
 10
-197.1000000000068
 20
0.0000000000403791
 30
0.0
 40
3.2
 41
0.0
 71
     5
 72
     1
  1
%%c32
  7
ASAMI
 11
0.0000000000000001
 21
1.0
 31
0.0
1001
ACAD
1000
MTEXTBEGIN
1070
    73
1070
     1
1070
    44
1040
1.0
1070
    74
1070
     0
1000
MTEXTEND
  0
POINT
  5
4A6A
330
4837
100
AcDbEntity
  8
DEFPOINTS
 62
     0
100
AcDbPoint
 10
-179.0000000000068
 20
-15.99999999995953
 30
0.0
  0
POINT
  5
4A6B
330
4837
100
AcDbEntity
  8
DEFPOINTS
 62
     0
100
AcDbPoint
 10
-179.0000000000067
 20
16.00000000004034
 30
0.0
  0
POINT
  5
4A6C
330
4837
100
AcDbEntity
  8
DEFPOINTS
 62
     0
100
AcDbPoint
 10
-194.0000000000068
 20
16.00000000004035
 30
0.0
  0
ENDBLK
  5
4842
330
4837
100
AcDbEntity
  8
0
100
AcDbBlockEnd
  0
BLOCK
  5
4923
330
4919
100
AcDbEntity
  8
0
100
AcDbBlockBegin
  2
*D29
 70
     1
 10
0.0
 20
0.0
 30
0.0
  3
*D29
  1

  0
LINE
  5
4A10
330
4919
100
AcDbEntity
  8
AM_5
100
AcDbLine
 10
-0.0000000000042591
 20
-20.14062499995981
 30
0.0
 11
-0.0000000000042609
 21
-48.87593605994623
 31
0.0
  0
LINE
  5
4A11
330
4919
100
AcDbEntity
  8
AM_5
100
AcDbLine
 10
-180.0000000000068
 20
-22.87593605994622
 30
0.0
 11
-180.0000000000068
 21
-48.87593605994623
 31
0.0
  0
LINE
  5
4A12
330
4919
100
AcDbEntity
  8
AM_5
100
AcDbLine
 10
-2.500000000004261
 20
-47.87593605994622
 30
0.0
 11
-177.5000000000068
 21
-47.87593605994622
 31
0.0
  0
INSERT
  5
4A13
330
4919
100
AcDbEntity
  8
AM_5
100
AcDbBlockReference
  2
_OPEN30
 10
-0.0000000000042608
 20
-47.87593605994622
 30
0.0
 41
2.5
 42
2.5
 43
2.5
  0
INSERT
  5
4A14
330
4919
100
AcDbEntity
  8
AM_5
100
AcDbBlockReference
  2
_OPEN30
 10
-180.0000000000068
 20
-47.87593605994622
 30
0.0
 41
2.5
 42
2.5
 43
2.5
 50
180.0
  0
MTEXT
  5
4A15
330
4919
100
AcDbEntity
  8
AM_5
 62
     2
100
AcDbMText
 10
-90.00000000000554
 20
-44.77593605994623
 30
0.0
 40
3.2
 41
0.0
 71
     5
 72
     1
  1
180
  7
ASAMI
1001
ACAD
1000
MTEXTBEGIN
1070
    73
1070
     1
1070
    44
1040
1.0
1070
    74
1070
     0
1000
MTEXTEND
  0
POINT
  5
4A16
330
4919
100
AcDbEntity
  8
DEFPOINTS
 62
     0
100
AcDbPoint
 10
-0.0000000000042591
 20
-19.14062499995981
 30
0.0
  0
POINT
  5
4A17
330
4919
100
AcDbEntity
  8
DEFPOINTS
 62
     0
100
AcDbPoint
 10
-180.0000000000068
 20
-21.87593605994622
 30
0.0
  0
POINT
  5
4A18
330
4919
100
AcDbEntity
  8
DEFPOINTS
 62
     0
100
AcDbPoint
 10
-180.0000000000068
 20
-47.87593605994622
 30
0.0
  0
ENDBLK
  5
4924
330
4919
100
AcDbEntity
  8
0
100
AcDbBlockEnd
  0
BLOCK
  5
4985
330
497B
100
AcDbEntity
  8
0
100
AcDbBlockBegin
  2
*D30
 70
     1
 10
0.0
 20
0.0
 30
0.0
  3
*D30
  1

  0
LINE
  5
4A6D
330
497B
100
AcDbEntity
  8
AM_5
100
AcDbLine
 10
0.9999999999973166
 20
17.49999999999645
 30
0.0
 11
15.0000000000014
 21
17.49999999999644
 31
0.0
  0
LINE
  5
4A6E
330
497B
100
AcDbEntity
  8
AM_5
100
AcDbLine
 10
1.000000000001539
 20
-17.500000000004
 30
0.0
 11
15.0000000000014
 21
-17.500000000004
 31
0.0
  0
LINE
  5
4A6F
330
497B
100
AcDbEntity
  8
AM_5
100
AcDbLine
 10
14.0000000000014
 20
14.99999999999644
 30
0.0
 11
14.00000000000139
 21
-15.000000000004
 31
0.0
  0
INSERT
  5
4A70
330
497B
100
AcDbEntity
  8
AM_5
100
AcDbBlockReference
  2
_OPEN30
 10
14.0000000000014
 20
17.49999999999644
 30
0.0
 41
2.5
 42
2.5
 43
2.5
 50
90.0
  0
INSERT
  5
4A71
330
497B
100
AcDbEntity
  8
AM_5
100
AcDbBlockReference
  2
_OPEN30
 10
14.00000000000139
 20
-17.500000000004
 30
0.0
 41
2.5
 42
2.5
 43
2.5
 50
270.0
  0
MTEXT
  5
4A72
330
497B
100
AcDbEntity
  8
AM_5
 62
     2
100
AcDbMText
 10
10.9000000000014
 20
-0.0000000000037752
 30
0.0
 40
3.2
 41
0.0
 71
     5
 72
     1
  1
%%c35
  7
ASAMI
 11
0.0000000000000001
 21
1.0
 31
0.0
1001
ACAD
1000
MTEXTBEGIN
1070
    73
1070
     1
1070
    44
1040
1.0
1070
    74
1070
     0
1000
MTEXTEND
  0
POINT
  5
4A73
330
497B
100
AcDbEntity
  8
DEFPOINTS
 62
     0
100
AcDbPoint
 10
-0.0000000000026834
 20
17.49999999999645
 30
0.0
  0
POINT
  5
4A74
330
497B
100
AcDbEntity
  8
DEFPOINTS
 62
     0
100
AcDbPoint
 10
0.0000000000015401
 20
-17.500000000004
 30
0.0
  0
POINT
  5
4A75
330
497B
100
AcDbEntity
  8
DEFPOINTS
 62
     0
100
AcDbPoint
 10
14.00000000000139
 20
-17.500000000004
 30
0.0
  0
ENDBLK
  5
4986
330
497B
100
AcDbEntity
  8
0
100
AcDbBlockEnd
  0
BLOCK
  5
49C5
330
49BB
100
AcDbEntity
  8
0
100
AcDbBlockBegin
  2
*D31
 70
     1
 10
0.0
 20
0.0
 30
0.0
  3
*D31
  1

  0
LINE
  5
4A58
330
49BB
100
AcDbEntity
  8
AM_5
100
AcDbLine
 10
0.00000000000154
 20
-19.66666666667049
 30
0.0
 11
0.000000000001539
 21
-36.87593605994592
 31
0.0
  0
LINE
  5
4A59
330
49BB
100
AcDbEntity
  8
AM_5
100
AcDbLine
 10
-80.00045771741614
 20
-17.06183784750708
 30
0.0
 11
-80.00045771741614
 21
-36.87593605994592
 31
0.0
  0
LINE
  5
4A5A
330
49BB
100
AcDbEntity
  8
AM_5
100
AcDbLine
 10
-2.49999999999846
 20
-35.87593605994592
 30
0.0
 11
-77.50045771741614
 21
-35.87593605994592
 31
0.0
  0
INSERT
  5
4A5B
330
49BB
100
AcDbEntity
  8
AM_5
100
AcDbBlockReference
  2
_OPEN30
 10
0.000000000001539
 20
-35.87593605994592
 30
0.0
 41
2.5
 42
2.5
 43
2.5
  0
INSERT
  5
4A5C
330
49BB
100
AcDbEntity
  8
AM_5
100
AcDbBlockReference
  2
_OPEN30
 10
-80.00045771741614
 20
-35.87593605994592
 30
0.0
 41
2.5
 42
2.5
 43
2.5
 50
180.0
  0
MTEXT
  5
4A5D
330
49BB
100
AcDbEntity
  8
AM_5
 62
     2
100
AcDbMText
 10
-40.0002288587073
 20
-32.77593605994592
 30
0.0
 40
3.2
 41
0.0
 71
     5
 72
     1
  1
80
  7
ASAMI
1001
ACAD
1000
MTEXTBEGIN
1070
    73
1070
     1
1070
    44
1040
1.0
1070
    74
1070
     0
1000
MTEXTEND
  0
POINT
  5
4A5E
330
49BB
100
AcDbEntity
  8
DEFPOINTS
 62
     0
100
AcDbPoint
 10
0.0000000000015401
 20
-18.66666666667049
 30
0.0
  0
POINT
  5
4A5F
330
49BB
100
AcDbEntity
  8
DEFPOINTS
 62
     0
100
AcDbPoint
 10
-80.00045771741614
 20
-16.06183784750707
 30
0.0
  0
POINT
  5
4A60
330
49BB
100
AcDbEntity
  8
DEFPOINTS
 62
     0
100
AcDbPoint
 10
-80.00045771741614
 20
-35.87593605994592
 30
0.0
  0
ENDBLK
  5
49C6
330
49BB
100
AcDbEntity
  8
0
100
AcDbBlockEnd
  0
ENDSEC
  0
SECTION
  2
ENTITIES
  0
TEXT
  5
C58
330
1F
100
AcDbEntity
  8
AM_6
100
AcDbText
 10
-111.3095238095293
 20
-70.37593605994629
 30
0.0
 40
5.0
  1
RMES4350C
 50
0.0000000000002036
 72
     4
 11
-90.00000000000554
 21
-67.87593605994622
 31
0.0
100
AcDbText
  0
LINE
  5
2A1C
330
1F
100
AcDbEntity
  8
AM_7
100
AcDbLine
 10
-184.7819222346325
 20
0.0000000000012068
 30
0.0
 11
3.125788147781861
 21
0.0000000000011897
 31
0.0
1001
GENIUS_GENODEF_13
1002
{
1000
HIER
1070
     0
1002
}
1002
{
1000
MANEDIT
1070
     0
1002
}
1002
{
1000
NOSEL
1070
     0
1002
}
1002
{
1000
BEHIND
1070
     0
1002
}
1002
{
1000
REACTOR
1002
}
1001
GENIUS_GENOBJ-N-CEN_13
1002
{
1000
OWNER
1000
GEN
1002
}
  0
LINE
  5
4810
330
1F
100
AcDbEntity
  8
AM_0
100
AcDbLine
 10
-179.0000000000068
 20
-15.99999999995954
 30
0.0
 11
-95.00000000000682
 21
-15.99999999995962
 31
0.0
  0
DIMENSION
  5
4811
330
1F
100
AcDbEntity
  8
AM_5
100
AcDbDimension
  2
*D27
 10
-95.00000000000682
 20
-35.87593605994582
 30
0.0
 11
-137.5000000000068
 21
-32.77593605994582
 31
0.0
 70
    32
  1
<>
  3
AM_JIS
100
AcDbAlignedDimension
 13
-180.0000000000068
 23
-13.99999999995953
 33
0.0
 14
-95.00000000000682
 24
-15.9999999999595
 34
0.0
 50
0.0000000000002264
100
AcDbRotatedDimension
1001
GENIUS_GENDTOL_13
1000

1000
h7
1000

1040
0.0
  0
DIMENSION
  5
4812
330
1F
100
AcDbEntity
  8
AM_5
100
AcDbDimension
  2
*D28
 10
-194.0000000000068
 20
16.00000000004035
 30
0.0
 11
-197.1000000000068
 21
0.0000000000403791
 31
0.0
 70
    32
  1
%%c<>
  3
AM_JIS
100
AcDbAlignedDimension
 13
-179.0000000000068
 23
-15.99999999995953
 33
0.0
 14
-179.0000000000067
 24
16.00000000004034
 34
0.0
 50
270.0
100
AcDbRotatedDimension
1001
GENIUS_GENDTOL_13
1000

1000
h7
1000

1040
0.0
  0
LINE
  5
4813
330
1F
100
AcDbEntity
  8
AM_0
100
AcDbLine
 10
-179.0000000000067
 20
16.00000000004034
 30
0.0
 11
-179.0000000000068
 21
-15.99999999995954
 31
0.0
  0
LINE
  5
4814
330
1F
100
AcDbEntity
  8
AM_0
100
AcDbLine
 10
-180.0000000000068
 20
-13.99999999995954
 30
0.0
 11
-180.0000000000067
 21
14.00000000004034
 31
0.0
  0
LINE
  5
4815
330
1F
100
AcDbEntity
  8
AM_0
100
AcDbLine
 10
-180.0000000000068
 20
-13.99999999995954
 30
0.0
 11
-179.0000000000068
 21
-15.99999999995954
 31
0.0
1001
GENIUS_GENFIL_13
1070
     0
1040
1.0
1040
1.0
1040
20.0
1040
0.0
1002
{
1002
}
1001
GENIUS_GENODEF_13
1002
{
1000
HIER
1070
     0
1002
}
1002
{
1000
MANEDIT
1070
     0
1002
}
1002
{
1000
NOSEL
1070
     0
1002
}
1002
{
1000
BEHIND
1070
     0
1002
}
1002
{
1000
REACTOR
1002
}
1001
GENIUS_GENOBJ-N-CHA_13
1002
{
1000
OWNER
1000
GEN
1002
}
  0
LINE
  5
4816
330
1F
100
AcDbEntity
  8
AM_0
100
AcDbLine
 10
-179.0000000000067
 20
16.00000000004034
 30
0.0
 11
-95.00000000000676
 21
16.00000000004034
 31
0.0
  0
LINE
  5
4817
330
1F
100
AcDbEntity
  8
AM_0
100
AcDbLine
 10
-180.0000000000067
 20
14.00000000004034
 30
0.0
 11
-179.0000000000067
 21
16.00000000004034
 31
0.0
1001
GENIUS_GENFIL_13
1070
     0
1040
1.0
1040
1.0
1040
20.0
1040
0.0
1002
{
1002
}
1001
GENIUS_GENODEF_13
1002
{
1000
HIER
1070
     0
1002
}
1002
{
1000
MANEDIT
1070
     0
1002
}
1002
{
1000
NOSEL
1070
     0
1002
}
1002
{
1000
BEHIND
1070
     0
1002
}
1002
{
1000
REACTOR
1002
}
1001
GENIUS_GENOBJ-N-CHA_13
1002
{
1000
OWNER
1000
GEN
1002
}
  0
LINE
  5
4818
330
1F
100
AcDbEntity
  8
AM_0
100
AcDbLine
 10
-94.1339745962224
 20
15.50000000004038
 30
0.0
 11
-82.23606797750818
 21
15.50000000004038
 31
0.0
1001
GENIUS_GENODEF_13
1002
{
1000
HIER
1070
     0
1002
}
1002
{
1000
MANEDIT
1070
     0
1002
}
1002
{
1000
NOSEL
1070
     0
1002
}
1002
{
1000
BEHIND
1070
     0
1002
}
1002
{
1000
REACTOR
1002
}
1001
GENIUS_GENOBJ-N-CEN_13
1002
{
1000
OWNER
1000
GEN
1002
}
  0
LINE
  5
4819
330
1F
100
AcDbEntity
  8
AM_0
100
AcDbLine
 10
-95.00000000000682
 20
-15.99999999995949
 30
0.0
 11
-95.00000000000682
 21
16.00000000004034
 31
0.0
  0
ARC
  5
481A
330
1F
100
AcDbEntity
  8
AM_0
100
AcDbCircle
 10
-94.1339745962224
 20
16.50000000004038
 30
0.0
 40
1.0
100
AcDbArc
 50
210.0000000000021
 51
270.0
  0
ARC
  5
481B
330
1F
100
AcDbEntity
  8
AM_0
100
AcDbCircle
 10
-82.23606797750818
 20
18.50000000004038
 30
0.0
 40
3.0
100
AcDbArc
 50
270.0
 51
318.189685104221
  0
LINE
  5
481C
330
1F
100
AcDbEntity
  8
AM_0
100
AcDbLine
 10
-94.1339745962224
 20
-15.49999999995961
 30
0.0
 11
-82.23606797750818
 21
-15.49999999995962
 31
0.0
1001
GENIUS_GENODEF_13
1002
{
1000
HIER
1070
     0
1002
}
1002
{
1000
MANEDIT
1070
     0
1002
}
1002
{
1000
NOSEL
1070
     0
1002
}
1002
{
1000
BEHIND
1070
     0
1002
}
1002
{
1000
REACTOR
1002
}
1001
GENIUS_GENOBJ-N-CEN_13
1002
{
1000
OWNER
1000
GEN
1002
}
  0
ARC
  5
481D
330
1F
100
AcDbEntity
  8
AM_0
100
AcDbCircle
 10
-94.1339745962224
 20
-16.49999999995961
 30
0.0
 40
1.0
100
AcDbArc
 50
90.0
 51
149.9999999999978
  0
ARC
  5
481E
330
1F
100
AcDbEntity
  8
AM_0
100
AcDbCircle
 10
-82.23606797750818
 20
-18.49999999995961
 30
0.0
 40
3.0
100
AcDbArc
 50
41.81031489577902
 51
90.0
  0
ELLIPSE
  5
4915
330
1F
100
AcDbEntity
  8
AM_0
100
AcDbEllipse
 10
-86.79102116903818
 20
10.26149911298908
 30
0.0
 11
-0.0000000000000598
 21
4.011286761266153
 31
0.0
210
0.0
220
0.0
230
1.0
 40
0.8713900850331482
 41
0.5157909989585212
 42
2.610186101355242
  0
ELLIPSE
  5
4916
330
1F
100
AcDbEntity
  8
AM_0
100
AcDbEllipse
 10
-86.79102116903818
 20
10.26149911298908
 30
0.0
 11
-0.0000000000000598
 21
4.011286761266153
 31
0.0
210
0.0
220
0.0
230
1.0
 40
0.8713900850331482
 41
0.5157909989585212
 42
2.610186101355242
  0
ELLIPSE
  5
4917
330
1F
100
AcDbEntity
  8
AM_0
100
AcDbEllipse
 10
-85.4292780862179
 20
-8.261769193024418
 30
0.0
 11
0.0000000000000783
 21
5.824086234413337
 31
0.0
210
0.0
220
0.0
230
1.0
 40
0.8713900850331498
 41
0.6653545353675732
 42
2.999320557457998
  0
DIMENSION
  5
4918
330
1F
100
AcDbEntity
  8
AM_5
100
AcDbDimension
  2
*D29
 10
-180.0000000000068
 20
-47.87593605994622
 30
0.0
 11
-90.00000000000554
 21
-44.77593605994623
 31
0.0
 70
    32
  1
<>
  3
AM_JIS
100
AcDbAlignedDimension
 13
-0.0000000000042591
 23
-19.14062499995981
 33
0.0
 14
-180.0000000000068
 24
-21.87593605994622
 34
0.0
 50
0.0000000000002528
100
AcDbRotatedDimension
1001
GENIUS_GENDTOL_13
1000

1000
h7
1000

1040
0.0
  0
LINE
  5
4925
330
1F
100
AcDbEntity
  8
AM_0
100
AcDbLine
 10
-0.0000000000005958
 20
-0.0000000000065275
 30
0.0
 11
-0.3202358562503336
 21
3.499999999994268
 31
0.0
  0
LINE
  5
4926
330
1F
100
AcDbEntity
  8
AM_0
100
AcDbLine
 10
-0.0000000000005958
 20
-0.0000000000065275
 30
0.0
 11
-0.0000000000005958
 21
17.49999999999346
 31
0.0
  0
LINE
  5
4927
330
1F
100
AcDbEntity
  8
AM_0
100
AcDbLine
 10
-3.25580500507158
 20
9.334992849030252
 30
0.0
 11
-7.187227868719552
 21
10.52958697884214
 31
0.0
  0
LINE
  5
4928
330
1F
100
AcDbEntity
  8
AM_0
100
AcDbLine
 10
-8.387129568444658
 20
5.399798460526834
 30
0.0
 11
-8.387129568444658
 21
8.320076976832931
 31
0.0
  0
LINE
  5
4929
330
1F
100
AcDbEntity
  8
AM_0
100
AcDbLine
 10
-0.3202358562503336
 20
3.499999999994268
 30
0.0
 11
-3.25580500507158
 21
9.334992849030252
 31
0.0
  0
LINE
  5
492A
330
1F
100
AcDbEntity
  8
AM_0
100
AcDbLine
 10
-0.0000000000005958
 20
-0.0000000000065275
 30
0.0
 11
-7.187227868719552
 21
-0.0000000000065275
 31
0.0
  0
SPLINE
  5
492B
330
1F
100
AcDbEntity
  8
AM_0
100
AcDbSpline
210
0.0
220
0.0
230
1.0
 70
     8
 71
     3
 72
     8
 73
     4
 74
     0
 42
0.0000000001
 43
0.0000000001
 40
11.46537929237052
 40
11.46537929237052
 40
11.46537929237052
 40
11.46537929237052
 40
14.48999654934396
 40
14.48999654934396
 40
14.48999654934396
 40
14.48999654934396
 10
-8.387129568446043
 20
5.399798460527629
 30
0.0
 10
-5.583190577857661
 20
3.652920262382688
 30
0.0
 10
-2.791595288929128
 20
1.826460131188081
 30
0.0
 10
-0.0000000000005958
 20
-0.0000000000057317
 30
0.0
  0
SPLINE
  5
492C
330
1F
100
AcDbEntity
  8
AM_0
100
AcDbSpline
210
0.0
220
0.0
230
1.0
 70
     8
 71
     3
 72
     8
 73
     4
 74
     0
 42
0.0000000001
 43
0.0000000001
 40
0.0
 40
0.0
 40
0.0
 40
0.0
 40
4.294232294743062
 40
4.294232294743062
 40
4.294232294743062
 40
4.294232294743062
 10
-0.9149595892845704
 20
17.49999999999346
 30
0.0
 10
1.087559820579928
 20
15.0763301277428
 30
0.0
 10
-4.319183616092649
 20
11.09737145527168
 30
0.0
 10
-7.187227868719552
 20
10.52958697884214
 30
0.0
  0
SPLINE
  5
492D
330
1F
100
AcDbEntity
  8
AM_0
100
AcDbSpline
210
0.0
220
0.0
230
1.0
 70
     8
 71
     3
 72
     8
 73
     4
 74
     0
 42
0.0000000001
 43
0.0000000001
 40
9.532359626456116
 40
9.532359626456116
 40
9.532359626456116
 40
9.532359626456116
 40
12.40023413887867
 40
12.40023413887867
 40
12.40023413887867
 40
12.40023413887867
 10
-8.387129568471006
 20
8.320076976848051
 30
0.0
 10
-5.696363826229479
 20
6.828874286232643
 30
0.0
 10
-3.022750103878783
 20
5.223883108396715
 30
0.0
 10
-0.3562632818457105
 20
3.571611248124848
 30
0.0
  0
LINE
  5
492E
330
1F
100
AcDbEntity
  8
AM_0
100
AcDbLine
 10
-0.3202358562503336
 20
-4.64414249097688
 30
0.0
 11
-0.0000000000005958
 21
-3.500000000006527
 31
0.0
  0
LINE
  5
492F
330
1F
100
AcDbEntity
  8
AM_0
100
AcDbLine
 10
-2.624280950616244
 20
-5.157791678089032
 30
0.0
 11
-0.3202358562503336
 21
-4.64414249097688
 31
0.0
  0
LINE
  5
4930
330
1F
100
AcDbEntity
  8
AM_0
100
AcDbLine
 10
-0.0000000000005958
 20
-17.50000000000652
 30
0.0
 11
-0.3202358562503336
 21
-16.56704405168231
 31
0.0
  0
LINE
  5
4931
330
1F
100
AcDbEntity
  8
AM_0
100
AcDbLine
 10
-0.3202358562503336
 20
-16.56704405168231
 30
0.0
 11
-2.089157728867404
 21
-13.99165829412282
 31
0.0
  0
LINE
  5
4932
330
1F
100
AcDbEntity
  8
AM_0
100
AcDbLine
 10
-0.3202358562503336
 20
-16.56704405168231
 30
0.0
 11
-0.3202358562503336
 21
-4.64414249097688
 31
0.0
  0
LINE
  5
4933
330
1F
100
AcDbEntity
  8
AM_0
100
AcDbLine
 10
-0.0000000000005958
 20
-17.50000000000652
 30
0.0
 11
-0.0000000000005958
 21
-3.500000000006527
 31
0.0
  0
LINE
  5
4934
330
1F
100
AcDbEntity
  8
AM_0
100
AcDbLine
 10
-6.09973059523264
 20
-17.01127489674314
 30
0.0
 11
-6.09973059523264
 21
-15.34601114502998
 31
0.0
  0
SPLINE
  5
4935
330
1F
100
AcDbEntity
  8
AM_0
100
AcDbSpline
210
0.0
220
0.0
230
1.0
 70
     8
 71
     3
 72
     8
 73
     4
 74
     0
 42
0.0000000001
 43
0.0000000001
 40
0.0
 40
0.0
 40
0.0
 40
0.0
 40
2.024855066027545
 40
2.024855066027545
 40
2.024855066027545
 40
2.024855066027545
 10
-0.0000000000005958
 20
-17.50000000000652
 30
0.0
 10
-2.058511732860004
 20
-17.50000000000652
 30
0.0
 10
-4.090520754315703
 20
-17.32913253555551
 30
0.0
 10
-6.09973059523264
 20
-17.01127489674314
 30
0.0
  0
LINE
  5
4936
330
1F
100
AcDbEntity
  8
AM_0
100
AcDbLine
 10
-7.187227868719552
 20
-2.800000000006368
 30
0.0
 11
-0.3521681101141287
 21
-2.800000000006368
 31
0.0
  0
LINE
  5
4937
330
1F
100
AcDbEntity
  8
AM_0
100
AcDbLine
 10
-7.187227868719552
 20
-2.800000000006368
 30
0.0
 11
-2.624280950616244
 21
-5.157791678089032
 31
0.0
  0
SPLINE
  5
4938
330
1F
100
AcDbEntity
  8
AM_0
100
AcDbSpline
210
0.0
220
0.0
230
1.0
 70
     8
 71
     3
 72
     8
 73
     4
 74
     0
 42
0.0000000001
 43
0.0000000001
 40
1.870660592686466
 40
1.870660592686466
 40
1.870660592686466
 40
1.870660592686466
 40
3.826008700541491
 40
3.826008700541491
 40
3.826008700541491
 40
3.826008700541491
 10
-0.3202358562503336
 20
-16.56704405168231
 30
0.0
 10
-2.266098712496682
 20
-16.28850014862262
 30
0.0
 10
-4.191537802336115
 20
-15.8744626128826
 30
0.0
 10
-6.099730595225705
 20
-15.34601114499576
 30
0.0
  0
ELLIPSE
  5
4939
330
1F
100
AcDbEntity
  8
AM_0
100
AcDbEllipse
 10
6.056035730271258
 20
-8.903580576518994
 30
0.0
 11
-0.0000000000000019
 21
10.64244340430618
 31
0.0
210
0.0
220
0.0
230
1.0
 40
0.8713900850331476
 41
1.211124581303815
 42
2.069278538290226
  0
LINE
  5
493A
330
1F
100
AcDbEntity
  8
AM_0
100
AcDbLine
 10
-0.0000000000005958
 20
-3.500000000006527
 30
0.0
 11
-1.760840550571034
 21
-0.0000000000057317
 31
0.0
  0
LINE
  5
493B
330
1F
100
AcDbEntity
  8
AM_0
100
AcDbLine
 10
-0.0000000000005958
 20
-0.0000000000065275
 30
0.0
 11
-0.270957990577751
 21
-2.961420304806258
 31
0.0
  0
LINE
  5
493C
330
1F
100
AcDbEntity
  8
AM_0
100
AcDbLine
 10
-7.187227868719552
 20
-0.0000000000065275
 30
0.0
 11
-7.187227868719552
 21
-2.800000000006368
 31
0.0
  0
SPLINE
  5
493D
330
1F
100
AcDbEntity
  8
AM_0
100
AcDbSpline
210
0.0
220
0.0
230
1.0
 70
     8
 71
     3
 72
     9
 73
     5
 74
     0
 42
0.0000000001
 43
0.0000000001
 40
0.0
 40
0.0
 40
0.0
 40
0.0
 40
1.173671883824386
 40
1.360226551015519
 40
1.360226551015519
 40
1.360226551015519
 40
1.360226551015519
 10
-11.43699486606067
 20
15.82323583368413
 30
0.0
 10
-12.18045567746921
 20
14.75225212924824
 30
0.0
 10
-13.47669273476467
 20
13.91017187686515
 30
0.0
 10
-14.86626281190409
 20
13.57004534739207
 30
0.0
 10
-15.05770185639562
 20
13.53341088945906
 30
0.0
  0
LINE
  5
493E
330
1F
100
AcDbEntity
  8
AM_0
100
AcDbLine
 10
-14.4868601636767
 20
9.030507592154844
 30
0.0
 11
-14.4868601636767
 21
11.46101969300043
 31
0.0
  0
LINE
  5
493F
330
1F
100
AcDbEntity
  8
AM_0
100
AcDbLine
 10
-19.06165811010073
 20
11.46086935739919
 30
0.0
 11
-19.06165811010073
 21
13.44084973287404
 31
0.0
  0
LINE
  5
4940
330
1F
100
AcDbEntity
  8
AM_0
100
AcDbLine
 10
-25.16138870533277
 20
14.1752439261208
 30
0.0
 11
-25.16138870533277
 21
15.46299525839238
 31
0.0
  0
SPLINE
  5
4941
330
1F
100
AcDbEntity
  8
AM_0
100
AcDbSpline
210
0.0
220
0.0
230
1.0
 70
     8
 71
     3
 72
     9
 73
     5
 74
     0
 42
0.0000000001
 43
0.0000000001
 40
0.0
 40
0.0
 40
0.0
 40
0.0
 40
1.509478570089825
 40
3.309158499346873
 40
3.309158499346873
 40
3.309158499346873
 40
3.309158499346873
 10
-19.06165811010073
 20
11.46086935739919
 30
0.0
 10
-20.08283895413522
 20
11.53172779898983
 30
0.0
 10
-22.44064238389569
 20
11.44218714559075
 30
0.0
 10
-24.21044450178329
 20
13.29867285792921
 30
0.0
 10
-25.16138870533277
 20
14.1752439261208
 30
0.0
  0
SPLINE
  5
4942
330
1F
100
AcDbEntity
  8
AM_0
100
AcDbSpline
210
0.0
220
0.0
230
1.0
 70
     8
 71
     3
 72
     9
 73
     5
 74
     0
 42
0.0000000001
 43
0.0000000001
 40
0.0
 40
0.0
 40
0.0
 40
0.0
 40
1.596253384393968
 40
3.130156758002996
 40
3.130156758002996
 40
3.130156758002996
 40
3.130156758002996
 10
-19.06165811010073
 20
13.44084973287404
 30
0.0
 10
-19.99795064798359
 20
14.06285233347756
 30
0.0
 10
-22.07995339743374
 20
14.67781206496244
 30
0.0
 10
-24.12388136434075
 20
15.38734065366466
 30
0.0
 10
-25.16138870533277
 20
15.46299525839238
 30
0.0
  0
SPLINE
  5
4943
330
1F
100
AcDbEntity
  8
AM_0
100
AcDbSpline
210
0.0
220
0.0
230
1.0
 70
     8
 71
     3
 72
     8
 73
     4
 74
     0
 42
0.0000000001
 43
0.0000000001
 40
7.657131739025505
 40
7.657131739025505
 40
7.657131739025505
 40
7.657131739025505
 40
9.280732515295124
 40
9.280732515295124
 40
9.280732515295124
 40
9.280732515295124
 10
-19.06165811010073
 20
11.46086935739919
 30
0.0
 10
-17.52932671390561
 20
10.69844974519282
 30
0.0
 10
-16.00503049508693
 20
9.884225984961583
 30
0.0
 10
-14.48686016367808
 20
9.030507592155638
 30
0.0
  0
SPLINE
  5
4944
330
1F
100
AcDbEntity
  8
AM_0
100
AcDbSpline
210
0.0
220
0.0
230
1.0
 70
     8
 71
     3
 72
     8
 73
     4
 74
     0
 42
0.0000000001
 43
0.0000000001
 40
5.779271486987545
 40
5.779271486987545
 40
5.779271486987545
 40
5.779271486987545
 40
7.377122246071414
 40
7.377122246071414
 40
7.377122246071414
 40
7.377122246071414
 10
-19.06165811010073
 20
13.44084973287404
 30
0.0
 10
-17.5279064731181
 20
12.8394125755786
 30
0.0
 10
-16.00355178262153
 20
12.17563498655131
 30
0.0
 10
-14.4868601636767
 20
11.46101969300043
 30
0.0
  0
LINE
  5
4945
330
1F
100
AcDbEntity
  8
AM_0
100
AcDbLine
 10
-12.19946119046468
 20
-15.59951815239781
 30
0.0
 11
-12.19946119046468
 21
-13.2706225402823
 31
0.0
  0
LINE
  5
4946
330
1F
100
AcDbEntity
  8
AM_0
100
AcDbLine
 10
-16.77425913688871
 20
-13.99550037033776
 30
0.0
 11
-16.77425913688871
 21
-11.25710248866828
 31
0.0
  0
SPLINE
  5
4947
330
1F
100
AcDbEntity
  8
AM_0
100
AcDbSpline
210
0.0
220
0.0
230
1.0
 70
     8
 71
     3
 72
     8
 73
     4
 74
     0
 42
0.0000000001
 43
0.0000000001
 40
5.928582328726523
 40
5.928582328726523
 40
5.928582328726523
 40
5.928582328726523
 40
7.528098176779675
 40
7.528098176779675
 40
7.528098176779675
 40
7.528098176779675
 10
-12.19946119047855
 20
-13.27062254027673
 30
0.0
 10
-13.73306825421435
 20
-12.65699626360941
 30
0.0
 10
-15.25742113596021
 20
-11.9819766714209
 30
0.0
 10
-16.77425913681382
 20
-11.2571024887041
 30
0.0
  0
SPLINE
  5
4948
330
1F
100
AcDbEntity
  8
AM_0
100
AcDbSpline
210
0.0
220
0.0
230
1.0
 70
     8
 71
     3
 72
     8
 73
     4
 74
     0
 42
0.0000000001
 43
0.0000000001
 40
4.096652702081863
 40
4.096652702081863
 40
4.096652702081863
 40
4.096652702081863
 40
5.678228147290397
 40
5.678228147290397
 40
5.678228147290397
 40
5.678228147290397
 10
-12.19946119045913
 20
-15.59951815239462
 30
0.0
 10
-13.7354031915917
 20
-15.13582471548527
 30
0.0
 10
-15.25974756237555
 20
-14.59735939350632
 30
0.0
 10
-16.77425913688871
 20
-13.99550037033776
 30
0.0
  0
LINE
  5
4949
330
1F
100
AcDbEntity
  8
AM_0
100
AcDbLine
 10
-22.87398973212076
 20
-11.231601293634
 30
0.0
 11
-22.87398973212076
 21
-8.080892071553696
 31
0.0
  0
SPLINE
  5
494A
330
1F
100
AcDbEntity
  8
AM_0
100
AcDbSpline
210
0.0
220
0.0
230
1.0
 70
     8
 71
     3
 72
     9
 73
     5
 74
     0
 42
0.0000000001
 43
0.0000000001
 40
0.0
 40
0.0
 40
0.0
 40
0.0
 40
1.80162782053068
 40
3.313189647300303
 40
3.313189647300303
 40
3.313189647300303
 40
3.313189647300303
 10
-16.77425913688871
 20
-13.99550037033776
 30
0.0
 10
-17.52646790441457
 20
-12.89169641658019
 30
0.0
 10
-19.55111597689106
 20
-11.62905164513197
 30
0.0
 10
-21.89959174497102
 20
-10.86858794923999
 30
0.0
 10
-22.87398973212076
 20
-11.231601293634
 30
0.0
  0
SPLINE
  5
494B
330
1F
100
AcDbEntity
  8
AM_0
100
AcDbSpline
210
0.0
220
0.0
230
1.0
 70
     8
 71
     3
 72
     9
 73
     5
 74
     0
 42
0.0000000001
 43
0.0000000001
 40
0.0
 40
0.0
 40
0.0
 40
0.0
 40
2.141059343722855
 40
3.651523002367593
 40
3.651523002367593
 40
3.651523002367593
 40
3.651523002367593
 10
-16.77425913688871
 20
-11.231601293634
 30
0.0
 10
-17.69015586502401
 20
-9.93995150947175
 30
0.0
 10
-19.13644457144849
 20
-6.662877880648506
 30
0.0
 10
-21.85647139987188
 20
-7.951841579727426
 30
0.0
 10
-22.87398973212076
 20
-8.080892071553696
 30
0.0
  0
SPLINE
  5
494C
330
1F
100
AcDbEntity
  8
AM_0
100
AcDbSpline
210
0.0
220
0.0
230
1.0
 70
     8
 71
     3
 72
     8
 73
     4
 74
     0
 42
0.0000000001
 43
0.0000000001
 40
0.0
 40
0.0
 40
0.0
 40
0.0
 40
3.835275104118792
 40
3.835275104118792
 40
3.835275104118792
 40
3.835275104118792
 10
-0.0000000000005958
 20
17.49999999999346
 30
0.0
 10
-3.899024148954861
 20
17.49999999999346
 30
0.0
 10
-7.702966920591572
 20
16.88699427348735
 30
0.0
 10
-11.43699486606067
 20
15.82323583368413
 30
0.0
  0
SPLINE
  5
494D
330
1F
100
AcDbEntity
  8
AM_0
100
AcDbSpline
210
0.0
220
0.0
230
1.0
 70
     8
 71
     3
 72
     9
 73
     5
 74
     0
 42
0.0000000001
 43
0.0000000001
 40
0.0
 40
0.0
 40
0.0
 40
0.0
 40
1.903742594624469
 40
3.430173214614181
 40
3.430173214614181
 40
3.430173214614181
 40
3.430173214614181
 10
-6.09973059523264
 20
-15.34601114502998
 30
0.0
 10
-6.937658598105115
 20
-14.22006000384066
 30
0.0
 10
-8.754090589538366
 20
-11.76018645201812
 30
0.0
 10
-11.20586796071787
 20
-12.93993431410912
 30
0.0
 10
-12.19946119047855
 20
-13.27062254027673
 30
0.0
  0
SPLINE
  5
494E
330
1F
100
AcDbEntity
  8
AM_0
100
AcDbSpline
210
0.0
220
0.0
230
1.0
 70
     8
 71
     3
 72
     9
 73
     5
 74
     0
 42
0.0000000001
 43
0.0000000001
 40
0.0
 40
0.0
 40
0.0
 40
0.0
 40
1.72658936472417
 40
3.24728190261914
 40
3.24728190261914
 40
3.24728190261914
 40
3.24728190261914
 10
-6.09973059523264
 20
-17.01127489674314
 30
0.0
 10
-6.814814728647924
 20
-15.94827757132769
 30
0.0
 10
-8.980824573355764
 20
-14.54775689782566
 30
0.0
 10
-11.25802163645048
 20
-15.11818186217225
 30
0.0
 10
-12.19946119046468
 20
-15.59951815239781
 30
0.0
  0
SPLINE
  5
494F
330
1F
100
AcDbEntity
  8
AM_0
100
AcDbSpline
210
0.0
220
0.0
230
1.0
 70
     8
 71
     3
 72
     9
 73
     5
 74
     0
 42
0.0000000001
 43
0.0000000001
 40
0.0
 40
0.0
 40
0.0
 40
0.0
 40
1.862990800602817
 40
3.382267404545521
 40
3.382267404545521
 40
3.382267404545521
 40
3.382267404545521
 10
-8.387129568444658
 20
8.320076976832931
 30
0.0
 10
-9.419506104474542
 20
9.154316450052698
 30
0.0
 10
-11.01878980058674
 20
11.20312423354281
 30
0.0
 10
-13.46081540733552
 20
11.56031342063566
 30
0.0
 10
-14.4868601636767
 20
11.46101969300043
 30
0.0
  0
SPLINE
  5
4950
330
1F
100
AcDbEntity
  8
AM_0
100
AcDbSpline
210
0.0
220
0.0
230
1.0
 70
     8
 71
     3
 72
     9
 73
     5
 74
     0
 42
0.0000000001
 43
0.0000000001
 40
0.0
 40
0.0
 40
0.0
 40
0.0
 40
1.59747099413338
 40
3.403889013946459
 40
3.403889013946459
 40
3.403889013946459
 40
3.403889013946459
 10
-8.387129568444658
 20
5.399798460526834
 30
0.0
 10
-9.435361778777791
 20
5.710731591078029
 30
0.0
 10
-11.66451899715239
 20
6.547337535016201
 30
0.0
 10
-13.48192625643422
 20
8.228006711406232
 30
0.0
 10
-14.4868601636767
 20
9.030507592154844
 30
0.0
  0
LINE
  5
4951
330
1F
100
AcDbEntity
  8
AM_0
100
AcDbLine
 10
-29.73618665175681
 20
15.73530628102134
 30
0.0
 11
-29.73618665175681
 21
16.44882020469976
 31
0.0
  0
SPLINE
  5
4952
330
1F
100
AcDbEntity
  8
AM_0
100
AcDbSpline
210
0.0
220
0.0
230
1.0
 70
     8
 71
     3
 72
     8
 73
     4
 74
     0
 42
0.0000000001
 43
0.0000000001
 40
0.3507760400854742
 40
0.3507760400854742
 40
0.3507760400854742
 40
0.3507760400854742
 40
1.871307041999678
 40
1.871307041999678
 40
1.871307041999678
 40
1.871307041999678
 10
-40.41071519341289
 20
17.48474072566871
 30
0.0
 10
-38.87172218976743
 20
17.44082319851254
 30
0.0
 10
-37.34731229659377
 20
17.3028858908071
 30
0.0
 10
-35.83591724698886
 20
17.08103968462064
 30
0.0
  0
SPLINE
  5
4953
330
1F
100
AcDbEntity
  8
AM_0
100
AcDbSpline
210
0.0
220
0.0
230
1.0
 70
     8
 71
     3
 72
     8
 73
     4
 74
     0
 42
0.0000000001
 43
0.0000000001
 40
13.73199344169106
 40
13.73199344169106
 40
13.73199344169106
 40
13.73199344169106
 40
14.43901837670146
 40
14.43901837670146
 40
14.43901837670146
 40
14.43901837670146
 10
-38.12331622020087
 20
1.245880140546726
 30
0.0
 10
-37.46703879633176
 20
0.8312511228662724
 30
0.0
 10
-36.81091158746927
 20
0.4156255614298726
 30
0.0
 10
-36.15478437860679
 20
-0.0000000000057317
 30
0.0
  0
SPLINE
  5
4954
330
1F
100
AcDbEntity
  8
AM_0
100
AcDbSpline
210
0.0
220
0.0
230
1.0
 70
     8
 71
     3
 72
     9
 73
     5
 74
     0
 42
0.0000000001
 43
0.0000000001
 40
0.0
 40
0.0
 40
0.0
 40
0.0
 40
1.008936993267342
 40
1.777052715134862
 40
1.777052715134862
 40
1.777052715134862
 40
1.777052715134862
 10
-29.73618665175681
 20
16.44882020469976
 30
0.0
 10
-30.73057509058409
 20
16.16016699062942
 30
0.0
 10
-32.5616904765548
 20
15.70909967326901
 30
0.0
 10
-34.31901577878922
 20
16.28758433229092
 30
0.0
 10
-35.07516949120876
 20
16.5378429978428
 30
0.0
  0
SPLINE
  5
4955
330
1F
100
AcDbEntity
  8
AM_0
100
AcDbSpline
210
0.0
220
0.0
230
1.0
 70
     8
 71
     3
 72
     9
 73
     5
 74
     0
 42
0.0000000001
 43
0.0000000001
 40
0.0
 40
0.0
 40
0.0
 40
0.0
 40
1.524049486410846
 40
3.246382277554493
 40
3.246382277554493
 40
3.246382277554493
 40
3.246382277554493
 10
-29.73618665175681
 20
15.73530628102134
 30
0.0
 10
-30.69953259637571
 20
15.30762101132468
 30
0.0
 10
-33.0709869046658
 20
14.39808248039953
 30
0.0
 10
-34.80680225049003
 20
16.4487919303265
 30
0.0
 10
-35.83591724698886
 20
17.08103968462064
 30
0.0
  0
LINE
  5
4956
330
1F
100
AcDbEntity
  8
AM_0
100
AcDbLine
 10
-27.44878767853785
 20
-8.771964122019586
 30
0.0
 11
-27.44878767854479
 21
-5.420801656765596
 31
0.0
  0
LINE
  5
4957
330
1F
100
AcDbEntity
  8
AM_0
100
AcDbLine
 10
-33.54851827377684
 20
-5.114023890470822
 30
0.0
 11
-33.54851827377684
 21
-1.648413213850792
 31
0.0
  0
SPLINE
  5
4958
330
1F
100
AcDbEntity
  8
AM_0
100
AcDbSpline
210
0.0
220
0.0
230
1.0
 70
     8
 71
     3
 72
     8
 73
     4
 74
     0
 42
0.0000000001
 43
0.0000000001
 40
1.999245295235591
 40
1.999245295235591
 40
1.999245295235591
 40
1.999245295235591
 40
2.130230809022907
 40
2.130230809022907
 40
2.130230809022907
 40
2.130230809022907
 10
-35.45468408478685
 20
-17.0232648183558
 30
0.0
 10
-35.32467329705171
 20
-17.00294374984666
 30
0.0
 10
-35.19475811181303
 20
-16.98200631586512
 30
0.0
 10
-35.06493752652734
 20
-16.9604589799905
 30
0.0
  0
SPLINE
  5
4959
330
1F
100
AcDbEntity
  8
AM_0
100
AcDbSpline
210
0.0
220
0.0
230
1.0
 70
     8
 71
     3
 72
     9
 73
     5
 74
     0
 42
0.0000000001
 43
0.0000000001
 40
0.0
 40
0.0
 40
0.0
 40
0.0
 40
2.234683413624822
 40
3.734683413624822
 40
3.734683413624822
 40
3.734683413624822
 40
3.734683413624822
 10
-27.44878767854479
 20
-5.420801656869051
 30
0.0
 10
-28.19641649067609
 20
-3.909236311810985
 30
0.0
 10
-29.67053288546209
 20
-1.168662476941504
 30
0.0
 10
-32.64767163600029
 20
-1.015059943387215
 30
0.0
 10
-33.54851827377684
 20
-1.555763379103088
 30
0.0
  0
SPLINE
  5
495A
330
1F
100
AcDbEntity
  8
AM_0
100
AcDbSpline
210
0.0
220
0.0
230
1.0
 70
     8
 71
     3
 72
     9
 73
     5
 74
     0
 42
0.0000000001
 43
0.0000000001
 40
0.0
 40
0.0
 40
0.0
 40
0.0
 40
1.804831497484455
 40
3.407354979375
 40
3.407354979375
 40
3.407354979375
 40
3.407354979375
 10
-27.44878767854479
 20
-8.771964122015607
 30
0.0
 10
-28.38947946151268
 20
-7.87466210036268
 30
0.0
 10
-30.31837402420948
 20
-6.398243538318519
 30
0.0
 10
-32.48162482048999
 20
-5.347429522721959
 30
0.0
 10
-33.54851827377684
 20
-5.114023890470822
 30
0.0
  0
SPLINE
  5
495B
330
1F
100
AcDbEntity
  8
AM_0
100
AcDbSpline
210
0.0
220
0.0
230
1.0
 70
     8
 71
     3
 72
     8
 73
     4
 74
     0
 42
0.0000000001
 43
0.0000000001
 40
0.2298684927509915
 40
0.2298684927509915
 40
0.2298684927509915
 40
0.2298684927509915
 40
2.764560748519282
 40
2.764560748519282
 40
2.764560748519282
 40
2.764560748519282
 10
-35.45468408478685
 20
-16.96957337557232
 30
0.0
 10
-32.88495508614045
 20
-16.92250884564742
 30
0.0
 10
-30.35402572782706
 20
-16.61804300636292
 30
0.0
 10
-27.85497475497389
 20
-16.1020922644572
 30
0.0
  0
LINE
  5
495C
330
1F
100
AcDbEntity
  8
AM_0
100
AcDbLine
 10
-38.12331622020087
 20
-2.189351644061778
 30
0.0
 11
-38.12331622020087
 21
1.245880140546726
 31
0.0
  0
SPLINE
  5
495D
330
1F
100
AcDbEntity
  8
AM_0
100
AcDbSpline
210
0.0
220
0.0
230
1.0
 70
     8
 71
     3
 72
     8
 73
     4
 74
     0
 42
0.0000000001
 43
0.0000000001
 40
13.50299628442394
 40
13.50299628442394
 40
13.50299628442394
 40
13.50299628442394
 40
14.43901837670146
 40
14.43901837670146
 40
14.43901837670146
 40
14.43901837670146
 10
-33.54851827377684
 20
-1.648413213850792
 30
0.0
 10
-34.41750600997131
 20
-1.100483698260565
 30
0.0
 10
-35.28614519428905
 20
-0.5502418491335465
 30
0.0
 10
-36.15478437860679
 20
-0.0000000000057317
 30
0.0
  0
LINE
  5
495E
330
1F
100
AcDbEntity
  8
AM_0
100
AcDbLine
 10
-44.22304681543291
 20
1.792810011611958
 30
0.0
 11
-44.22304681543291
 21
5.035968329746037
 31
0.0
  0
LINE
  5
495F
330
1F
100
AcDbEntity
  8
AM_0
100
AcDbLine
 10
-48.79784476185694
 20
4.730724090026295
 30
0.0
 11
-48.79784476189301
 21
7.72219087189394
 31
0.0
  0
SPLINE
  5
4960
330
1F
100
AcDbEntity
  8
AM_0
100
AcDbSpline
210
0.0
220
0.0
230
1.0
 70
     8
 71
     3
 72
     9
 73
     5
 74
     0
 42
0.0000000001
 43
0.0000000001
 40
0.0
 40
0.0
 40
0.0
 40
0.0
 40
1.609341566343276
 40
3.411820827695224
 40
3.411820827695224
 40
3.411820827695224
 40
3.411820827695224
 10
-48.79784476185694
 20
4.7307240900255
 30
0.0
 10
-49.82648727205003
 20
5.147003644880022
 30
0.0
 10
-52.02212293374435
 20
5.999261132313136
 30
0.0
 10
-53.99249046631626
 20
7.481746928352412
 30
0.0
 10
-54.89757535708068
 20
8.423326472166944
 30
0.0
  0
LINE
  5
4961
330
1F
100
AcDbEntity
  8
AM_0
100
AcDbLine
 10
-54.89757535708899
 20
8.423326472174903
 30
0.0
 11
-54.89757535708899
 21
10.94921946047424
 31
0.0
  0
SPLINE
  5
4962
330
1F
100
AcDbEntity
  8
AM_0
100
AcDbSpline
210
0.0
220
0.0
230
1.0
 70
     8
 71
     3
 72
     9
 73
     5
 74
     0
 42
0.0000000001
 43
0.0000000001
 40
0.0
 40
0.0
 40
0.0
 40
0.0
 40
1.891503755460323
 40
3.409143341102712
 40
3.409143341102712
 40
3.409143341102712
 40
3.409143341102712
 10
-48.79784476185694
 20
7.722190871874045
 30
0.0
 10
-49.79061852196966
 20
8.652963661319786
 30
0.0
 10
-51.41184990331154
 20
10.73038772425711
 30
0.0
 10
-53.87140081390171
 20
11.02984840002412
 30
0.0
 10
-54.89757535708899
 20
10.94921946047424
 30
0.0
  0
SPLINE
  5
4963
330
1F
100
AcDbEntity
  8
AM_0
100
AcDbSpline
210
0.0
220
0.0
230
1.0
 70
     8
 71
     3
 72
     8
 73
     4
 74
     0
 42
0.0000000001
 43
0.0000000001
 40
1.666991338825053
 40
1.666991338825053
 40
1.666991338825053
 40
1.666991338825053
 40
3.21070440243455
 40
3.21070440243455
 40
3.21070440243455
 40
3.21070440243455
 10
-46.51044578863937
 20
17.16589934568089
 30
0.0
 10
-48.04846332835547
 20
16.9637498964907
 30
0.0
 10
-49.57284894530193
 20
16.67371313481164
 30
0.0
 10
-51.08524373506896
 20
16.30636948154831
 30
0.0
  0
SPLINE
  5
4964
330
1F
100
AcDbEntity
  8
AM_0
100
AcDbSpline
210
0.0
220
0.0
230
1.0
 70
     8
 71
     3
 72
     8
 73
     4
 74
     0
 42
0.0000000001
 43
0.0000000001
 40
9.911909440357588
 40
9.911909440357588
 40
9.911909440357588
 40
9.911909440357588
 40
11.54467281373877
 40
11.54467281373877
 40
11.54467281373877
 40
11.54467281373877
 10
-48.79784476185694
 20
7.722190871873247
 30
0.0
 10
-47.2683992716929
 20
6.856722070248179
 30
0.0
 10
-45.74408329970336
 20
5.957223450747799
 30
0.0
 10
-44.22304681543291
 20
5.035968329746037
 30
0.0
  0
SPLINE
  5
4965
330
1F
100
AcDbEntity
  8
AM_0
100
AcDbSpline
210
0.0
220
0.0
230
1.0
 70
     8
 71
     3
 72
     8
 73
     4
 74
     0
 42
0.0000000001
 43
0.0000000001
 40
11.84940637128532
 40
11.84940637128532
 40
11.84940637128532
 40
11.84940637128532
 40
14.48999654934396
 40
14.48999654934396
 40
14.48999654934396
 40
14.48999654934396
 10
-48.79784476185694
 20
4.7307240900255
 30
0.0
 10
-46.35247674502735
 20
3.189119331987125
 30
0.0
 10
-43.91532239630278
 20
1.594559665991094
 30
0.0
 10
-41.47816804757821
 20
-0.0000000000057317
 30
0.0
  0
LINE
  5
4966
330
1F
100
AcDbEntity
  8
AM_0
100
AcDbLine
 10
-41.55441468001612
 20
-17.49992188024457
 30
0.0
 11
-41.55441468008962
 21
-16.60124396420308
 31
0.0
  0
LINE
  5
4967
330
1F
100
AcDbEntity
  8
AM_0
100
AcDbLine
 10
-46.12921262644293
 20
-17.21416671395677
 30
0.0
 11
-46.12921262644293
 21
-15.72406062985412
 31
0.0
  0
SPLINE
  5
4968
330
1F
100
AcDbEntity
  8
AM_0
100
AcDbSpline
210
0.0
220
0.0
230
1.0
 70
     8
 71
     3
 72
     8
 73
     4
 74
     0
 42
0.0000000001
 43
0.0000000001
 40
1.788970302442027
 40
1.788970302442027
 40
1.788970302442027
 40
1.788970302442027
 40
3.332324051699147
 40
3.332324051699147
 40
3.332324051699147
 40
3.332324051699147
 10
-41.55441468001888
 20
-16.60124396421263
 30
0.0
 10
-43.09163306629055
 20
-16.39035452521164
 30
0.0
 10
-44.61604489909285
 20
-16.09450492670788
 30
0.0
 10
-46.1292126264249
 20
-15.72406062975862
 30
0.0
  0
SPLINE
  5
4969
330
1F
100
AcDbEntity
  8
AM_0
100
AcDbSpline
210
0.0
220
0.0
230
1.0
 70
     8
 71
     3
 72
     8
 73
     4
 74
     0
 42
0.0000000001
 43
0.0000000001
 40
0.0
 40
0.0
 40
0.0
 40
0.0
 40
1.539536607901005
 40
1.539536607901005
 40
1.539536607901005
 40
1.539536607901005
 10
-41.47816804757821
 20
-17.50000000000573
 30
0.0
 10
-43.04329447252809
 20
-17.50000000000573
 30
0.0
 10
-44.59310006153891
 20
-17.401223978564
 30
0.0
 10
-46.12921262644293
 20
-17.21416671395677
 30
0.0
  0
SPLINE
  5
496A
330
1F
100
AcDbEntity
  8
0
100
AcDbSpline
210
0.0
220
0.0
230
1.0
 70
     8
 71
     3
 72
     8
 73
     4
 74
     0
 42
0.0000000001
 43
0.0000000001
 40
0.0
 40
0.0
 40
0.0
 40
0.0
 40
1.208398095880623
 40
1.208398095880623
 40
1.208398095880623
 40
1.208398095880623
 10
-41.56488236612155
 20
-17.48639185436347
 30
0.0
 10
-43.10048712375982
 20
-17.48639185436348
 30
0.0
 10
-44.62129020499159
 20
-17.39108265327308
 30
0.0
 10
-46.12883641706679
 20
-17.21041139091519
 30
0.0
  0
LINE
  5
496B
330
1F
100
AcDbEntity
  8
AM_0
100
AcDbLine
 10
-52.22894322167498
 20
-16.01340240209804
 30
0.0
 11
-52.22894322167498
 21
-13.83060299064885
 31
0.0
  0
SPLINE
  5
496C
330
1F
100
AcDbEntity
  8
AM_0
100
AcDbSpline
210
0.0
220
0.0
230
1.0
 70
     8
 71
     3
 72
     9
 73
     5
 74
     0
 42
0.0000000001
 43
0.0000000001
 40
0.0
 40
0.0
 40
0.0
 40
0.0
 40
1.853196961853059
 40
3.381663674709893
 40
3.381663674709893
 40
3.381663674709893
 40
3.381663674709893
 10
-46.12921262644293
 20
-15.68480303217636
 30
0.0
 10
-47.00936357542044
 20
-14.656525726868
 30
0.0
 10
-48.82406402061004
 20
-12.32301693415398
 30
0.0
 10
-51.24063871934854
 20
-13.47434251927625
 30
0.0
 10
-52.22894322168052
 20
-13.83060299064566
 30
0.0
  0
SPLINE
  5
496D
330
1F
100
AcDbEntity
  8
AM_0
100
AcDbSpline
210
0.0
220
0.0
230
1.0
 70
     8
 71
     3
 72
     9
 73
     5
 74
     0
 42
0.0000000001
 43
0.0000000001
 40
0.0
 40
0.0
 40
0.0
 40
0.0
 40
1.712940807075481
 40
3.245153285734257
 40
3.245153285734257
 40
3.245153285734257
 40
3.245153285734257
 10
-46.12921262644293
 20
-17.21416671395677
 30
0.0
 10
-47.15071467669132
 20
-16.58109566580707
 30
0.0
 10
-48.93909329841523
 20
-14.48147965453889
 30
0.0
 10
-51.23133385372337
 20
-15.68246266397161
 30
0.0
 10
-52.22894322168884
 20
-16.01340240207496
 30
0.0
  0
SPLINE
  5
496E
330
1F
100
AcDbEntity
  8
AM_0
100
AcDbSpline
210
0.0
220
0.0
230
1.0
 70
     8
 71
     3
 72
     9
 73
     5
 74
     0
 42
0.0000000001
 43
0.0000000001
 40
0.0
 40
0.0
 40
0.0
 40
0.0
 40
1.603217326944703
 40
3.259613869965475
 40
3.259613869965475
 40
3.259613869965475
 40
3.259613869965475
 10
-46.51044578864492
 20
17.1658993456793
 30
0.0
 10
-45.51867638553961
 20
16.65648856719123
 30
0.0
 10
-43.39171258771003
 20
14.92134354634161
 30
0.0
 10
-41.40598932394634
 20
16.88876239588533
 30
0.0
 10
-40.41071519341289
 20
17.48474072566871
 30
0.0
  0
SPLINE
  5
496F
330
1F
100
AcDbEntity
  8
AM_0
100
AcDbSpline
210
0.0
220
0.0
230
1.0
 70
     8
 71
     3
 72
     9
 73
     5
 74
     0
 42
0.0000000001
 43
0.0000000001
 40
0.0
 40
0.0
 40
0.0
 40
0.0
 40
2.134718602092789
 40
3.638419521675699
 40
3.638419521675699
 40
3.638419521675699
 40
3.638419521675699
 10
-38.12331622020087
 20
1.245880140546726
 30
0.0
 10
-38.89114990380498
 20
2.653102865198314
 30
0.0
 10
-40.51444432225514
 20
5.169298680610838
 30
0.0
 10
-43.23351836992169
 20
5.315800802667989
 30
0.0
 10
-44.22304681543291
 20
5.035968329746037
 30
0.0
  0
SPLINE
  5
4970
330
1F
100
AcDbEntity
  8
AM_0
100
AcDbSpline
210
0.0
220
0.0
230
1.0
 70
     8
 71
     3
 72
     8
 73
     4
 74
     0
 42
0.0000000001
 43
0.0000000001
 40
0.0
 40
0.0
 40
0.0
 40
0.0
 40
1.498423311644514
 40
1.498423311644514
 40
1.498423311644514
 40
1.498423311644514
 10
-41.55441468001888
 20
-16.60124396421263
 30
0.0
 10
-40.65489668857805
 20
-16.06027209888128
 30
0.0
 10
-39.56532747184
 20
-15.48969512844443
 30
0.0
 10
-38.58773809671555
 20
-15.8053709849185
 30
0.0
  0
SPLINE
  5
4971
330
1F
100
AcDbEntity
  8
AM_0
100
AcDbSpline
210
0.0
220
0.0
230
1.0
 70
     8
 71
     3
 72
     9
 73
     5
 74
     0
 42
0.0000000001
 43
0.0000000001
 40
0.0
 40
0.0
 40
0.0
 40
0.0
 40
1.667714745337139
 40
3.256805083315271
 40
3.256805083315271
 40
3.256805083315271
 40
3.256805083315271
 10
-41.55441468001888
 20
-17.49992188024696
 30
0.0
 10
-40.6091840494206
 20
-16.78869764758851
 30
0.0
 10
-38.59353695550614
 20
-14.96800465238356
 30
0.0
 10
-36.42409833097451
 20
-16.48478806031488
 30
0.0
 10
-35.45468408478685
 20
-17.0232648183558
 30
0.0
  0
SPLINE
  5
4972
330
1F
100
AcDbEntity
  8
AM_0
100
AcDbSpline
210
0.0
220
0.0
230
1.0
 70
     8
 71
     3
 72
     8
 73
     4
 74
     0
 42
0.0000000001
 43
0.0000000001
 40
11.62991291415682
 40
11.62991291415682
 40
11.62991291415682
 40
11.62991291415682
 40
14.48999654934396
 40
14.48999654934396
 40
14.48999654934396
 40
14.48999654934396
 10
-33.54851827377684
 20
-5.114023890470822
 30
0.0
 10
-36.1986927794125
 20
-3.454208111466462
 30
0.0
 10
-38.83843041349465
 20
-1.727104055736096
 30
0.0
 10
-41.47816804757821
 20
-0.0000000000065275
 30
0.0
  0
SPLINE
  5
4973
330
1F
100
AcDbEntity
  8
AM_0
100
AcDbSpline
210
0.0
220
0.0
230
1.0
 70
     8
 71
     3
 72
     8
 73
     4
 74
     0
 42
0.0000000001
 43
0.0000000001
 40
2.130606102564619
 40
2.130606102564619
 40
2.130606102564619
 40
2.130606102564619
 40
3.679329335050426
 40
3.679329335050426
 40
3.679329335050426
 40
3.679329335050426
 10
-29.73618665175681
 20
16.44882020470056
 30
0.0
 10
-28.19923272799487
 20
16.19996242012275
 30
0.0
 10
-26.67482635003879
 20
15.86786276290656
 30
0.0
 10
-25.16138870533971
 20
15.46299525839238
 30
0.0
  0
SPLINE
  5
4974
330
1F
100
AcDbEntity
  8
AM_0
100
AcDbSpline
210
0.0
220
0.0
230
1.0
 70
     8
 71
     3
 72
     8
 73
     4
 74
     0
 42
0.0000000001
 43
0.0000000001
 40
3.939746932601999
 40
3.939746932601999
 40
3.939746932601999
 40
3.939746932601999
 40
5.519086939037594
 40
5.519086939037594
 40
5.519086939037594
 40
5.519086939037594
 10
-29.73618665175681
 20
15.73530628102134
 30
0.0
 10
-28.20010032929308
 20
15.28719511721062
 30
0.0
 10
-26.67575346757369
 20
14.7633976637772
 30
0.0
 10
-25.16138870533277
 20
14.17524392612001
 30
0.0
  0
SPLINE
  5
4975
330
1F
100
AcDbEntity
  8
AM_0
100
AcDbSpline
210
0.0
220
0.0
230
1.0
 70
     8
 71
     3
 72
     8
 73
     4
 74
     0
 42
0.0000000001
 43
0.0000000001
 40
9.685078621624523
 40
9.685078621624523
 40
9.685078621624523
 40
9.685078621624523
 40
11.31655044551473
 40
11.31655044551473
 40
11.31655044551473
 40
11.31655044551473
 10
-22.87398973212076
 20
-8.080892071553696
 30
0.0
 10
-24.40368518074136
 20
-7.225792232356686
 30
0.0
 10
-25.92800261499895
 20
-6.335014022764815
 30
0.0
 10
-27.44878767858224
 20
-5.420801656846767
 30
0.0
  0
SPLINE
  5
4976
330
1F
100
AcDbEntity
  8
AM_0
100
AcDbSpline
210
0.0
220
0.0
230
1.0
 70
     8
 71
     3
 72
     8
 73
     4
 74
     0
 42
0.0000000001
 43
0.0000000001
 40
7.818791612490512
 40
7.818791612490512
 40
7.818791612490512
 40
7.818791612490512
 40
9.443881246512125
 40
9.443881246512125
 40
9.443881246512125
 40
9.443881246512125
 10
-22.87398973212076
 20
-11.23160129363321
 30
0.0
 10
-24.40614366489977
 20
-10.45827907596565
 30
0.0
 10
-25.93043813127523
 20
-9.634285548643154
 30
0.0
 10
-27.44878767854479
 20
-8.771964122015607
 30
0.0
  0
SPLINE
  5
4977
330
1F
100
AcDbEntity
  8
AM_0
100
AcDbSpline
210
0.0
220
0.0
230
1.0
 70
     8
 71
     3
 72
     8
 73
     4
 74
     0
 42
0.0000000001
 43
0.0000000001
 40
0.7142832446738512
 40
0.7142832446738512
 40
0.7142832446738512
 40
0.7142832446738512
 40
9.361146747480315
 40
9.361146747480315
 40
9.361146747480315
 40
9.361146747480315
 10
-27.85497475465213
 20
16.10209226437889
 30
0.0
 10
-19.13228089428053
 20
15.63024203639481
 30
0.0
 10
-10.81006867721665
 20
12.37519458979257
 30
0.0
 10
-2.634611512113025
 20
8.100254573176993
 30
0.0
  0
SPLINE
  5
4978
330
1F
100
AcDbEntity
  8
AM_0
100
AcDbSpline
210
0.0
220
0.0
230
1.0
 70
     8
 71
     3
 72
     8
 73
     4
 74
     0
 42
0.0000000001
 43
0.0000000001
 40
0.0
 40
0.0
 40
0.0
 40
0.0
 40
4.451443990518192
 40
4.451443990518192
 40
4.451443990518192
 40
4.451443990518192
 10
-30.02495802071312
 20
-16.16105576331534
 30
0.0
 10
-25.49952317039343
 20
-16.16105576331534
 30
0.0
 10
-21.08578014797806
 20
-15.38483944987177
 30
0.0
 10
-16.74911167553834
 20
-14.07298392123828
 30
0.0
  0
SPLINE
  5
4979
330
1F
100
AcDbEntity
  8
AM_0
100
AcDbSpline
210
0.0
220
0.0
230
1.0
 70
     8
 71
     3
 72
     8
 73
     4
 74
     0
 42
0.0000000001
 43
0.0000000001
 40
4.542668862435135
 40
4.542668862435135
 40
4.542668862435135
 40
4.542668862435135
 40
14.36247867694493
 40
14.36247867694493
 40
14.36247867694493
 40
14.36247867694493
 10
-2.089157728863243
 20
-13.99165829410451
 30
0.0
 10
-11.64883801206421
 20
-11.04951990301133
 30
0.0
 10
-20.83689801638866
 20
-5.524759951508532
 30
0.0
 10
-30.02495802071312
 20
-0.0000000000057317
 30
0.0
  0
DIMENSION
  5
497A
330
1F
100
AcDbEntity
  8
AM_5
100
AcDbDimension
  2
*D30
 10
14.00000000000139
 20
-17.500000000004
 30
0.0
 11
10.9000000000014
 21
-0.0000000000037752
 31
0.0
 70
    32
  1
%%c<>
  3
AM_JIS
100
AcDbAlignedDimension
 13
-0.0000000000026834
 23
17.49999999999645
 33
0.0
 14
0.0000000000015401
 24
-17.500000000004
 34
0.0
 50
90.00000000000003
100
AcDbRotatedDimension
1001
GENIUS_GENDTOL_13
1000

1000
h7
1000

1040
0.0
  0
SPLINE
  5
4987
330
1F
100
AcDbEntity
  8
AM_0
100
AcDbSpline
210
0.0
220
0.0
230
1.0
 70
     8
 71
     3
 72
     8
 73
     4
 74
     0
 42
0.0000000001
 43
0.0000000001
 40
5.307227569610006
 40
5.307227569610006
 40
5.307227569610006
 40
5.307227569610006
 40
5.635889483499305
 40
5.635889483499305
 40
5.635889483499305
 40
5.635889483499305
 10
-57.18497433030101
 20
14.40843467852364
 30
0.0
 10
-57.50067873596921
 20
14.28967492334943
 30
0.0
 10
-57.81594064848287
 20
14.16806233993277
 30
0.0
 10
-58.13077590518256
 20
14.04369903429341
 30
0.0
  0
LINE
  5
4988
330
1F
100
AcDbEntity
  8
AM_0
100
AcDbLine
 10
-59.47237330351303
 20
10.92087096241272
 30
0.0
 11
-59.47237330351164
 21
13.01172678737641
 31
0.0
  0
LINE
  5
4989
330
1F
100
AcDbEntity
  8
AM_0
100
AcDbLine
 10
-65.57210389874507
 20
13.74948428328975
 30
0.0
 11
-65.57210389874507
 21
15.16498206550279
 31
0.0
  0
LINE
  5
498A
330
1F
100
AcDbEntity
  8
AM_0
100
AcDbLine
 10
-70.1469018451691
 20
15.41127482995961
 30
0.0
 11
-70.1469018451691
 21
16.26235359754657
 31
0.0
  0
SPLINE
  5
498B
330
1F
100
AcDbEntity
  8
AM_0
100
AcDbSpline
210
0.0
220
0.0
230
1.0
 70
     8
 71
     3
 72
     8
 73
     4
 74
     0
 42
0.0000000001
 43
0.0000000001
 40
2.489821994174631
 40
2.489821994174631
 40
2.489821994174631
 40
2.489821994174631
 40
4.043019649814397
 40
4.043019649814397
 40
4.043019649814397
 40
4.043019649814397
 10
-70.1469018451691
 20
16.26235359754657
 30
0.0
 10
-68.61125977259146
 20
15.97461560073936
 30
0.0
 10
-67.08786953897986
 20
15.60559748471616
 30
0.0
 10
-65.57513860815525
 20
15.16586431900675
 30
0.0
  0
SPLINE
  5
498C
330
1F
100
AcDbEntity
  8
AM_0
100
AcDbSpline
210
0.0
220
0.0
230
1.0
 70
     8
 71
     3
 72
     8
 73
     4
 74
     0
 42
0.0000000001
 43
0.0000000001
 40
4.306226182506206
 40
4.306226182506206
 40
4.306226182506206
 40
4.306226182506206
 40
5.890739774064351
 40
5.890739774064351
 40
5.890739774064351
 40
5.890739774064351
 10
-70.1469018451691
 20
15.41127482995961
 30
0.0
 10
-68.61115472472876
 20
14.92706737606688
 30
0.0
 10
-67.08681363863175
 20
14.36932328895302
 30
0.0
 10
-65.57210389874507
 20
13.74948428328975
 30
0.0
  0
SPLINE
  5
498D
330
1F
100
AcDbEntity
  8
AM_0
100
AcDbSpline
210
0.0
220
0.0
230
1.0
 70
     8
 71
     3
 72
     9
 73
     5
 74
     0
 42
0.0000000001
 43
0.0000000001
 40
0.0
 40
0.0
 40
0.0
 40
0.0
 40
1.514634011951766
 40
3.318644422736972
 40
3.318644422736972
 40
3.318644422736972
 40
3.318644422736972
 10
-59.47237330351303
 20
10.92087096241272
 30
0.0
 10
-60.4959575410242
 20
11.01020305926044
 30
0.0
 10
-62.85013508323524
 20
11.0348482107119
 30
0.0
 10
-64.61565425174088
 20
12.87542032660125
 30
0.0
 10
-65.57210389874507
 20
13.74948428328975
 30
0.0
  0
SPLINE
  5
498E
330
1F
100
AcDbEntity
  8
AM_0
100
AcDbSpline
210
0.0
220
0.0
230
1.0
 70
     8
 71
     3
 72
     9
 73
     5
 74
     0
 42
0.0000000001
 43
0.0000000001
 40
0.0
 40
0.0
 40
0.0
 40
0.0
 40
1.618462504924987
 40
3.151185540897841
 40
3.151185540897841
 40
3.151185540897841
 40
3.151185540897841
 10
-59.47237330351303
 20
13.01172678737721
 30
0.0
 10
-60.44555363814268
 20
13.59251524136967
 30
0.0
 10
-62.43591633682791
 20
14.54464714612861
 30
0.0
 10
-64.54822178633429
 20
14.96367765655025
 30
0.0
 10
-65.57210389874507
 20
15.16498206550279
 30
0.0
  0
LINE
  5
498F
330
1F
100
AcDbEntity
  8
AM_0
100
AcDbLine
 10
-56.803741168099
 20
-14.55037168431118
 30
0.0
 11
-56.803741168099
 21
-11.93281261379973
 31
0.0
  0
SPLINE
  5
4990
330
1F
100
AcDbEntity
  8
AM_0
100
AcDbSpline
210
0.0
220
0.0
230
1.0
 70
     8
 71
     3
 72
     9
 73
     5
 74
     0
 42
0.0000000001
 43
0.0000000001
 40
0.0
 40
0.0
 40
0.0
 40
0.0
 40
1.794998547112939
 40
3.300637214108833
 40
3.300637214108833
 40
3.300637214108833
 40
3.300637214108833
 10
-56.803741168099
 20
-14.55037168431993
 30
0.0
 10
-57.78199205993786
 20
-13.72042036709586
 30
0.0
 10
-59.50482512220139
 20
-11.9263269295248
 30
0.0
 10
-61.8962655666132
 20
-11.75814141408108
 30
0.0
 10
-62.90347176334492
 20
-11.94615156657635
 30
0.0
  0
LINE
  5
4991
330
1F
100
AcDbEntity
  8
AM_0
100
AcDbLine
 10
-62.90347176333105
 20
-11.94615156658272
 30
0.0
 11
-62.90347176333105
 21
-8.878752658827059
 31
0.0
  0
SPLINE
  5
4992
330
1F
100
AcDbEntity
  8
AM_0
100
AcDbSpline
210
0.0
220
0.0
230
1.0
 70
     8
 71
     3
 72
     9
 73
     5
 74
     0
 42
0.0000000001
 43
0.0000000001
 40
0.0
 40
0.0
 40
0.0
 40
0.0
 40
2.127517369033063
 40
3.640030134837918
 40
3.640030134837918
 40
3.640030134837918
 40
3.640030134837918
 10
-56.803741168099
 20
-11.94615156657635
 30
0.0
 10
-57.57559101586205
 20
-10.54845181759569
 30
0.0
 10
-59.22039228215132
 20
-7.540967957498785
 30
0.0
 10
-61.90529960414056
 20
-8.610876650564904
 30
0.0
 10
-62.90347176339762
 20
-8.878752658791247
 30
0.0
  0
LINE
  5
4993
330
1F
100
AcDbEntity
  8
AM_0
100
AcDbLine
 10
-67.47826970975508
 20
-9.581668346672291
 30
0.0
 11
-67.47826970975508
 21
-6.283526944534336
 31
0.0
  0
SPLINE
  5
4994
330
1F
100
AcDbEntity
  8
AM_0
100
AcDbSpline
210
0.0
220
0.0
230
1.0
 70
     8
 71
     3
 72
     8
 73
     4
 74
     0
 42
0.0000000001
 43
0.0000000001
 40
7.307451768075528
 40
7.307451768075528
 40
7.307451768075528
 40
7.307451768075528
 40
8.927702162744216
 40
8.927702162744216
 40
8.927702162744216
 40
8.927702162744216
 10
-62.90347176333105
 20
-11.94615156658272
 30
0.0
 10
-64.43618347794101
 20
-11.20814344665841
 30
0.0
 10
-65.96048362855064
 20
-10.41590455045996
 30
0.0
 10
-67.47826970975508
 20
-9.581668346672291
 30
0.0
  0
SPLINE
  5
4995
330
1F
100
AcDbEntity
  8
0
100
AcDbSpline
210
0.0
220
0.0
230
1.0
 70
     8
 71
     3
 72
     8
 73
     4
 74
     0
 42
0.0000000001
 43
0.0000000001
 40
5.823759290313942
 40
5.823759290313942
 40
5.823759290313942
 40
5.823759290313942
 40
7.120260682552068
 40
7.120260682552068
 40
7.120260682552068
 40
7.120260682552068
 10
-62.9085272116383
 20
-11.95871817286609
 30
0.0
 10
-64.44151585328087
 20
-11.22095540460899
 30
0.0
 10
-65.96603603284416
 20
-10.42866351863057
 30
0.0
 10
-67.48399568352517
 20
-9.594127852331068
 30
0.0
  0
SPLINE
  5
4996
330
1F
100
AcDbEntity
  8
AM_0
100
AcDbSpline
210
0.0
220
0.0
230
1.0
 70
     8
 71
     3
 72
     8
 73
     4
 74
     0
 42
0.0000000001
 43
0.0000000001
 40
9.170645305362121
 40
9.170645305362121
 40
9.170645305362121
 40
9.170645305362121
 40
10.79891126818747
 40
10.79891126818747
 40
10.79891126818747
 40
10.79891126818747
 10
-62.90347176333105
 20
-8.878752658827059
 30
0.0
 10
-64.43372939743224
 20
-8.049003989595282
 30
0.0
 10
-65.95805045134098
 20
-7.179871359539836
 30
0.0
 10
-67.47826970997699
 20
-6.283526944403027
 30
0.0
  0
SPLINE
  5
4997
330
1F
100
AcDbEntity
  8
0
100
AcDbSpline
210
0.0
220
0.0
230
1.0
 70
     8
 71
     3
 72
     8
 73
     4
 74
     0
 42
0.0000000001
 43
0.0000000001
 40
0.0
 40
0.0
 40
0.0
 40
0.0
 40
9.637195575647414
 40
9.637195575647414
 40
9.637195575647414
 40
9.637195575647414
 10
-67.38733539711718
 20
-15.28238340812361
 30
0.0
 10
-64.12154121737252
 20
-15.28238340812361
 30
0.0
 10
-60.90852627414719
 20
-14.89599171909201
 30
0.0
 10
-57.52169164157098
 20
-13.92078793968631
 30
0.0
  0
SPLINE
  5
4998
330
1F
100
AcDbEntity
  8
AM_0
100
AcDbSpline
210
0.0
220
0.0
230
1.0
 70
     8
 71
     3
 72
     8
 73
     4
 74
     0
 42
0.0000000001
 43
0.0000000001
 40
0.3581103616548037
 40
0.3581103616548037
 40
0.3581103616548037
 40
0.3581103616548037
 40
0.4557920900567158
 40
0.4557920900567158
 40
0.4557920900567158
 40
0.4557920900567158
 10
-76.54310557410356
 20
16.96045897997823
 30
0.0
 10
-76.44422422425866
 20
16.95764597303896
 30
0.0
 10
-76.34539997840448
 20
16.95445413160855
 30
0.0
 10
-76.24663244040114
 20
16.95088608372868
 30
0.0
  0
SPLINE
  5
4999
330
1F
100
AcDbEntity
  8
AM_0
100
AcDbSpline
210
0.0
220
0.0
230
1.0
 70
     8
 71
     3
 72
     8
 73
     4
 74
     0
 42
0.0000000001
 43
0.0000000001
 40
14.25229543663493
 40
14.25229543663493
 40
14.25229543663493
 40
14.25229543663493
 40
14.43901837670146
 40
14.43901837670146
 40
14.43901837670146
 40
14.43901837670146
 10
-78.15279825141117
 20
0.3292776400072152
 30
0.0
 10
-77.97951446503261
 20
0.2195306642044652
 30
0.0
 10
-77.8062334456085
 20
0.1097653320993668
 30
0.0
 10
-77.63295242618579
 20
-0.0000000000057317
 30
0.0
  0
LINE
  5
499A
330
1F
100
AcDbEntity
  8
AM_0
100
AcDbLine
 10
-80.00126666667014
 20
17.38375722443963
 30
0.0
 11
-80.00126666667021
 21
16.50000000004037
 31
0.0
  0
ELLIPSE
  5
499B
330
1F
100
AcDbEntity
  8
AM_0
100
AcDbEllipse
 10
-79.10217927327177
 20
5.848231796397167
 30
0.0
 11
-0.0000000000300181
 21
11.8926615171174
 31
0.0
210
0.0
220
0.0
230
1.0
 40
0.9795918367346413
 41
0.6239561373060028
 42
0.649602156920246
  0
SPLINE
  5
499C
330
1F
100
AcDbEntity
  8
AM_0
100
AcDbSpline
210
0.0
220
0.0
230
1.0
 70
     8
 71
     3
 72
     8
 73
     4
 74
     0
 42
0.0000000001
 43
0.0000000001
 40
0.9752450858540601
 40
0.9752450858540601
 40
0.9752450858540601
 40
0.9752450858540601
 40
2.229997198220355
 40
2.229997198220355
 40
2.229997198220355
 40
2.229997198220355
 10
-80.00000000000348
 20
17.38375722443963
 30
0.0
 10
-78.73967922857402
 20
17.28519588832586
 30
0.0
 10
-77.48885046466948
 20
17.12543797373309
 30
0.0
 10
-76.24663244040114
 20
16.91016516384395
 30
0.0
  0
SPLINE
  5
499D
330
1F
100
AcDbEntity
  8
AM_0
100
AcDbSpline
210
0.0
220
0.0
230
1.0
 70
     8
 71
     3
 72
     8
 73
     4
 74
     0
 42
0.0000000001
 43
0.0000000001
 40
11.33959573889505
 40
11.33959573889505
 40
11.33959573889505
 40
11.33959573889505
 40
14.36247867694493
 40
14.36247867694493
 40
14.36247867694493
 40
14.36247867694493
 10
-79.99919105074948
 20
5.026808199361606
 30
0.0
 10
-77.1599423092364
 20
3.401430966517135
 30
0.0
 10
-74.33153418876425
 20
1.700715483255702
 30
0.0
 10
-71.50312606829212
 20
-0.0000000000057317
 30
0.0
  0
SPLINE
  5
499E
330
1F
100
AcDbEntity
  8
AM_0
100
AcDbSpline
210
0.0
220
0.0
230
1.0
 70
     8
 71
     3
 72
     9
 73
     5
 74
     0
 42
0.0000000001
 43
0.0000000001
 40
0.0
 40
0.0
 40
0.0
 40
0.0
 40
2.15832142038773
 40
3.660803471549535
 40
3.660803471549535
 40
3.660803471549535
 40
3.660803471549535
 10
-78.15279825141117
 20
0.3292776400072152
 30
0.0
 10
-79.04114036817827
 20
1.662967460474423
 30
0.0
 10
-80.46575890973691
 20
4.363567241351199
 30
0.0
 10
-83.27611427597281
 20
4.483501619104969
 30
0.0
 10
-84.2525288466432
 20
4.151775041439644
 30
0.0
  0
LINE
  5
499F
330
1F
100
AcDbEntity
  8
AM_0
100
AcDbLine
 10
-73.57800030498714
 20
-6.013554505713661
 30
0.0
 11
-73.57800030498714
 21
-2.559085659827749
 31
0.0
  0
LINE
  5
49A0
330
1F
100
AcDbEntity
  8
AM_0
100
AcDbLine
 10
-80.00045771741614
 20
-13.4079582677994
 30
0.0
 11
-80.00045771741614
 21
-16.4999999999596
 31
0.0
  0
SPLINE
  5
49A1
330
1F
100
AcDbEntity
  8
0
100
AcDbSpline
210
0.0
220
0.0
230
1.0
 70
     8
 71
     3
 72
     8
 73
     4
 74
     0
 42
0.0000000001
 43
0.0000000001
 40
1.140063819971138
 40
1.140063819971138
 40
1.140063819971138
 40
1.140063819971138
 40
2.790246636948332
 40
2.790246636948332
 40
2.790246636948332
 40
2.790246636948332
 10
-79.99919105074948
 20
-15.06183784750708
 30
0.0
 10
-82.06763511762597
 20
-14.85267491790562
 30
0.0
 10
-84.11648614912577
 20
-14.50007327012161
 30
0.0
 10
-86.14888285615442
 20
-14.02701110332844
 30
0.0
  0
SPLINE
  5
49A2
330
1F
100
AcDbEntity
  8
AM_0
100
AcDbSpline
210
0.0
220
0.0
230
1.0
 70
     8
 71
     3
 72
     8
 73
     4
 74
     0
 42
0.0000000001
 43
0.0000000001
 40
11.10916553453163
 40
11.10916553453163
 40
11.10916553453163
 40
11.10916553453163
 40
13.42219740580175
 40
13.42219740580175
 40
13.42219740580175
 40
13.42219740580175
 10
-73.57800030498714
 20
-6.013554505533808
 30
0.0
 10
-75.72462607197434
 20
-4.692833983218453
 30
0.0
 10
-77.86318281812039
 20
-3.320091118332973
 30
0.0
 10
-79.99919105074948
 20
-1.930917555609813
 30
0.0
  0
SPLINE
  5
49A3
330
1F
100
AcDbEntity
  8
0
100
AcDbSpline
210
0.0
220
0.0
230
1.0
 70
     8
 71
     3
 72
     8
 73
     4
 74
     0
 42
0.0000000001
 43
0.0000000001
 40
8.865611173425079
 40
8.865611173425079
 40
8.865611173425079
 40
8.865611173425079
 40
10.49949233464396
 40
10.49949233464396
 40
10.49949233464396
 40
10.49949233464396
 10
-73.58341529019607
 20
-6.024074005084603
 30
0.0
 10
-75.47848067425906
 20
-4.857096368595234
 30
0.0
 10
-77.36720600416994
 20
-3.649294606546294
 30
0.0
 10
-79.25340989250215
 20
-2.425257076611207
 30
0.0
  0
SPLINE
  5
49A4
330
1F
100
AcDbEntity
  8
AM_0
100
AcDbSpline
210
0.0
220
0.0
230
1.0
 70
     8
 71
     3
 72
     8
 73
     4
 74
     0
 42
0.0000000001
 43
0.0000000001
 40
12.98298737538389
 40
12.98298737538389
 40
12.98298737538389
 40
12.98298737538389
 40
14.43901837670148
 40
14.43901837670148
 40
14.43901837670148
 40
14.43901837670148
 10
-73.57800030489698
 20
-2.55908565988425
 30
0.0
 10
-74.93052565279942
 20
-1.71185957503467
 30
0.0
 10
-76.28173903949191
 20
-0.8559297875202013
 30
0.0
 10
-77.63295242618579
 20
-0.0000000000057317
 30
0.0
  0
LINE
  5
49A5
330
1F
100
AcDbEntity
  8
AM_0
100
AcDbLine
 10
-78.15279825141117
 20
-3.126299303790963
 30
0.0
 11
-78.15279825141117
 21
0.3292776400072152
 31
0.0
  0
LINE
  5
49A6
330
1F
100
AcDbEntity
  8
AM_0
100
AcDbLine
 10
-80.00045771741614
 20
-1.930917555610609
 30
0.0
 11
-80.00045771741614
 21
5.026808199361606
 31
0.0
  0
SPLINE
  5
49A7
330
1F
100
AcDbEntity
  8
AM_0
100
AcDbSpline
210
0.0
220
0.0
230
1.0
 70
     8
 71
     3
 72
     9
 73
     5
 74
     0
 42
0.0000000001
 43
0.0000000001
 40
0.0
 40
0.0
 40
0.0
 40
0.0
 40
1.501483287633145
 40
3.044501708991191
 40
3.044501708991191
 40
3.044501708991191
 40
3.044501708991191
 10
-70.1469018451691
 20
16.26235359754657
 30
0.0
 10
-71.16252922507332
 20
16.18917845000848
 30
0.0
 10
-73.2297583332761
 20
15.87266189520906
 30
0.0
 10
-75.2772992473195
 20
16.500474923587
 30
0.0
 10
-76.24663244040114
 20
16.95088608372868
 30
0.0
  0
SPLINE
  5
49A8
330
1F
100
AcDbEntity
  8
AM_0
100
AcDbSpline
210
0.0
220
0.0
230
1.0
 70
     8
 71
     3
 72
     9
 73
     5
 74
     0
 42
0.0000000001
 43
0.0000000001
 40
0.0
 40
0.0
 40
0.0
 40
0.0
 40
1.516617987072454
 40
3.248795674012696
 40
3.248795674012696
 40
3.248795674012696
 40
3.248795674012696
 10
-70.1469018451691
 20
15.41127482995961
 30
0.0
 10
-71.15582690974666
 20
15.1857594751398
 30
0.0
 10
-73.45722210390398
 20
14.15725056751865
 30
0.0
 10
-75.26415470729762
 20
16.17269502269024
 30
0.0
 10
-76.24663244040114
 20
16.91016516384395
 30
0.0
  0
SPLINE
  5
49A9
330
1F
100
AcDbEntity
  8
AM_0
100
AcDbSpline
210
0.0
220
0.0
230
1.0
 70
     8
 71
     3
 72
     9
 73
     5
 74
     0
 42
0.0000000001
 43
0.0000000001
 40
0.0
 40
0.0
 40
0.0
 40
0.0
 40
2.234089429072837
 40
3.734089429072837
 40
3.734089429072837
 40
3.734089429072837
 40
3.734089429072837
 10
-67.47826970975508
 20
-6.283526944534336
 30
0.0
 10
-68.55214745183012
 20
-5.058538188405837
 30
0.0
 10
-69.66015851133597
 20
-1.718742619208238
 30
0.0
 10
-72.58444905826827
 20
-2.173224487297148
 30
0.0
 10
-73.57800030498714
 20
-2.420358652436155
 30
0.0
  0
SPLINE
  5
49AA
330
1F
100
AcDbEntity
  8
AM_0
100
AcDbSpline
210
0.0
220
0.0
230
1.0
 70
     8
 71
     3
 72
     9
 73
     5
 74
     0
 42
0.0000000001
 43
0.0000000001
 40
0.0
 40
0.0
 40
0.0
 40
0.0
 40
1.809327783561213
 40
3.396063755099695
 40
3.396063755099695
 40
3.396063755099695
 40
3.396063755099695
 10
-67.47826970975508
 20
-9.581668346672291
 30
0.0
 10
-68.27150913259543
 20
-8.508498666077548
 30
0.0
 10
-70.38998147600207
 20
-7.288763917785082
 30
0.0
 10
-72.50598857292864
 20
-6.111543053815299
 30
0.0
 10
-73.57800030498714
 20
-6.013554505713661
 30
0.0
  0
SPLINE
  5
49AB
330
1F
100
AcDbEntity
  8
0
100
AcDbSpline
210
0.0
220
0.0
230
1.0
 70
     8
 71
     3
 72
     8
 73
     4
 74
     0
 42
0.0000000001
 43
0.0000000001
 40
0.0
 40
0.0
 40
0.0
 40
0.0
 40
3.445482686890237
 40
3.445482686890237
 40
3.445482686890237
 40
3.445482686890237
 10
-67.11990586172243
 20
-15.28238340812361
 30
0.0
 10
-71.49834672850818
 20
-15.28238340812361
 30
0.0
 10
-75.78191856540225
 20
-14.58785641012439
 30
0.0
 10
-79.99919105074948
 20
-13.4079582677994
 30
0.0
  0
SPLINE
  5
49AC
330
1F
100
AcDbEntity
  8
0
100
AcDbSpline
210
0.0
220
0.0
230
1.0
 70
     8
 71
     3
 72
     8
 73
     4
 74
     0
 42
0.0000000001
 43
0.0000000001
 40
4.041712701031851
 40
4.041712701031851
 40
4.041712701031851
 40
4.041712701031851
 40
9.964098609850829
 40
9.964098609850829
 40
9.964098609850829
 40
9.964098609850829
 10
-79.99945771741614
 20
-16.4999999999596
 30
0.0
 10
-75.15228823498569
 20
-16.263073686957
 30
0.0
 10
-69.50814886705522
 20
-15.59487763352791
 30
0.0
 10
-67.5696314433378
 20
-15.30189307407401
 30
0.0
  0
LINE
  5
49AD
330
1F
100
AcDbEntity
  8
AM_0
100
AcDbLine
 10
-88.56230034503518
 20
13.71961000807742
 30
0.0
 11
-86.14888285615442
 21
15.3186495895505
 31
0.0
  0
LINE
  5
49AE
330
1F
100
AcDbEntity
  8
AM_0
100
AcDbLine
 10
-88.56230034503518
 20
13.71961000807742
 30
0.0
 11
-86.14888285615442
 21
15.3186495895505
 31
0.0
  0
SPLINE
  5
49AF
330
1F
100
AcDbEntity
  8
AM_0
100
AcDbSpline
210
0.0
220
0.0
230
1.0
 70
     8
 71
     3
 72
     8
 73
     4
 74
     0
 42
0.0000000001
 43
0.0000000001
 40
10.42795179099413
 40
10.42795179099413
 40
10.42795179099413
 40
10.42795179099413
 40
12.06337302160172
 40
12.06337302160172
 40
12.06337302160172
 40
12.06337302160172
 10
-88.82732679306723
 20
6.891774435067745
 30
0.0
 10
-87.29845422165332
 20
6.004579207460651
 30
0.0
 10
-85.77414126617474
 20
5.087134959458079
 30
0.0
 10
-84.25252884687203
 20
4.151775041579707
 30
0.0
  0
LINE
  5
49B0
330
1F
100
AcDbEntity
  8
AM_0
100
AcDbLine
 10
-88.5623003450213
 20
-3.67997239632804
 30
0.0
 11
-86.14888285615442
 21
-2.080932814862924
 31
0.0
  0
ELLIPSE
  5
49B1
330
1F
100
AcDbEntity
  8
AM_0
100
AcDbEllipse
 10
-82.967602683012
 20
-9.280536040827898
 30
0.0
 11
-0.0000000000001343
 21
8.072341962866017
 31
0.0
210
0.0
220
0.0
230
1.0
 40
0.8713900850331551
 41
-0.5562700788786717
 42
0.5778980406257746
  0
SPLINE
  5
49B2
330
1F
100
AcDbEntity
  8
AM_0
100
AcDbSpline
210
0.0
220
0.0
230
1.0
 70
     8
 71
     3
 72
     9
 73
     5
 74
     0
 42
0.0000000001
 43
0.0000000001
 40
0.0
 40
0.0
 40
0.0
 40
0.0
 40
1.503438351697518
 40
3.260499827787994
 40
3.260499827787994
 40
3.260499827787994
 40
3.260499827787994
 10
-57.18497433030101
 20
14.40843467852523
 30
0.0
 10
-56.19008403371751
 20
14.15581671778995
 30
0.0
 10
-53.86092005713512
 20
13.65871065019603
 30
0.0
 10
-51.96921042637288
 20
15.39065618109351
 30
0.0
 10
-51.08524373506896
 20
16.30636948154831
 30
0.0
  0
SPLINE
  5
49B3
330
1F
100
AcDbEntity
  8
AM_0
100
AcDbSpline
210
0.0
220
0.0
230
1.0
 70
     8
 71
     3
 72
     8
 73
     4
 74
     0
 42
0.0000000001
 43
0.0000000001
 40
6.150480381241876
 40
6.150480381241876
 40
6.150480381241876
 40
6.150480381241876
 40
7.75241736749254
 40
7.75241736749254
 40
7.75241736749254
 40
7.75241736749254
 10
-59.47237330351303
 20
13.01172678737641
 30
0.0
 10
-57.9389828609512
 20
12.38033432877018
 30
0.0
 10
-56.41463261588934
 20
11.68896815253795
 30
0.0
 10
-54.89757535708899
 20
10.94921946047424
 30
0.0
  0
SPLINE
  5
49B4
330
1F
100
AcDbEntity
  8
AM_0
100
AcDbSpline
210
0.0
220
0.0
230
1.0
 70
     8
 71
     3
 72
     8
 73
     4
 74
     0
 42
0.0000000001
 43
0.0000000001
 40
8.034594408064972
 40
8.034594408064972
 40
8.034594408064972
 40
8.034594408064972
 40
9.661611892530016
 40
9.661611892530016
 40
9.661611892530016
 40
9.661611892530016
 10
-59.47237330351303
 20
10.92087096241113
 30
0.0
 10
-57.94045783089421
 20
10.13337557887695
 30
0.0
 10
-56.41616563844874
 20
9.296731618264811
 30
0.0
 10
-54.89757535709038
 20
8.423326472172513
 30
0.0
  0
SPLINE
  5
49B5
330
1F
100
AcDbEntity
  8
AM_0
100
AcDbSpline
210
0.0
220
0.0
230
1.0
 70
     8
 71
     3
 72
     8
 73
     4
 74
     0
 42
0.0000000001
 43
0.0000000001
 40
5.425905956994038
 40
5.425905956994038
 40
5.425905956994038
 40
5.425905956994038
 40
7.019702002723574
 40
7.019702002723574
 40
7.019702002723574
 40
7.019702002723574
 10
-52.22894322167498
 20
-13.83060299064805
 30
0.0
 10
-53.76303312017435
 20
-13.25875645379101
 30
0.0
 10
-55.28739219940285
 20
-12.62235453446992
 30
0.0
 10
-56.803741168099
 20
-11.93281261379973
 30
0.0
  0
SPLINE
  5
49B6
330
1F
100
AcDbEntity
  8
AM_0
100
AcDbSpline
210
0.0
220
0.0
230
1.0
 70
     8
 71
     3
 72
     8
 73
     4
 74
     0
 42
0.0000000001
 43
0.0000000001
 40
3.600603813281411
 40
3.600603813281411
 40
3.600603813281411
 40
3.600603813281411
 40
5.175009087017798
 40
5.175009087017798
 40
5.175009087017798
 40
5.175009087017798
 10
-52.22894322167636
 20
-16.01340240207814
 30
0.0
 10
-53.76533678779381
 20
-15.59961596914529
 30
0.0
 10
-55.28968912334492
 20
-15.10819768546837
 30
0.0
 10
-56.803741168099
 20
-14.55037168431118
 30
0.0
  0
SPLINE
  5
49B7
330
1F
100
AcDbEntity
  8
0
100
AcDbSpline
210
0.0
220
0.0
230
1.0
 70
     8
 71
     3
 72
     8
 73
     4
 74
     0
 42
0.0000000001
 43
0.0000000001
 40
2.857363517439195
 40
2.857363517439195
 40
2.857363517439195
 40
2.857363517439195
 40
4.11726153057047
 40
4.11726153057047
 40
4.11726153057047
 40
4.11726153057047
 10
-52.23024288231093
 20
-16.01920349151494
 30
0.0
 10
-53.76731511609088
 20
-15.60724750815906
 30
0.0
 10
-55.29226796572954
 20
-15.11725382228254
 30
0.0
 10
-56.80685228701125
 20
-14.56049633701968
 30
0.0
  0
SPLINE
  5
49B8
330
1F
100
AcDbEntity
  8
AM_0
100
AcDbSpline
210
0.0
220
0.0
230
1.0
 70
     8
 71
     3
 72
     8
 73
     4
 74
     0
 42
0.0000000001
 43
0.0000000001
 40
0.7142832446738512
 40
0.7142832446738512
 40
0.7142832446738512
 40
0.7142832446738512
 40
14.36247867694493
 40
14.36247867694493
 40
14.36247867694493
 40
14.36247867694493
 10
-69.33314280222974
 20
16.10209226437889
 30
0.0
 10
-55.56525685565816
 20
15.35732462415803
 30
0.0
 10
-42.79510743818633
 20
7.678662312076153
 30
0.0
 10
-30.02495802071312
 20
-0.0000000000057317
 30
0.0
  0
SPLINE
  5
49B9
330
1F
100
AcDbEntity
  8
AM_0
100
AcDbSpline
210
0.0
220
0.0
230
1.0
 70
     8
 71
     3
 72
     8
 73
     4
 74
     0
 42
0.0000000001
 43
0.0000000001
 40
0.0
 40
0.0
 40
0.0
 40
0.0
 40
21.54371801541793
 40
21.54371801541793
 40
21.54371801541793
 40
21.54371801541793
 10
-30.02495802071312
 20
-16.16105576331534
 30
0.0
 10
-44.62616645556829
 20
-16.16105576331533
 30
0.0
 10
-58.06464626193021
 20
-8.080527881660531
 30
0.0
 10
-71.50312606829212
 20
-0.0000000000057317
 30
0.0
  0
DIMENSION
  5
49BA
330
1F
100
AcDbEntity
  8
AM_5
100
AcDbDimension
  2
*D31
 10
-80.00045771741614
 20
-35.87593605994592
 30
0.0
 11
-40.0002288587073
 21
-32.77593605994592
 31
0.0
 70
    32
  1
<>
  3
AM_JIS
100
AcDbAlignedDimension
 13
0.0000000000015401
 23
-18.66666666667049
 33
0.0
 14
-80.00045771741614
 24
-16.06183784750707
 34
0.0
 50
0.0000000000001386
100
AcDbRotatedDimension
1001
GENIUS_GENDTOL_13
1000

1000
h7
1000

1040
0.0
  0
VIEWPORT
  5
110
330
101
100
AcDbEntity
 67
     1
  8
0
100
AcDbViewport
 10
420.5
 20
297.0
 30
0.0
 40
948.9782706766916
 41
628.452
 68
     1
 69
     1
1001
ACAD
1000
MVIEW
1002
{
1070
    16
1010
0.0
1020
0.0
1030
0.0
1010
0.0
1020
0.0
1030
1.0
1040
0.0
1040
628.452
1040
420.5
1040
297.0
1040
50.0
1040
0.0
1040
0.0
1070
     0
1070
   100
1070
     1
1070
     1
1070
     0
1070
     0
1070
     0
1070
     0
1040
0.0
1040
0.0
1040
0.0
1040
10.0
1040
10.0
1040
10.0
1040
10.0
1070
     0
1002
{
1002
}
1002
}
  0
ENDSEC
  0
SECTION
  2
OBJECTS
  0
DICTIONARY
  5
C
330
0
100
AcDbDictionary
  3
ACAD_GROUP
350
D
  3
ACAD_LAYOUT
350
1A
  3
ACAD_MLINESTYLE
350
17
  3
ACAD_PLOTSETTINGS
350
19
  3
ACAD_PLOTSTYLENAME
350
E
  3
ACDBVARIABLEDICTIONARY
350
34
  3
ACMDICTIONARY
350
43
  3
AMG
350
2B
  3
AMGSNAPSETTINGS
350
6E
  3
DWGPROPS
350
4AFE
  3
ACDBHEADERROUNDTRIPXREC
350
4B0B
  0
DICTIONARY
  5
74
330
1F
100
AcDbDictionary
280
     1
  3
ACAD_INDEX
360
4B00
  3
ACAD_LAYOUTSELFREF
360
4B2E
  0
DICTIONARY
  5
4B33
330
101
100
AcDbDictionary
280
     1
  3
ACAD_LAYOUTSELFREF
360
4B34
  0
DICTIONARY
  5
D
102
{ACAD_REACTORS
330
C
102
}
330
C
100
AcDbDictionary
  0
DICTIONARY
  5
1A
102
{ACAD_REACTORS
330
C
102
}
330
C
100
AcDbDictionary
  0
DICTIONARY
  5
17
102
{ACAD_REACTORS
330
C
102
}
330
C
100
AcDbDictionary
  3
STANDARD
350
18
  0
DICTIONARY
  5
19
102
{ACAD_REACTORS
330
C
102
}
330
C
100
AcDbDictionary
  0
ACDBDICTIONARYWDFLT
  5
E
102
{ACAD_REACTORS
330
C
102
}
330
C
100
AcDbDictionary
281
     1
  3
Normal
350
F
100
AcDbDictionaryWithDefault
340
F
  0
DICTIONARY
  5
34
102
{ACAD_REACTORS
330
C
102
}
330
C
100
AcDbDictionary
  3
INDEXCTL
350
35
  3
SORTENTS
350
B5E
  0
DICTIONARY
  5
43
102
{ACAD_REACTORS
330
C
102
}
330
C
100
AcDbDictionary
  3
ACMSTDDICTIONARY
350
260
  0
DICTIONARY
  5
2B
102
{ACAD_REACTORS
330
C
102
}
330
C
100
AcDbDictionary
  3
ACMGSETTINGS
350
2C
  0
DICTIONARY
  5
6E
102
{ACAD_REACTORS
330
C
102
}
330
C
100
AcDbDictionary
  0
XRECORD
  5
4AFE
102
{ACAD_REACTORS
330
C
102
}
330
C
100
AcDbXrecord
  1
DWGPROPS COOKIE
  2

  3

  4

  6

  7

  8

  9

300
AmdtFileType=82
301
=
302
=
303
=
304
=
305
=
306
=
307
=
308
=
309
=
 40
0.5864206134259259
 41
2452838.620506898
 42
2452857.585764062
  1

 90
        1
  0
DICTIONARY
  5
4B0B
102
{ACAD_REACTORS
330
C
102
}
330
C
100
AcDbDictionary
  3
TSTACKALIGN
350
4B0C
  3
TSTACKSIZE
350
4B0D
  3
HYPERLINKBASE
350
4B0E
  3
STYLESHEET
350
4B0F
  3
LAYOUTDICT
350
4B10
  3
PLOTSETDICT
350
4B11
  3
PLOTSTYLNAMDICT
350
4B12
  3
LWETCUNION
350
4B13
  3
INSUNITS
350
4B14
  3
CEPSNTYPE
350
4B15
  3
FINGERPRINTGUID
350
4B16
  3
VERSIONGUID
350
4B17
  3
PSVPSCALE
350
4B18
  3
DIMSTYLEDATA
350
4B19
  3
PUCSORTHOREF
350
4B1A
  3
PUCSORTHOVIEW
350
4B1B
  3
PUCSBASE
350
4B1C
  3
PUCSORGTOP
350
4B1D
  3
PUCSORGBOTTOM
350
4B1E
  3
PUCSORGLEFT
350
4B1F
  3
PUCSORGRIGHT
350
4B20
  3
PUCSORGFRONT
350
4B21
  3
PUCSORGBACK
350
4B22
  3
UCSORTHOREF
350
4B23
  3
UCSORTHOVIEW
350
4B24
  3
UCSBASE
350
4B25
  3
UCSORGTOP
350
4B26
  3
UCSORGBOTTOM
350
4B27
  3
UCSORGLEFT
350
4B28
  3
UCSORGRIGHT
350
4B29
  3
UCSORGFRONT
350
4B2A
  3
UCSORGBACK
350
4B2B
  0
DICTIONARY
  5
4B00
102
{ACAD_REACTORS
330
74
102
}
330
74
100
AcDbDictionary
  3
*A1
350
4B01
  0
XRECORD
  5
4B2E
102
{ACAD_REACTORS
330
74
102
}
330
74
100
AcDbXrecord
340
1F
  0
XRECORD
  5
4B34
102
{ACAD_REACTORS
330
4B33
102
}
330
4B33
100
AcDbXrecord
340
101
  0
MLINESTYLE
  5
18
102
{ACAD_REACTORS
330
17
102
}
330
17
100
AcDbMlineStyle
  2
STANDARD
 70
     0
  3

 62
   256
 51
90.0
 52
90.0
 71
     2
 49
0.5
 62
   256
  6
BYLAYER
 49
-0.5
 62
   256
  6
BYLAYER
  0
ACDBPLACEHOLDER
  5
F
102
{ACAD_REACTORS
330
E
102
}
330
E
100
AcDbPlaceHolder
280
     0
  0
DICTIONARYVAR
  5
35
102
{ACAD_REACTORS
330
34
102
}
330
34
100
DictionaryVariables
280
     0
  1
1
  0
DICTIONARYVAR
  5
B5E
102
{ACAD_REACTORS
330
34
102
}
330
34
100
DictionaryVariables
280
     0
  1
96
  0
DICTIONARY
  5
260
102
{ACAD_REACTORS
330
43
102
}
330
43
100
AcDbDictionary
  0
DICTIONARY
  5
2C
102
{ACAD_REACTORS
330
2B
102
}
330
2B
100
AcDbDictionary
  3
DWGSETTINGS
350
2D
  0
XRECORD
  5
4B0C
102
{ACAD_REACTORS
330
4B0B
102
}
330
4B0B
100
AcDbXrecord
 90
        1
  0
XRECORD
  5
4B0D
102
{ACAD_REACTORS
330
4B0B
102
}
330
4B0B
100
AcDbXrecord
 90
       70
  0
XRECORD
  5
4B0E
102
{ACAD_REACTORS
330
4B0B
102
}
330
4B0B
100
AcDbXrecord
  1

  0
XRECORD
  5
4B0F
102
{ACAD_REACTORS
330
4B0B
102
}
330
4B0B
100
AcDbXrecord
  1
ASAMI.ctb
  0
XRECORD
  5
4B10
102
{ACAD_REACTORS
330
4B0B
102
}
330
4B0B
100
AcDbXrecord
340
1A
  0
XRECORD
  5
4B11
102
{ACAD_REACTORS
330
4B0B
102
}
330
4B0B
100
AcDbXrecord
340
19
  0
XRECORD
  5
4B12
102
{ACAD_REACTORS
330
4B0B
102
}
330
4B0B
100
AcDbXrecord
340
E
  0
XRECORD
  5
4B13
102
{ACAD_REACTORS
330
4B0B
102
}
330
4B0B
100
AcDbXrecord
 90
    10781
  0
XRECORD
  5
4B14
102
{ACAD_REACTORS
330
4B0B
102
}
330
4B0B
100
AcDbXrecord
 90
        4
  0
XRECORD
  5
4B15
102
{ACAD_REACTORS
330
4B0B
102
}
330
4B0B
100
AcDbXrecord
 90
        0
  0
XRECORD
  5
4B16
102
{ACAD_REACTORS
330
4B0B
102
}
330
4B0B
100
AcDbXrecord
  1
{AFB28963-8C59-40AE-9337-C84526B81ACE}
  0
XRECORD
  5
4B17
102
{ACAD_REACTORS
330
4B0B
102
}
330
4B0B
100
AcDbXrecord
  1
{3B2797FD-D276-4A04-852F-B5B7ABFC05BA}
  0
XRECORD
  5
4B18
102
{ACAD_REACTORS
330
4B0B
102
}
330
4B0B
100
AcDbXrecord
 40
0.0
  0
XRECORD
  5
4B19
102
{ACAD_REACTORS
330
4B0B
102
}
330
4B0B
100
AcDbXrecord
1000
DSTYLE
1002
{
1070
    79
 70
     2
1070
   341
340
59
1070
   342
340
59
1070
   371
 70
    -1
1070
   372
 70
    -1
1002
}
  0
XRECORD
  5
4B1A
102
{ACAD_REACTORS
330
4B0B
102
}
330
4B0B
100
AcDbXrecord
340
0
  0
XRECORD
  5
4B1B
102
{ACAD_REACTORS
330
4B0B
102
}
330
4B0B
100
AcDbXrecord
 70
     0
  0
XRECORD
  5
4B1C
102
{ACAD_REACTORS
330
4B0B
102
}
330
4B0B
100
AcDbXrecord
340
0
  0
XRECORD
  5
4B1D
102
{ACAD_REACTORS
330
4B0B
102
}
330
4B0B
100
AcDbXrecord
 10
0.0
 20
0.0
 30
0.0
  0
XRECORD
  5
4B1E
102
{ACAD_REACTORS
330
4B0B
102
}
330
4B0B
100
AcDbXrecord
 10
0.0
 20
0.0
 30
0.0
  0
XRECORD
  5
4B1F
102
{ACAD_REACTORS
330
4B0B
102
}
330
4B0B
100
AcDbXrecord
 10
0.0
 20
0.0
 30
0.0
  0
XRECORD
  5
4B20
102
{ACAD_REACTORS
330
4B0B
102
}
330
4B0B
100
AcDbXrecord
 10
0.0
 20
0.0
 30
0.0
  0
XRECORD
  5
4B21
102
{ACAD_REACTORS
330
4B0B
102
}
330
4B0B
100
AcDbXrecord
 10
0.0
 20
0.0
 30
0.0
  0
XRECORD
  5
4B22
102
{ACAD_REACTORS
330
4B0B
102
}
330
4B0B
100
AcDbXrecord
 10
0.0
 20
0.0
 30
0.0
  0
XRECORD
  5
4B23
102
{ACAD_REACTORS
330
4B0B
102
}
330
4B0B
100
AcDbXrecord
340
0
  0
XRECORD
  5
4B24
102
{ACAD_REACTORS
330
4B0B
102
}
330
4B0B
100
AcDbXrecord
 70
     0
  0
XRECORD
  5
4B25
102
{ACAD_REACTORS
330
4B0B
102
}
330
4B0B
100
AcDbXrecord
340
0
  0
XRECORD
  5
4B26
102
{ACAD_REACTORS
330
4B0B
102
}
330
4B0B
100
AcDbXrecord
 10
0.0
 20
0.0
 30
0.0
  0
XRECORD
  5
4B27
102
{ACAD_REACTORS
330
4B0B
102
}
330
4B0B
100
AcDbXrecord
 10
0.0
 20
0.0
 30
0.0
  0
XRECORD
  5
4B28
102
{ACAD_REACTORS
330
4B0B
102
}
330
4B0B
100
AcDbXrecord
 10
0.0
 20
0.0
 30
0.0
  0
XRECORD
  5
4B29
102
{ACAD_REACTORS
330
4B0B
102
}
330
4B0B
100
AcDbXrecord
 10
0.0
 20
0.0
 30
0.0
  0
XRECORD
  5
4B2A
102
{ACAD_REACTORS
330
4B0B
102
}
330
4B0B
100
AcDbXrecord
 10
0.0
 20
0.0
 30
0.0
  0
XRECORD
  5
4B2B
102
{ACAD_REACTORS
330
4B0B
102
}
330
4B0B
100
AcDbXrecord
 10
0.0
 20
0.0
 30
0.0
  0
LAYER_INDEX
  5
4B01
102
{ACAD_REACTORS
330
4B00
102
}
330
4B00
100
AcDbIndex
 40
2453151.885623923
100
AcDbLayerIndex
  8
0
360
4B02
 90
        8
  8
AM_0
360
4B03
 90
      144
  8
AM_11
360
4B04
 90
        0
  8
AM_7
360
4B05
 90
        1
  8
AM_5
360
4B06
 90
        5
  8
Defpoints
360
4B07
 90
        0
  8
AM_6
360
4B08
 90
        1
  8
AM_CL
360
4B09
 90
        0
  0
XRECORD
  5
2D
102
{ACAD_REACTORS
330
2C
102
}
330
2C
100
AcDbXrecord
  1
VERSION
140
15.0
  1
PRODUCT
  2
AutoCAD Mechanical 2000
  0
IDBUFFER
  5
4B02
330
0
100
AcDbIdBuffer
330
496A
330
4995
330
4997
330
49A1
330
49A3
330
49AB
330
49AC
330
49B7
  0
IDBUFFER
  5
4B03
330
0
100
AcDbIdBuffer
330
4993
330
4994
330
4996
330
4998
330
4999
330
499A
330
499B
330
499C
330
499D
330
499E
330
499F
330
49A0
330
49A2
330
49A4
330
49A5
330
49A6
330
49A7
330
49A8
330
49A9
330
49AA
330
49AD
330
49AE
330
49AF
330
49B0
330
49B1
330
49B2
330
49B3
330
49B4
330
49B5
330
49B6
330
49B8
330
49B9
330
4810
330
4813
330
4814
330
4815
330
4816
330
4817
330
4818
330
4819
330
481A
330
481B
330
481C
330
481D
330
481E
330
4915
330
4916
330
4917
330
4925
330
4926
330
4927
330
4928
330
4929
330
492A
330
492B
330
492C
330
492D
330
492E
330
492F
330
4930
330
4931
330
4932
330
4933
330
4934
330
4935
330
4936
330
4937
330
4938
330
4939
330
493A
330
493B
330
493C
330
493D
330
493E
330
493F
330
4940
330
4941
330
4942
330
4943
330
4944
330
4945
330
4946
330
4947
330
4948
330
4949
330
494A
330
494B
330
494C
330
494D
330
494E
330
494F
330
4950
330
4951
330
4952
330
4953
330
4954
330
4955
330
4956
330
4957
330
4958
330
4959
330
495A
330
495B
330
495C
330
495D
330
495E
330
495F
330
4960
330
4961
330
4962
330
4963
330
4964
330
4965
330
4966
330
4967
330
4968
330
4969
330
496B
330
496C
330
496D
330
496E
330
496F
330
4970
330
4971
330
4972
330
4973
330
4974
330
4975
330
4976
330
4977
330
4978
330
4979
330
4987
330
4988
330
4989
330
498A
330
498B
330
498C
330
498D
330
498E
330
498F
330
4990
330
4991
330
4992
  0
IDBUFFER
  5
4B04
330
0
100
AcDbIdBuffer
  0
IDBUFFER
  5
4B05
330
0
100
AcDbIdBuffer
330
2A1C
  0
IDBUFFER
  5
4B06
330
0
100
AcDbIdBuffer
330
4811
330
4812
330
4918
330
497A
330
49BA
  0
IDBUFFER
  5
4B07
330
0
100
AcDbIdBuffer
  0
IDBUFFER
  5
4B08
330
0
100
AcDbIdBuffer
330
C58
  0
IDBUFFER
  5
4B09
330
0
100
AcDbIdBuffer
  0
ENDSEC
  0
EOF
