  0
SECTION
  2
HEADER
  9
$ACADVER
  1
AC1014
  9
$ACADMAINTVER
 70
     9
  9
$DWGCODEPAGE
  3
ANSI_932
  9
$INSBASE
 10
0.0
 20
0.0
 30
0.0
  9
$EXTMIN
 10
-245.4819232346277
 20
-77.31996447776883
 30
-0.00000001
  9
$EXTMAX
 10
18.12578914778661
 20
26.43710443542833
 30
0.00000001
  9
$LIMMIN
 10
-278.1273010016883
 20
-124.6611154533076
  9
$LIMMAX
 10
61.6753659268727
 20
67.71209410198037
  9
$ORTHOMODE
 70
     0
  9
$REGENMODE
 70
     1
  9
$FILLMODE
 70
     1
  9
$QTEXTMODE
 70
     0
  9
$MIRRTEXT
 70
     0
  9
$DRAGMODE
 70
     2
  9
$LTSCALE
 40
0.3
  9
$OSMODE
 70
    55
  9
$ATTMODE
 70
     1
  9
$TEXTSIZE
 40
2.5
  9
$TRACEWID
 40
1.0
  9
$TEXTSTYLE
  7
STANDARD
  9
$CLAYER
  8
AM_0
  9
$CELTYPE
  6
BYLAYER
  9
$CECOLOR
 62
   256
  9
$CELTSCALE
 40
1.0
  9
$DELOBJ
 70
     1
  9
$DISPSILH
 70
     0
  9
$DIMSCALE
 40
1.0
  9
$DIMASZ
 40
2.5
  9
$DIMEXO
 40
1.0
  9
$DIMDLI
 40
12.0
  9
$DIMRND
 40
0.0
  9
$DIMDLE
 40
0.0
  9
$DIMEXE
 40
1.0
  9
$DIMTP
 40
0.1
  9
$DIMTM
 40
0.1
  9
$DIMTXT
 40
3.2
  9
$DIMCEN
 40
0.0
  9
$DIMTSZ
 40
0.0
  9
$DIMTOL
 70
     0
  9
$DIMLIM
 70
     0
  9
$DIMTIH
 70
     0
  9
$DIMTOH
 70
     0
  9
$DIMSE1
 70
     0
  9
$DIMSE2
 70
     0
  9
$DIMTAD
 70
     3
  9
$DIMZIN
 70
     8
  9
$DIMBLK
  1
OPEN30
  9
$DIMASO
 70
     1
  9
$DIMSHO
 70
     1
  9
$DIMPOST
  1

  9
$DIMAPOST
  1
"
  9
$DIMALT
 70
     0
  9
$DIMALTD
 70
     2
  9
$DIMALTF
 40
0.0393701
  9
$DIMLFAC
 40
1.0
  9
$DIMTOFL
 70
     1
  9
$DIMTVP
 40
0.0
  9
$DIMTIX
 70
     0
  9
$DIMSOXD
 70
     0
  9
$DIMSAH
 70
     0
  9
$DIMBLK1
  1

  9
$DIMBLK2
  1

  9
$DIMSTYLE
  2
AM_JIS
  9
$DIMCLRD
 70
   256
  9
$DIMCLRE
 70
   256
  9
$DIMCLRT
 70
     2
  9
$DIMTFAC
 40
0.71
  9
$DIMGAP
 40
1.5
  9
$DIMJUST
 70
     0
  9
$DIMSD1
 70
     0
  9
$DIMSD2
 70
     0
  9
$DIMTOLJ
 70
     0
  9
$DIMTZIN
 70
     0
  9
$DIMALTZ
 70
     0
  9
$DIMALTTZ
 70
     0
  9
$DIMFIT
 70
     3
  9
$DIMUPT
 70
     0
  9
$DIMUNIT
 70
     2
  9
$DIMDEC
 70
     3
  9
$DIMTDEC
 70
     3
  9
$DIMALTU
 70
     2
  9
$DIMALTTD
 70
     2
  9
$DIMTXSTY
  7
ASAMI
  9
$DIMAUNIT
 70
     0
  9
$LUNITS
 70
     2
  9
$LUPREC
 70
     2
  9
$SKETCHINC
 40
1.0
  9
$FILLETRAD
 40
0.5
  9
$AUNITS
 70
     0
  9
$AUPREC
 70
     0
  9
$MENU
  1
.
  9
$ELEVATION
 40
0.0
  9
$PELEVATION
 40
0.0
  9
$THICKNESS
 40
0.0
  9
$LIMCHECK
 70
     0
  9
$BLIPMODE
 70
     0
  9
$CHAMFERA
 40
2.5
  9
$CHAMFERB
 40
2.5
  9
$CHAMFERC
 40
20.0
  9
$CHAMFERD
 40
0.0
  9
$SKPOLY
 70
     0
  9
$TDCREATE
 40
2452838.620506898
  9
$TDUPDATE
 40
2453151.889649282
  9
$TDINDWG
 40
0.8644114352
  9
$TDUSRTIMER
 40
0.8644114352
  9
$USRTIMER
 70
     1
  9
$ANGBASE
 50
0.0
  9
$ANGDIR
 70
     0
  9
$PDMODE
 70
     0
  9
$PDSIZE
 40
0.0
  9
$PLINEWID
 40
0.0
  9
$COORDS
 70
     1
  9
$SPLFRAME
 70
     0
  9
$SPLINETYPE
 70
     6
  9
$SPLINESEGS
 70
     8
  9
$ATTDIA
 70
     1
  9
$ATTREQ
 70
     1
  9
$HANDLING
 70
 12289
  9
$HANDSEED
  5
5621
  9
$SURFTAB1
 70
     6
  9
$SURFTAB2
 70
     6
  9
$SURFTYPE
 70
     6
  9
$SURFU
 70
     6
  9
$SURFV
 70
     6
  9
$UCSNAME
  2

  9
$UCSORG
 10
-0.0000000000000568
 20
-0.0000000000000036
 30
0.0
  9
$UCSXDIR
 10
1.0
 20
0.0
 30
0.0
  9
$UCSYDIR
 10
0.0
 20
1.0
 30
0.0
  9
$PUCSNAME
  2

  9
$PUCSORG
 10
0.0
 20
0.0
 30
0.0
  9
$PUCSXDIR
 10
1.0
 20
0.0
 30
0.0
  9
$PUCSYDIR
 10
0.0
 20
1.0
 30
0.0
  9
$USERI1
 70
     0
  9
$USERI2
 70
     0
  9
$USERI3
 70
     0
  9
$USERI4
 70
     0
  9
$USERI5
 70
     0
  9
$USERR1
 40
0.0
  9
$USERR2
 40
0.0
  9
$USERR3
 40
0.0
  9
$USERR4
 40
0.0
  9
$USERR5
 40
0.0
  9
$WORLDVIEW
 70
     1
  9
$SHADEDGE
 70
     3
  9
$SHADEDIF
 70
    70
  9
$TILEMODE
 70
     1
  9
$MAXACTVP
 70
    64
  9
$PINSBASE
 10
0.0
 20
0.0
 30
0.0
  9
$PLIMCHECK
 70
     0
  9
$PEXTMIN
 10
1.000000000000000E+20
 20
1.000000000000000E+20
 30
1.000000000000000E+20
  9
$PEXTMAX
 10
-1.000000000000000E+20
 20
-1.000000000000000E+20
 30
-1.000000000000000E+20
  9
$PLIMMIN
 10
0.0
 20
0.0
  9
$PLIMMAX
 10
841.0
 20
594.0
  9
$UNITMODE
 70
     0
  9
$VISRETAIN
 70
     1
  9
$PLINEGEN
 70
     0
  9
$PSLTSCALE
 70
     0
  9
$TREEDEPTH
 70
  3020
  9
$PICKSTYLE
 70
     0
  9
$CMLSTYLE
  2
STANDARD
  9
$CMLJUST
 70
     0
  9
$CMLSCALE
 40
20.0
  9
$PROXYGRAPHICS
 70
     1
  9
$MEASUREMENT
 70
     1
  0
ENDSEC
  0
SECTION
  2
CLASSES
  0
CLASS
  1
ACDBDICTIONARYWDFLT
  2
AcDbDictionaryWithDefault
  3
AutoCAD 2000
 90
        0
280
     0
281
     0
  0
CLASS
  1
ACDBPLACEHOLDER
  2
AcDbPlaceHolder
  3
AutoCAD 2000
 90
        0
280
     0
281
     0
  0
CLASS
  1
LAYOUT
  2
AcDbLayout
  3
AutoCAD 2000
 90
        0
280
     0
281
     0
  0
CLASS
  1
AMGSETTINGSOBJ
  2
AmgSettingsObj
  3
"AcadM|Product Description: AutoCAD Mechanical 2000|Company: Autodesk"
 90
        0
280
     0
281
     0
  0
CLASS
  1
ACME_DOCUMENT
  2
AcMeDbDoc
  3
AcMeServices
 90
        0
280
     0
281
     0
  0
CLASS
  1
ACMESCOPE
  2
AcMeScope
  3
AcMeServices
 90
        0
280
     0
281
     0
  0
CLASS
  1
ACMECOMMANDHISTORY
  2
AcMeCommandHistory
  3
AcMeServices
 90
        0
280
     0
281
     0
  0
CLASS
  1
DICTIONARYVAR
  2
AcDbDictionaryVar
  3
AutoCAD 2000
 90
        0
280
     0
281
     0
  0
CLASS
  1
ACIMSYSVARMAN
  2
AcImSysVarManager
  3
AcMeServices
 90
        0
280
     0
281
     0
  0
CLASS
  1
ACIMREALSYSVAR
  2
AcImRealSysVar
  3
AcMeServices
 90
        0
280
     0
281
     0
  0
CLASS
  1
ACIMINTSYSVAR
  2
AcImIntSysVar
  3
AcMeServices
 90
        0
280
     0
281
     0
  0
CLASS
  1
ACMEDRAWINGMAN
  2
AcMeDrawingMan
  3
AcMeServices
 90
        0
280
     0
281
     0
  0
CLASS
  1
ACMEVIEW
  2
AcMeView
  3
AcMeServices
 90
        0
280
     0
281
     0
  0
CLASS
  1
ACDBENTITYCACHE
  2
AcMeEntityCache
  3
AcMeServices
 90
        0
280
     0
281
     0
  0
CLASS
  1
GSMANAGER
  2
AcMeGSManager
  3
AcMeServices
 90
        0
280
     0
281
     0
  0
CLASS
  1
AmdtInternalReactor
  2
AmdtInternalReactor
  3
AcMeServices
 90
        0
280
     0
281
     0
  0
CLASS
  1
ACMESTATEMGR
  2
AcMeStateMgr
  3
AcMeServices
 90
        0
280
     0
281
     0
  0
CLASS
  1
ACME_DATABASE
  2
AcMeDbDatabase
  3
AcMeServices
 90
        0
280
     0
281
     0
  0
CLASS
  1
ACRFINSADJUSTERMGR
  2
AcRfInsAdjusterMgr
  3
AcMeServices
 90
        0
280
     0
281
     0
  0
CLASS
  1
ACMDATADICTIONARY
  2
AcmDataDictionary
  3
"AcmSymBB|Product Description: AutoCAD Mechanical 2000|Company: Autodesk"
 90
        0
280
     0
281
     0
  0
CLASS
  1
ACMDATAENTRYBLOCK
  2
AcmDataEntryBlock
  3
"AcmSymBB|Product Description: AutoCAD Mechanical 2000|Company: Autodesk"
 90
        0
280
     0
281
     0
  0
CLASS
  1
AMGOBJPROPCFG
  2
AmgObjPropCfg
  3
"AmgLay|Product Description: AutoCAD Mechanical 2000|Company: Autodesk"
 90
        1
280
     0
281
     0
  0
CLASS
  1
ACAMGFILTERDAT
  2
AcAmgFilterDat
  3
"AcadM|Product Description: AutoCAD Mechanical 2000|Company: Autodesk"
 90
        0
280
     0
281
     0
  0
CLASS
  1
LAYER_INDEX
  2
AcDbLayerIndex
  3
AutoCAD 2000
 90
        0
280
     0
281
     0
  0
CLASS
  1
IDBUFFER
  2
AcDbIdBuffer
  3
AutoCAD 2000
 90
        0
280
     0
281
     0
  0
CLASS
  1
ACIMSTRSYSVAR
  2
AcImStrSysVar
  3
AcMeServices
 90
        0
280
     0
281
     0
  0
CLASS
  1
ACMSTANDARDJIS
  2
AcmStandardJIS
  3
"AcmSymBB|Product Description: AutoCAD Mechanical 2000|Company: Autodesk"
 90
        0
280
     0
281
     0
  0
CLASS
  1
ACMSURFSTANDARDJIS
  2
AcmSurfTextStdJIS
  3
"AcmSymBB|Product Description: AutoCAD Mechanical 2000|Company: Autodesk"
 90
        0
280
     0
281
     0
  0
CLASS
  1
ACMFCFSTANDARDJIS
  2
AcmFCFStdJIS
  3
"AcmSymBB|Product Description: AutoCAD Mechanical 2000|Company: Autodesk"
 90
        0
280
     0
281
     0
  0
CLASS
  1
ACMWELDSTANDARDJIS
  2
AcmWeldingStdJIS
  3
"AcmSymBB|Product Description: AutoCAD Mechanical 2000|Company: Autodesk"
 90
        0
280
     0
281
     0
  0
CLASS
  1
ACMIDSTANDARDJIS
  2
AcmIdStdJIS
  3
"AcmSymBB|Product Description: AutoCAD Mechanical 2000|Company: Autodesk"
 90
        0
280
     0
281
     0
  0
CLASS
  1
ACMDATUMSTANDARDJIS
  2
AcmDatumStdJIS
  3
"AcmSymBB|Product Description: AutoCAD Mechanical 2000|Company: Autodesk"
 90
        0
280
     0
281
     0
  0
CLASS
  1
ACMBOMSTANDARDJIS
  2
AcmBOMStdJIS
  3
"AcmSymBB|Product Description: AutoCAD Mechanical 2000|Company: Autodesk"
 90
        0
280
     0
281
     0
  0
CLASS
  1
ACMSTANDARDANSI
  2
AcmStandardANSI
  3
"AcmSymBB|Product Description: AutoCAD Mechanical 2000|Company: Autodesk"
 90
        0
280
     0
281
     0
  0
CLASS
  1
ACMSURFSTANDARDANSI
  2
AcmSurfTextStdANSI
  3
"AcmSymBB|Product Description: AutoCAD Mechanical 2000|Company: Autodesk"
 90
        0
280
     0
281
     0
  0
CLASS
  1
ACMFCFSTANDARDANSI
  2
AcmFCFStdANSI
  3
"AcmSymBB|Product Description: AutoCAD Mechanical 2000|Company: Autodesk"
 90
        0
280
     0
281
     0
  0
CLASS
  1
ACMWELDSTANDARDANSI
  2
AcmWeldingStdANSI
  3
"AcmSymBB|Product Description: AutoCAD Mechanical 2000|Company: Autodesk"
 90
        0
280
     0
281
     0
  0
CLASS
  1
ACMIDSTANDARDANSI
  2
AcmIdStdANSI
  3
"AcmSymBB|Product Description: AutoCAD Mechanical 2000|Company: Autodesk"
 90
        0
280
     0
281
     0
  0
CLASS
  1
ACMDATUMSTANDARDANSI
  2
AcmDatumStdANSI
  3
"AcmSymBB|Product Description: AutoCAD Mechanical 2000|Company: Autodesk"
 90
        0
280
     0
281
     0
  0
CLASS
  1
ACMBOMSTANDARDANSI
  2
AcmBOMStdANSI
  3
"AcmSymBB|Product Description: AutoCAD Mechanical 2000|Company: Autodesk"
 90
        0
280
     0
281
     0
  0
CLASS
  1
ACMSTANDARDBSI
  2
AcmStandardBSI
  3
"AcmSymBB|Product Description: AutoCAD Mechanical 2000|Company: Autodesk"
 90
        0
280
     0
281
     0
  0
CLASS
  1
ACMSURFSTANDARDBSI
  2
AcmSurfTextStdBSI
  3
"AcmSymBB|Product Description: AutoCAD Mechanical 2000|Company: Autodesk"
 90
        0
280
     0
281
     0
  0
CLASS
  1
ACMFCFSTANDARDBSI
  2
AcmFCFStdBSI
  3
"AcmSymBB|Product Description: AutoCAD Mechanical 2000|Company: Autodesk"
 90
        0
280
     0
281
     0
  0
CLASS
  1
ACMWELDSTANDARDBSI
  2
AcmWeldingStdBSI
  3
"AcmSymBB|Product Description: AutoCAD Mechanical 2000|Company: Autodesk"
 90
        0
280
     0
281
     0
  0
CLASS
  1
ACMIDSTANDARDBSI
  2
AcmIdStdBSI
  3
"AcmSymBB|Product Description: AutoCAD Mechanical 2000|Company: Autodesk"
 90
        0
280
     0
281
     0
  0
CLASS
  1
ACMDATUMSTANDARDBSI
  2
AcmDatumStdBSI
  3
"AcmSymBB|Product Description: AutoCAD Mechanical 2000|Company: Autodesk"
 90
        0
280
     0
281
     0
  0
CLASS
  1
ACMBOMSTANDARDBSI
  2
AcmBOMStdBSI
  3
"AcmSymBB|Product Description: AutoCAD Mechanical 2000|Company: Autodesk"
 90
        0
280
     0
281
     0
  0
CLASS
  1
LONG_TRANSACTION
  2
AcDbLongTransaction
  3
AutoCAD 2000
 90
        0
280
     0
281
     0
  0
CLASS
  1
LWPOLYLINE
  2
AcDbPolyline
  3
AutoCAD 2000
 90
        0
280
     0
281
     1
  0
CLASS
  1
HATCH
  2
AcDbHatch
  3
AutoCAD 2000
 90
        0
280
     0
281
     1
  0
CLASS
  1
XRECORD
  2
AcDbXrecord
  3
AutoCAD 2000
 90
        0
280
     0
281
     0
  0
ENDSEC
  0
SECTION
  2
TABLES
  0
TABLE
  2
VPORT
  5
8
330
0
100
AcDbSymbolTable
 70
     3
  0
VPORT
  5
55F6
330
8
100
AcDbSymbolTableRecord
100
AcDbViewportTableRecord
  2
*ACTIVE
 70
     0
 10
0.0
 20
0.0
 11
1.0
 21
1.0
 12
-113.6831552740547
 22
-25.44372807601024
 13
0.0
 23
0.0
 14
2.5
 24
2.5
 15
10.0
 25
10.0
 16
0.0
 26
0.0
 36
1.0
 17
0.0
 27
0.0
 37
0.0
 40
169.0393517443134
 41
1.56570841889117
 42
50.0
 43
0.0
 44
0.0
 50
0.0
 51
0.0
 71
     0
 72
   100
 73
     1
 74
     3
 75
     0
 76
     0
 77
     0
 78
     0
  0
ENDTAB
  0
TABLE
  2
LTYPE
  5
5
330
0
100
AcDbSymbolTable
 70
    10
  0
LTYPE
  5
14
330
5
100
AcDbSymbolTableRecord
100
AcDbLinetypeTableRecord
  2
BYBLOCK
 70
     0
  3

 72
    65
 73
     0
 40
0.0
  0
LTYPE
  5
15
330
5
100
AcDbSymbolTableRecord
100
AcDbLinetypeTableRecord
  2
BYLAYER
 70
     0
  3

 72
    65
 73
     0
 40
0.0
  0
LTYPE
  5
16
330
5
100
AcDbSymbolTableRecord
100
AcDbLinetypeTableRecord
  2
CONTINUOUS
 70
     0
  3
Solid line
 72
    65
 73
     0
 40
0.0
  0
LTYPE
  5
4B
330
5
100
AcDbSymbolTableRecord
100
AcDbLinetypeTableRecord
  2
AM_ISO02W050
 70
     0
  3
__ __ __ __ __ __ __ __ __ __ __ __ __ __ __
 72
    65
 73
     2
 40
7.5
 49
6.0
 74
     0
 49
-1.5
 74
     0
  0
LTYPE
  5
4C
330
5
100
AcDbSymbolTableRecord
100
AcDbLinetypeTableRecord
  2
AM_ISO08W050
 70
     0
  3
____ . ____ . ____ . ____ . ____ . ____ . ____
 72
    65
 73
     4
 40
18.0
 49
12.0
 74
     0
 49
-1.5
 74
     0
 49
3.0
 74
     0
 49
-1.5
 74
     0
  0
LTYPE
  5
4D
330
5
100
AcDbSymbolTableRecord
100
AcDbLinetypeTableRecord
  2
AM_ISO09W050
 70
     0
  3
_____ . . _____ . . _____ . . ____ .. ____
 72
    65
 73
     6
 40
22.5
 49
12.0
 74
     0
 49
-1.5
 74
     0
 49
3.0
 74
     0
 49
-1.5
 74
     0
 49
3.0
 74
     0
 49
-1.5
 74
     0
  0
LTYPE
  5
4E
330
5
100
AcDbSymbolTableRecord
100
AcDbLinetypeTableRecord
  2
AMCONSTR
 70
     0
  3
_______________________
 72
    65
 73
     2
 40
9999.0
 49
9999.0
 74
     0
 49
0.0
 74
     0
  0
LTYPE
  5
4F
330
5
100
AcDbSymbolTableRecord
100
AcDbLinetypeTableRecord
  2
AM_ISO02W050X2
 70
     0
  3
 _ _ _ _ _ _ _ _ _ _ _ _
 72
    65
 73
     2
 40
3.75
 49
3.0
 74
     0
 49
-0.75
 74
     0
  0
LTYPE
  5
50
330
5
100
AcDbSymbolTableRecord
100
AcDbLinetypeTableRecord
  2
AM_ISO08W050X2
 70
     0
  3
__ . __ . __ . __ . __ . __
 72
    65
 73
     4
 40
9.0
 49
6.0
 74
     0
 49
-0.75
 74
     0
 49
1.5
 74
     0
 49
-0.75
 74
     0
  0
LTYPE
  5
53
330
5
100
AcDbSymbolTableRecord
100
AcDbLinetypeTableRecord
  2
AMZIGZAG
 70
     0
  3
/\/-/\/-/\/-/\/-/\/-/\/
 72
    65
 73
     2
 40
11.00009999999999
 49
0.0001
 74
     4
 75
   135
340
52
 46
0.04
 50
0.0
 44
0.0
 45
0.0
 49
-11.0
 74
     0
  0
LTYPE
  5
166
330
5
100
AcDbSymbolTableRecord
100
AcDbLinetypeTableRecord
  2
ACJISTGL
 70
     0
  3
_ _ _ _ _
 72
    65
 73
     2
 40
3.0
 49
2.0
 74
     0
 49
-1.0
 74
     0
  0
LTYPE
  5
26A
330
5
100
AcDbSymbolTableRecord
100
AcDbLinetypeTableRecord
  2
ACJISTGB
 70
     0
  3
__ . . __ . .
 72
    65
 73
     6
 40
9.0
 49
4.0
 74
     0
 49
-1.0
 74
     0
 49
1.0
 74
     0
 49
-1.0
 74
     0
 49
1.0
 74
     0
 49
-1.0
 74
     0
  0
ENDTAB
  0
TABLE
  2
LAYER
  5
2
330
0
100
AcDbSymbolTable
 70
     8
  0
LAYER
  5
10
330
2
100
AcDbSymbolTableRecord
100
AcDbLayerTableRecord
  2
0
 70
     0
 62
     7
  6
CONTINUOUS
  0
LAYER
  5
3F9
330
2
100
AcDbSymbolTableRecord
100
AcDbLayerTableRecord
  2
AM_0
 70
     0
 62
     7
  6
CONTINUOUS
  0
LAYER
  5
BD6
330
2
100
AcDbSymbolTableRecord
100
AcDbLayerTableRecord
  2
AM_11
 70
     0
 62
     3
  6
AM_ISO09W050
  0
LAYER
  5
BD7
330
2
100
AcDbSymbolTableRecord
100
AcDbLayerTableRecord
  2
AM_7
 70
     0
 62
     4
  6
AM_ISO08W050
  0
LAYER
  5
BD8
330
2
100
AcDbSymbolTableRecord
100
AcDbLayerTableRecord
  2
AM_5
 70
     0
 62
     3
  6
CONTINUOUS
  0
LAYER
  5
BD9
330
2
100
AcDbSymbolTableRecord
100
AcDbLayerTableRecord
  2
DEFPOINTS
 70
     0
 62
     7
  6
CONTINUOUS
  0
LAYER
  5
BDA
330
2
100
AcDbSymbolTableRecord
100
AcDbLayerTableRecord
  2
AM_6
 70
     0
 62
     2
  6
CONTINUOUS
  0
LAYER
  5
2398
330
2
100
AcDbSymbolTableRecord
100
AcDbLayerTableRecord
  2
AM_CL
 70
     0
 62
     1
  6
AMCONSTR
  0
ENDTAB
  0
TABLE
  2
STYLE
  5
3
330
0
100
AcDbSymbolTable
 70
     5
  0
STYLE
  5
11
330
3
100
AcDbSymbolTableRecord
100
AcDbTextStyleTableRecord
  2
STANDARD
 70
     0
 40
0.0
 41
1.0
 50
0.0
 71
     0
 42
2.5
  3
simplex.shx
  4
EXTFONT.SHX
  0
STYLE
  5
52
330
3
100
AcDbSymbolTableRecord
100
AcDbTextStyleTableRecord
  2

 70
     1
 40
0.0
 41
1.0
 50
0.0
 71
     0
 42
2.5
  3
ltypeshp.shx
  4

  0
STYLE
  5
6B
330
3
100
AcDbSymbolTableRecord
100
AcDbTextStyleTableRecord
  2
ASAMI
 70
     0
 40
0.0
 41
1.0
 50
0.0
 71
     0
 42
2.5
  3
simplex.shx
  4
EXTFONT.SHX
  0
STYLE
  5
262
330
3
100
AcDbSymbolTableRecord
100
AcDbTextStyleTableRecord
  2
ACJISTS
 70
     0
 40
1.0
 41
1.0
 50
0.0
 71
     0
 42
2.5
  3
simplex.shx
  4
bigfont.shx
  0
STYLE
  5
269
330
3
100
AcDbSymbolTableRecord
100
AcDbTextStyleTableRecord
  2
ACJISGDT
 70
     0
 40
0.0
 41
1.0
 50
0.0
 71
     0
 42
2.5
  3
amgdtans.shx
  4

  0
ENDTAB
  0
TABLE
  2
VIEW
  5
6
330
0
100
AcDbSymbolTable
 70
     0
  0
ENDTAB
  0
TABLE
  2
UCS
  5
7
330
0
100
AcDbSymbolTable
 70
     0
  0
ENDTAB
  0
TABLE
  2
APPID
  5
9
330
0
100
AcDbSymbolTable
 70
    14
  0
APPID
  5
12
330
9
100
AcDbSymbolTableRecord
100
AcDbRegAppTableRecord
  2
ACAD
 70
     0
  0
APPID
  5
30
330
9
100
AcDbSymbolTableRecord
100
AcDbRegAppTableRecord
  2
MCAD_NO_VIS
 70
     0
  0
APPID
  5
31
330
9
100
AcDbSymbolTableRecord
100
AcDbRegAppTableRecord
  2
ACAD_TEMP_GRAPHIC
 70
     0
  0
APPID
  5
2C2
330
9
100
AcDbSymbolTableRecord
100
AcDbRegAppTableRecord
  2
GENIUS_GENDTOL_13
 70
     0
  0
APPID
  5
339
330
9
100
AcDbSymbolTableRecord
100
AcDbRegAppTableRecord
  2
GENIUS_GENODEF_13
 70
     0
  0
APPID
  5
33A
330
9
100
AcDbSymbolTableRecord
100
AcDbRegAppTableRecord
  2
GENIUS_GENOBJ-N-RSBK_13
 70
     0
  0
APPID
  5
33B
330
9
100
AcDbSymbolTableRecord
100
AcDbRegAppTableRecord
  2
GENIUS_GENOBJ-N-LIB_13
 70
     0
  0
APPID
  5
33C
330
9
100
AcDbSymbolTableRecord
100
AcDbRegAppTableRecord
  2
GENIUS_GENSCALE_13
 70
     0
  0
APPID
  5
378
330
9
100
AcDbSymbolTableRecord
100
AcDbRegAppTableRecord
  2
GENIUS_GENDIMSH_14
 70
     0
  0
APPID
  5
BDB
330
9
100
AcDbSymbolTableRecord
100
AcDbRegAppTableRecord
  2
GENIUS_GENOBJ-N-CEN_13
 70
     0
  0
APPID
  5
BDC
330
9
100
AcDbSymbolTableRecord
100
AcDbRegAppTableRecord
  2
GENIUS_GENFIL_13
 70
     0
  0
APPID
  5
BDD
330
9
100
AcDbSymbolTableRecord
100
AcDbRegAppTableRecord
  2
GENIUS_GENOBJ-N-FIL_13
 70
     0
  0
APPID
  5
12AD
330
9
100
AcDbSymbolTableRecord
100
AcDbRegAppTableRecord
  2
GENIUS_GENOREF_13
 70
     0
  0
APPID
  5
28FE
330
9
100
AcDbSymbolTableRecord
100
AcDbRegAppTableRecord
  2
GENIUS_GENOBJ-N-CHA_13
 70
     0
  0
ENDTAB
  0
TABLE
  2
DIMSTYLE
  5
A
330
0
100
AcDbSymbolTable
 70
     8
  0
DIMSTYLE
105
58
102
{ACAD_REACTORS
330
4DA8
330
4DAB
330
53F4
330
5461
330
54B0
102
}
330
A
100
AcDbSymbolTableRecord
100
AcDbDimStyleTableRecord
  2
AM_JIS
 70
     0
  3

  4
"
  5
OPEN30
  6

  7

 40
1.0
 41
2.5
 42
1.0
 43
12.0
 44
1.0
 45
0.0
 46
0.0
 47
0.1
 48
0.1
140
3.2
141
0.0
142
0.0
143
0.0393701
144
1.0
145
0.0
146
0.71
147
1.5
 71
     0
 72
     0
 73
     0
 74
     0
 75
     0
 76
     0
 77
     3
 78
     8
170
     0
171
     2
172
     1
173
     0
174
     0
175
     0
176
   256
177
   256
178
     2
270
     2
271
     3
272
     3
273
     2
274
     2
340
6B
275
     0
280
     0
281
     0
282
     0
283
     0
284
     0
285
     0
286
     0
287
     3
288
     0
  0
DIMSTYLE
105
5F
330
A
100
AcDbSymbolTableRecord
100
AcDbDimStyleTableRecord
  2
AM_JIS$3
 70
     0
  3

  4
"
  5
OPEN30
  6

  7

 40
1.0
 41
2.5
 42
1.0
 43
10.0
 44
1.0
 45
0.0
 46
0.0
 47
0.1
 48
0.1
140
3.2
141
0.0
142
0.0
143
0.0393701
144
1.0
145
0.0
146
0.71
147
1.5
 71
     0
 72
     0
 73
     0
 74
     1
 75
     0
 76
     0
 77
     3
 78
     8
170
     0
171
     2
172
     0
173
     0
174
     0
175
     0
176
   256
177
   256
178
     2
270
     2
271
     2
272
     3
273
     2
274
     2
340
6B
275
     0
280
     0
281
     0
282
     0
283
     0
284
     0
285
     0
286
     0
287
     0
288
     1
  0
DIMSTYLE
105
60
330
A
100
AcDbSymbolTableRecord
100
AcDbDimStyleTableRecord
  2
AM_JIS$4
 70
     0
  3

  4
"
  5
OPEN30
  6

  7

 40
1.0
 41
2.5
 42
1.0
 43
10.0
 44
1.0
 45
0.0
 46
0.0
 47
0.1
 48
0.1
140
3.2
141
0.0
142
0.0
143
0.0393701
144
1.0
145
0.0
146
0.71
147
1.5
 71
     0
 72
     0
 73
     0
 74
     1
 75
     0
 76
     0
 77
     3
 78
     8
170
     0
171
     2
172
     0
173
     0
174
     0
175
     0
176
   256
177
   256
178
     2
270
     2
271
     2
272
     3
273
     2
274
     2
340
6B
275
     0
280
     0
281
     0
282
     0
283
     0
284
     0
285
     0
286
     0
287
     0
288
     1
  0
DIMSTYLE
105
61
330
A
100
AcDbSymbolTableRecord
100
AcDbDimStyleTableRecord
  2
AM_JIS$6
 70
     0
  3

  4
"
  5
OPEN30
  6

  7

 40
1.0
 41
2.5
 42
1.0
 43
10.0
 44
1.0
 45
0.0
 46
0.0
 47
0.1
 48
0.1
140
3.2
141
0.0
142
0.0
143
0.0393701
144
1.0
145
0.0
146
0.71
147
1.5
 71
     0
 72
     0
 73
     0
 74
     0
 75
     0
 76
     0
 77
     0
 78
     8
170
     0
171
     2
172
     1
173
     0
174
     0
175
     0
176
   256
177
   256
178
     2
270
     2
271
     2
272
     2
273
     2
274
     2
340
6B
275
     0
280
     0
281
     0
282
     0
283
     0
284
     0
285
     0
286
     0
287
     3
288
     0
  0
DIMSTYLE
105
62
330
A
100
AcDbSymbolTableRecord
100
AcDbDimStyleTableRecord
  2
AM_JIS$7
 70
     0
  3

  4
"
  5
OPEN30
  6

  7

 40
1.0
 41
2.5
 42
1.0
 43
10.0
 44
1.0
 45
0.0
 46
0.0
 47
0.1
 48
0.1
140
3.2
141
0.0
142
0.0
143
0.0393701
144
1.0
145
0.0
146
0.71
147
1.5
 71
     0
 72
     0
 73
     0
 74
     0
 75
     0
 76
     0
 77
     3
 78
     8
170
     0
171
     2
172
     1
173
     0
174
     0
175
     0
176
   256
177
   256
178
     2
270
     2
271
     2
272
     3
273
     2
274
     2
340
6B
275
     0
280
     0
281
     0
282
     0
283
     0
284
     0
285
     0
286
     0
287
     3
288
     0
  0
DIMSTYLE
105
63
330
A
100
AcDbSymbolTableRecord
100
AcDbDimStyleTableRecord
  2
AM_JIS$SF
 70
     0
  3

  4
"
  5
OPEN30
  6

  7

 40
1.0
 41
2.5
 42
1.0
 43
10.0
 44
1.0
 45
0.0
 46
0.0
 47
0.1
 48
0.1
140
3.2
141
0.0
142
0.0
143
0.0393701
144
1.0
145
0.0
146
0.71
147
1.5
 71
     0
 72
     0
 73
     0
 74
     0
 75
     1
 76
     1
 77
     3
 78
     8
170
     0
171
     2
172
     1
173
     0
174
     0
175
     0
176
   256
177
   256
178
     2
270
     2
271
     2
272
     2
273
     2
274
     2
340
6B
275
     0
280
     0
281
     0
282
     0
283
     0
284
     0
285
     0
286
     0
287
     3
288
     0
  0
DIMSTYLE
105
68
330
A
100
AcDbSymbolTableRecord
100
AcDbDimStyleTableRecord
  2
AM_JIS$SH
 70
     0
  3

  4
"
  5

  6
GENAXEH
  7
OPEN30
 40
1.0
 41
2.5
 42
1.0
 43
10.0
 44
1.0
 45
0.0
 46
0.0
 47
0.1
 48
0.1
140
3.2
141
0.0
142
0.0
143
0.0393701
144
2.0
145
0.0
146
0.71
147
1.5
 71
     0
 72
     0
 73
     0
 74
     0
 75
     1
 76
     1
 77
     3
 78
     8
170
     0
171
     2
172
     1
173
     1
174
     0
175
     0
176
   256
177
   256
178
     2
270
     2
271
     2
272
     2
273
     2
274
     2
340
6B
275
     0
280
     0
281
     0
282
     0
283
     0
284
     0
285
     0
286
     0
287
     3
288
     0
  0
DIMSTYLE
105
B34
330
A
100
AcDbSymbolTableRecord
100
AcDbDimStyleTableRecord
  2
AM_JIS$2
 70
     0
  3

  4
"
  5
OPEN30
  6

  7

 40
1.0
 41
2.5
 42
1.0
 43
12.0
 44
1.0
 45
0.0
 46
0.0
 47
0.1
 48
0.1
140
3.2
141
0.0
142
0.0
143
0.0393701
144
1.0
145
0.0
146
0.71
147
1.5
 71
     0
 72
     0
 73
     0
 74
     0
 75
     0
 76
     0
 77
     3
 78
     8
170
     0
171
     2
172
     1
173
     0
174
     0
175
     0
176
   256
177
   256
178
     2
270
     2
271
     3
272
     3
273
     2
274
     2
340
6B
275
     0
280
     0
281
     0
282
     0
283
     0
284
     0
285
     0
286
     0
287
     3
288
     0
  0
ENDTAB
  0
TABLE
  2
BLOCK_RECORD
  5
1
330
0
100
AcDbSymbolTable
 70
    12
  0
BLOCK_RECORD
  5
1F
102
{ACAD_XDICTIONARY
360
74
102
}
330
1
100
AcDbSymbolTableRecord
100
AcDbBlockTableRecord
  2
*MODEL_SPACE
  0
BLOCK_RECORD
  5
101
102
{ACAD_XDICTIONARY
360
561F
102
}
330
1
100
AcDbSymbolTableRecord
100
AcDbBlockTableRecord
  2
*PAPER_SPACE
  0
BLOCK_RECORD
  5
59
330
1
100
AcDbSymbolTableRecord
100
AcDbBlockTableRecord
  2
_OPEN30
  0
BLOCK_RECORD
  5
64
330
1
100
AcDbSymbolTableRecord
100
AcDbBlockTableRecord
  2
GENAXEH
  0
BLOCK_RECORD
  5
4E4B
330
1
100
AcDbSymbolTableRecord
100
AcDbBlockTableRecord
  2
*D5
  0
BLOCK_RECORD
  5
4E57
330
1
100
AcDbSymbolTableRecord
100
AcDbBlockTableRecord
  2
*D6
  0
BLOCK_RECORD
  5
500A
330
1
100
AcDbSymbolTableRecord
100
AcDbBlockTableRecord
  2
A$C58974FBB
  0
BLOCK_RECORD
  5
504C
330
1
100
AcDbSymbolTableRecord
100
AcDbBlockTableRecord
  2
A$C149B14D7
  0
BLOCK_RECORD
  5
53F5
330
1
100
AcDbSymbolTableRecord
100
AcDbBlockTableRecord
  2
*D9
  0
BLOCK_RECORD
  5
5462
330
1
100
AcDbSymbolTableRecord
100
AcDbBlockTableRecord
  2
*D10
  0
BLOCK_RECORD
  5
54B1
330
1
100
AcDbSymbolTableRecord
100
AcDbBlockTableRecord
  2
*D11
  0
ENDTAB
  0
ENDSEC
  0
SECTION
  2
BLOCKS
  0
BLOCK
  5
20
330
1F
100
AcDbEntity
  8
0
100
AcDbBlockBegin
  2
*MODEL_SPACE
 70
     0
 10
0.0
 20
0.0
 30
0.0
  3
*MODEL_SPACE
  1

  0
ENDBLK
  5
21
330
1F
100
AcDbEntity
  8
0
100
AcDbBlockEnd
  0
BLOCK
  5
103
330
101
100
AcDbEntity
 67
     1
  8
0
100
AcDbBlockBegin
  2
*PAPER_SPACE
 70
     0
 10
0.0
 20
0.0
 30
0.0
  3
*PAPER_SPACE
  1

  0
ENDBLK
  5
104
330
101
100
AcDbEntity
 67
     1
  8
0
100
AcDbBlockEnd
  0
BLOCK
  5
5D
330
59
100
AcDbEntity
  8
0
100
AcDbBlockBegin
  2
_OPEN30
 70
     0
 10
0.0
 20
0.0
 30
0.0
  3
_OPEN30
  1

  0
LINE
  5
5A
330
59
100
AcDbEntity
  8
0
 62
     0
100
AcDbLine
 10
-1.0
 20
0.26794919
 30
0.0
 11
0.0
 21
0.0
 31
0.0
  0
LINE
  5
5B
330
59
100
AcDbEntity
  8
0
 62
     0
100
AcDbLine
 10
0.0
 20
0.0
 30
0.0
 11
-1.0
 21
-0.26794919
 31
0.0
  0
LINE
  5
5C
330
59
100
AcDbEntity
  8
0
 62
     0
100
AcDbLine
 10
0.0
 20
0.0
 30
0.0
 11
-1.0
 21
0.0
 31
0.0
  0
ENDBLK
  5
5E
330
59
100
AcDbEntity
  8
0
100
AcDbBlockEnd
  0
BLOCK
  5
66
330
64
100
AcDbEntity
  8
0
100
AcDbBlockBegin
  2
GENAXEH
 70
     0
 10
0.0
 20
0.0
 30
0.0
  3
GENAXEH
  1

  0
LINE
  5
65
330
64
100
AcDbEntity
  8
0
100
AcDbLine
 10
-1.0
 20
0.0
 30
0.0
 11
1.0
 21
0.0
 31
0.0
  0
ENDBLK
  5
67
330
64
100
AcDbEntity
  8
0
100
AcDbBlockEnd
  0
BLOCK
  5
4E55
330
4E4B
100
AcDbEntity
  8
0
100
AcDbBlockBegin
  2
*D5
 70
     1
 10
0.0
 20
0.0
 30
0.0
  3
*D5
  1

  0
LINE
  5
5505
330
4E4B
100
AcDbEntity
  8
AM_5
100
AcDbLine
 10
-222.0000000000021
 20
-14.99999999999873
 30
0.0
 11
-222.0000000000021
 21
-43.81996447776842
 31
0.0
  0
LINE
  5
5506
330
4E4B
100
AcDbEntity
  8
AM_5
100
AcDbLine
 10
-137.0000000000021
 20
-16.99999999999879
 30
0.0
 11
-137.0000000000021
 21
-43.81996447776842
 31
0.0
  0
LINE
  5
5507
330
4E4B
100
AcDbEntity
  8
AM_5
100
AcDbLine
 10
-219.5000000000021
 20
-42.81996447776842
 30
0.0
 11
-139.5000000000021
 21
-42.81996447776842
 31
0.0
  0
INSERT
  5
5508
330
4E4B
100
AcDbEntity
  8
AM_5
100
AcDbBlockReference
  2
_OPEN30
 10
-222.0000000000021
 20
-42.81996447776842
 30
0.0
 41
2.5
 42
2.5
 43
2.5
 50
180.0
  0
INSERT
  5
5509
330
4E4B
100
AcDbEntity
  8
AM_5
100
AcDbBlockReference
  2
_OPEN30
 10
-137.0000000000021
 20
-42.81996447776842
 30
0.0
 41
2.5
 42
2.5
 43
2.5
  0
MTEXT
  5
550A
330
4E4B
100
AcDbEntity
  8
AM_5
 62
     2
100
AcDbMText
 10
-179.5000000000021
 20
-39.71996447776842
 30
0.0
 40
3.2
 41
0.0
 71
     5
 72
     1
  1
85
  7
ASAMI
1001
ACAD
1000
MTEXTBEGIN
1070
    73
1070
     1
1070
    44
1040
1.0
1070
    74
1070
     0
1000
MTEXTEND
  0
POINT
  5
550B
330
4E4B
100
AcDbEntity
  8
DEFPOINTS
 62
     0
100
AcDbPoint
 10
-222.0000000000021
 20
-13.99999999999873
 30
0.0
  0
POINT
  5
550C
330
4E4B
100
AcDbEntity
  8
DEFPOINTS
 62
     0
100
AcDbPoint
 10
-137.0000000000021
 20
-15.99999999999879
 30
0.0
  0
POINT
  5
550D
330
4E4B
100
AcDbEntity
  8
DEFPOINTS
 62
     0
100
AcDbPoint
 10
-137.0000000000021
 20
-42.81996447776842
 30
0.0
  0
ENDBLK
  5
4E56
330
4E4B
100
AcDbEntity
  8
0
100
AcDbBlockEnd
  0
BLOCK
  5
4E61
330
4E57
100
AcDbEntity
  8
0
100
AcDbBlockBegin
  2
*D6
 70
     1
 10
0.0
 20
0.0
 30
0.0
  3
*D6
  1

  0
LINE
  5
4E9C
330
4E57
100
AcDbEntity
  8
AM_5
100
AcDbLine
 10
-222.0000000000021
 20
-15.99999999999873
 30
0.0
 11
-241.7819232346277
 21
-15.99999999999872
 31
0.0
  0
LINE
  5
4E9D
330
4E57
100
AcDbEntity
  8
AM_5
100
AcDbLine
 10
-222.000000000002
 20
16.00000000000115
 30
0.0
 11
-241.7819232346277
 21
16.00000000000115
 31
0.0
  0
LINE
  5
4E9E
330
4E57
100
AcDbEntity
  8
AM_5
100
AcDbLine
 10
-240.7819232346277
 20
-13.49999999999872
 30
0.0
 11
-240.7819232346277
 21
13.50000000000115
 31
0.0
  0
INSERT
  5
4E9F
330
4E57
100
AcDbEntity
  8
AM_5
100
AcDbBlockReference
  2
_OPEN30
 10
-240.7819232346277
 20
-15.99999999999872
 30
0.0
 41
2.5
 42
2.5
 43
2.5
 50
270.0
  0
INSERT
  5
4EA0
330
4E57
100
AcDbEntity
  8
AM_5
100
AcDbBlockReference
  2
_OPEN30
 10
-240.7819232346277
 20
16.00000000000115
 30
0.0
 41
2.5
 42
2.5
 43
2.5
 50
90.0
  0
MTEXT
  5
4EA1
330
4E57
100
AcDbEntity
  8
AM_5
 62
     2
100
AcDbMText
 10
-243.8819232346277
 20
0.0000000000011777
 30
0.0
 40
3.2
 41
0.0
 71
     5
 72
     1
  1
%%c32
  7
ASAMI
 11
0.0000000000000001
 21
1.0
 31
0.0
1001
ACAD
1000
MTEXTBEGIN
1070
    73
1070
     1
1070
    44
1040
1.0
1070
    74
1070
     0
1000
MTEXTEND
  0
POINT
  5
4EA2
330
4E57
100
AcDbEntity
  8
DEFPOINTS
 62
     0
100
AcDbPoint
 10
-221.0000000000021
 20
-15.99999999999873
 30
0.0
  0
POINT
  5
4EA3
330
4E57
100
AcDbEntity
  8
DEFPOINTS
 62
     0
100
AcDbPoint
 10
-221.000000000002
 20
16.00000000000115
 30
0.0
  0
POINT
  5
4EA4
330
4E57
100
AcDbEntity
  8
DEFPOINTS
 62
     0
100
AcDbPoint
 10
-240.7819232346277
 20
16.00000000000115
 30
0.0
  0
ENDBLK
  5
4E62
330
4E57
100
AcDbEntity
  8
0
100
AcDbBlockEnd
  0
BLOCK
  5
500F
330
500A
100
AcDbEntity
  8
0
100
AcDbBlockBegin
  2
A$C58974FBB
 70
     0
 10
0.0
 20
0.0
 30
0.0
  3
A$C58974FBB
  1

  0
LINE
  5
500B
330
500A
100
AcDbEntity
  8
AM_0
100
AcDbLine
 10
0.8660254037844197
 20
-15.50000000000004
 30
0.0
 11
11.00130222464628
 21
-15.50000000000005
 31
0.0
1001
GENIUS_GENODEF_13
1002
{
1000
HIER
1070
     0
1002
}
1002
{
1000
MANEDIT
1070
     0
1002
}
1002
{
1000
NOSEL
1070
     0
1002
}
1002
{
1000
BEHIND
1070
     0
1002
}
1002
{
1000
REACTOR
1002
}
1001
GENIUS_GENOBJ-N-CEN_13
1002
{
1000
OWNER
1000
GEN
1002
}
  0
ARC
  5
500C
330
500A
100
AcDbEntity
  8
AM_0
100
AcDbCircle
 10
11.00130222464628
 20
-21.50000000000005
 30
0.0
 40
6.0
100
AcDbArc
 50
1.193748437141556
 51
90.0
  0
LINE
  5
500D
330
500A
100
AcDbEntity
  8
AM_0
100
AcDbLine
 10
0.8660254037844197
 20
15.49999999999994
 30
0.0
 11
11.00130222464628
 21
15.49999999999996
 31
0.0
1001
GENIUS_GENODEF_13
1002
{
1000
HIER
1070
     0
1002
}
1002
{
1000
MANEDIT
1070
     0
1002
}
1002
{
1000
NOSEL
1070
     0
1002
}
1002
{
1000
BEHIND
1070
     0
1002
}
1002
{
1000
REACTOR
1002
}
1001
GENIUS_GENOBJ-N-CEN_13
1002
{
1000
OWNER
1000
GEN
1002
}
  0
ARC
  5
500E
330
500A
100
AcDbEntity
  8
AM_0
100
AcDbCircle
 10
11.00130222464628
 20
21.49999999999996
 30
0.0
 40
6.0
100
AcDbArc
 50
270.0
 51
358.8062515628584
  0
ENDBLK
  5
5010
330
500A
100
AcDbEntity
  8
0
100
AcDbBlockEnd
  0
BLOCK
  5
5085
330
504C
100
AcDbEntity
  8
0
100
AcDbBlockBegin
  2
A$C149B14D7
 70
     0
 10
0.0
 20
0.0
 30
0.0
  3
A$C149B14D7
  1

  0
SPLINE
  5
504D
330
504C
100
AcDbEntity
  8
AM_0
100
AcDbSpline
210
0.0
220
0.0
230
1.0
 70
     8
 71
     3
 72
     8
 73
     4
 74
     0
 42
0.0000000001
 43
0.0000000001
 40
9.170645305362121
 40
9.170645305362121
 40
9.170645305362121
 40
9.170645305362121
 40
9.9828768378363
 40
9.9828768378363
 40
9.9828768378363
 40
9.9828768378363
 10
-63.35805059224351
 20
11.7548044782992
 30
0.0
 10
-67.64940311225652
 20
13.77412741312951
 30
0.0
 10
-70.22351777239717
 20
15.0309558683499
 30
0.0
 10
-71.93377431215555
 20
15.91423392563666
 30
0.0
  0
SPLINE
  5
504E
330
504C
100
AcDbEntity
  8
AM_0
100
AcDbSpline
210
0.0
220
0.0
230
1.0
 70
     8
 71
     3
 72
     8
 73
     4
 74
     0
 42
0.0000000001
 43
0.0000000001
 40
11.84940637128532
 40
11.84940637128532
 40
11.84940637128532
 40
11.84940637128532
 40
14.48999654934396
 40
14.48999654934396
 40
14.48999654934396
 40
14.48999654934396
 10
-48.80863528991628
 20
17.24637573584118
 30
0.0
 10
-39.63807337040609
 20
12.49474556190818
 30
0.0
 10
-36.87880927976225
 20
10.68745529650757
 30
0.0
 10
-34.11954518911834
 20
8.880165031105946
 30
0.0
  0
LINE
  5
504F
330
504C
100
AcDbEntity
  8
AM_0
100
AcDbLine
 10
-8.065023402173409
 20
13.99013155631803
 30
0.0
 11
-3.402925709003945
 21
11.51164765549003
 31
0.0
  0
LINE
  5
5050
330
504C
100
AcDbEntity
  8
AM_0
100
AcDbLine
 10
-3.125788147783275
 20
-0.0000000000011937
 30
0.0
 11
-3.125788147783275
 21
22.4999999999988
 31
0.0
  0
SPLINE
  5
5051
330
504C
100
AcDbEntity
  8
AM_0
100
AcDbSpline
210
0.0
220
0.0
230
1.0
 70
     8
 71
     3
 72
     8
 73
     4
 74
     0
 42
0.0000000001
 43
0.0000000001
 40
13.73199344169106
 40
13.73199344169106
 40
13.73199344169106
 40
13.73199344169106
 40
14.43901837670146
 40
14.43901837670146
 40
14.43901837670146
 40
14.43901837670146
 10
-37.78867980852874
 20
14.69293509497009
 30
0.0
 10
-29.95116536538381
 20
10.33171129537487
 30
0.0
 10
-29.20979419082876
 20
9.862650594215779
 30
0.0
 10
-28.46842301627379
 20
9.393589893057651
 30
0.0
  0
SPLINE
  5
5052
330
504C
100
AcDbEntity
  8
AM_0
100
AcDbSpline
210
0.0
220
0.0
230
1.0
 70
     8
 71
     3
 72
     8
 73
     4
 74
     0
 42
0.0000000001
 43
0.0000000001
 40
13.73199344169106
 40
13.73199344169106
 40
13.73199344169106
 40
13.73199344169106
 40
14.43901837670146
 40
14.43901837670146
 40
14.43901837670146
 40
14.43901837670146
 10
-31.25264182249452
 20
15.34602289253655
 30
0.0
 10
-23.44395119468837
 20
10.92291520764098
 30
0.0
 10
-22.70258002013332
 20
10.45385450648188
 30
0.0
 10
-21.96120884557835
 20
9.984793805323789
 30
0.0
  0
SPLINE
  5
5053
330
504C
100
AcDbEntity
  8
AM_0
100
AcDbSpline
210
0.0
220
0.0
230
1.0
 70
     8
 71
     3
 72
     8
 73
     4
 74
     0
 42
0.0000000001
 43
0.0000000001
 40
0.0
 40
0.0
 40
0.0
 40
0.0
 40
1.539536607901005
 40
1.539536607901005
 40
1.539536607901005
 40
1.539536607901005
 10
-38.14097490317248
 20
-21.47717956415752
 30
0.0
 10
-45.20858111553749
 20
-22.8876395147937
 30
0.0
 10
-50.64512459627645
 20
-22.37300225814649
 30
0.0
 10
-52.28203814778328
 20
-22.13250006079434
 30
0.0
  0
SPLINE
  5
5054
330
504C
100
AcDbEntity
  8
AM_0
100
AcDbSpline
210
0.0
220
0.0
230
1.0
 70
     8
 71
     3
 72
     8
 73
     4
 74
     0
 42
0.0000000001
 43
0.0000000001
 40
0.0
 40
0.0
 40
0.0
 40
0.0
 40
14.87785701114412
 40
14.87785701114412
 40
14.87785701114412
 40
14.87785701114412
 10
-35.1210089346133
 20
-20.77850026711249
 30
0.0
 10
-46.63363638371293
 20
-20.77850026711249
 30
0.0
 10
-57.46792455616152
 20
-15.09062455040364
 30
0.0
 10
-68.12578814778669
 20
-7.923428494099596
 30
0.0
  0
SPLINE
  5
5055
330
504C
100
AcDbEntity
  8
AM_0
100
AcDbSpline
210
0.0
220
0.0
230
1.0
 70
     8
 71
     3
 72
     8
 73
     4
 74
     0
 42
0.0000000001
 43
0.0000000001
 40
0.2298684927509915
 40
0.2298684927509915
 40
0.2298684927509915
 40
0.2298684927509915
 40
2.764560748519282
 40
2.764560748519282
 40
2.764560748519282
 40
2.764560748519282
 10
-46.40535677132574
 20
-21.24090029239295
 30
0.0
 10
-38.16868139080485
 20
-21.75751137296802
 30
0.0
 10
-35.47167033889115
 20
-21.36605529388799
 30
0.0
 10
-32.80862955865687
 20
-20.70269005429492
 30
0.0
  0
SPLINE
  5
5056
330
504C
100
AcDbEntity
  8
AM_0
100
AcDbSpline
210
0.0
220
0.0
230
1.0
 70
     8
 71
     3
 72
     8
 73
     4
 74
     0
 42
0.0000000001
 43
0.0000000001
 40
13.50299628442394
 40
13.50299628442394
 40
13.50299628442394
 40
13.50299628442394
 40
14.43901837670146
 40
14.43901837670146
 40
14.43901837670146
 40
14.43901837670146
 10
-33.56791445216123
 20
-9.676055668837449
 30
0.0
 10
-41.43186069772304
 20
-4.814611041943805
 30
0.0
 10
-42.41335337725781
 20
-4.193627032522982
 30
0.0
 10
-43.39484605679264
 20
-3.572643023101193
 30
0.0
  0
SPLINE
  5
5057
330
504C
100
AcDbEntity
  8
AM_0
100
AcDbSpline
210
0.0
220
0.0
230
1.0
 70
     8
 71
     3
 72
     8
 73
     4
 74
     0
 42
0.0000000001
 43
0.0000000001
 40
11.62991291415682
 40
11.62991291415682
 40
11.62991291415682
 40
11.62991291415682
 40
14.48999654934396
 40
14.48999654934396
 40
14.48999654934396
 40
14.48999654934396
 10
-33.206300195135
 20
-13.96829745772058
 30
0.0
 10
-43.06872409960654
 20
-8.00110275495345
 30
0.0
 10
-46.0573461646211
 20
-6.043585320003103
 30
0.0
 10
-49.04596822963708
 20
-4.086067885053921
 30
0.0
  0
SPLINE
  5
5058
330
504C
100
AcDbEntity
  8
AM_0
100
AcDbSpline
210
0.0
220
0.0
230
1.0
 70
     8
 71
     3
 72
     8
 73
     4
 74
     0
 42
0.0000000001
 43
0.0000000001
 40
6.040753276024324
 40
6.040753276024324
 40
6.040753276024324
 40
6.040753276024324
 40
14.36247867694493
 40
14.36247867694493
 40
14.36247867694493
 40
14.36247867694493
 10
-63.35805059224352
 20
11.7548044782992
 30
0.0
 10
-54.42951010179481
 20
7.510021066666524
 30
0.0
 10
-45.65857099394629
 20
2.26429097791572
 30
0.0
 10
-36.88763188609719
 20
-2.981439110835083
 30
0.0
  0
SPLINE
  5
5059
330
504C
100
AcDbEntity
  8
0
100
AcDbSpline
210
0.0
220
0.0
230
1.0
 70
     8
 71
     3
 72
     8
 73
     4
 74
     0
 42
0.0000000001
 43
0.0000000001
 40
0.0
 40
0.0
 40
0.0
 40
0.0
 40
7.016538036162732
 40
7.016538036162732
 40
7.016538036162732
 40
7.016538036162732
 10
-47.41819273217107
 20
-22.48250381274584
 30
0.0
 10
-56.91975465614208
 20
-22.48250381274584
 30
0.0
 10
-65.88952762740385
 20
-18.35103002474386
 30
0.0
 10
-74.64977843816879
 20
-12.5917764385903
 30
0.0
  0
SPLINE
  5
505A
330
504C
100
AcDbEntity
  8
AM_0
100
AcDbSpline
210
0.0
220
0.0
230
1.0
 70
     8
 71
     3
 72
     8
 73
     4
 74
     0
 42
0.0000000001
 43
0.0000000001
 40
5.425905956994038
 40
5.425905956994038
 40
5.425905956994038
 40
5.425905956994038
 40
7.019702002723574
 40
7.019702002723574
 40
7.019702002723574
 40
7.019702002723574
 10
-52.28203814776407
 20
-20.21664938111101
 30
0.0
 10
-60.41679630383044
 20
-17.04697258343839
 30
0.0
 10
-62.04118509613715
 20
-16.22874154431127
 30
0.0
 10
-63.65703814778329
 20
-15.34218764630674
 30
0.0
  0
SPLINE
  5
505B
330
504C
100
AcDbEntity
  8
0
100
AcDbSpline
210
0.0
220
0.0
230
1.0
 70
     8
 71
     3
 72
     8
 73
     4
 74
     0
 42
0.0000000001
 43
0.0000000001
 40
6.340584686095279
 40
6.340584686095279
 40
6.340584686095279
 40
6.340584686095279
 40
9.637195575647414
 40
9.637195575647414
 40
9.637195575647414
 40
9.637195575647414
 10
-68.12578814778652
 20
-21.37499999999985
 30
0.0
 10
-66.6982201234523
 20
-21.23638214596496
 30
0.0
 10
-64.58747440233981
 20
-20.98188664189632
 30
0.0
 10
-60.60632160619139
 20
-19.92108429440458
 30
0.0
  0
SPLINE
  5
505C
330
504C
100
AcDbEntity
  8
AM_0
100
AcDbSpline
210
0.0
220
0.0
230
1.0
 70
     8
 71
     3
 72
     8
 73
     4
 74
     0
 42
0.0000000001
 43
0.0000000001
 40
9.911909440357588
 40
9.911909440357588
 40
9.911909440357588
 40
9.911909440357588
 40
11.54467281373877
 40
11.54467281373877
 40
11.54467281373877
 40
11.54467281373877
 10
-64.47305104183593
 20
8.643667816995446
 30
0.0
 10
-55.93256887534398
 20
4.137719958432569
 30
0.0
 10
-54.21734483743913
 20
3.132638397465711
 30
0.0
 10
-52.50325451041597
 20
2.099374339023881
 30
0.0
  0
SPLINE
  5
505D
330
504C
100
AcDbEntity
  8
AM_0
100
AcDbSpline
210
0.0
220
0.0
230
1.0
 70
     8
 71
     3
 72
     8
 73
     4
 74
     0
 42
0.0000000001
 43
0.0000000001
 40
11.84940637128532
 40
11.84940637128532
 40
11.84940637128532
 40
11.84940637128532
 40
14.48999654934396
 40
14.48999654934396
 40
14.48999654934396
 40
14.48999654934396
 10
-64.2004892291274
 20
5.408449127561084
 30
0.0
 10
-54.56449641092493
 20
-0.4714873542506553
 30
0.0
 10
-51.80523232028109
 20
-2.278777619651265
 30
0.0
 10
-49.04596822963718
 20
-4.086067885052898
 30
0.0
  0
SPLINE
  5
505E
330
504C
100
AcDbEntity
  8
AM_0
100
AcDbSpline
210
0.0
220
0.0
230
1.0
 70
     8
 71
     3
 72
     8
 73
     4
 74
     0
 42
0.0000000001
 43
0.0000000001
 40
9.170645305362121
 40
9.170645305362121
 40
9.170645305362121
 40
9.170645305362121
 40
10.79891126818747
 40
10.79891126818747
 40
10.79891126818747
 40
10.79891126818747
 10
-63.65703814778329
 20
-15.34218764630674
 30
0.0
 10
-71.78771256304891
 20
-10.34871941518673
 30
0.0
 10
-73.40031454646447
 20
-9.21462497411727
 30
0.0
 10
-74.9811565472629
 20
-8.013970064942526
 30
0.0
  0
SPLINE
  5
505F
330
504C
100
AcDbEntity
  8
AM_0
100
AcDbSpline
210
0.0
220
0.0
230
1.0
 70
     8
 71
     3
 72
     8
 73
     4
 74
     0
 42
0.0000000001
 43
0.0000000001
 40
8.525656641396105
 40
8.525656641396105
 40
8.525656641396105
 40
8.525656641396105
 40
9.661611892530016
 40
9.661611892530016
 40
9.661611892530016
 40
9.661611892530016
 10
-68.12578814779077
 20
7.545487338800739
 30
0.0
 10
-64.84422746105071
 20
5.893429535515622
 30
0.0
 10
-63.71467625233206
 20
5.111633743471827
 30
0.0
 10
-62.59086390309861
 20
4.425022207727522
 30
0.0
  0
SPLINE
  5
5060
330
504C
100
AcDbEntity
  8
AM_0
100
AcDbSpline
210
0.0
220
0.0
230
1.0
 70
     8
 71
     3
 72
     8
 73
     4
 74
     0
 42
0.0000000001
 43
0.0000000001
 40
1.788970302442027
 40
1.788970302442027
 40
1.788970302442027
 40
1.788970302442027
 40
3.332324051699147
 40
3.332324051699147
 40
3.332324051699147
 40
3.332324051699147
 10
-46.40535677132572
 20
-21.24090029239297
 30
0.0
 10
-49.04513008557739
 20
-21.07331296097916
 30
0.0
 10
-50.66957509319137
 20
-20.69293490576004
 30
0.0
 10
-52.28203814776406
 20
-20.21664938111101
 30
0.0
  0
SPLINE
  5
5061
330
504C
100
AcDbEntity
  8
AM_0
100
AcDbSpline
210
0.0
220
0.0
230
1.0
 70
     8
 71
     3
 72
     8
 73
     4
 74
     0
 42
0.0000000001
 43
0.0000000001
 40
4.096652702081863
 40
4.096652702081863
 40
4.096652702081863
 40
4.096652702081863
 40
5.678228147290397
 40
5.678228147290397
 40
5.678228147290397
 40
5.678228147290397
 10
-9.653790598890427
 20
-22.46233151922481
 30
0.0
 10
-17.96193408219289
 20
-20.79665252665708
 30
0.0
 10
-19.6382302075132
 20
-20.25399300630397
 30
0.0
 10
-21.31092880344672
 20
-19.62918910977347
 30
0.0
  0
SPLINE
  5
5062
330
504C
100
AcDbEntity
  8
AM_0
100
AcDbSpline
210
0.0
220
0.0
230
1.0
 70
     8
 71
     3
 72
     8
 73
     4
 74
     0
 42
0.0000000001
 43
0.0000000001
 40
7.818791612490512
 40
7.818791612490512
 40
7.818791612490512
 40
7.818791612490512
 40
9.443881246512125
 40
9.443881246512125
 40
9.443881246512125
 40
9.443881246512125
 10
-21.31092880344672
 20
-19.62918910977345
 30
0.0
 10
-29.7943679212622
 20
-15.83471217604702
 30
0.0
 10
-31.50142159324972
 20
-14.92633710557751
 30
0.0
 10
-33.20630019513497
 20
-13.96829745772058
 30
0.0
  0
SPLINE
  5
5063
330
504C
100
AcDbEntity
  8
AM_0
100
AcDbSpline
210
0.0
220
0.0
230
1.0
 70
     8
 71
     3
 72
     8
 73
     4
 74
     0
 42
0.0000000001
 43
0.0000000001
 40
9.685078621624523
 40
9.685078621624523
 40
9.685078621624523
 40
9.685078621624523
 40
11.31655044551473
 40
11.31655044551473
 40
11.31655044551473
 40
11.31655044551473
 10
-21.60642140499207
 20
-16.12178952997453
 30
0.0
 10
-30.14056639212832
 20
-11.69423559136339
 30
0.0
 10
-31.85485098809512
 20
-10.70032346214864
 30
0.0
 10
-33.56791445216122
 20
-9.676055668837449
 30
0.0
  0
SPLINE
  5
5064
330
504C
100
AcDbEntity
  8
AM_0
100
AcDbSpline
210
0.0
220
0.0
230
1.0
 70
     8
 71
     3
 72
     8
 73
     4
 74
     0
 42
0.0000000001
 43
0.0000000001
 40
4.542668862435135
 40
4.542668862435135
 40
4.542668862435135
 40
4.542668862435135
 40
14.36247867694493
 40
14.36247867694493
 40
14.36247867694493
 40
14.36247867694493
 10
-5.331711778487484
 20
-18.04071614118475
 30
0.0
 10
-16.18784914051604
 20
-15.36158128762235
 30
0.0
 10
-26.53774051330664
 20
-9.17151019922872
 30
0.0
 10
-36.88763188609719
 20
-2.981439110835083
 30
0.0
  0
SPLINE
  5
5065
330
504C
100
AcDbEntity
  8
AM_0
100
AcDbSpline
210
0.0
220
0.0
230
1.0
 70
     8
 71
     3
 72
     8
 73
     4
 74
     0
 42
0.0000000001
 43
0.0000000001
 40
11.62991291415682
 40
11.62991291415682
 40
11.62991291415682
 40
11.62991291415682
 40
14.48999654934396
 40
14.48999654934396
 40
14.48999654934396
 40
14.48999654934396
 10
-18.27987715461615
 20
-1.002064541561708
 30
0.0
 10
-28.14230105908769
 20
4.965130161205422
 30
0.0
 10
-31.13092312410226
 20
6.922647596155741
 30
0.0
 10
-34.11954518911824
 20
8.880165031104922
 30
0.0
  0
SPLINE
  5
5066
330
504C
100
AcDbEntity
  8
AM_0
100
AcDbSpline
210
0.0
220
0.0
230
1.0
 70
     8
 71
     3
 72
     8
 73
     4
 74
     0
 42
0.0000000001
 43
0.0000000001
 40
13.50299628442394
 40
13.50299628442394
 40
13.50299628442394
 40
13.50299628442394
 40
14.43901837670146
 40
14.43901837670146
 40
14.43901837670146
 40
14.43901837670146
 10
-18.64149141164239
 20
3.290177247321423
 30
0.0
 10
-26.50543765720421
 20
8.151621874215067
 30
0.0
 10
-27.48693033673898
 20
8.772605883635861
 30
0.0
 10
-28.46842301627379
 20
9.393589893057651
 30
0.0
  0
SPLINE
  5
5067
330
504C
100
AcDbEntity
  8
AM_0
100
AcDbSpline
210
0.0
220
0.0
230
1.0
 70
     8
 71
     3
 72
     8
 73
     4
 74
     0
 42
0.0000000001
 43
0.0000000001
 40
0.0
 40
0.0
 40
0.0
 40
0.0
 40
3.767215596809985
 40
3.767215596809985
 40
3.767215596809985
 40
3.767215596809985
 10
-35.1210089346133
 20
-20.77850026711249
 30
0.0
 10
-31.03985870473694
 20
-20.77850026711249
 30
0.0
 10
-27.0439523580645
 20
-20.06373019560359
 30
0.0
 10
-23.11093079533776
 20
-18.82167112894421
 30
0.0
  0
SPLINE
  5
5068
330
504C
100
AcDbEntity
  8
AM_0
100
AcDbSpline
210
0.0
220
0.0
230
1.0
 70
     8
 71
     3
 72
     8
 73
     4
 74
     0
 42
0.0000000001
 43
0.0000000001
 40
6.868947007786116
 40
6.868947007786116
 40
6.868947007786116
 40
6.868947007786116
 40
7.528098176779675
 40
7.528098176779675
 40
7.528098176779675
 40
7.528098176779675
 10
-4.122413056124165
 20
-4.233412468471357
 30
0.0
 10
-5.287962572041217
 20
-3.78922028756142
 30
0.0
 10
-5.984201055996988
 20
-3.477871959327956
 30
0.0
 10
-6.679998364473235
 20
-3.155556613815662
 30
0.0
  0
LINE
  5
5069
330
504C
100
AcDbEntity
  8
AM_0
100
AcDbLine
 10
-3.125788147782834
 20
-7.668485143886272
 30
0.0
 11
-5.544859135565118
 21
0.6693404316846739
 31
0.0
  0
SPLINE
  5
506A
330
504C
100
AcDbEntity
  8
AM_0
100
AcDbSpline
210
0.0
220
0.0
230
1.0
 70
     8
 71
     3
 72
     8
 73
     4
 74
     0
 42
0.0000000001
 43
0.0000000001
 40
7.818791612490512
 40
7.818791612490512
 40
7.818791612490512
 40
7.818791612490512
 40
9.443881246512125
 40
9.443881246512125
 40
9.443881246512125
 40
9.443881246512125
 10
-6.384505762927874
 20
-6.662956193614604
 30
0.0
 10
-14.86794488074335
 20
-2.868479259888147
 30
0.0
 10
-16.57499855273088
 20
-1.960104189418643
 30
0.0
 10
-18.27987715461613
 20
-1.002064541561708
 30
0.0
  0
SPLINE
  5
506B
330
504C
100
AcDbEntity
  8
AM_0
100
AcDbSpline
210
0.0
220
0.0
230
1.0
 70
     8
 71
     3
 72
     8
 73
     4
 74
     0
 42
0.0000000001
 43
0.0000000001
 40
5.928582328726523
 40
5.928582328726523
 40
5.928582328726523
 40
5.928582328726523
 40
7.528098176779675
 40
7.528098176779675
 40
7.528098176779675
 40
7.528098176779675
 10
-9.833484397836018
 20
-20.32942547869046
 30
0.0
 10
-18.22693860706869
 20
-17.62148992143687
 30
0.0
 10
-19.91797894400122
 20
-16.90392954196116
 30
0.0
 10
-21.60642140499207
 20
-16.12178952997453
 30
0.0
  0
ELLIPSE
  5
506C
330
504C
100
AcDbEntity
  8
AM_0
100
AcDbEllipse
 10
3.327649693805464
 20
-11.4474607412315
 30
0.0
 11
0.000000000000003
 21
13.68314151982217
 31
0.0
210
0.0
220
0.0
230
1.0
 40
0.7222222222222251
 41
1.211124581303811
 42
2.069278538290228
  0
SPLINE
  5
506D
330
504C
100
AcDbEntity
  8
AM_0
100
AcDbSpline
210
0.0
220
0.0
230
1.0
 70
     8
 71
     3
 72
     8
 73
     4
 74
     0
 42
0.0000000001
 43
0.0000000001
 40
1.870660592686466
 40
1.870660592686466
 40
1.870660592686466
 40
1.870660592686466
 40
3.826008700541491
 40
3.826008700541491
 40
3.826008700541491
 40
3.826008700541491
 10
-3.566412168711755
 20
-21.33593554155641
 30
0.0
 10
-5.662130543367267
 20
-21.16684326022047
 30
0.0
 10
-7.750788471936078
 20
-20.8222379736961
 30
0.0
 10
-9.833484397835999
 20
-20.32942547869049
 30
0.0
  0
SPLINE
  5
506E
330
504C
100
AcDbEntity
  8
AM_0
100
AcDbSpline
210
0.0
220
0.0
230
1.0
 70
     8
 71
     3
 72
     8
 73
     4
 74
     0
 42
0.0000000001
 43
0.0000000001
 40
4.900445455373101
 40
4.900445455373101
 40
4.900445455373101
 40
4.900445455373101
 40
5.678228147290397
 40
5.678228147290397
 40
5.678228147290397
 40
5.678228147290397
 10
-3.125788147782832
 20
-7.668485143886272
 30
0.0
 10
-4.738445765550855
 20
-7.257618585255642
 30
0.0
 10
-5.561910786094562
 20
-6.970220483810919
 30
0.0
 10
-6.384505762927878
 20
-6.662956193614604
 30
0.0
  0
SPLINE
  5
506F
330
504C
100
AcDbEntity
  8
AM_0
100
AcDbSpline
210
0.0
220
0.0
230
1.0
 70
     8
 71
     3
 72
     8
 73
     4
 74
     0
 42
0.0000000001
 43
0.0000000001
 40
9.176019416849303
 40
9.176019416849303
 40
9.176019416849303
 40
9.176019416849303
 40
14.36247867694493
 40
14.36247867694493
 40
14.36247867694493
 40
14.36247867694493
 10
-5.544859135554869
 20
0.6693404317065017
 30
0.0
 10
-11.0283514959224
 20
3.446061971717085
 30
0.0
 10
-16.49478017075038
 20
6.715427888520423
 30
0.0
 10
-21.96120884557835
 20
9.984793805323789
 30
0.0
  0
SPLINE
  5
5070
330
504C
100
AcDbEntity
  8
AM_0
100
AcDbSpline
210
0.0
220
0.0
230
1.0
 70
     8
 71
     3
 72
     8
 73
     4
 74
     0
 42
0.0000000001
 43
0.0000000001
 40
9.685078621624523
 40
9.685078621624523
 40
9.685078621624523
 40
9.685078621624523
 40
11.31655044551473
 40
11.31655044551473
 40
11.31655044551473
 40
11.31655044551473
 10
-6.679998364473235
 20
-3.155556613815662
 30
0.0
 10
-15.21414335160948
 20
1.271997324795449
 30
0.0
 10
-16.92842794757627
 20
2.265909454010198
 30
0.0
 10
-18.64149141164237
 20
3.290177247321423
 30
0.0
  0
ELLIPSE
  5
5071
330
504C
100
AcDbEntity
  8
AM_0
100
AcDbEllipse
 10
3.327649693805464
 20
7.621793503442063
 30
0.0
 11
0.8359255858600773
 21
14.53438471137019
 31
0.0
210
0.0
220
0.0
230
1.0
 40
0.6762864318677663
 41
1.249295171138874
 42
2.108030278292336
  0
LINE
  5
5072
330
504C
100
AcDbEntity
  8
AM_0
100
AcDbLine
 10
-3.125788147783275
 20
-0.0000000000011937
 30
0.0
 11
-10.78464789860412
 21
-0.0000000000011937
 31
0.0
  0
SPLINE
  5
5073
330
504C
100
AcDbEntity
  8
AM_0
100
AcDbSpline
210
0.0
220
0.0
230
1.0
 70
     8
 71
     3
 72
     8
 73
     4
 74
     0
 42
0.0000000001
 43
0.0000000001
 40
9.911909440357588
 40
9.911909440357588
 40
9.911909440357588
 40
9.911909440357588
 40
11.54467281373877
 40
11.54467281373877
 40
11.54467281373877
 40
11.54467281373877
 10
-68.12578814778652
 20
21.37319328091118
 30
0.0
 10
-62.32043916773682
 20
25.13850337145163
 30
0.0
 10
-43.86749614200279
 20
18.63137980871769
 30
0.0
 10
-37.78867980852874
 20
14.69293509497009
 30
0.0
  0
SPLINE
  5
5074
330
504C
100
AcDbEntity
  8
AM_0
100
AcDbSpline
210
0.0
220
0.0
230
1.0
 70
     8
 71
     3
 72
     8
 73
     4
 74
     0
 42
0.0000000001
 43
0.0000000001
 40
10.45578158292798
 40
10.45578158292798
 40
10.45578158292798
 40
10.45578158292798
 40
11.54467281373877
 40
11.54467281373877
 40
11.54467281373877
 40
11.54467281373877
 10
-57.06143423625849
 20
21.85714170159298
 30
0.0
 10
-42.45895894120771
 20
21.42829999997553
 30
0.0
 10
-38.00654777993247
 20
18.39376473735597
 30
0.0
 10
-31.25264182249452
 20
15.34602289253655
 30
0.0
  0
SPLINE
  5
5075
330
504C
100
AcDbEntity
  8
AM_0
100
AcDbSpline
210
0.0
220
0.0
230
1.0
 70
     8
 71
     3
 72
     8
 73
     4
 74
     0
 42
0.0000000001
 43
0.0000000001
 40
8.034594408064972
 40
8.034594408064972
 40
8.034594408064972
 40
8.034594408064972
 40
9.661611892530016
 40
9.661611892530016
 40
9.661611892530016
 40
9.661611892530016
 10
-68.12578814778652
 20
21.37319328091118
 30
0.0
 10
-63.72427309380009
 20
24.72900411834712
 30
0.0
 10
-48.80863528991628
 20
17.24637573584118
 30
0.0
 10
-48.80863528991628
 20
17.24637573584118
 30
0.0
  0
ARC
  5
5076
330
504C
100
AcDbEntity
  8
AM_0
100
AcDbCircle
 10
-39.47160433926167
 20
-25.1612053597573
 30
0.0
 40
49.14791664277336
100
AcDbArc
 50
67.69137159913673
 51
73.29163560040843
  0
SPLINE
  5
5077
330
504C
100
AcDbEntity
  8
AM_0
100
AcDbSpline
210
0.0
220
0.0
230
1.0
 70
     8
 71
     3
 72
    11
 73
     7
 74
     5
 42
0.0000000001
 43
0.0000000001
 44
0.0000000001
 40
0.0
 40
0.0
 40
0.0
 40
0.0
 40
3.092660259411708
 40
5.840044903154447
 40
8.152492054895958
 40
12.2011071521586
 40
12.2011071521586
 40
12.2011071521586
 40
12.2011071521586
 10
-18.76693462044647
 20
21.17844377655234
 30
0.0
 10
-19.77333510128114
 20
21.40539916720292
 30
0.0
 10
-21.67377792578611
 20
21.83397183967116
 30
0.0
 10
-24.37300582336102
 20
22.1625839850403
 30
0.0
 10
-27.38996057932294
 20
22.52520771248298
 30
0.0
 10
-29.51346433407395
 20
22.50677107806979
 30
0.0
 10
-30.86500736635992
 20
22.49503674290593
 30
0.0
 11
-18.76693462044647
 21
21.17844377655234
 31
0.0
 11
-21.79543289208357
 21
21.80513803920013
 31
0.0
 11
-24.51720970974129
 21
22.17937504369643
 31
0.0
 11
-26.81708429365361
 21
22.42018353165224
 31
0.0
 11
-30.86500736635992
 21
22.49503674290593
 31
0.0
  0
SPLINE
  5
5078
330
504C
100
AcDbEntity
  8
AM_0
100
AcDbSpline
210
0.0
220
0.0
230
1.0
 70
     8
 71
     3
 72
     8
 73
     4
 74
     0
 42
0.0000000001
 43
0.0000000001
 40
1.666991338825053
 40
1.666991338825053
 40
1.666991338825053
 40
1.666991338825053
 40
2.26793232296057
 40
2.26793232296057
 40
2.26793232296057
 40
2.26793232296057
 10
-30.86500736635992
 20
22.49503674290593
 30
0.0
 10
-35.05391534764339
 20
22.36141674877671
 30
0.0
 10
-36.96798348189997
 20
21.48775437168063
 30
0.0
 10
-40.04437219060537
 20
19.25644687459981
 30
0.0
  0
ARC
  5
5079
330
504C
100
AcDbEntity
  8
AM_0
100
AcDbCircle
 10
-30.15014838420883
 20
3.626324655540173
 30
0.0
 40
18.90708644094444
100
AcDbArc
 50
75.26627549039656
 51
86.5932939281795
  0
LINE
  5
507A
330
504C
100
AcDbEntity
  8
AM_0
100
AcDbLine
 10
-30.94203448536575
 20
22.49052150328663
 30
0.0
 11
-30.94203448536575
 21
22.49052150328663
 31
0.0
  0
ARC
  5
507B
330
504C
100
AcDbEntity
  8
AM_0
100
AcDbCircle
 10
-57.73312548605364
 20
-67.80671719667222
 30
0.0
 40
95.53612572651921
100
AcDbArc
 50
61.46561202053943
 51
67.26756969216966
  0
LINE
  5
507C
330
504C
100
AcDbEntity
  8
AM_0
100
AcDbLine
 10
-14.65169333859469
 20
20.22976051955396
 30
0.0
 11
-12.30855242611704
 21
19.59109201098121
 31
0.0
  0
ELLIPSE
  5
507D
330
504C
100
AcDbEntity
  8
AM_0
100
AcDbEllipse
 10
2.334879249440565
 20
-129.4276673759472
 30
0.0
 11
-0.0000000000041954
 21
152.1156917854477
 31
0.0
210
0.0
220
0.0
230
1.0
 40
0.7222222222221865
 41
0.0497255792447395
 42
0.1683536237809651
  0
LINE
  5
507E
330
504C
100
AcDbEntity
  8
AM_0
100
AcDbLine
 10
-18.76693462044647
 20
21.17844377655234
 30
0.0
 11
-16.78077193106825
 21
20.69046925891711
 31
0.0
  0
LINE
  5
507F
330
504C
100
AcDbEntity
  8
AM_0
100
AcDbLine
 10
-16.78077193106825
 20
20.69046925891711
 30
0.0
 11
-14.65169333859469
 21
20.22976051955396
 31
0.0
  0
LINE
  5
5080
330
504C
100
AcDbEntity
  8
AM_0
100
AcDbLine
 10
-9.668106181590573
 20
18.71112929678506
 30
0.0
 11
-6.647111592970489
 21
17.52653794055169
 31
0.0
  0
LINE
  5
5081
330
504C
100
AcDbEntity
  8
AM_0
100
AcDbLine
 10
-12.09684371511505
 20
16.12468994604631
 30
0.0
 11
-8.065023402173409
 21
13.99013155631803
 31
0.0
  0
LINE
  5
5082
330
504C
100
AcDbEntity
  8
AM_0
100
AcDbLine
 10
-12.30855242611704
 20
19.59109201098121
 30
0.0
 11
-9.668106181590573
 21
18.71112929678506
 31
0.0
  0
LINE
  5
5083
330
504C
100
AcDbEntity
  8
AM_0
100
AcDbLine
 10
-6.647111592970489
 20
17.52653794055169
 30
0.0
 11
-3.162325648212046
 21
15.97398350586729
 31
0.0
  0
LINE
  5
5084
330
504C
100
AcDbEntity
  8
AM_0
100
AcDbLine
 10
-3.162325648212046
 20
15.97398350586729
 30
0.0
 11
-3.125788147785939
 21
15.95600527622764
 31
0.0
  0
ENDBLK
  5
5086
330
504C
100
AcDbEntity
  8
0
100
AcDbBlockEnd
  0
BLOCK
  5
53FF
330
53F5
100
AcDbEntity
  8
0
100
AcDbBlockBegin
  2
*D9
 70
     1
 10
0.0
 20
0.0
 30
0.0
  3
*D9
  1

  0
LINE
  5
54F3
330
53F5
100
AcDbEntity
  8
AM_5
100
AcDbLine
 10
-0.0000831522873313
 20
-26.00000000003928
 30
0.0
 11
-0.0000831522873331
 21
-55.81996447776876
 31
0.0
  0
LINE
  5
54F4
330
53F5
100
AcDbEntity
  8
AM_5
100
AcDbLine
 10
-222.0000000000021
 20
-29.81996447776875
 30
0.0
 11
-222.0000000000021
 21
-55.81996447776876
 31
0.0
  0
LINE
  5
54F5
330
53F5
100
AcDbEntity
  8
AM_5
100
AcDbLine
 10
-2.500083152287333
 20
-54.81996447776875
 30
0.0
 11
-219.5000000000021
 21
-54.81996447776875
 31
0.0
  0
INSERT
  5
54F6
330
53F5
100
AcDbEntity
  8
AM_5
100
AcDbBlockReference
  2
_OPEN30
 10
-0.0000831522873331
 20
-54.81996447776875
 30
0.0
 41
2.5
 42
2.5
 43
2.5
  0
INSERT
  5
54F7
330
53F5
100
AcDbEntity
  8
AM_5
100
AcDbBlockReference
  2
_OPEN30
 10
-222.0000000000021
 20
-54.81996447776875
 30
0.0
 41
2.5
 42
2.5
 43
2.5
 50
180.0
  0
MTEXT
  5
54F8
330
53F5
100
AcDbEntity
  8
AM_5
 62
     2
100
AcDbMText
 10
-111.0000415761447
 20
-51.71996447776876
 30
0.0
 40
3.2
 41
0.0
 71
     5
 72
     1
  1
222
  7
ASAMI
1001
ACAD
1000
MTEXTBEGIN
1070
    73
1070
     1
1070
    44
1040
1.0
1070
    74
1070
     0
1000
MTEXTEND
  0
POINT
  5
54F9
330
53F5
100
AcDbEntity
  8
DEFPOINTS
 62
     0
100
AcDbPoint
 10
-0.0000831522873312
 20
-25.00000000003928
 30
0.0
  0
POINT
  5
54FA
330
53F5
100
AcDbEntity
  8
DEFPOINTS
 62
     0
100
AcDbPoint
 10
-222.0000000000021
 20
-28.81996447776876
 30
0.0
  0
POINT
  5
54FB
330
53F5
100
AcDbEntity
  8
DEFPOINTS
 62
     0
100
AcDbPoint
 10
-222.0000000000021
 20
-54.81996447776875
 30
0.0
  0
ENDBLK
  5
5400
330
53F5
100
AcDbEntity
  8
0
100
AcDbBlockEnd
  0
BLOCK
  5
546C
330
5462
100
AcDbEntity
  8
0
100
AcDbBlockBegin
  2
*D10
 70
     1
 10
0.0
 20
0.0
 30
0.0
  3
*D10
  1

  0
LINE
  5
54C6
330
5462
100
AcDbEntity
  8
AM_5
100
AcDbLine
 10
1.000000000003086
 20
24.99999999993894
 30
0.0
 11
18.12578914778661
 21
24.99999999993893
 31
0.0
  0
LINE
  5
54C7
330
5462
100
AcDbEntity
  8
AM_5
100
AcDbLine
 10
1.000000000009421
 20
-25.0000000000617
 30
0.0
 11
18.12578914778659
 21
-25.00000000006171
 31
0.0
  0
LINE
  5
54C8
330
5462
100
AcDbEntity
  8
AM_5
100
AcDbLine
 10
17.1257891477866
 20
22.49999999993893
 30
0.0
 11
17.1257891477866
 21
-22.5000000000617
 31
0.0
  0
INSERT
  5
54C9
330
5462
100
AcDbEntity
  8
AM_5
100
AcDbBlockReference
  2
_OPEN30
 10
17.12578914778661
 20
24.99999999993893
 30
0.0
 41
2.5
 42
2.5
 43
2.5
 50
90.0
  0
INSERT
  5
54CA
330
5462
100
AcDbEntity
  8
AM_5
100
AcDbBlockReference
  2
_OPEN30
 10
17.12578914778659
 20
-25.00000000006171
 30
0.0
 41
2.5
 42
2.5
 43
2.5
 50
270.0
  0
MTEXT
  5
54CB
330
5462
100
AcDbEntity
  8
AM_5
 62
     2
100
AcDbMText
 10
14.0257891477866
 20
-0.0000000000613827
 30
0.0
 40
3.2
 41
0.0
 71
     5
 72
     1
  1
%%c50
  7
ASAMI
 11
0.0000000000000001
 21
1.0
 31
0.0
1001
ACAD
1000
MTEXTBEGIN
1070
    73
1070
     1
1070
    44
1040
1.0
1070
    74
1070
     0
1000
MTEXTEND
  0
POINT
  5
54CC
330
5462
100
AcDbEntity
  8
DEFPOINTS
 62
     0
100
AcDbPoint
 10
0.0000000000030862
 20
24.99999999993894
 30
0.0
  0
POINT
  5
54CD
330
5462
100
AcDbEntity
  8
DEFPOINTS
 62
     0
100
AcDbPoint
 10
0.0000000000094214
 20
-25.0000000000617
 30
0.0
  0
POINT
  5
54CE
330
5462
100
AcDbEntity
  8
DEFPOINTS
 62
     0
100
AcDbPoint
 10
17.12578914778659
 20
-25.00000000006171
 30
0.0
  0
ENDBLK
  5
546D
330
5462
100
AcDbEntity
  8
0
100
AcDbBlockEnd
  0
BLOCK
  5
54BB
330
54B1
100
AcDbEntity
  8
0
100
AcDbBlockBegin
  2
*D11
 70
     1
 10
0.0
 20
0.0
 30
0.0
  3
*D11
  1

  0
LINE
  5
54FC
330
54B1
100
AcDbEntity
  8
AM_5
100
AcDbLine
 10
-119.9999999999981
 20
-26.00000000003922
 30
0.0
 11
-119.9999999999981
 21
-43.81996447776827
 31
0.0
  0
LINE
  5
54FD
330
54B1
100
AcDbEntity
  8
AM_5
100
AcDbLine
 10
-0.0000831522873313
 20
-26.00000000003928
 30
0.0
 11
-0.0000831522873324
 21
-43.81996447776827
 31
0.0
  0
LINE
  5
54FE
330
54B1
100
AcDbEntity
  8
AM_5
100
AcDbLine
 10
-117.4999999999981
 20
-42.81996447776827
 30
0.0
 11
-2.500083152287332
 21
-42.81996447776827
 31
0.0
  0
INSERT
  5
54FF
330
54B1
100
AcDbEntity
  8
AM_5
100
AcDbBlockReference
  2
_OPEN30
 10
-119.9999999999981
 20
-42.81996447776827
 30
0.0
 41
2.5
 42
2.5
 43
2.5
 50
180.0
  0
INSERT
  5
5500
330
54B1
100
AcDbEntity
  8
AM_5
100
AcDbBlockReference
  2
_OPEN30
 10
-0.0000831522873323
 20
-42.81996447776827
 30
0.0
 41
2.5
 42
2.5
 43
2.5
  0
MTEXT
  5
5501
330
54B1
100
AcDbEntity
  8
AM_5
 62
     2
100
AcDbMText
 10
-60.00004157614273
 20
-39.71996447776827
 30
0.0
 40
3.2
 41
0.0
 71
     5
 72
     1
  1
120
  7
ASAMI
1001
ACAD
1000
MTEXTBEGIN
1070
    73
1070
     1
1070
    44
1040
1.0
1070
    74
1070
     0
1000
MTEXTEND
  0
POINT
  5
5502
330
54B1
100
AcDbEntity
  8
DEFPOINTS
 62
     0
100
AcDbPoint
 10
-119.9999999999981
 20
-25.00000000003922
 30
0.0
  0
POINT
  5
5503
330
54B1
100
AcDbEntity
  8
DEFPOINTS
 62
     0
100
AcDbPoint
 10
-0.0000831522873312
 20
-25.00000000003928
 30
0.0
  0
POINT
  5
5504
330
54B1
100
AcDbEntity
  8
DEFPOINTS
 62
     0
100
AcDbPoint
 10
-0.0000831522873323
 20
-42.81996447776827
 30
0.0
  0
ENDBLK
  5
54BC
330
54B1
100
AcDbEntity
  8
0
100
AcDbBlockEnd
  0
ENDSEC
  0
SECTION
  2
ENTITIES
  0
TEXT
  5
C58
330
1F
100
AcDbEntity
  8
AM_6
100
AcDbText
 10
-129.8095653856685
 20
-77.31996447776882
 30
0.0
 40
5.0
  1
RMES6500
 50
0.0000000000002036
 72
     4
 11
-111.0000415761447
 21
-74.81996447776875
 31
0.0
100
AcDbText
  0
LINE
  5
4DA2
330
1F
100
AcDbEntity
  8
AM_7
100
AcDbLine
 10
-226.7819222346278
 20
-0.0000000000379865
 30
0.0
 11
3.125788147786583
 21
-0.0000000000380036
 31
0.0
1001
GENIUS_GENODEF_13
1002
{
1000
HIER
1070
     0
1002
}
1002
{
1000
MANEDIT
1070
     0
1002
}
1002
{
1000
NOSEL
1070
     0
1002
}
1002
{
1000
BEHIND
1070
     0
1002
}
1002
{
1000
REACTOR
1002
}
1001
GENIUS_GENOBJ-N-CEN_13
1002
{
1000
OWNER
1000
GEN
1002
}
  0
DIMENSION
  5
4DA8
330
1F
100
AcDbEntity
  8
AM_5
100
AcDbDimension
  2
*D5
 10
-137.0000000000021
 20
-42.81996447776842
 30
0.0
 11
-179.5000000000021
 21
-39.71996447776842
 31
0.0
 70
    32
  1
<>
  3
AM_JIS
100
AcDbAlignedDimension
 13
-222.0000000000021
 23
-13.99999999999873
 33
0.0
 14
-137.0000000000021
 24
-15.99999999999879
 34
0.0
 50
0.0000000000002264
100
AcDbRotatedDimension
1001
GENIUS_GENDTOL_13
1000

1000
h7
1000

1040
0.0
  0
LINE
  5
4DA9
330
1F
100
AcDbEntity
  8
AM_0
100
AcDbLine
 10
-221.0000000000021
 20
-15.99999999999873
 30
0.0
 11
-137.000000000002
 21
-15.99999999999879
 31
0.0
  0
LINE
  5
4DAA
330
1F
100
AcDbEntity
  8
AM_0
100
AcDbLine
 10
-221.000000000002
 20
16.00000000000115
 30
0.0
 11
-137.000000000002
 21
16.00000000000115
 31
0.0
  0
DIMENSION
  5
4DAB
330
1F
100
AcDbEntity
  8
AM_5
100
AcDbDimension
  2
*D6
 10
-240.7819232346277
 20
16.00000000000115
 30
0.0
 11
-243.8819232346277
 21
0.0000000000011777
 31
0.0
 70
    32
  1
%%c<>
  3
AM_JIS
100
AcDbAlignedDimension
 13
-221.0000000000021
 23
-15.99999999999873
 33
0.0
 14
-221.000000000002
 24
16.00000000000115
 34
0.0
 50
270.0
100
AcDbRotatedDimension
1001
GENIUS_GENDTOL_13
1000

1000
h7
1000

1040
0.0
  0
LINE
  5
4DAC
330
1F
100
AcDbEntity
  8
AM_0
100
AcDbLine
 10
-222.0000000000021
 20
-13.99999999999873
 30
0.0
 11
-222.000000000002
 21
14.00000000000115
 31
0.0
  0
LINE
  5
4DAD
330
1F
100
AcDbEntity
  8
AM_0
100
AcDbLine
 10
-221.000000000002
 20
16.00000000000115
 30
0.0
 11
-221.0000000000021
 21
-15.99999999999873
 31
0.0
  0
LINE
  5
4DAE
330
1F
100
AcDbEntity
  8
AM_0
100
AcDbLine
 10
-222.0000000000021
 20
-13.99999999999873
 30
0.0
 11
-221.0000000000021
 21
-15.99999999999873
 31
0.0
1001
GENIUS_GENFIL_13
1070
     0
1040
1.0
1040
1.0
1040
20.0
1040
0.0
1002
{
1002
}
1001
GENIUS_GENODEF_13
1002
{
1000
HIER
1070
     0
1002
}
1002
{
1000
MANEDIT
1070
     0
1002
}
1002
{
1000
NOSEL
1070
     0
1002
}
1002
{
1000
BEHIND
1070
     0
1002
}
1002
{
1000
REACTOR
1002
}
1001
GENIUS_GENOBJ-N-CHA_13
1002
{
1000
OWNER
1000
GEN
1002
}
  0
LINE
  5
4DAF
330
1F
100
AcDbEntity
  8
AM_0
100
AcDbLine
 10
-222.000000000002
 20
14.00000000000115
 30
0.0
 11
-221.000000000002
 21
16.00000000000115
 31
0.0
1001
GENIUS_GENFIL_13
1070
     0
1040
1.0
1040
1.0
1040
20.0
1040
0.0
1002
{
1002
}
1001
GENIUS_GENODEF_13
1002
{
1000
HIER
1070
     0
1002
}
1002
{
1000
MANEDIT
1070
     0
1002
}
1002
{
1000
NOSEL
1070
     0
1002
}
1002
{
1000
BEHIND
1070
     0
1002
}
1002
{
1000
REACTOR
1002
}
1001
GENIUS_GENOBJ-N-CHA_13
1002
{
1000
OWNER
1000
GEN
1002
}
  0
LINE
  5
4DB3
330
1F
100
AcDbEntity
  8
AM_0
100
AcDbLine
 10
-137.000000000002
 20
-15.99999999999869
 30
0.0
 11
-137.000000000002
 21
16.00000000000115
 31
0.0
  0
LINE
  5
4DB4
330
1F
100
AcDbEntity
  8
AM_0
100
AcDbLine
 10
-136.1339745962176
 20
-15.49999999999878
 30
0.0
 11
-124.9820952190731
 21
-15.49999999999879
 31
0.0
1001
GENIUS_GENODEF_13
1002
{
1000
HIER
1070
     0
1002
}
1002
{
1000
MANEDIT
1070
     0
1002
}
1002
{
1000
NOSEL
1070
     0
1002
}
1002
{
1000
BEHIND
1070
     0
1002
}
1002
{
1000
REACTOR
1002
}
1001
GENIUS_GENOBJ-N-CEN_13
1002
{
1000
OWNER
1000
GEN
1002
}
  0
ARC
  5
4DB7
330
1F
100
AcDbEntity
  8
AM_0
100
AcDbCircle
 10
-136.1339745962176
 20
-16.49999999999879
 30
0.0
 40
1.0
100
AcDbArc
 50
90.0
 51
149.9999999999978
  0
ARC
  5
4DBC
330
1F
100
AcDbEntity
  8
AM_0
100
AcDbCircle
 10
-136.1339745962176
 20
16.50000000000121
 30
0.0
 40
1.0
100
AcDbArc
 50
210.0000000000021
 51
270.0
  0
LINE
  5
4FFB
330
1F
100
AcDbEntity
  8
AM_0
100
AcDbLine
 10
-136.1339745962176
 20
-15.50000000003803
 30
0.0
 11
-124.9820952190731
 21
-15.50000000003804
 31
0.0
1001
GENIUS_GENODEF_13
1002
{
1000
HIER
1070
     0
1002
}
1002
{
1000
MANEDIT
1070
     0
1002
}
1002
{
1000
NOSEL
1070
     0
1002
}
1002
{
1000
BEHIND
1070
     0
1002
}
1002
{
1000
REACTOR
1002
}
1001
GENIUS_GENOBJ-N-CEN_13
1002
{
1000
OWNER
1000
GEN
1002
}
  0
DIMENSION
  5
53F4
330
1F
100
AcDbEntity
  8
AM_5
100
AcDbDimension
  2
*D9
 10
-222.0000000000021
 20
-54.81996447776875
 30
0.0
 11
-111.0000415761447
 21
-51.71996447776876
 31
0.0
 70
    32
  1
<>
  3
AM_JIS
100
AcDbAlignedDimension
 13
-0.0000831522873312
 23
-25.00000000003928
 33
0.0
 14
-222.0000000000021
 24
-28.81996447776876
 34
0.0
 50
0.0000000000002568
100
AcDbRotatedDimension
1001
GENIUS_GENDTOL_13
1000

1000
h7
1000

1040
0.0
  0
LINE
  5
5401
330
1F
100
AcDbEntity
  8
AM_0
100
AcDbLine
 10
-6.658097458567773
 20
16.37267051051429
 30
0.0
 11
-6.658097458567773
 21
19.20121390404978
 31
0.0
  0
SPLINE
  5
5402
330
1F
100
AcDbEntity
  8
AM_0
100
AcDbSpline
210
0.0
220
0.0
230
1.0
 70
     8
 71
     3
 72
     8
 73
     4
 74
     0
 42
0.0000000001
 43
0.0000000001
 40
5.779271486987545
 40
5.779271486987545
 40
5.779271486987545
 40
5.779271486987545
 40
7.377122246071414
 40
7.377122246071414
 40
7.377122246071414
 40
7.377122246071414
 10
-6.658097458567773
 20
19.20121390404978
 30
0.0
 10
-4.35747000309384
 20
18.34201796505629
 30
0.0
 10
-2.070937967348985
 20
17.39376426644589
 30
0.0
 10
0.0000000000062176
 20
16.46426187368245
 30
0.0
  0
SPLINE
  5
5403
330
1F
100
AcDbEntity
  8
AM_0
100
AcDbSpline
210
0.0
220
0.0
230
1.0
 70
     8
 71
     3
 72
     8
 73
     4
 74
     0
 42
0.0000000001
 43
0.0000000001
 40
0.0
 40
0.0
 40
0.0
 40
0.0
 40
2.431791467899844
 40
2.431791467899844
 40
2.431791467899844
 40
2.431791467899844
 10
-1.372439383919744
 20
24.99999999993467
 30
0.0
 10
0.3285781487741961
 20
23.03927710073659
 30
0.0
 10
-1.534487687090972
 20
20.36603823965159
 30
0.0
 10
-4.251771190940216
 20
18.26874523671503
 30
0.0
  0
LINE
  5
5404
330
1F
100
AcDbEntity
  8
AM_0
100
AcDbLine
 10
-15.80769335141583
 20
20.25034846583087
 30
0.0
 11
-15.80769335141583
 21
22.08999322621884
 31
0.0
  0
SPLINE
  5
5405
330
1F
100
AcDbEntity
  8
AM_0
100
AcDbSpline
210
0.0
220
0.0
230
1.0
 70
     8
 71
     3
 72
     8
 73
     4
 74
     0
 42
0.0000000001
 43
0.0000000001
 40
0.0
 40
0.0
 40
0.0
 40
0.0
 40
3.835275104118792
 40
3.835275104118792
 40
3.835275104118792
 40
3.835275104118792
 10
0.0000000000062176
 20
24.99999999993467
 30
0.0
 10
-5.848536223425181
 20
24.99999999993467
 30
0.0
 10
-11.55445038088025
 20
24.12427753349737
 30
0.0
 10
-17.1554922990839
 20
22.60462261949277
 30
0.0
  0
SPLINE
  5
5406
330
1F
100
AcDbEntity
  8
AM_0
100
AcDbSpline
210
0.0
220
0.0
230
1.0
 70
     8
 71
     3
 72
     9
 73
     5
 74
     0
 42
0.0000000001
 43
0.0000000001
 40
0.0
 40
0.0
 40
0.0
 40
0.0
 40
1.596253384393968
 40
3.130156758002996
 40
3.130156758002996
 40
3.130156758002996
 40
3.130156758002996
 10
-6.658097458567773
 20
19.20121390404978
 30
0.0
 10
-8.062536265392061
 20
20.0897890477691
 30
0.0
 10
-11.18554038956729
 20
20.96830294989036
 30
0.0
 10
-14.2514323399278
 20
21.98191521946495
 30
0.0
 10
-15.80769335141583
 20
22.08999322621884
 30
0.0
  0
SPLINE
  5
5407
330
1F
100
AcDbEntity
  8
AM_0
100
AcDbSpline
210
0.0
220
0.0
230
1.0
 70
     8
 71
     3
 72
     9
 73
     5
 74
     0
 42
0.0000000001
 43
0.0000000001
 40
0.0
 40
0.0
 40
0.0
 40
0.0
 40
1.509478570089825
 40
3.309158499346873
 40
3.309158499346873
 40
3.309158499346873
 40
3.309158499346873
 10
-6.658097458567773
 20
16.37267051051429
 30
0.0
 10
-8.189868724619508
 20
16.47389685564377
 30
0.0
 10
-11.72657386926022
 20
16.34598163650223
 30
0.0
 10
-14.38127704609161
 20
18.99810408270002
 30
0.0
 10
-15.80769335141583
 20
20.25034846583087
 30
0.0
  0
LINE
  5
5408
330
1F
100
AcDbEntity
  8
AM_0
100
AcDbLine
 10
-22.66989027105189
 20
22.47900897283164
 30
0.0
 11
-22.66989027105189
 21
23.49831457808653
 31
0.0
  0
SPLINE
  5
5409
330
1F
100
AcDbEntity
  8
AM_0
100
AcDbSpline
210
0.0
220
0.0
230
1.0
 70
     8
 71
     3
 72
     9
 73
     5
 74
     0
 42
0.0000000001
 43
0.0000000001
 40
0.0
 40
0.0
 40
0.0
 40
0.0
 40
1.008936993267342
 40
1.777052715134862
 40
1.777052715134862
 40
1.777052715134862
 40
1.777052715134862
 10
-22.66989027105189
 20
23.49831457808653
 30
0.0
 10
-24.1614729292928
 20
23.08595284370033
 30
0.0
 10
-26.90814600824887
 20
22.44157096175689
 30
0.0
 10
-29.5441339616005
 20
23.26797761750248
 30
0.0
 10
-30.67836453022982
 20
23.6254899968623
 30
0.0
  0
SPLINE
  5
540A
330
1F
100
AcDbEntity
  8
AM_0
100
AcDbSpline
210
0.0
220
0.0
230
1.0
 70
     8
 71
     3
 72
     9
 73
     5
 74
     0
 42
0.0000000001
 43
0.0000000001
 40
0.0
 40
0.0
 40
0.0
 40
0.0
 40
1.524049486410846
 40
3.246382277554493
 40
3.246382277554493
 40
3.246382277554493
 40
3.246382277554493
 10
-22.66989027105189
 20
22.47900897283164
 30
0.0
 10
-24.11490918798024
 20
21.86803001612212
 30
0.0
 10
-27.67209065041537
 20
20.56868925765762
 30
0.0
 10
-30.27581366915172
 20
23.49827418612473
 30
0.0
 10
-31.81948616389997
 20
24.40148526368778
 30
0.0
  0
SPLINE
  5
540B
330
1F
100
AcDbEntity
  8
AM_0
100
AcDbSpline
210
0.0
220
0.0
230
1.0
 70
     8
 71
     3
 72
     8
 73
     4
 74
     0
 42
0.0000000001
 43
0.0000000001
 40
2.130606102564619
 40
2.130606102564619
 40
2.130606102564619
 40
2.130606102564619
 40
3.679329335050426
 40
3.679329335050426
 40
3.679329335050426
 40
3.679329335050426
 10
-22.66989027105189
 20
23.49831457808767
 30
0.0
 10
-20.36445938540897
 20
23.14280345726223
 30
0.0
 10
-18.07784981847486
 20
22.66837537552481
 30
0.0
 10
-15.80769335142623
 20
22.08999322621884
 30
0.0
  0
SPLINE
  5
540C
330
1F
100
AcDbEntity
  8
AM_0
100
AcDbSpline
210
0.0
220
0.0
230
1.0
 70
     8
 71
     3
 72
     8
 73
     4
 74
     0
 42
0.0000000001
 43
0.0000000001
 40
3.939746932601999
 40
3.939746932601999
 40
3.939746932601999
 40
3.939746932601999
 40
5.519086939037594
 40
5.519086939037594
 40
5.519086939037594
 40
5.519086939037594
 10
-22.66989027105189
 20
22.47900897283164
 30
0.0
 10
-20.36576078735629
 20
21.83885016738776
 30
0.0
 10
-18.07924049477721
 20
21.0905680910543
 30
0.0
 10
-15.80769335141583
 20
20.25034846582975
 30
0.0
  0
LINE
  5
540D
330
1F
100
AcDbEntity
  8
AM_0
100
AcDbLine
 10
-47.9661704984837
 20
16.94938628344011
 30
0.0
 11
-47.9661704984837
 21
19.77792967697559
 31
0.0
  0
SPLINE
  5
540E
330
1F
100
AcDbEntity
  8
AM_0
100
AcDbSpline
210
0.0
220
0.0
230
1.0
 70
     8
 71
     3
 72
     8
 73
     4
 74
     0
 42
0.0000000001
 43
0.0000000001
 40
5.779271486987545
 40
5.779271486987545
 40
5.779271486987545
 40
5.779271486987545
 40
7.377122246071414
 40
7.377122246071414
 40
7.377122246071414
 40
7.377122246071414
 10
-47.9661704984837
 20
19.77792967697559
 30
0.0
 10
-45.66554304300976
 20
18.91873373798211
 30
0.0
 10
-43.3790110072649
 20
17.9704800393717
 30
0.0
 10
-41.10397357884766
 20
16.94960104858473
 30
0.0
  0
SPLINE
  5
540F
330
1F
100
AcDbEntity
  8
AM_0
100
AcDbSpline
210
0.0
220
0.0
230
1.0
 70
     8
 71
     3
 72
     9
 73
     5
 74
     0
 42
0.0000000001
 43
0.0000000001
 40
1.404163645040383
 40
1.404163645040383
 40
1.404163645040383
 40
1.404163645040383
 40
1.503438351697518
 40
3.260499827787994
 40
3.260499827787994
 40
3.260499827787994
 40
3.260499827787994
 10
-43.54972355426874
 20
20.06292921511797
 30
0.0
 10
-43.45141727873289
 20
20.08029509739068
 30
0.0
 10
-41.62317485657438
 20
20.45675563698598
 30
0.0
 10
-40.00763312050021
 20
21.86542359999152
 30
0.0
 10
-38.68168308354434
 20
23.17358545778409
 30
0.0
  0
LINE
  5
5410
330
1F
100
AcDbEntity
  8
AM_0
100
AcDbLine
 10
-57.11576639133176
 20
20.82706423875669
 30
0.0
 11
-57.11576639133176
 21
22.66670899914465
 31
0.0
  0
SPLINE
  5
5411
330
1F
100
AcDbEntity
  8
AM_0
100
AcDbSpline
210
0.0
220
0.0
230
1.0
 70
     8
 71
     3
 72
     9
 73
     5
 74
     0
 42
0.0000000001
 43
0.0000000001
 40
0.0
 40
0.0
 40
0.0
 40
0.0
 40
1.596253384393968
 40
3.130156758002996
 40
3.130156758002996
 40
3.130156758002996
 40
3.130156758002996
 10
-47.9661704984837
 20
19.77792967697559
 30
0.0
 10
-49.37060930530798
 20
20.66650482069492
 30
0.0
 10
-52.49361342948322
 20
21.54501872281617
 30
0.0
 10
-55.55950537984372
 20
22.55863099239076
 30
0.0
 10
-57.11576639133176
 20
22.66670899914465
 30
0.0
  0
SPLINE
  5
5412
330
1F
100
AcDbEntity
  8
AM_0
100
AcDbSpline
210
0.0
220
0.0
230
1.0
 70
     8
 71
     3
 72
     9
 73
     5
 74
     0
 42
0.0000000001
 43
0.0000000001
 40
0.0
 40
0.0
 40
0.0
 40
0.0
 40
1.509478570089825
 40
3.309158499346873
 40
3.309158499346873
 40
3.309158499346873
 40
3.309158499346873
 10
-47.9661704984837
 20
16.94938628344011
 30
0.0
 10
-49.49794176453544
 20
17.05061262856958
 30
0.0
 10
-53.03464690917614
 20
16.92269740942804
 30
0.0
 10
-55.68935008600753
 20
19.57481985562583
 30
0.0
 10
-57.11576639133176
 20
20.82706423875669
 30
0.0
  0
LINE
  5
5413
330
1F
100
AcDbEntity
  8
AM_0
100
AcDbLine
 10
-63.97796331096518
 20
23.05572474575819
 30
0.0
 11
-63.97796331096518
 21
24.07503035101308
 31
0.0
  0
SPLINE
  5
5414
330
1F
100
AcDbEntity
  8
AM_0
100
AcDbSpline
210
0.0
220
0.0
230
1.0
 70
     8
 71
     3
 72
     9
 73
     5
 74
     0
 42
0.0000000001
 43
0.0000000001
 40
0.0
 40
0.0
 40
0.0
 40
0.0
 40
1.524049486410846
 40
3.246382277554493
 40
3.246382277554493
 40
3.246382277554493
 40
3.246382277554493
 10
-63.97796331096782
 20
23.05572474575745
 30
0.0
 10
-65.42298222789617
 20
22.44474578904794
 30
0.0
 10
-68.98016369033129
 20
21.14540503058344
 30
0.0
 10
-71.58388670906766
 20
24.07498995905055
 30
0.0
 10
-73.12755920381589
 20
24.9782010366136
 30
0.0
  0
SPLINE
  5
5415
330
1F
100
AcDbEntity
  8
AM_0
100
AcDbSpline
210
0.0
220
0.0
230
1.0
 70
     8
 71
     3
 72
     9
 73
     5
 74
     0
 42
0.0000000001
 43
0.0000000001
 40
0.0
 40
0.0
 40
0.0
 40
0.0
 40
1.008936993267342
 40
1.777052715134862
 40
1.777052715134862
 40
1.777052715134862
 40
1.777052715134862
 10
-63.97796331096782
 20
24.07503035101235
 30
0.0
 10
-65.46954596920873
 20
23.66266861662615
 30
0.0
 10
-68.21621904816479
 20
23.01828673468271
 30
0.0
 10
-70.85220700151643
 20
23.84469339042829
 30
0.0
 10
-71.98643757014574
 20
24.20220576978812
 30
0.0
  0
SPLINE
  5
5416
330
1F
100
AcDbEntity
  8
AM_0
100
AcDbSpline
210
0.0
220
0.0
230
1.0
 70
     8
 71
     3
 72
     8
 73
     4
 74
     0
 42
0.0000000001
 43
0.0000000001
 40
3.939746932601999
 40
3.939746932601999
 40
3.939746932601999
 40
3.939746932601999
 40
5.519086939037594
 40
5.519086939037594
 40
5.519086939037594
 40
5.519086939037594
 10
-63.97796331096782
 20
23.05572474575745
 30
0.0
 10
-61.67383382727222
 20
22.41556594031357
 30
0.0
 10
-59.38731353469314
 20
21.66728386398011
 30
0.0
 10
-57.11576639133176
 20
20.82706423875556
 30
0.0
  0
SPLINE
  5
5417
330
1F
100
AcDbEntity
  8
AM_0
100
AcDbSpline
210
0.0
220
0.0
230
1.0
 70
     8
 71
     3
 72
     8
 73
     4
 74
     0
 42
0.0000000001
 43
0.0000000001
 40
2.130606102564619
 40
2.130606102564619
 40
2.130606102564619
 40
2.130606102564619
 40
3.679329335050426
 40
3.679329335050426
 40
3.679329335050426
 40
3.679329335050426
 10
-63.97796331096782
 20
24.07503035101349
 30
0.0
 10
-61.6725324253249
 20
23.71951923018805
 30
0.0
 10
-59.38592285839079
 20
23.24509114845063
 30
0.0
 10
-57.11576639134216
 20
22.66670899914465
 30
0.0
  0
SPLINE
  5
5418
330
1F
100
AcDbEntity
  8
AM_0
100
AcDbSpline
210
0.0
220
0.0
230
1.0
 70
     8
 71
     3
 72
     8
 73
     4
 74
     0
 42
0.0000000001
 43
0.0000000001
 40
1.666991338825053
 40
1.666991338825053
 40
1.666991338825053
 40
1.666991338825053
 40
3.21070440243455
 40
3.21070440243455
 40
3.21070440243455
 40
3.21070440243455
 10
-31.81948616389996
 20
24.40148526368778
 30
0.0
 10
-34.1265124734741
 20
24.11270033627323
 30
0.0
 10
-36.4130908988938
 20
23.69836210530314
 30
0.0
 10
-38.68168308354434
 20
23.17358545778409
 30
0.0
  0
ELLIPSE
  5
5419
330
1F
100
AcDbEntity
  8
AM_0
100
AcDbEllipse
 10
9.768506840850676
 20
5.33326268739237
 30
0.0
 11
10.19452036172143
 21
12.45115206776713
 31
0.0
210
0.0
220
0.0
230
0.9999999999999998
 40
0.7748063999901314
 41
1.582760389371882
 42
2.388821182086529
  0
SPLINE
  5
541A
330
1F
100
AcDbEntity
  8
AM_0
100
AcDbSpline
210
0.0
220
0.0
230
1.0
 70
     8
 71
     3
 72
     8
 73
     4
 74
     0
 42
0.0000000001
 43
0.0000000001
 40
11.62991291415682
 40
11.62991291415682
 40
11.62991291415682
 40
11.62991291415682
 40
13.27865281171404
 40
13.27865281171404
 40
13.27865281171404
 40
13.27865281171404
 10
-10.006004500616
 20
-5.298193862098233
 30
0.0
 10
-12.29760625091476
 20
-3.931298520911349
 30
0.0
 10
-14.58400554508508
 20
-2.532459260803683
 30
0.0
 10
-16.86820142024597
 20
-1.12009065293032
 30
0.0
  0
LINE
  5
541B
330
1F
100
AcDbEntity
  8
AM_0
100
AcDbLine
 10
-16.86820142025205
 20
-1.120090652942455
 30
0.0
 11
-16.86820142025205
 21
3.787383325069695
 31
0.0
  0
SPLINE
  5
541C
330
1F
100
AcDbEntity
  8
AM_0
100
AcDbSpline
210
0.0
220
0.0
230
1.0
 70
     8
 71
     3
 72
     8
 73
     4
 74
     0
 42
0.0000000001
 43
0.0000000001
 40
13.73199344169106
 40
13.73199344169106
 40
13.73199344169106
 40
13.73199344169106
 40
14.43901837670146
 40
14.43901837670146
 40
14.43901837670146
 40
14.43901837670146
 10
-16.86820142025205
 20
3.787383325069695
 30
0.0
 10
-13.35698945646382
 20
1.764217376965637
 30
0.0
 10
-12.37279864317008
 20
1.170466574913637
 30
0.0
 10
-10.006004500616
 20
-0.3473214669267622
 30
0.0
  0
SPLINE
  5
541D
330
1F
100
AcDbEntity
  8
AM_0
100
AcDbSpline
210
0.0
220
0.0
230
1.0
 70
     8
 71
     3
 72
     8
 73
     4
 74
     0
 42
0.0000000001
 43
0.0000000001
 40
11.04071910978503
 40
11.04071910978503
 40
11.04071910978503
 40
11.04071910978503
 40
11.31655044551473
 40
11.31655044551473
 40
11.31655044551473
 40
11.31655044551473
 10
-3.871016016765576
 20
-3.914048461879478
 30
0.0
 10
-5.620029886827309
 20
-2.899124218351605
 30
0.0
 10
-7.646211992012428
 20
-1.721173380892949
 30
0.0
 10
-10.006004500616
 20
-0.3473214669267622
 30
0.0
  0
LINE
  5
541E
330
1F
100
AcDbEntity
  8
AM_0
100
AcDbLine
 10
0.0000000000062383
 20
-10.92215328399469
 30
0.0
 11
-2.653382808919367
 21
-7.243030773195416
 31
0.0
  0
LINE
  5
541F
330
1F
100
AcDbEntity
  8
AM_0
100
AcDbLine
 10
0.0000000000062176
 20
-25.00000000006531
 30
0.0
 11
-0.4803537843683891
 21
-23.66720578817358
 31
0.0
  0
LINE
  5
5420
330
1F
100
AcDbEntity
  8
AM_0
100
AcDbLine
 10
-0.4803537843683891
 20
-23.66720578817358
 30
0.0
 11
-3.133736593293995
 21
-19.9880832773743
 31
0.0
  0
LINE
  5
5421
330
1F
100
AcDbEntity
  8
AM_0
100
AcDbLine
 10
-9.149595892841848
 20
-24.30182128111761
 30
0.0
 11
-9.149595892841848
 21
-21.92287306438454
 31
0.0
  0
SPLINE
  5
5422
330
1F
100
AcDbEntity
  8
AM_0
100
AcDbSpline
210
0.0
220
0.0
230
1.0
 70
     8
 71
     3
 72
     8
 73
     4
 74
     0
 42
0.0000000001
 43
0.0000000001
 40
0.0
 40
0.0
 40
0.0
 40
0.0
 40
2.024855066027545
 40
2.024855066027545
 40
2.024855066027545
 40
2.024855066027545
 10
0.0000000000062176
 20
-25.00000000006531
 30
0.0
 10
-3.087767599282896
 20
-25.00000000006531
 30
0.0
 10
-6.135781131466445
 20
-24.75590362227814
 30
0.0
 10
-9.149595892841848
 20
-24.30182128111761
 30
0.0
  0
SPLINE
  5
5423
330
1F
100
AcDbEntity
  8
AM_0
100
AcDbSpline
210
0.0
220
0.0
230
1.0
 70
     8
 71
     3
 72
     8
 73
     4
 74
     0
 42
0.0000000001
 43
0.0000000001
 40
1.870660592686466
 40
1.870660592686466
 40
1.870660592686466
 40
1.870660592686466
 40
3.826008700541491
 40
3.826008700541491
 40
3.826008700541491
 40
3.826008700541491
 10
-0.4803537843683891
 20
-23.66720578817358
 30
0.0
 10
-3.399148068737912
 20
-23.26928592665973
 30
0.0
 10
-6.287306703497061
 20
-22.67780373274541
 30
0.0
 10
-9.149595892831445
 20
-21.92287306433564
 30
0.0
  0
ELLIPSE
  5
5425
330
1F
100
AcDbEntity
  8
AM_0
100
AcDbEllipse
 10
9.084053595413998
 20
-12.71940082365455
 30
0.0
 11
-0.000000000000006
 21
15.20349057758027
 31
0.0
210
0.0
220
0.0
230
1.0
 40
0.9149595892848045
 41
1.291176190584443
 42
2.069278538290226
  0
LINE
  5
5426
330
1F
100
AcDbEntity
  8
AM_0
100
AcDbLine
 10
-18.29919178568991
 20
-22.28502593205285
 30
0.0
 11
-18.29919178568991
 21
-18.95803220045928
 31
0.0
  0
SPLINE
  5
5427
330
1F
100
AcDbEntity
  8
AM_0
100
AcDbSpline
210
0.0
220
0.0
230
1.0
 70
     8
 71
     3
 72
     9
 73
     5
 74
     0
 42
0.0000000001
 43
0.0000000001
 40
0.0
 40
0.0
 40
0.0
 40
0.0
 40
1.72658936472417
 40
3.24728190261914
 40
3.24728190261914
 40
3.24728190261914
 40
3.24728190261914
 10
-9.149595892841848
 20
-24.30182128111761
 30
0.0
 10
-10.22222209296477
 20
-22.78325367338126
 30
0.0
 10
-13.47123686002653
 20
-20.78250985409265
 30
0.0
 10
-16.88703245466861
 20
-21.59740266030206
 30
0.0
 10
-18.29919178568991
 20
-22.28502593205285
 30
0.0
  0
SPLINE
  5
5428
330
1F
100
AcDbEntity
  8
AM_0
100
AcDbSpline
210
0.0
220
0.0
230
1.0
 70
     8
 71
     3
 72
     9
 73
     5
 74
     0
 42
0.0000000001
 43
0.0000000001
 40
0.0
 40
0.0
 40
0.0
 40
0.0
 40
1.903742594624469
 40
3.430173214614181
 40
3.430173214614181
 40
3.430173214614181
 40
3.430173214614181
 10
-9.149595892841848
 20
-21.92287306438454
 30
0.0
 10
-10.40648789715056
 20
-20.31437143411408
 30
0.0
 10
-13.13113588430043
 20
-16.80026636008188
 30
0.0
 10
-16.80880194106969
 20
-18.48562044878331
 30
0.0
 10
-18.29919178571071
 20
-18.95803220045133
 30
0.0
  0
SPLINE
  5
5429
330
1F
100
AcDbEntity
  8
AM_0
100
AcDbSpline
210
0.0
220
0.0
230
1.0
 70
     8
 71
     3
 72
     8
 73
     4
 74
     0
 42
0.0000000001
 43
0.0000000001
 40
8.937012770143645
 40
8.937012770143645
 40
8.937012770143645
 40
8.937012770143645
 40
9.443881246512125
 40
9.443881246512125
 40
9.443881246512125
 40
9.443881246512125
 10
0.0000000000062383
 20
-10.92215328399469
 30
0.0
 10
-2.436544031272836
 20
-9.566093053420823
 30
0.0
 10
-5.653752159958438
 20
-7.758586579178054
 30
0.0
 10
-10.006004500616
 20
-5.298193862098234
 30
0.0
  0
LINE
  5
542A
330
1F
100
AcDbEntity
  8
AM_0
100
AcDbLine
 10
0.0000000000062176
 20
-25.00000000006531
 30
0.0
 11
0.0000000000062176
 21
5.164725172730187
 31
0.0
  0
ELLIPSE
  5
542B
330
1F
100
AcDbEntity
  8
AM_0
100
AcDbEllipse
 10
9.564407379788626
 20
0.0256516805243404
 30
0.0
 11
-0.0000000000000202
 21
15.20349057758027
 31
0.0
210
0.0
220
0.0
230
1.0
 40
0.914959589284804
 41
1.463978992087282
 42
2.069278538290225
  0
LINE
  5
542C
330
1F
100
AcDbEntity
  8
AM_0
100
AcDbLine
 10
-25.09218076636354
 20
3.991995939400741
 30
0.0
 11
-25.09218076636354
 21
8.625079251020853
 31
0.0
  0
LINE
  5
542D
330
1F
100
AcDbEntity
  8
AM_0
100
AcDbLine
 10
-31.95437768599958
 20
8.290713573622447
 30
0.0
 11
-31.95437768599958
 21
12.4625400254883
 31
0.0
  0
SPLINE
  5
542E
330
1F
100
AcDbEntity
  8
AM_0
100
AcDbSpline
210
0.0
220
0.0
230
1.0
 70
     8
 71
     3
 72
     8
 73
     4
 74
     0
 42
0.0000000001
 43
0.0000000001
 40
9.911909440357588
 40
9.911909440357588
 40
9.911909440357588
 40
9.911909440357588
 40
11.54467281373877
 40
11.54467281373877
 40
11.54467281373877
 40
11.54467281373877
 10
-31.95437768599958
 20
12.4625400254883
 30
0.0
 10
-27.13341362276896
 20
9.795317243177651
 30
0.0
 10
-24.84693966478465
 20
8.510319215319963
 30
0.0
 10
-25.0778947022338
 20
8.62891020559242
 30
0.0
  0
SPLINE
  5
542F
330
1F
100
AcDbEntity
  8
AM_0
100
AcDbSpline
210
0.0
220
0.0
230
1.0
 70
     8
 71
     3
 72
     8
 73
     4
 74
     0
 42
0.0000000001
 43
0.0000000001
 40
11.46537929237052
 40
11.46537929237052
 40
11.46537929237052
 40
11.46537929237052
 40
14.48999654934396
 40
14.48999654934396
 40
14.48999654934396
 40
14.48999654934396
 10
-31.95437768599958
 20
8.290713573622447
 30
0.0
 10
-30.27526502810365
 20
7.226012070548503
 30
0.0
 10
-26.08787209471085
 20
4.616783311699064
 30
0.0
 10
-25.09218076636354
 20
3.991995939400741
 30
0.0
  0
LINE
  5
5430
330
1F
100
AcDbEntity
  8
AM_0
100
AcDbLine
 10
-25.16138870532596
 20
-19.99357195768136
 30
0.0
 11
-25.16138870532596
 21
-16.08157498386782
 31
0.0
  0
LINE
  5
5431
330
1F
100
AcDbEntity
  8
AM_0
100
AcDbLine
 10
-34.31098459817403
 20
-16.04514470524742
 30
0.0
 11
-34.31098459817403
 21
-11.54413153084698
 31
0.0
  0
SPLINE
  5
5432
330
1F
100
AcDbEntity
  8
AM_0
100
AcDbSpline
210
0.0
220
0.0
230
1.0
 70
     8
 71
     3
 72
     8
 73
     4
 74
     0
 42
0.0000000001
 43
0.0000000001
 40
1.999245295235591
 40
1.999245295235591
 40
1.999245295235591
 40
1.999245295235591
 40
2.130230809022907
 40
2.130230809022907
 40
2.130230809022907
 40
2.130230809022907
 10
-37.27965811253118
 20
-24.31894974056428
 30
0.0
 10
-37.08464193092847
 20
-24.28991964269409
 30
0.0
 10
-36.88976915307046
 20
-24.26000902272045
 30
0.0
 10
-36.69503827514192
 20
-24.22922711432812
 30
0.0
  0
SPLINE
  5
5433
330
1F
100
AcDbEntity
  8
AM_0
100
AcDbSpline
210
0.0
220
0.0
230
1.0
 70
     8
 71
     3
 72
     9
 73
     5
 74
     0
 42
0.0000000001
 43
0.0000000001
 40
0.0
 40
0.0
 40
0.0
 40
0.0
 40
2.141059343722855
 40
3.651523002367593
 40
3.651523002367593
 40
3.651523002367593
 40
3.651523002367593
 10
-25.16138870532596
 20
-16.04514470524742
 30
0.0
 10
-26.53523379752891
 20
-14.19993072787277
 30
0.0
 10
-28.70466685716563
 20
-9.518396972410998
 30
0.0
 10
-32.78470709980071
 20
-11.35977368538088
 30
0.0
 10
-34.31098459817403
 20
-11.54413153084698
 30
0.0
  0
SPLINE
  5
5434
330
1F
100
AcDbEntity
  8
AM_0
100
AcDbSpline
210
0.0
220
0.0
230
1.0
 70
     8
 71
     3
 72
     9
 73
     5
 74
     0
 42
0.0000000001
 43
0.0000000001
 40
0.0
 40
0.0
 40
0.0
 40
0.0
 40
1.80162782053068
 40
3.313189647300303
 40
3.313189647300303
 40
3.313189647300303
 40
3.313189647300303
 10
-25.16138870532596
 20
-19.99357195768136
 30
0.0
 10
-26.28970185661475
 20
-18.41670916659912
 30
0.0
 10
-29.32667396532948
 20
-16.61293092167309
 30
0.0
 10
-32.84938761744942
 20
-15.52655421325598
 30
0.0
 10
-34.31098459817403
 20
-16.04514470524742
 30
0.0
  0
SPLINE
  5
5435
330
1F
100
AcDbEntity
  8
AM_0
100
AcDbSpline
210
0.0
220
0.0
230
1.0
 70
     8
 71
     3
 72
     8
 73
     4
 74
     0
 42
0.0000000001
 43
0.0000000001
 40
0.2298684927509915
 40
0.2298684927509915
 40
0.2298684927509915
 40
0.2298684927509915
 40
2.764560748519282
 40
2.764560748519282
 40
2.764560748519282
 40
2.764560748519282
 10
-37.27965811253118
 20
-24.24224767944503
 30
0.0
 10
-33.42506461456158
 20
-24.17501263669516
 30
0.0
 10
-29.62867057709149
 20
-23.74006143771731
 30
0.0
 10
-25.88009411781175
 20
-23.00298894928056
 30
0.0
  0
SPLINE
  5
5436
330
1F
100
AcDbEntity
  8
AM_0
100
AcDbSpline
210
0.0
220
0.0
230
1.0
 70
     8
 71
     3
 72
     8
 73
     4
 74
     0
 42
0.0000000001
 43
0.0000000001
 40
4.096652702081863
 40
4.096652702081863
 40
4.096652702081863
 40
4.096652702081863
 40
5.678228147290397
 40
5.678228147290397
 40
5.678228147290397
 40
5.678228147290397
 10
-18.29919178568159
 20
-22.28502593204831
 30
0.0
 10
-20.60310478738045
 20
-21.62260673646352
 30
0.0
 10
-22.88962134355622
 20
-20.85337056220788
 30
0.0
 10
-25.16138870532596
 20
-19.99357195768136
 30
0.0
  0
SPLINE
  5
5437
330
1F
100
AcDbEntity
  8
AM_0
100
AcDbSpline
210
0.0
220
0.0
230
1.0
 70
     8
 71
     3
 72
     8
 73
     4
 74
     0
 42
0.0000000001
 43
0.0000000001
 40
5.928582328726523
 40
5.928582328726523
 40
5.928582328726523
 40
5.928582328726523
 40
7.528098176779675
 40
7.528098176779675
 40
7.528098176779675
 40
7.528098176779675
 10
-18.29919178571071
 20
-18.95803220045133
 30
0.0
 10
-20.59960238131442
 20
-18.08142323378371
 30
0.0
 10
-22.88613170393321
 20
-17.11710953065727
 30
0.0
 10
-25.16138870521363
 20
-16.08157498391898
 30
0.0
  0
SPLINE
  5
5438
330
1F
100
AcDbEntity
  8
AM_0
100
AcDbSpline
210
0.0
220
0.0
230
1.0
 70
     8
 71
     3
 72
     9
 73
     5
 74
     0
 42
0.0000000001
 43
0.0000000001
 40
0.0
 40
0.0
 40
0.0
 40
0.0
 40
2.134718602092789
 40
3.638419521675699
 40
3.638419521675699
 40
3.638419521675699
 40
3.638419521675699
 10
-16.86820142025205
 20
3.787383325069695
 30
0.0
 10
-17.09433539892164
 20
5.220985730238393
 30
0.0
 10
-19.52927702659688
 20
8.815551180827711
 30
0.0
 10
-23.6078880980967
 20
9.024839926623641
 30
0.0
 10
-25.09218076636354
 20
8.625079251020853
 30
0.0
  0
ELLIPSE
  5
5439
330
1F
100
AcDbEntity
  8
AM_0
100
AcDbEllipse
 10
-30.73104457484728
 20
-17.93011396049921
 30
0.0
 11
-0.0000000000000998
 21
22.79987264546125
 31
0.0
210
0.0
220
0.0
230
1.0
 40
0.9000000000000005
 41
-0.7417523423047953
 42
-0.2783816530066023
  0
SPLINE
  5
543A
330
1F
100
AcDbEntity
  8
AM_0
100
AcDbSpline
210
0.0
220
0.0
230
1.0
 70
     8
 71
     3
 72
     8
 73
     4
 74
     0
 42
0.0000000001
 43
0.0000000001
 40
0.0
 40
0.0
 40
0.0
 40
0.0
 40
2.344318898166958
 40
2.344318898166958
 40
2.344318898166958
 40
2.344318898166958
 10
-29.13506901642059
 20
-23.0872225190779
 30
0.0
 10
-25.56014058938916
 20
-23.0872225190779
 30
0.0
 10
-22.03167911672314
 20
-22.77967213316145
 30
0.0
 10
-18.54210001906773
 20
-22.21477134407958
 30
0.0
  0
SPLINE
  5
543B
330
1F
100
AcDbEntity
  8
AM_0
100
AcDbSpline
210
0.0
220
0.0
230
1.0
 70
     8
 71
     3
 72
     8
 73
     4
 74
     0
 42
0.0000000001
 43
0.0000000001
 40
13.73199344169106
 40
13.73199344169106
 40
13.73199344169106
 40
13.73199344169106
 40
14.43901837670146
 40
14.43901837670146
 40
14.43901837670146
 40
14.43901837670146
 10
-57.1849743302942
 20
1.77982877215362
 30
0.0
 10
-56.20055819449053
 20
1.187501604038685
 30
0.0
 10
-55.2163673811968
 20
0.5937508019866862
 30
0.0
 10
-54.23217656790307
 20
-0.000000000064177
 30
0.0
  0
LINE
  5
543C
330
1F
100
AcDbEntity
  8
AM_0
100
AcDbLine
 10
-57.1849743302942
 20
-3.127645205858529
 30
0.0
 11
-57.1849743302942
 21
1.77982877215362
 31
0.0
  0
SPLINE
  5
543D
330
1F
100
AcDbEntity
  8
AM_0
100
AcDbSpline
210
0.0
220
0.0
230
1.0
 70
     8
 71
     3
 72
     8
 73
     4
 74
     0
 42
0.0000000001
 43
0.0000000001
 40
13.50299628442394
 40
13.50299628442394
 40
13.50299628442394
 40
13.50299628442394
 40
14.43901837670146
 40
14.43901837670146
 40
14.43901837670146
 40
14.43901837670146
 10
-50.32277741065815
 20
-2.354876019842835
 30
0.0
 10
-51.62625901494986
 20
-1.572119568999654
 30
0.0
 10
-52.92921779142647
 20
-0.7860597845324838
 30
0.0
 10
-54.23217656790307
 20
-0.000000000064177
 30
0.0
  0
LINE
  5
543E
330
1F
100
AcDbEntity
  8
AM_0
100
AcDbLine
 10
-41.17318151779968
 20
-12.53137731722682
 30
0.0
 11
-41.17318151781008
 21
-7.744002366863984
 31
0.0
  0
LINE
  5
543F
330
1F
100
AcDbEntity
  8
AM_0
100
AcDbLine
 10
-46.42925400537508
 20
-24.99988840040538
 30
0.0
 11
-46.42925400548534
 21
-23.71606280606039
 31
0.0
  0
SPLINE
  5
5440
330
1F
100
AcDbEntity
  8
AM_0
100
AcDbSpline
210
0.0
220
0.0
230
1.0
 70
     8
 71
     3
 72
     8
 73
     4
 74
     0
 42
0.0000000001
 43
0.0000000001
 40
0.0
 40
0.0
 40
0.0
 40
0.0
 40
1.498423311644514
 40
1.498423311644514
 40
1.498423311644514
 40
1.498423311644514
 10
-46.42925400537923
 20
-23.71606280607403
 30
0.0
 10
-45.07997701821797
 20
-22.94324585560068
 30
0.0
 10
-43.4456231931109
 20
-22.12813589783375
 30
0.0
 10
-41.97923913042423
 20
-22.57910140708241
 30
0.0
  0
LINE
  5
5441
330
1F
100
AcDbEntity
  8
AM_0
100
AcDbLine
 10
-53.2914509250153
 20
-24.59166673427995
 30
0.0
 11
-53.2914509250153
 21
-22.46294375699045
 31
0.0
  0
SPLINE
  5
5442
330
1F
100
AcDbEntity
  8
AM_0
100
AcDbSpline
210
0.0
220
0.0
230
1.0
 70
     8
 71
     3
 72
     9
 73
     5
 74
     0
 42
0.0000000001
 43
0.0000000001
 40
0.0
 40
0.0
 40
0.0
 40
0.0
 40
1.804831497484455
 40
3.407354979375
 40
3.407354979375
 40
3.407354979375
 40
3.407354979375
 10
-41.17318151781008
 20
-12.53137731722114
 30
0.0
 10
-42.58421919226191
 20
-11.24951728628839
 30
0.0
 10
-45.4775610363071
 20
-9.140347911939588
 30
0.0
 10
-48.72243723072786
 20
-7.639185032515931
 30
0.0
 10
-50.32277741065815
 20
-7.305748415014307
 30
0.0
  0
SPLINE
  5
5443
330
1F
100
AcDbEntity
  8
AM_0
100
AcDbSpline
210
0.0
220
0.0
230
1.0
 70
     8
 71
     3
 72
     8
 73
     4
 74
     0
 42
0.0000000001
 43
0.0000000001
 40
1.788970302442027
 40
1.788970302442027
 40
1.788970302442027
 40
1.788970302442027
 40
3.332324051699147
 40
3.332324051699147
 40
3.332324051699147
 40
3.332324051699147
 10
-46.42925400537923
 20
-23.71606280607403
 30
0.0
 10
-48.73508158478673
 20
-23.41479217892976
 30
0.0
 10
-51.02169933399018
 20
-22.99214989535296
 30
0.0
 10
-53.29145092498825
 20
-22.46294375685403
 30
0.0
  0
SPLINE
  5
5444
330
1F
100
AcDbEntity
  8
AM_0
100
AcDbSpline
210
0.0
220
0.0
230
1.0
 70
     8
 71
     3
 72
     8
 73
     4
 74
     0
 42
0.0000000001
 43
0.0000000001
 40
0.0
 40
0.0
 40
0.0
 40
0.0
 40
1.539536607901005
 40
1.539536607901005
 40
1.539536607901005
 40
1.539536607901005
 10
-46.31488405671823
 20
-25.00000000006417
 30
0.0
 10
-48.66257369414303
 20
-25.00000000006417
 30
0.0
 10
-50.98728207765926
 20
-24.85889139800457
 30
0.0
 10
-53.2914509250153
 20
-24.59166673427995
 30
0.0
  0
SPLINE
  5
5445
330
1F
100
AcDbEntity
  8
0
100
AcDbSpline
210
0.0
220
0.0
230
1.0
 70
     8
 71
     3
 72
     8
 73
     4
 74
     0
 42
0.0000000001
 43
0.0000000001
 40
0.0
 40
0.0
 40
0.0
 40
0.0
 40
1.208398095880623
 40
1.208398095880623
 40
1.208398095880623
 40
1.208398095880623
 10
-46.44495553453323
 20
-24.98055979200382
 30
0.0
 10
-48.74836267099063
 20
-24.98055979200382
 30
0.0
 10
-51.02956729283829
 20
-24.84440379044611
 30
0.0
 10
-53.2908866109511
 20
-24.58630198707769
 30
0.0
  0
LINE
  5
5446
330
1F
100
AcDbEntity
  8
AM_0
100
AcDbLine
 10
-50.32277741065815
 20
-7.305748415014307
 30
0.0
 11
-50.32277741065815
 21
-2.354876019842835
 31
0.0
  0
SPLINE
  5
5447
330
1F
100
AcDbEntity
  8
AM_0
100
AcDbSpline
210
0.0
220
0.0
230
1.0
 70
     8
 71
     3
 72
     9
 73
     5
 74
     0
 42
0.0000000001
 43
0.0000000001
 40
0.0
 40
0.0
 40
0.0
 40
0.0
 40
2.234683413624822
 40
3.734683413624822
 40
3.734683413624822
 40
3.734683413624822
 40
3.734683413624822
 10
-41.17318151781008
 20
-7.744002367011777
 30
0.0
 10
-42.29462473600702
 20
-5.58462330264311
 30
0.0
 10
-44.50579932818603
 20
-1.669517824258137
 30
0.0
 10
-48.97150745399331
 20
-1.450085633466296
 30
0.0
 10
-50.32277741065815
 20
-2.222519113060401
 30
0.0
  0
LINE
  5
5448
330
1F
100
AcDbEntity
  8
AM_0
100
AcDbLine
 10
-66.33457022314225
 20
2.561157159389666
 30
0.0
 11
-66.33457022314225
 21
7.194240471009777
 31
0.0
  0
LINE
  5
5449
330
1F
100
AcDbEntity
  8
AM_0
100
AcDbLine
 10
-73.1967671427783
 20
6.758177271410146
 30
0.0
 11
-73.19676714283239
 21
11.03170124550678
 31
0.0
  0
SPLINE
  5
544A
330
1F
100
AcDbEntity
  8
AM_0
100
AcDbSpline
210
0.0
220
0.0
230
1.0
 70
     8
 71
     3
 72
     8
 73
     4
 74
     0
 42
0.0000000001
 43
0.0000000001
 40
11.84940637128532
 40
11.84940637128532
 40
11.84940637128532
 40
11.84940637128532
 40
14.48999654934396
 40
14.48999654934396
 40
14.48999654934396
 40
14.48999654934396
 10
-73.1967671427783
 20
6.758177271409011
 30
0.0
 10
-69.5287151175339
 20
4.555884759925618
 30
0.0
 10
-65.87298359444705
 20
2.277942379931288
 30
0.0
 10
-62.21725207136021
 20
-0.000000000064177
 30
0.0
  0
SPLINE
  5
544B
330
1F
100
AcDbEntity
  8
AM_0
100
AcDbSpline
210
0.0
220
0.0
230
1.0
 70
     8
 71
     3
 72
     8
 73
     4
 74
     0
 42
0.0000000001
 43
0.0000000001
 40
9.911909440357588
 40
9.911909440357588
 40
9.911909440357588
 40
9.911909440357588
 40
11.54467281373877
 40
11.54467281373877
 40
11.54467281373877
 40
11.54467281373877
 10
-73.1967671427783
 20
11.03170124547722
 30
0.0
 10
-70.90259890753223
 20
9.795317243155697
 30
0.0
 10
-68.61612494954792
 20
8.510319215298011
 30
0.0
 10
-66.33457022314225
 20
7.194240471009777
 30
0.0
  0
LINE
  5
544C
330
1F
100
AcDbEntity
  8
AM_0
100
AcDbLine
 10
-62.44104681786336
 20
-22.87628914591033
 30
0.0
 11
-62.44104681786336
 21
-19.75800427241148
 31
0.0
  0
LINE
  5
544D
330
1F
100
AcDbEntity
  8
AM_0
100
AcDbLine
 10
-69.30324373749941
 20
-20.78624526335767
 30
0.0
 11
-69.30324373749941
 21
-17.04687516262703
 31
0.0
  0
SPLINE
  5
544E
330
1F
100
AcDbEntity
  8
AM_0
100
AcDbSpline
210
0.0
220
0.0
230
1.0
 70
     8
 71
     3
 72
     8
 73
     4
 74
     0
 42
0.0000000001
 43
0.0000000001
 40
5.425905956994038
 40
5.425905956994038
 40
5.425905956994038
 40
5.425905956994038
 40
7.019702002723574
 40
7.019702002723574
 40
7.019702002723574
 40
7.019702002723574
 10
-62.44104681786336
 20
-19.75800427241034
 30
0.0
 10
-64.74218166561242
 20
-18.94108064832886
 30
0.0
 10
-67.02872028445518
 20
-18.03193504929874
 30
0.0
 10
-69.30324373749941
 20
-17.04687516262703
 30
0.0
  0
SPLINE
  5
544F
330
1F
100
AcDbEntity
  8
AM_0
100
AcDbSpline
210
0.0
220
0.0
230
1.0
 70
     8
 71
     3
 72
     8
 73
     4
 74
     0
 42
0.0000000001
 43
0.0000000001
 40
3.600603813281411
 40
3.600603813281411
 40
3.600603813281411
 40
3.600603813281411
 40
5.175009087017798
 40
5.175009087017798
 40
5.175009087017798
 40
5.175009087017798
 10
-62.44104681786544
 20
-22.87628914588191
 30
0.0
 10
-64.7456371670416
 20
-22.28516567026355
 30
0.0
 10
-67.03216567036829
 20
-21.5831395507251
 30
0.0
 10
-69.30324373749941
 20
-20.78624526335767
 30
0.0
  0
SPLINE
  5
5450
330
1F
100
AcDbEntity
  8
0
100
AcDbSpline
210
0.0
220
0.0
230
1.0
 70
     8
 71
     3
 72
     8
 73
     4
 74
     0
 42
0.0000000001
 43
0.0000000001
 40
2.857363517439195
 40
2.857363517439195
 40
2.857363517439195
 40
2.857363517439195
 40
4.11726153057047
 40
4.11726153057047
 40
4.11726153057047
 40
4.11726153057047
 10
-62.4429963088173
 20
-22.88457641650591
 30
0.0
 10
-64.74860465948722
 20
-22.29606786885465
 30
0.0
 10
-67.03603393394522
 20
-21.59607688903104
 30
0.0
 10
-69.30791041586776
 20
-20.80070905294124
 30
0.0
  0
SPLINE
  5
5451
330
1F
100
AcDbEntity
  8
0
100
AcDbSpline
210
0.0
220
0.0
230
1.0
 70
     8
 71
     3
 72
     8
 73
     4
 74
     0
 42
0.0000000001
 43
0.0000000001
 40
0.0
 40
0.0
 40
0.0
 40
0.0
 40
6.939448529975718
 40
6.939448529975718
 40
6.939448529975718
 40
6.939448529975718
 10
-75.99858814345356
 20
-23.02985034600885
 30
0.0
 10
-72.4711910222776
 20
-23.02985034600885
 30
0.0
 10
-68.98484293453595
 20
-22.74364462594945
 30
0.0
 10
-65.41264085800486
 20
-22.06326915247683
 30
0.0
  0
SPLINE
  5
5452
330
1F
100
AcDbEntity
  8
AM_0
100
AcDbSpline
210
0.0
220
0.0
230
1.0
 70
     8
 71
     3
 72
     9
 73
     5
 74
     0
 42
0.0000000001
 43
0.0000000001
 40
0.0
 40
0.0
 40
0.0
 40
0.0
 40
2.134718602092789
 40
3.638419521675699
 40
3.638419521675699
 40
3.638419521675699
 40
3.638419521675699
 10
-57.1849743302942
 20
1.77982877215362
 30
0.0
 10
-58.33672485570035
 20
3.790146950227318
 30
0.0
 10
-60.77166648337559
 20
7.384712400816636
 30
0.0
 10
-64.85027755487542
 20
7.594001146612566
 30
0.0
 10
-66.33457022314225
 20
7.194240471009777
 30
0.0
  0
SPLINE
  5
5453
330
1F
100
AcDbEntity
  8
AM_0
100
AcDbSpline
210
0.0
220
0.0
230
1.0
 70
     8
 71
     3
 72
     8
 73
     4
 74
     0
 42
0.0000000001
 43
0.0000000001
 40
11.62991291415682
 40
11.62991291415682
 40
11.62991291415682
 40
11.62991291415682
 40
14.48999654934396
 40
14.48999654934396
 40
14.48999654934396
 40
14.48999654934396
 10
-50.32277741065815
 20
-7.305748415014307
 30
0.0
 10
-54.29803916911162
 20
-4.934583016436649
 30
0.0
 10
-58.25764562023486
 20
-2.467291508250413
 30
0.0
 10
-62.21725207136021
 20
-0.0000000000653139
 30
0.0
  0
SPLINE
  5
5454
330
1F
100
AcDbEntity
  8
AM_0
100
AcDbSpline
210
0.0
220
0.0
230
1.0
 70
     8
 71
     3
 72
     9
 73
     5
 74
     0
 42
0.0000000001
 43
0.0000000001
 40
0.0
 40
0.0
 40
0.0
 40
0.0
 40
1.712940807075481
 40
3.245153285734257
 40
3.245153285734257
 40
3.245153285734257
 40
3.245153285734257
 10
-53.2914509250153
 20
-24.59166673427995
 30
0.0
 10
-54.8237040003879
 20
-23.68727952263751
 30
0.0
 10
-57.50627193297376
 20
-20.68782807796869
 30
0.0
 10
-60.94463276593597
 20
-22.40351809144401
 30
0.0
 10
-62.44104681788417
 20
-22.87628914587736
 30
0.0
  0
SPLINE
  5
5455
330
1F
100
AcDbEntity
  8
AM_0
100
AcDbSpline
210
0.0
220
0.0
230
1.0
 70
     8
 71
     3
 72
     9
 73
     5
 74
     0
 42
0.0000000001
 43
0.0000000001
 40
0.0
 40
0.0
 40
0.0
 40
0.0
 40
1.853196961853059
 40
3.381663674709893
 40
3.381663674709893
 40
3.381663674709893
 40
3.381663674709893
 10
-53.2914509250153
 20
-22.40686147459365
 30
0.0
 10
-54.61167734848157
 20
-20.93789389558171
 30
0.0
 10
-57.33372801626597
 20
-17.60430990599024
 30
0.0
 10
-60.95859006437371
 20
-19.24906074187921
 30
0.0
 10
-62.44104681787168
 20
-19.75800427240694
 30
0.0
  0
SPLINE
  5
5456
330
1F
100
AcDbEntity
  8
AM_0
100
AcDbSpline
210
0.0
220
0.0
230
1.0
 70
     8
 71
     3
 72
     8
 73
     4
 74
     0
 42
0.0000000001
 43
0.0000000001
 40
7.818791612490512
 40
7.818791612490512
 40
7.818791612490512
 40
7.818791612490512
 40
9.443881246512125
 40
9.443881246512125
 40
9.443881246512125
 40
9.443881246512125
 10
-34.31098459817403
 20
-16.04514470524629
 30
0.0
 10
-36.60921549734255
 20
-14.94039868000692
 30
0.0
 10
-38.89565719690573
 20
-13.76326506954621
 30
0.0
 10
-41.17318151781008
 20
-12.53137731722114
 30
0.0
  0
SPLINE
  5
5457
330
1F
100
AcDbEntity
  8
AM_0
100
AcDbSpline
210
0.0
220
0.0
230
1.0
 70
     8
 71
     3
 72
     8
 73
     4
 74
     0
 42
0.0000000001
 43
0.0000000001
 40
9.685078621624523
 40
9.685078621624523
 40
9.685078621624523
 40
9.685078621624523
 40
11.31655044551473
 40
11.31655044551473
 40
11.31655044551473
 40
11.31655044551473
 10
-34.31098459817403
 20
-11.54413153084698
 30
0.0
 10
-36.60552777110494
 20
-10.32256033199411
 30
0.0
 10
-38.89200392249131
 20
-9.050020032577155
 30
0.0
 10
-41.17318151786624
 20
-7.744002366979942
 30
0.0
  0
SPLINE
  5
5458
330
1F
100
AcDbEntity
  8
AM_0
100
AcDbSpline
210
0.0
220
0.0
230
1.0
 70
     8
 71
     3
 72
     8
 73
     4
 74
     0
 42
0.0000000001
 43
0.0000000001
 40
4.542668862435135
 40
4.542668862435135
 40
4.542668862435135
 40
4.542668862435135
 40
14.36247867694493
 40
14.36247867694493
 40
14.36247867694493
 40
14.36247867694493
 10
-3.133736593287754
 20
-19.98808327734815
 30
0.0
 10
-17.4732570180892
 20
-15.78502843292932
 30
0.0
 10
-31.25534702457589
 20
-7.89251421649675
 30
0.0
 10
-45.03743703106257
 20
-0.000000000064177
 30
0.0
  0
SPLINE
  5
5459
330
1F
100
AcDbEntity
  8
AM_0
100
AcDbSpline
210
0.0
220
0.0
230
1.0
 70
     8
 71
     3
 72
     9
 73
     5
 74
     0
 42
0.0000000001
 43
0.0000000001
 40
0.0
 40
0.0
 40
0.0
 40
0.0
 40
1.59747099413338
 40
3.403889013946459
 40
3.403889013946459
 40
3.403889013946459
 40
3.403889013946459
 10
-31.95437768599958
 20
8.290713573622445
 30
0.0
 10
-33.52672600149929
 20
8.734903760124153
 30
0.0
 10
-36.87046182906118
 20
9.930055108607257
 30
0.0
 10
-39.59657271798393
 20
12.33101107487873
 30
0.0
 10
-41.10397357884766
 20
13.4774409045196
 30
0.0
  0
SPLINE
  5
545A
330
1F
100
AcDbEntity
  8
AM_0
100
AcDbSpline
210
0.0
220
0.0
230
1.0
 70
     8
 71
     3
 72
     9
 73
     5
 74
     0
 42
0.0000000001
 43
0.0000000001
 40
0.0
 40
0.0
 40
0.0
 40
0.0
 40
1.667714745337139
 40
3.256805083315271
 40
3.256805083315271
 40
3.256805083315271
 40
3.256805083315271
 10
-46.42925400537923
 20
-24.99988840040879
 30
0.0
 10
-45.01140805948181
 20
-23.98385378232529
 30
0.0
 10
-41.98793741861011
 20
-21.38286378917536
 30
0.0
 10
-38.73377948181268
 20
-23.54969722907724
 30
0.0
 10
-37.27965811253118
 20
-24.31894974056428
 30
0.0
  0
LINE
  5
545B
330
1F
100
AcDbEntity
  8
AM_0
100
AcDbLine
 10
-41.10397357884766
 20
13.4774409045196
 30
0.0
 11
-41.10397357884766
 21
16.94960104858473
 31
0.0
  0
SPLINE
  5
545C
330
1F
100
AcDbEntity
  8
AM_0
100
AcDbSpline
210
0.0
220
0.0
230
1.0
 70
     8
 71
     3
 72
     8
 73
     4
 74
     0
 42
0.0000000001
 43
0.0000000001
 40
7.657131739025505
 40
7.657131739025505
 40
7.657131739025505
 40
7.657131739025505
 40
9.280732515295124
 40
9.280732515295124
 40
9.280732515295124
 40
9.280732515295124
 10
-47.9661704984837
 20
16.94938628344011
 30
0.0
 10
-45.66767340419102
 20
15.86021540885957
 30
0.0
 10
-43.381229075963
 20
14.69703860852923
 30
0.0
 10
-41.10397357884973
 20
13.47744090452073
 30
0.0
  0
SPLINE
  5
545D
330
1F
100
AcDbEntity
  8
AM_0
100
AcDbSpline
210
0.0
220
0.0
230
1.0
 70
     8
 71
     3
 72
     9
 73
     5
 74
     0
 42
0.0000000001
 43
0.0000000001
 40
0.0
 40
0.0
 40
0.0
 40
0.0
 40
1.862990800602817
 40
3.382267404545521
 40
3.382267404545521
 40
3.382267404545521
 40
3.382267404545521
 10
-31.95437768599958
 20
12.4625400254883
 30
0.0
 10
-33.50294249004441
 20
13.65431070151653
 30
0.0
 10
-35.90186803421271
 20
16.58117896364527
 30
0.0
 10
-39.56490644433589
 20
17.09144923092076
 30
0.0
 10
-41.10397357884766
 20
16.94960104858473
 30
0.0
  0
LINE
  5
545E
330
1F
100
AcDbEntity
  8
AM_0
100
AcDbLine
 10
0.0000000000062176
 20
-0.0000000000422256
 30
0.0
 11
0.0000000000062176
 21
24.99999999993467
 31
0.0
  0
SPLINE
  5
545F
330
1F
100
AcDbEntity
  8
AM_0
100
AcDbSpline
210
0.0
220
0.0
230
1.0
 70
     8
 71
     3
 72
     8
 73
     4
 74
     0
 42
0.0000000001
 43
0.0000000001
 40
1.301885614107523
 40
1.301885614107523
 40
1.301885614107523
 40
1.301885614107523
 40
13.67908291092592
 40
13.67908291092592
 40
13.67908291092592
 40
13.67908291092592
 10
-57.69234553602821
 20
22.81127576754096
 30
0.0
 10
-39.07808461589466
 20
21.08954696815294
 30
0.0
 10
-21.64167091151374
 20
11.57201208037426
 30
0.0
 10
-4.266888083798895
 20
1.646561499343456
 30
0.0
  0
SPLINE
  5
5460
330
1F
100
AcDbEntity
  8
AM_0
100
AcDbSpline
210
0.0
220
0.0
230
1.0
 70
     8
 71
     3
 72
     8
 73
     4
 74
     0
 42
0.0000000001
 43
0.0000000001
 40
7.657131739025505
 40
7.657131739025505
 40
7.657131739025505
 40
7.657131739025505
 40
8.849127215686742
 40
8.849127215686742
 40
8.849127215686742
 40
8.849127215686742
 10
-6.658097458567773
 20
16.37267051051429
 30
0.0
 10
-4.970614809162531
 20
15.57303628097537
 30
0.0
 10
-3.289628629819974
 20
14.73351267844803
 30
0.0
 10
0.0000000000062176
 20
13.08251419562616
 30
0.0
  0
DIMENSION
  5
5461
330
1F
100
AcDbEntity
  8
AM_5
100
AcDbDimension
  2
*D10
 10
17.12578914778659
 20
-25.00000000006171
 30
0.0
 11
14.0257891477866
 21
-0.0000000000613827
 31
0.0
 70
    32
  1
%%c<>
  3
AM_JIS
100
AcDbAlignedDimension
 13
0.0000000000030862
 23
24.99999999993894
 33
0.0
 14
0.0000000000094214
 24
-25.0000000000617
 34
0.0
 50
90.00000000000003
100
AcDbRotatedDimension
1001
GENIUS_GENDTOL_13
1000

1000
h7
1000

1040
0.0
  0
SPLINE
  5
546E
330
1F
100
AcDbEntity
  8
AM_0
100
AcDbSpline
210
0.0
220
0.0
230
1.0
 70
     8
 71
     3
 72
     8
 73
     4
 74
     0
 42
0.0000000001
 43
0.0000000001
 40
5.307227569610006
 40
5.307227569610006
 40
5.307227569610006
 40
5.307227569610006
 40
5.432115640004751
 40
5.432115640004751
 40
5.432115640004751
 40
5.432115640004751
 10
-89.13935201630831
 20
21.03896579781753
 30
0.0
 10
-89.31929854664602
 20
20.97449800089626
 30
0.0
 10
-89.49914923827213
 20
20.90944173884096
 30
0.0
 10
-89.81780714489104
 20
20.77870762204351
 30
0.0
  0
LINE
  5
546F
330
1F
100
AcDbEntity
  8
AM_0
100
AcDbLine
 10
-89.20855995526242
 20
15.60124423196219
 30
0.0
 11
-89.20855995526034
 21
18.58818112476745
 31
0.0
  0
SPLINE
  5
5470
330
1F
100
AcDbEntity
  8
AM_0
100
AcDbSpline
210
0.0
220
0.0
230
1.0
 70
     8
 71
     3
 72
     8
 73
     4
 74
     0
 42
0.0000000001
 43
0.0000000001
 40
6.150480381241876
 40
6.150480381241876
 40
6.150480381241876
 40
6.150480381241876
 40
7.75241736749254
 40
7.75241736749254
 40
7.75241736749254
 40
7.75241736749254
 10
-89.20855995526242
 20
18.58818112476745
 30
0.0
 10
-86.90847429141967
 20
17.68619189818712
 30
0.0
 10
-84.62194892382688
 20
16.69852593214108
 30
0.0
 10
-82.34636303562636
 20
15.64174208633579
 30
0.0
  0
SPLINE
  5
5471
330
1F
100
AcDbEntity
  8
AM_0
100
AcDbSpline
210
0.0
220
0.0
230
1.0
 70
     8
 71
     3
 72
     9
 73
     5
 74
     0
 42
0.0000000001
 43
0.0000000001
 40
0.0
 40
0.0
 40
0.0
 40
0.0
 40
1.503438351697518
 40
3.260499827787994
 40
3.260499827787994
 40
3.260499827787994
 40
3.260499827787994
 10
-89.13935201630831
 20
21.0389657978198
 30
0.0
 10
-87.64701657143307
 20
20.6780829967694
 30
0.0
 10
-84.15327060655949
 20
19.96793147163522
 30
0.0
 10
-81.31570616041612
 20
22.44213937291733
 30
0.0
 10
-79.98975612346026
 20
23.7503012307099
 30
0.0
  0
LINE
  5
5472
330
1F
100
AcDbEntity
  8
AM_0
100
AcDbLine
 10
-98.35815584811051
 20
19.64212040464366
 30
0.0
 11
-98.35815584811051
 21
21.66426009351943
 31
0.0
  0
LINE
  5
5473
330
1F
100
AcDbEntity
  8
AM_0
100
AcDbLine
 10
-105.2203527677465
 20
22.01610689988632
 30
0.0
 11
-105.2203527677465
 21
23.23193371072483
 31
0.0
  0
SPLINE
  5
5474
330
1F
100
AcDbEntity
  8
AM_0
100
AcDbSpline
210
0.0
220
0.0
230
1.0
 70
     8
 71
     3
 72
     8
 73
     4
 74
     0
 42
0.0000000001
 43
0.0000000001
 40
4.306226182506206
 40
4.306226182506206
 40
4.306226182506206
 40
4.306226182506206
 40
5.890739774064351
 40
5.890739774064351
 40
5.890739774064351
 40
5.890739774064351
 10
-105.2203527677465
 20
22.01610689988632
 30
0.0
 10
-102.916732087086
 20
21.32438196575384
 30
0.0
 10
-100.6302204579405
 20
20.52760469844833
 30
0.0
 10
-98.35815584811051
 20
19.64212040464366
 30
0.0
  0
SPLINE
  5
5475
330
1F
100
AcDbEntity
  8
AM_0
100
AcDbSpline
210
0.0
220
0.0
230
1.0
 70
     8
 71
     3
 72
     8
 73
     4
 74
     0
 42
0.0000000001
 43
0.0000000001
 40
2.489821994174631
 40
2.489821994174631
 40
2.489821994174631
 40
2.489821994174631
 40
4.043019649814397
 40
4.043019649814397
 40
4.043019649814397
 40
4.043019649814397
 10
-105.2203527677465
 20
23.23193371072483
 30
0.0
 10
-102.91688965888
 20
22.82087942957167
 30
0.0
 10
-100.6318043084627
 20
22.29371069239567
 30
0.0
 10
-98.36270791222579
 20
21.66552045566794
 30
0.0
  0
SPLINE
  5
5476
330
1F
100
AcDbEntity
  8
AM_0
100
AcDbSpline
210
0.0
220
0.0
230
1.0
 70
     8
 71
     3
 72
     8
 73
     4
 74
     0
 42
0.0000000001
 43
0.0000000001
 40
0.3581103616548037
 40
0.3581103616548037
 40
0.3581103616548037
 40
0.3581103616548037
 40
0.4557920900567158
 40
0.4557920900567158
 40
0.4557920900567158
 40
0.4557920900567158
 10
-114.8146583611482
 20
24.22922711419863
 30
0.0
 10
-114.6663363363809
 20
24.22520853285681
 30
0.0
 10
-114.5180999675996
 20
24.22064875938479
 30
0.0
 10
-114.3699486605946
 20
24.21555154812784
 30
0.0
  0
SPLINE
  5
5477
330
1F
100
AcDbEntity
  8
AM_0
100
AcDbSpline
210
0.0
220
0.0
230
1.0
 70
     8
 71
     3
 72
     9
 73
     5
 74
     0
 42
0.0000000001
 43
0.0000000001
 40
0.0
 40
0.0
 40
0.0
 40
0.0
 40
1.516617987072454
 40
3.248795674012696
 40
3.248795674012696
 40
3.248795674012696
 40
3.248795674012696
 10
-105.2203527677465
 20
22.01610689988632
 30
0.0
 10
-106.7337403646128
 20
21.69394210728658
 30
0.0
 10
-110.1858331558488
 20
20.2246436678278
 30
0.0
 10
-112.8962320609393
 20
23.10385003235864
 30
0.0
 10
-114.3699486605946
 20
24.15737880543536
 30
0.0
  0
SPLINE
  5
5478
330
1F
100
AcDbEntity
  8
AM_0
100
AcDbSpline
210
0.0
220
0.0
230
1.0
 70
     8
 71
     3
 72
     9
 73
     5
 74
     0
 42
0.0000000001
 43
0.0000000001
 40
0.0
 40
0.0
 40
0.0
 40
0.0
 40
1.501483287633145
 40
3.044501708991191
 40
3.044501708991191
 40
3.044501708991191
 40
3.044501708991191
 10
-105.2203527677465
 20
23.23193371072483
 30
0.0
 10
-106.7437938376028
 20
23.12739778567042
 30
0.0
 10
-109.844637499907
 20
22.67523127881409
 30
0.0
 10
-112.9159488709721
 20
23.57210703363973
 30
0.0
 10
-114.3699486605946
 20
24.21555154812784
 30
0.0
  0
SPLINE
  5
5479
330
1F
100
AcDbEntity
  8
AM_0
100
AcDbSpline
210
0.0
220
0.0
230
1.0
 70
     8
 71
     3
 72
     9
 73
     5
 74
     0
 42
0.0000000001
 43
0.0000000001
 40
0.0
 40
0.0
 40
0.0
 40
0.0
 40
1.618462504924987
 40
3.151185540897841
 40
3.151185540897841
 40
3.151185540897841
 40
3.151185540897841
 10
-89.20855995526242
 20
18.5881811247686
 30
0.0
 10
-90.6683304572069
 20
19.41787891618639
 30
0.0
 10
-93.65387450523476
 20
20.77806735155631
 30
0.0
 10
-96.82233267949435
 20
21.37668236644438
 30
0.0
 10
-98.35815584811051
 20
21.66426009351943
 30
0.0
  0
SPLINE
  5
547A
330
1F
100
AcDbEntity
  8
AM_0
100
AcDbSpline
210
0.0
220
0.0
230
1.0
 70
     8
 71
     3
 72
     9
 73
     5
 74
     0
 42
0.0000000001
 43
0.0000000001
 40
0.0
 40
0.0
 40
0.0
 40
0.0
 40
1.514634011951766
 40
3.318644422736972
 40
3.318644422736972
 40
3.318644422736972
 40
3.318644422736972
 10
-89.20855995526242
 20
15.60124423196219
 30
0.0
 10
-90.7439363115292
 20
15.72886151317321
 30
0.0
 10
-94.27520262484575
 20
15.76406887238958
 30
0.0
 10
-96.9234813776042
 20
18.39345760937437
 30
0.0
 10
-98.35815584811051
 20
19.64212040464366
 30
0.0
  0
LINE
  5
547B
330
1F
100
AcDbEntity
  8
AM_0
100
AcDbLine
 10
-120.0006999999981
 20
24.83393889200063
 30
0.0
 11
-120.0006999999982
 21
23.57142857143024
 31
0.0
  0
SPLINE
  5
547D
330
1F
100
AcDbEntity
  8
AM_0
100
AcDbSpline
210
0.0
220
0.0
230
1.0
 70
     8
 71
     3
 72
     8
 73
     4
 74
     0
 42
0.0000000001
 43
0.0000000001
 40
0.9752450858540601
 40
0.9752450858540601
 40
0.9752450858540601
 40
0.9752450858540601
 40
2.229997198220355
 40
2.229997198220355
 40
2.229997198220355
 40
2.229997198220355
 10
-119.9999999999981
 20
24.83393889200062
 30
0.0
 10
-118.1095188428539
 20
24.69313698326667
 30
0.0
 10
-116.2332756969971
 20
24.46491139099129
 30
0.0
 10
-114.3699486605946
 20
24.15737880543536
 30
0.0
  0
LINE
  5
547E
330
1F
100
AcDbEntity
  8
AM_0
100
AcDbLine
 10
-85.31503654998353
 20
-13.68809763815926
 30
0.0
 11
-85.31503654998353
 21
-8.976467063676468
 31
0.0
  0
SPLINE
  5
547F
330
1F
100
AcDbEntity
  8
AM_0
100
AcDbSpline
210
0.0
220
0.0
230
1.0
 70
     8
 71
     3
 72
     8
 73
     4
 74
     0
 42
0.0000000001
 43
0.0000000001
 40
9.170645305362121
 40
9.170645305362121
 40
9.170645305362121
 40
9.170645305362121
 40
10.79891126818747
 40
10.79891126818747
 40
10.79891126818747
 40
10.79891126818747
 10
-78.45283963034747
 20
-12.68393236980893
 30
0.0
 10
-80.74822608149927
 20
-11.49857712804924
 30
0.0
 10
-83.03470766236237
 20
-10.25695908511289
 30
0.0
 10
-85.3150365503164
 20
-8.976467063488886
 30
0.0
  0
SPLINE
  5
5480
330
1F
100
AcDbEntity
  8
AM_0
100
AcDbSpline
210
0.0
220
0.0
230
1.0
 70
     8
 71
     3
 72
     8
 73
     4
 74
     0
 42
0.0000000001
 43
0.0000000001
 40
1.999245295235591
 40
1.999245295235591
 40
1.999245295235591
 40
1.999245295235591
 40
2.130230809022907
 40
2.130230809022907
 40
2.130230809022907
 40
2.130230809022907
 10
-85.65315886714532
 20
-24.31894974053934
 30
0.0
 10
-85.45814268554261
 20
-24.28991964266915
 30
0.0
 10
-85.26326990768462
 20
-24.26000902269551
 30
0.0
 10
-85.06853902975606
 20
-24.22922711430319
 30
0.0
  0
SPLINE
  5
5481
330
1F
100
AcDbEntity
  8
AM_0
100
AcDbSpline
210
0.0
220
0.0
230
1.0
 70
     8
 71
     3
 72
     8
 73
     4
 74
     0
 42
0.0000000001
 43
0.0000000001
 40
7.307451768075528
 40
7.307451768075528
 40
7.307451768075528
 40
7.307451768075528
 40
8.927702162744216
 40
8.927702162744216
 40
8.927702162744216
 40
8.927702162744216
 10
-78.45283963034747
 20
-17.06593080945987
 30
0.0
 10
-80.75190720226244
 20
-16.01163349528229
 30
0.0
 10
-83.03835742817689
 20
-14.87986364357022
 30
0.0
 10
-85.31503654998353
 20
-13.68809763815926
 30
0.0
  0
SPLINE
  5
5482
330
1F
100
AcDbEntity
  8
0
100
AcDbSpline
210
0.0
220
0.0
230
1.0
 70
     8
 71
     3
 72
     8
 73
     4
 74
     0
 42
0.0000000001
 43
0.0000000001
 40
5.823759290313942
 40
5.823759290313942
 40
5.823759290313942
 40
5.823759290313942
 40
7.120260682552068
 40
7.120260682552068
 40
7.120260682552068
 40
7.120260682552068
 10
-78.46042280280835
 20
-17.08388310415041
 30
0.0
 10
-80.75990576527223
 20
-16.02993629235455
 30
0.0
 10
-83.04668603461715
 20
-14.89809074095681
 30
0.0
 10
-85.32362551063867
 20
-13.70589693195751
 30
0.0
  0
LINE
  5
5483
330
1F
100
AcDbEntity
  8
AM_0
100
AcDbLine
 10
-78.45283963034747
 20
-17.06593080945988
 30
0.0
 11
-78.45283963034747
 21
-12.68393236980893
 31
0.0
  0
LINE
  5
5484
330
1F
100
AcDbEntity
  8
AM_0
100
AcDbLine
 10
-94.80275475998922
 20
-24.99988840038045
 30
0.0
 11
-94.8027547600995
 21
-23.71606280603546
 31
0.0
  0
SPLINE
  5
5485
330
1F
100
AcDbEntity
  8
AM_0
100
AcDbSpline
210
0.0
220
0.0
230
1.0
 70
     8
 71
     3
 72
     8
 73
     4
 74
     0
 42
0.0000000001
 43
0.0000000001
 40
0.0
 40
0.0
 40
0.0
 40
0.0
 40
1.498423311644514
 40
1.498423311644514
 40
1.498423311644514
 40
1.498423311644514
 10
-94.80275475999338
 20
-23.71606280604909
 30
0.0
 10
-93.45347777283212
 20
-22.94324585557574
 30
0.0
 10
-91.81912394772504
 20
-22.12813589780881
 30
0.0
 10
-90.35273988503837
 20
-22.57910140705748
 30
0.0
  0
SPLINE
  5
5486
330
1F
100
AcDbEntity
  8
AM_0
100
AcDbSpline
210
0.0
220
0.0
230
1.0
 70
     8
 71
     3
 72
     9
 73
     5
 74
     0
 42
0.0000000001
 43
0.0000000001
 40
0.0
 40
0.0
 40
0.0
 40
0.0
 40
1.809327783561213
 40
3.396063755099695
 40
3.396063755099695
 40
3.396063755099695
 40
3.396063755099695
 10
-85.31503654998353
 20
-13.68809763815926
 30
0.0
 10
-86.50489568424406
 20
-12.15499809445248
 30
0.0
 10
-89.68260419935401
 20
-10.4125198826061
 30
0.0
 10
-92.85661484474386
 20
-8.730775791220702
 30
0.0
 10
-94.46463244283163
 20
-8.590792151075504
 30
0.0
  0
SPLINE
  5
5487
330
1F
100
AcDbEntity
  8
AM_0
100
AcDbSpline
210
0.0
220
0.0
230
1.0
 70
     8
 71
     3
 72
     9
 73
     5
 74
     0
 42
0.0000000001
 43
0.0000000001
 40
0.0
 40
0.0
 40
0.0
 40
0.0
 40
1.667714745337139
 40
3.256805083315271
 40
3.256805083315271
 40
3.256805083315271
 40
3.256805083315271
 10
-94.80275475999338
 20
-24.99988840038385
 30
0.0
 10
-93.38490881409596
 20
-23.98385378230035
 30
0.0
 10
-90.36143817322425
 20
-21.38286378915043
 30
0.0
 10
-87.10728023642683
 20
-23.5496972290523
 30
0.0
 10
-85.65315886714532
 20
-24.31894974053934
 30
0.0
  0
SPLINE
  5
5488
330
1F
100
AcDbEntity
  8
AM_0
100
AcDbSpline
210
0.0
220
0.0
230
1.0
 70
     8
 71
     3
 72
     9
 73
     5
 74
     0
 42
0.0000000001
 43
0.0000000001
 40
0.0
 40
0.0
 40
0.0
 40
0.0
 40
2.234089429072837
 40
3.734089429072837
 40
3.734089429072837
 40
3.734089429072837
 40
3.734089429072837
 10
-85.31503654998353
 20
-8.976467063676469
 30
0.0
 10
-86.9258531630961
 20
-7.226483126350042
 30
0.0
 10
-88.58786975235487
 20
-2.4553465989249
 30
0.0
 10
-92.97430557275331
 20
-3.104606410480486
 30
0.0
 10
-94.46463244283163
 20
-3.457655217821924
 30
0.0
  0
LINE
  5
5489
330
1F
100
AcDbEntity
  8
AM_0
100
AcDbLine
 10
-94.46463244283163
 20
-8.590792151075506
 30
0.0
 11
-94.46463244283163
 21
-3.655836656952773
 31
0.0
  0
LINE
  5
548A
330
1F
100
AcDbEntity
  8
AM_0
100
AcDbLine
 10
-101.3268293624676
 20
-4.466141862614508
 30
0.0
 11
-101.3268293624676
 21
0.4703966285257468
 31
0.0
  0
LINE
  5
548B
330
1F
100
AcDbEntity
  8
AM_0
100
AcDbLine
 10
-101.3268293624676
 20
-4.437077349486404
 30
0.0
 11
-101.3268293624676
 21
0.4703966285257458
 31
0.0
  0
SPLINE
  5
548C
330
1F
100
AcDbEntity
  8
AM_0
100
AcDbSpline
210
0.0
220
0.0
230
1.0
 70
     8
 71
     3
 72
     8
 73
     4
 74
     0
 42
0.0000000001
 43
0.0000000001
 40
13.73199344169106
 40
13.73199344169106
 40
13.73199344169106
 40
13.73199344169106
 40
14.43901837670146
 40
14.43901837670146
 40
14.43901837670146
 40
14.43901837670146
 10
-101.3268293624676
 20
0.4703966285257458
 30
0.0
 10
-100.3424132266639
 20
-0.1219305395891892
 30
0.0
 10
-99.35822241337026
 20
-0.715681341641189
 30
0.0
 10
-98.37403160007653
 20
-1.309432143692051
 30
0.0
  0
LINE
  5
548D
330
1F
100
AcDbEntity
  8
AM_0
100
AcDbLine
 10
-110.4764252553157
 20
1.25172501576179
 30
0.0
 11
-110.4764252553157
 21
5.884808327381902
 31
0.0
  0
SPLINE
  5
548E
330
1F
100
AcDbEntity
  8
AM_0
100
AcDbSpline
210
0.0
220
0.0
230
1.0
 70
     8
 71
     3
 72
     9
 73
     5
 74
     0
 42
0.0000000001
 43
0.0000000001
 40
0.0
 40
0.0
 40
0.0
 40
0.0
 40
2.134718602092789
 40
3.638419521675699
 40
3.638419521675699
 40
3.638419521675699
 40
3.638419521675699
 10
-101.3268293624676
 20
0.4703966285257458
 30
0.0
 10
-102.4785798878738
 20
2.480714806599442
 30
0.0
 10
-104.913521515549
 20
6.075280257188761
 30
0.0
 10
-108.9921325870488
 20
6.284569002984691
 30
0.0
 10
-110.4764252553157
 20
5.884808327381902
 30
0.0
  0
LINE
  5
548F
330
1F
100
AcDbEntity
  8
AM_0
100
AcDbLine
 10
-101.6649516796294
 20
-24.59166673425501
 30
0.0
 11
-101.6649516796294
 21
-22.46294375696551
 31
0.0
  0
LINE
  5
5490
330
1F
100
AcDbEntity
  8
AM_0
100
AcDbLine
 10
-110.8932772458153
 20
-23.44352362229564
 30
0.0
 11
-110.8932772458153
 21
-20.3252387487968
 31
0.0
  0
SPLINE
  5
5491
330
1F
100
AcDbEntity
  8
0
100
AcDbSpline
210
0.0
220
0.0
230
1.0
 70
     8
 71
     3
 72
     8
 73
     4
 74
     0
 42
0.0000000001
 43
0.0000000001
 40
0.0
 40
0.0
 40
0.0
 40
0.0
 40
1.208398095880623
 40
1.208398095880623
 40
1.208398095880623
 40
1.208398095880623
 10
-103.9246656194401
 20
-24.98055979197888
 30
0.0
 10
-106.2280727558975
 20
-24.98055979197888
 30
0.0
 10
-108.5092773777452
 20
-24.84440379042117
 30
0.0
 10
-110.770596695858
 20
-24.58630198705275
 30
0.0
  0
SPLINE
  5
5492
330
1F
100
AcDbEntity
  8
AM_0
100
AcDbSpline
210
0.0
220
0.0
230
1.0
 70
     8
 71
     3
 72
     9
 73
     5
 74
     0
 42
0.0000000001
 43
0.0000000001
 40
0.0
 40
0.0
 40
0.0
 40
0.0
 40
1.853196961853059
 40
3.381663674709893
 40
3.381663674709893
 40
3.381663674709893
 40
3.381663674709893
 10
-101.6649516796294
 20
-22.40686147456871
 30
0.0
 10
-102.9851781030957
 20
-20.93789389555677
 30
0.0
 10
-105.7072287708801
 20
-17.60430990596531
 30
0.0
 10
-109.3320908189878
 20
-19.24906074185427
 30
0.0
 10
-110.8932772458242
 20
-20.32523874879248
 30
0.0
  0
SPLINE
  5
5493
330
1F
100
AcDbEntity
  8
AM_0
100
AcDbSpline
210
0.0
220
0.0
230
1.0
 70
     8
 71
     3
 72
     9
 73
     5
 74
     0
 42
0.0000000001
 43
0.0000000001
 40
0.0
 40
0.0
 40
0.0
 40
0.0
 40
1.712940807075481
 40
3.245153285734257
 40
3.245153285734257
 40
3.245153285734257
 40
3.245153285734257
 10
-101.6649516796294
 20
-24.59166673425501
 30
0.0
 10
-103.197204755002
 20
-23.68727952261258
 30
0.0
 10
-105.8797726875879
 20
-20.68782807794375
 30
0.0
 10
-109.3181335205501
 20
-22.40351809141907
 30
0.0
 10
-110.8952267367692
 20
-23.45181089289122
 30
0.0
  0
SPLINE
  5
5494
330
1F
100
AcDbEntity
  8
AM_0
100
AcDbSpline
210
0.0
220
0.0
230
1.0
 70
     8
 71
     3
 72
     8
 73
     4
 74
     0
 42
0.0000000001
 43
0.0000000001
 40
11.10916553453163
 40
11.10916553453163
 40
11.10916553453163
 40
11.10916553453163
 40
13.42219740580175
 40
13.42219740580175
 40
13.42219740580175
 40
13.42219740580175
 10
-94.46463244283163
 20
-8.590792150818572
 30
0.0
 10
-97.68457109331244
 20
-6.704048547510923
 30
0.0
 10
-100.8924062125315
 20
-4.742987311960236
 30
0.0
 10
-104.0964185614751
 20
-2.758453650927151
 30
0.0
  0
SPLINE
  5
5495
330
1F
100
AcDbEntity
  8
0
100
AcDbSpline
210
0.0
220
0.0
230
1.0
 70
     8
 71
     3
 72
     8
 73
     4
 74
     0
 42
0.0000000001
 43
0.0000000001
 40
8.865611173425079
 40
8.865611173425079
 40
8.865611173425079
 40
8.865611173425079
 40
10.49949233464396
 40
10.49949233464396
 40
10.49949233464396
 40
10.49949233464396
 10
-94.47275492064502
 20
-8.605820007319707
 30
0.0
 10
-97.3153529967395
 20
-6.938709098049181
 30
0.0
 10
-100.1484409916058
 20
-5.213278009407837
 30
0.0
 10
-102.9777468241041
 20
-3.464652966643427
 30
0.0
  0
SPLINE
  5
5496
330
1F
100
AcDbEntity
  8
AM_0
100
AcDbSpline
210
0.0
220
0.0
230
1.0
 70
     8
 71
     3
 72
     8
 73
     4
 74
     0
 42
0.0000000001
 43
0.0000000001
 40
12.98298737538389
 40
12.98298737538389
 40
12.98298737538389
 40
12.98298737538389
 40
14.43901837670148
 40
14.43901837670148
 40
14.43901837670148
 40
14.43901837670148
 10
-94.4646324426964
 20
-3.655836657033489
 30
0.0
 10
-96.49342046455004
 20
-2.445513678676947
 30
0.0
 10
-98.5202405445888
 20
-1.222756839370561
 30
0.0
 10
-101.3268293624676
 20
0.4703966285257468
 30
0.0
  0
SPLINE
  5
5497
330
1F
100
AcDbEntity
  8
AM_0
100
AcDbSpline
210
0.0
220
0.0
230
1.0
 70
     8
 71
     3
 72
     8
 73
     4
 74
     0
 42
0.0000000001
 43
0.0000000001
 40
1.788970302442027
 40
1.788970302442027
 40
1.788970302442027
 40
1.788970302442027
 40
3.332324051699147
 40
3.332324051699147
 40
3.332324051699147
 40
3.332324051699147
 10
-94.80275475999338
 20
-23.71606280604909
 30
0.0
 10
-97.10858233940086
 20
-23.41479217890482
 30
0.0
 10
-99.39520008860434
 20
-22.99214989532802
 30
0.0
 10
-101.6649516796024
 20
-22.46294375682909
 30
0.0
  0
LINE
  5
5499
330
1F
100
AcDbEntity
  8
AM_0
100
AcDbLine
 10
-119.999486576117
 20
-10.91496201124569
 30
0.0
 11
-119.999486576117
 21
-20.55215301344762
 31
0.0
  0
SPLINE
  5
549A
330
1F
100
AcDbEntity
  8
AM_0
100
AcDbSpline
210
0.0
220
0.0
230
1.0
 70
     8
 71
     3
 72
     8
 73
     4
 74
     0
 42
0.0000000001
 43
0.0000000001
 40
14.63442022524549
 40
14.63442022524549
 40
14.63442022524549
 40
14.63442022524549
 40
14.63460035648665
 40
14.63460035648665
 40
14.63460035648665
 40
14.63460035648665
 10
-119.9994865761087
 20
-16.87421671409681
 30
0.0
 10
-119.9996577174729
 20
-16.87413017246874
 30
0.0
 10
-119.9998288587694
 20
-16.87404363058057
 30
0.0
 10
-119.9999999999981
 20
-16.87395708843231
 30
0.0
  0
SPLINE
  5
549B
330
1F
100
AcDbEntity
  8
AM_0
100
AcDbSpline
210
0.0
220
0.0
230
1.0
 70
     8
 71
     3
 72
     8
 73
     4
 74
     0
 42
0.0000000001
 43
0.0000000001
 40
11.84940637128532
 40
11.84940637128532
 40
11.84940637128532
 40
11.84940637128532
 40
14.48999654934396
 40
14.48999654934396
 40
14.48999654934396
 40
14.48999654934396
 10
-119.9999999999981
 20
7.033181221941176
 30
0.0
 10
-113.6705701497073
 20
3.246452616297742
 30
0.0
 10
-110.0148386266205
 20
0.9685102363034133
 30
0.0
 10
-104.0964185614751
 20
-2.758453650927152
 30
0.0
  0
SPLINE
  5
549C
330
1F
100
AcDbEntity
  8
AM_0
100
AcDbSpline
210
0.0
220
0.0
230
1.0
 70
     8
 71
     3
 72
     8
 73
     4
 74
     0
 42
0.0000000001
 43
0.0000000001
 40
0.7351421388597526
 40
0.7351421388597526
 40
0.7351421388597526
 40
0.7351421388597526
 40
1.539536607901005
 40
1.539536607901005
 40
1.539536607901005
 40
1.539536607901005
 10
-104.7476096858558
 20
-22.42242487568412
 30
0.0
 10
-108.9843096287366
 20
-23.60513551211613
 30
0.0
 10
-113.9741076779486
 20
-24.32918238412002
 30
0.0
 10
-120.0000080131082
 20
-23.74957338277658
 30
0.0
  0
SPLINE
  5
549D
330
1F
100
AcDbEntity
  8
AM_0
100
AcDbSpline
210
0.0
220
0.0
230
1.0
 70
     8
 71
     3
 72
     8
 73
     4
 74
     0
 42
0.0000000001
 43
0.0000000001
 40
5.425905956994038
 40
5.425905956994038
 40
5.425905956994038
 40
5.425905956994038
 40
7.019702002723574
 40
7.019702002723574
 40
7.019702002723574
 40
7.019702002723574
 10
-110.8932772458153
 20
-20.32523874879565
 30
0.0
 10
-113.1944120935643
 20
-19.50831512471418
 30
0.0
 10
-115.4809507124071
 20
-18.59916952568405
 30
0.0
 10
-119.999486576117
 20
-16.78164988997675
 30
0.0
  0
SPLINE
  5
549E
330
1F
100
AcDbEntity
  8
0
100
AcDbSpline
210
0.0
220
0.0
230
1.0
 70
     8
 71
     3
 72
     8
 73
     4
 74
     0
 42
0.0000000001
 43
0.0000000001
 40
2.857363517439195
 40
2.857363517439195
 40
2.857363517439195
 40
2.857363517439195
 40
4.11726153057047
 40
4.11726153057047
 40
4.11726153057047
 40
4.11726153057047
 10
-110.8952267367692
 20
-23.45181089289122
 30
0.0
 10
-113.2008350874391
 20
-22.86330234523996
 30
0.0
 10
-115.4882643618971
 20
-22.16331136541636
 30
0.0
 10
-119.999486576117
 20
-20.55215301344762
 30
0.0
  0
SPLINE
  5
549F
330
1F
100
AcDbEntity
  8
AM_0
100
AcDbSpline
210
0.0
220
0.0
230
1.0
 70
     8
 71
     3
 72
     8
 73
     4
 74
     0
 42
0.0000000001
 43
0.0000000001
 40
9.911909440357588
 40
9.911909440357588
 40
9.911909440357588
 40
9.911909440357588
 40
11.54467281373877
 40
11.54467281373877
 40
11.54467281373877
 40
11.54467281373877
 10
-119.9999999999981
 20
11.06526494038033
 30
0.0
 10
-119.9999999999981
 20
11.789469182349
 30
0.0
 10
-112.7579799817213
 20
7.200887071670135
 30
0.0
 10
-110.4764252553157
 20
5.884808327381902
 30
0.0
  0
SPLINE
  5
54A0
330
1F
100
AcDbEntity
  8
AM_0
100
AcDbSpline
210
0.0
220
0.0
230
1.0
 70
     8
 71
     3
 72
     8
 73
     4
 74
     0
 42
0.0000000001
 43
0.0000000001
 40
8.034594408064972
 40
8.034594408064972
 40
8.034594408064972
 40
8.034594408064972
 40
9.661611892530016
 40
9.661611892530016
 40
9.661611892530016
 40
9.661611892530016
 10
-89.20855995526242
 20
15.60124423195992
 30
0.0
 10
-86.9106867463342
 20
14.47625082691109
 30
0.0
 10
-84.624248457666
 20
13.28104516889374
 30
0.0
 10
-82.34636303562846
 20
12.03332353161903
 30
0.0
  0
LINE
  5
54A1
330
1F
100
AcDbEntity
  8
AM_0
100
AcDbLine
 10
-82.34636303562636
 20
12.03332353162244
 30
0.0
 11
-82.34636303562636
 21
15.64174208633579
 31
0.0
  0
LINE
  5
54A2
330
1F
100
AcDbEntity
  8
AM_0
100
AcDbLine
 10
-119.9999999999981
 20
15.09734865881948
 30
0.0
 11
-119.9999999999981
 21
7.033181221941175
 31
0.0
  0
SPLINE
  5
54A3
330
1F
100
AcDbEntity
  8
AM_0
100
AcDbSpline
210
0.0
220
0.0
230
1.0
 70
     8
 71
     3
 72
     8
 73
     4
 74
     0
 42
0.0000000001
 43
0.0000000001
 40
8.354893856280106
 40
8.354893856280106
 40
8.354893856280106
 40
8.354893856280106
 40
14.36247867694493
 40
14.36247867694493
 40
14.36247867694493
 40
14.36247867694493
 10
-119.9999999999981
 20
15.27024533927604
 30
0.0
 10
-108.2155956896386
 20
9.656999371442392
 30
0.0
 10
-99.78395838871406
 20
4.828499685689107
 30
0.0
 10
-91.35232108778911
 20
-0.0000000000641768
 30
0.0
  0
LINE
  5
54A4
330
1F
100
AcDbEntity
  8
AM_11
100
AcDbLine
 10
-119.9999999999981
 20
-25.00000000003922
 30
0.0
 11
-119.9999999999981
 21
24.99999999996072
 31
0.0
  0
SPLINE
  5
54A5
330
1F
100
AcDbEntity
  8
AM_0
100
AcDbSpline
210
0.0
220
0.0
230
1.0
 70
     8
 71
     3
 72
     9
 73
     5
 74
     0
 42
0.0000000001
 43
0.0000000001
 40
0.0
 40
0.0
 40
0.0
 40
0.0
 40
1.609341566343276
 40
3.411820827695224
 40
3.411820827695224
 40
3.411820827695224
 40
3.411820827695224
 10
-73.1967671427783
 20
6.758177271409011
 30
0.0
 10
-74.73973090806794
 20
7.352862349772613
 30
0.0
 10
-78.03318440060941
 20
8.570373046105633
 30
0.0
 10
-80.98873569946729
 20
10.68820989759031
 30
0.0
 10
-82.34636303561389
 20
12.03332353161107
 30
0.0
  0
SPLINE
  5
54A6
330
1F
100
AcDbEntity
  8
AM_0
100
AcDbSpline
210
0.0
220
0.0
230
1.0
 70
     8
 71
     3
 72
     9
 73
     5
 74
     0
 42
0.0000000001
 43
0.0000000001
 40
0.0
 40
0.0
 40
0.0
 40
0.0
 40
1.891503755460323
 40
3.409143341102712
 40
3.409143341102712
 40
3.409143341102712
 40
3.409143341102712
 10
-73.1967671427783
 20
11.03170124547836
 30
0.0
 10
-74.68592778294738
 20
12.36137665897227
 30
0.0
 10
-77.1177748549602
 20
15.32912532031132
 30
0.0
 10
-80.80710122084544
 20
15.75692628569275
 30
0.0
 10
-82.34636303562636
 20
15.64174208633579
 30
0.0
  0
LINE
  5
54A7
330
1F
100
AcDbEntity
  8
AM_11
100
AcDbLine
 10
-119.9999999999981
 20
24.99999999996072
 30
0.0
 11
-0.0000000000047935
 21
24.99999999996072
 31
0.0
  0
SPLINE
  5
54A8
330
1F
100
AcDbEntity
  8
AM_0
100
AcDbSpline
210
0.0
220
0.0
230
1.0
 70
     8
 71
     3
 72
     8
 73
     4
 74
     0
 42
0.0000000001
 43
0.0000000001
 40
1.666991338825053
 40
1.666991338825053
 40
1.666991338825053
 40
1.666991338825053
 40
3.21070440243455
 40
3.21070440243455
 40
3.21070440243455
 40
3.21070440243455
 10
-73.12755920381587
 20
24.9782010366136
 30
0.0
 10
-75.43458551339002
 20
24.68941610919904
 30
0.0
 10
-77.7211639388097
 20
24.27507787822896
 30
0.0
 10
-79.98975612346026
 20
23.7503012307099
 30
0.0
  0
SPLINE
  5
54A9
330
1F
100
AcDbEntity
  8
AM_0
100
AcDbSpline
210
0.0
220
0.0
230
1.0
 70
     8
 71
     3
 72
     8
 73
     4
 74
     0
 42
0.0000000001
 43
0.0000000001
 40
1.301885614107523
 40
1.301885614107523
 40
1.301885614107523
 40
1.301885614107523
 40
14.36247867694493
 40
14.36247867694493
 40
14.36247867694493
 40
14.36247867694493
 10
-101.3405175153647
 20
22.81127576751901
 30
0.0
 10
-81.69848699640104
 20
20.99448326804459
 30
0.0
 10
-63.3679620137136
 20
10.49724163397923
 30
0.0
 10
-45.03743703102425
 20
-0.0000000000861365
 30
0.0
  0
SPLINE
  5
54AA
330
1F
100
AcDbEntity
  8
AM_0
100
AcDbSpline
210
0.0
220
0.0
230
1.0
 70
     8
 71
     3
 72
     9
 73
     5
 74
     0
 42
0.0000000001
 43
0.0000000001
 40
0.0
 40
0.0
 40
0.0
 40
0.0
 40
2.127517369033063
 40
3.640030134837918
 40
3.640030134837918
 40
3.640030134837918
 40
3.640030134837918
 10
-69.30324373749941
 20
-17.06593080945078
 30
0.0
 10
-70.46101850914398
 20
-15.06921688233554
 30
0.0
 10
-72.92822040857789
 20
-10.77281136791139
 30
0.0
 10
-76.95558139156175
 20
-12.30125235800585
 30
0.0
 10
-78.45283963044733
 20
-12.68393236975777
 30
0.0
  0
SPLINE
  5
54AB
330
1F
100
AcDbEntity
  8
AM_0
100
AcDbSpline
210
0.0
220
0.0
230
1.0
 70
     8
 71
     3
 72
     9
 73
     5
 74
     0
 42
0.0000000001
 43
0.0000000001
 40
0.0
 40
0.0
 40
0.0
 40
0.0
 40
1.794998547112939
 40
3.300637214108833
 40
3.300637214108833
 40
3.300637214108833
 40
3.300637214108833
 10
-69.30324373749941
 20
-20.78624526337018
 30
0.0
 10
-70.77062007525769
 20
-19.60060052447865
 30
0.0
 10
-73.354869668653
 20
-17.03760989937714
 30
0.0
 10
-76.9420303352707
 20
-16.79734487731467
 30
0.0
 10
-78.45283963036827
 20
-17.06593080945078
 30
0.0
  0
SPLINE
  5
54AC
330
1F
100
AcDbEntity
  8
AM_0
100
AcDbSpline
210
0.0
220
0.0
230
1.0
 70
     8
 71
     3
 72
     8
 73
     4
 74
     0
 42
0.0000000001
 43
0.0000000001
 40
0.2298684927509915
 40
0.2298684927509915
 40
0.2298684927509915
 40
0.2298684927509915
 40
2.764560748519282
 40
2.764560748519282
 40
2.764560748519282
 40
2.764560748519282
 10
-85.65315886714532
 20
-24.24224767942009
 30
0.0
 10
-81.79856536917574
 20
-24.17501263667023
 30
0.0
 10
-78.00217133170564
 20
-23.74006143769237
 30
0.0
 10
-74.25359487242591
 20
-23.00298894925562
 30
0.0
  0
SPLINE
  5
54AD
330
1F
100
AcDbEntity
  8
AM_0
100
AcDbSpline
210
0.0
220
0.0
230
1.0
 70
     8
 71
     3
 72
     8
 73
     4
 74
     0
 42
0.0000000001
 43
0.0000000001
 40
0.0
 40
0.0
 40
0.0
 40
0.0
 40
21.54371801541793
 40
21.54371801541793
 40
21.54371801541793
 40
21.54371801541793
 10
-29.1350690164206
 20
-23.0872225190779
 30
0.0
 10
-51.03688166870334
 20
-23.08722251907789
 30
0.0
 10
-71.19460137824622
 20
-11.54361125957103
 30
0.0
 10
-91.35232108778907
 20
-0.000000000064177
 30
0.0
  0
SPLINE
  5
54AE
330
1F
100
AcDbEntity
  8
AM_0
100
AcDbSpline
210
0.0
220
0.0
230
1.0
 70
     8
 71
     3
 72
     8
 73
     4
 74
     0
 42
0.0000000001
 43
0.0000000001
 40
0.0
 40
0.0
 40
0.0
 40
0.0
 40
14.63460035647584
 40
14.63460035647584
 40
14.63460035647584
 40
14.63460035647584
 10
-75.99858814345356
 20
-23.02985034600885
 30
0.0
 10
-91.74438445672487
 20
-23.06882313723491
 30
0.0
 10
-106.0957851038559
 20
-17.75457423868213
 30
0.0
 10
-119.9999999999673
 20
-10.72353539316601
 30
0.0
  0
LINE
  5
54AF
330
1F
100
AcDbEntity
  8
AM_11
100
AcDbLine
 10
-119.9999999999981
 20
-25.00000000003922
 30
0.0
 11
0.0000000000010045
 21
-25.00000000003928
 31
0.0
  0
DIMENSION
  5
54B0
330
1F
100
AcDbEntity
  8
AM_5
100
AcDbDimension
  2
*D11
 10
-0.0000831522873323
 20
-42.81996447776827
 30
0.0
 11
-60.00004157614273
 21
-39.71996447776827
 31
0.0
 70
    32
  1
<>
  3
AM_JIS
100
AcDbAlignedDimension
 13
-119.9999999999981
 23
-25.00000000003922
 33
0.0
 14
-0.0000831522873312
 24
-25.00000000003928
 34
0.0
 50
0.0000000000000127
100
AcDbRotatedDimension
1001
GENIUS_GENDTOL_13
1000

1000
h7
1000

1040
0.0
  0
ARC
  5
54ED
330
1F
100
AcDbEntity
  8
AM_0
100
AcDbCircle
 10
-136.1339745962176
 20
16.49999999996199
 30
0.0
 40
1.0
100
AcDbArc
 50
210.0000000000021
 51
270.0
  0
LINE
  5
54EE
330
1F
100
AcDbEntity
  8
AM_0
100
AcDbLine
 10
-136.1339745962176
 20
-15.500000000038
 30
0.0
 11
-124.9820952190732
 21
-15.50000000003801
 31
0.0
1001
GENIUS_GENODEF_13
1002
{
1000
HIER
1070
     0
1002
}
1002
{
1000
MANEDIT
1070
     0
1002
}
1002
{
1000
NOSEL
1070
     0
1002
}
1002
{
1000
BEHIND
1070
     0
1002
}
1002
{
1000
REACTOR
1002
}
1001
GENIUS_GENOBJ-N-CEN_13
1002
{
1000
OWNER
1000
GEN
1002
}
  0
ARC
  5
54F0
330
1F
100
AcDbEntity
  8
AM_0
100
AcDbCircle
 10
-124.9820952190732
 20
-20.50000000003804
 30
0.0
 40
5.0
100
AcDbArc
 50
4.780191847578555
 51
90.0
  0
SPLINE
  5
54F1
330
1F
100
AcDbEntity
  8
AM_0
100
AcDbSpline
210
0.0
220
0.0
230
1.0
 70
     8
 71
     3
 72
     8
 73
     4
 74
     0
 42
0.0000000001
 43
0.0000000001
 40
1.788970302442027
 40
1.788970302442027
 40
1.788970302442027
 40
1.788970302442027
 40
3.332324051699147
 40
3.332324051699147
 40
3.332324051699147
 40
3.332324051699147
 10
-94.80275475999338
 20
-25.00000000003923
 30
0.0
 10
-97.1078011646648
 20
-25.00000000003923
 30
0.0
 10
-99.38037568678662
 20
-24.93344290480293
 30
0.0
 10
-101.6649516796024
 20
-24.59166673411859
 30
0.0
  0
LINE
  5
552C
330
1F
100
AcDbEntity
  8
AM_0
100
AcDbLine
 10
-119.9999999999981
 20
24.83393889200062
 30
0.0
 11
-119.9999999999981
 21
-23.74957415352793
 31
0.0
  0
ARC
  5
555D
330
1F
100
AcDbEntity
  8
AM_0
100
AcDbCircle
 10
-124.9820952190732
 20
20.49999999996205
 30
0.0
 40
5.0
100
AcDbArc
 50
270.0
 51
355.2198081524214
  0
LINE
  5
555E
330
1F
100
AcDbEntity
  8
AM_0
100
AcDbLine
 10
-136.1339745962176
 20
15.49999999992279
 30
0.0
 11
-124.9820952190731
 21
15.4999999999228
 31
0.0
1001
GENIUS_GENODEF_13
1002
{
1000
HIER
1070
     0
1002
}
1002
{
1000
MANEDIT
1070
     0
1002
}
1002
{
1000
NOSEL
1070
     0
1002
}
1002
{
1000
BEHIND
1070
     0
1002
}
1002
{
1000
REACTOR
1002
}
1001
GENIUS_GENOBJ-N-CEN_13
1002
{
1000
OWNER
1000
GEN
1002
}
  0
LINE
  5
555F
330
1F
100
AcDbEntity
  8
AM_0
100
AcDbLine
 10
-136.1339745962176
 20
15.49999999996205
 30
0.0
 11
-124.9820952190731
 21
15.49999999996205
 31
0.0
1001
GENIUS_GENODEF_13
1002
{
1000
HIER
1070
     0
1002
}
1002
{
1000
MANEDIT
1070
     0
1002
}
1002
{
1000
NOSEL
1070
     0
1002
}
1002
{
1000
BEHIND
1070
     0
1002
}
1002
{
1000
REACTOR
1002
}
1001
GENIUS_GENOBJ-N-CEN_13
1002
{
1000
OWNER
1000
GEN
1002
}
  0
LINE
  5
5560
330
1F
100
AcDbEntity
  8
AM_0
100
AcDbLine
 10
-136.1339745962176
 20
15.49999999996202
 30
0.0
 11
-124.9820952190732
 21
15.49999999996202
 31
0.0
1001
GENIUS_GENODEF_13
1002
{
1000
HIER
1070
     0
1002
}
1002
{
1000
MANEDIT
1070
     0
1002
}
1002
{
1000
NOSEL
1070
     0
1002
}
1002
{
1000
BEHIND
1070
     0
1002
}
1002
{
1000
REACTOR
1002
}
1001
GENIUS_GENOBJ-N-CEN_13
1002
{
1000
OWNER
1000
GEN
1002
}
  0
VIEWPORT
  5
110
330
101
100
AcDbEntity
 67
     1
  8
0
100
AcDbViewport
 10
420.5
 20
297.0
 30
0.0
 40
948.9782706766916
 41
628.452
 68
     1
 69
     1
1001
ACAD
1000
MVIEW
1002
{
1070
    16
1010
0.0
1020
0.0
1030
0.0
1010
0.0
1020
0.0
1030
1.0
1040
0.0
1040
628.452
1040
420.5
1040
297.0
1040
50.0
1040
0.0
1040
0.0
1070
     0
1070
   100
1070
     1
1070
     1
1070
     0
1070
     0
1070
     0
1070
     0
1040
0.0
1040
0.0
1040
0.0
1040
10.0
1040
10.0
1040
10.0
1040
10.0
1070
     0
1002
{
1002
}
1002
}
  0
ENDSEC
  0
SECTION
  2
OBJECTS
  0
DICTIONARY
  5
C
330
0
100
AcDbDictionary
  3
ACAD_GROUP
350
D
  3
ACAD_LAYOUT
350
1A
  3
ACAD_MLINESTYLE
350
17
  3
ACAD_PLOTSETTINGS
350
19
  3
ACAD_PLOTSTYLENAME
350
E
  3
ACDBVARIABLEDICTIONARY
350
34
  3
ACMDICTIONARY
350
43
  3
AMG
350
2B
  3
AMGSNAPSETTINGS
350
6E
  3
DWGPROPS
350
55EA
  3
ACDBHEADERROUNDTRIPXREC
350
55F7
  0
DICTIONARY
  5
74
330
1F
100
AcDbDictionary
280
     1
  3
ACAD_INDEX
360
55EC
  3
ACAD_LAYOUTSELFREF
360
561A
  0
DICTIONARY
  5
561F
330
101
100
AcDbDictionary
280
     1
  3
ACAD_LAYOUTSELFREF
360
5620
  0
DICTIONARY
  5
D
102
{ACAD_REACTORS
330
C
102
}
330
C
100
AcDbDictionary
  0
DICTIONARY
  5
1A
102
{ACAD_REACTORS
330
C
102
}
330
C
100
AcDbDictionary
  0
DICTIONARY
  5
17
102
{ACAD_REACTORS
330
C
102
}
330
C
100
AcDbDictionary
  3
STANDARD
350
18
  0
DICTIONARY
  5
19
102
{ACAD_REACTORS
330
C
102
}
330
C
100
AcDbDictionary
  0
ACDBDICTIONARYWDFLT
  5
E
102
{ACAD_REACTORS
330
C
102
}
330
C
100
AcDbDictionary
281
     1
  3
Normal
350
F
100
AcDbDictionaryWithDefault
340
F
  0
DICTIONARY
  5
34
102
{ACAD_REACTORS
330
C
102
}
330
C
100
AcDbDictionary
  3
INDEXCTL
350
35
  3
SORTENTS
350
B5E
  0
DICTIONARY
  5
43
102
{ACAD_REACTORS
330
C
102
}
330
C
100
AcDbDictionary
  3
ACMSTDDICTIONARY
350
260
  0
DICTIONARY
  5
2B
102
{ACAD_REACTORS
330
C
102
}
330
C
100
AcDbDictionary
  3
ACMGSETTINGS
350
2C
  0
DICTIONARY
  5
6E
102
{ACAD_REACTORS
330
C
102
}
330
C
100
AcDbDictionary
  0
XRECORD
  5
55EA
102
{ACAD_REACTORS
330
C
102
}
330
C
100
AcDbXrecord
  1
DWGPROPS COOKIE
  2

  3

  4

  6

  7

  8

  9

300
AmdtFileType=82
301
=
302
=
303
=
304
=
305
=
306
=
307
=
308
=
309
=
 40
0.8641681944444444
 41
2452838.620506898
 42
2452901.462127361
  1

 90
        1
  0
DICTIONARY
  5
55F7
102
{ACAD_REACTORS
330
C
102
}
330
C
100
AcDbDictionary
  3
TSTACKALIGN
350
55F8
  3
TSTACKSIZE
350
55F9
  3
HYPERLINKBASE
350
55FA
  3
STYLESHEET
350
55FB
  3
LAYOUTDICT
350
55FC
  3
PLOTSETDICT
350
55FD
  3
PLOTSTYLNAMDICT
350
55FE
  3
LWETCUNION
350
55FF
  3
INSUNITS
350
5600
  3
CEPSNTYPE
350
5601
  3
FINGERPRINTGUID
350
5602
  3
VERSIONGUID
350
5603
  3
PSVPSCALE
350
5604
  3
DIMSTYLEDATA
350
5605
  3
PUCSORTHOREF
350
5606
  3
PUCSORTHOVIEW
350
5607
  3
PUCSBASE
350
5608
  3
PUCSORGTOP
350
5609
  3
PUCSORGBOTTOM
350
560A
  3
PUCSORGLEFT
350
560B
  3
PUCSORGRIGHT
350
560C
  3
PUCSORGFRONT
350
560D
  3
PUCSORGBACK
350
560E
  3
UCSORTHOREF
350
560F
  3
UCSORTHOVIEW
350
5610
  3
UCSBASE
350
5611
  3
UCSORGTOP
350
5612
  3
UCSORGBOTTOM
350
5613
  3
UCSORGLEFT
350
5614
  3
UCSORGRIGHT
350
5615
  3
UCSORGFRONT
350
5616
  3
UCSORGBACK
350
5617
  0
DICTIONARY
  5
55EC
102
{ACAD_REACTORS
330
74
102
}
330
74
100
AcDbDictionary
  3
*A1
350
55ED
  0
XRECORD
  5
561A
102
{ACAD_REACTORS
330
74
102
}
330
74
100
AcDbXrecord
340
1F
  0
XRECORD
  5
5620
102
{ACAD_REACTORS
330
561F
102
}
330
561F
100
AcDbXrecord
340
101
  0
MLINESTYLE
  5
18
102
{ACAD_REACTORS
330
17
102
}
330
17
100
AcDbMlineStyle
  2
STANDARD
 70
     0
  3

 62
   256
 51
90.0
 52
90.0
 71
     2
 49
0.5
 62
   256
  6
BYLAYER
 49
-0.5
 62
   256
  6
BYLAYER
  0
ACDBPLACEHOLDER
  5
F
102
{ACAD_REACTORS
330
E
102
}
330
E
100
AcDbPlaceHolder
280
     0
  0
DICTIONARYVAR
  5
35
102
{ACAD_REACTORS
330
34
102
}
330
34
100
DictionaryVariables
280
     0
  1
1
  0
DICTIONARYVAR
  5
B5E
102
{ACAD_REACTORS
330
34
102
}
330
34
100
DictionaryVariables
280
     0
  1
96
  0
DICTIONARY
  5
260
102
{ACAD_REACTORS
330
43
102
}
330
43
100
AcDbDictionary
  0
DICTIONARY
  5
2C
102
{ACAD_REACTORS
330
2B
102
}
330
2B
100
AcDbDictionary
  3
DWGSETTINGS
350
2D
  0
XRECORD
  5
55F8
102
{ACAD_REACTORS
330
55F7
102
}
330
55F7
100
AcDbXrecord
 90
        1
  0
XRECORD
  5
55F9
102
{ACAD_REACTORS
330
55F7
102
}
330
55F7
100
AcDbXrecord
 90
       70
  0
XRECORD
  5
55FA
102
{ACAD_REACTORS
330
55F7
102
}
330
55F7
100
AcDbXrecord
  1

  0
XRECORD
  5
55FB
102
{ACAD_REACTORS
330
55F7
102
}
330
55F7
100
AcDbXrecord
  1
ASAMI.ctb
  0
XRECORD
  5
55FC
102
{ACAD_REACTORS
330
55F7
102
}
330
55F7
100
AcDbXrecord
340
1A
  0
XRECORD
  5
55FD
102
{ACAD_REACTORS
330
55F7
102
}
330
55F7
100
AcDbXrecord
340
19
  0
XRECORD
  5
55FE
102
{ACAD_REACTORS
330
55F7
102
}
330
55F7
100
AcDbXrecord
340
E
  0
XRECORD
  5
55FF
102
{ACAD_REACTORS
330
55F7
102
}
330
55F7
100
AcDbXrecord
 90
    10781
  0
XRECORD
  5
5600
102
{ACAD_REACTORS
330
55F7
102
}
330
55F7
100
AcDbXrecord
 90
        4
  0
XRECORD
  5
5601
102
{ACAD_REACTORS
330
55F7
102
}
330
55F7
100
AcDbXrecord
 90
        0
  0
XRECORD
  5
5602
102
{ACAD_REACTORS
330
55F7
102
}
330
55F7
100
AcDbXrecord
  1
{AFB28963-8C59-40AE-9337-C84526B81ACE}
  0
XRECORD
  5
5603
102
{ACAD_REACTORS
330
55F7
102
}
330
55F7
100
AcDbXrecord
  1
{D500C540-0A99-4B8E-B647-7EC70CB79567}
  0
XRECORD
  5
5604
102
{ACAD_REACTORS
330
55F7
102
}
330
55F7
100
AcDbXrecord
 40
0.0
  0
XRECORD
  5
5605
102
{ACAD_REACTORS
330
55F7
102
}
330
55F7
100
AcDbXrecord
1000
DSTYLE
1002
{
1070
    79
 70
     2
1070
   341
340
59
1070
   342
340
59
1070
   371
 70
    -1
1070
   372
 70
    -1
1002
}
  0
XRECORD
  5
5606
102
{ACAD_REACTORS
330
55F7
102
}
330
55F7
100
AcDbXrecord
340
0
  0
XRECORD
  5
5607
102
{ACAD_REACTORS
330
55F7
102
}
330
55F7
100
AcDbXrecord
 70
     0
  0
XRECORD
  5
5608
102
{ACAD_REACTORS
330
55F7
102
}
330
55F7
100
AcDbXrecord
340
0
  0
XRECORD
  5
5609
102
{ACAD_REACTORS
330
55F7
102
}
330
55F7
100
AcDbXrecord
 10
0.0
 20
0.0
 30
0.0
  0
XRECORD
  5
560A
102
{ACAD_REACTORS
330
55F7
102
}
330
55F7
100
AcDbXrecord
 10
0.0
 20
0.0
 30
0.0
  0
XRECORD
  5
560B
102
{ACAD_REACTORS
330
55F7
102
}
330
55F7
100
AcDbXrecord
 10
0.0
 20
0.0
 30
0.0
  0
XRECORD
  5
560C
102
{ACAD_REACTORS
330
55F7
102
}
330
55F7
100
AcDbXrecord
 10
0.0
 20
0.0
 30
0.0
  0
XRECORD
  5
560D
102
{ACAD_REACTORS
330
55F7
102
}
330
55F7
100
AcDbXrecord
 10
0.0
 20
0.0
 30
0.0
  0
XRECORD
  5
560E
102
{ACAD_REACTORS
330
55F7
102
}
330
55F7
100
AcDbXrecord
 10
0.0
 20
0.0
 30
0.0
  0
XRECORD
  5
560F
102
{ACAD_REACTORS
330
55F7
102
}
330
55F7
100
AcDbXrecord
340
0
  0
XRECORD
  5
5610
102
{ACAD_REACTORS
330
55F7
102
}
330
55F7
100
AcDbXrecord
 70
     0
  0
XRECORD
  5
5611
102
{ACAD_REACTORS
330
55F7
102
}
330
55F7
100
AcDbXrecord
340
0
  0
XRECORD
  5
5612
102
{ACAD_REACTORS
330
55F7
102
}
330
55F7
100
AcDbXrecord
 10
0.0
 20
0.0
 30
0.0
  0
XRECORD
  5
5613
102
{ACAD_REACTORS
330
55F7
102
}
330
55F7
100
AcDbXrecord
 10
0.0
 20
0.0
 30
0.0
  0
XRECORD
  5
5614
102
{ACAD_REACTORS
330
55F7
102
}
330
55F7
100
AcDbXrecord
 10
0.0
 20
0.0
 30
0.0
  0
XRECORD
  5
5615
102
{ACAD_REACTORS
330
55F7
102
}
330
55F7
100
AcDbXrecord
 10
0.0
 20
0.0
 30
0.0
  0
XRECORD
  5
5616
102
{ACAD_REACTORS
330
55F7
102
}
330
55F7
100
AcDbXrecord
 10
0.0
 20
0.0
 30
0.0
  0
XRECORD
  5
5617
102
{ACAD_REACTORS
330
55F7
102
}
330
55F7
100
AcDbXrecord
 10
0.0
 20
0.0
 30
0.0
  0
LAYER_INDEX
  5
55ED
102
{ACAD_REACTORS
330
55EC
102
}
330
55EC
100
AcDbIndex
 40
2453151.889649282
100
AcDbLayerIndex
  8
0
360
55EE
 90
        7
  8
AM_0
360
55EF
 90
      169
  8
AM_11
360
55F0
 90
        3
  8
AM_7
360
55F1
 90
        1
  8
AM_5
360
55F2
 90
        5
  8
Defpoints
360
55F3
 90
        0
  8
AM_6
360
55F4
 90
        1
  8
AM_CL
360
55F5
 90
        0
  0
XRECORD
  5
2D
102
{ACAD_REACTORS
330
2C
102
}
330
2C
100
AcDbXrecord
  1
VERSION
140
15.0
  1
PRODUCT
  2
AutoCAD Mechanical 2000
  0
IDBUFFER
  5
55EE
330
0
100
AcDbIdBuffer
330
5445
330
5450
330
5451
330
5482
330
5491
330
5495
330
549E
  0
IDBUFFER
  5
55EF
330
0
100
AcDbIdBuffer
330
5477
330
5478
330
5479
330
547A
330
547B
330
547D
330
547E
330
547F
330
5480
330
5481
330
5483
330
5484
330
5485
330
5486
330
5487
330
5488
330
5489
330
548A
330
548B
330
548C
330
548D
330
548E
330
548F
330
5490
330
5492
330
5493
330
5494
330
5496
330
5497
330
5499
330
549A
330
549B
330
549C
330
549D
330
549F
330
54A0
330
54A1
330
54A2
330
54A3
330
54A5
330
54A6
330
54A8
330
54A9
330
54AA
330
54AB
330
54AC
330
54AD
330
54AE
330
54ED
330
54EE
330
54F0
330
54F1
330
552C
330
555D
330
555E
330
555F
330
5560
330
4DA9
330
4DAA
330
4DAC
330
4DAD
330
4DAE
330
4DAF
330
4DB3
330
4DB4
330
4DB7
330
4DBC
330
4FFB
330
5401
330
5402
330
5403
330
5404
330
5405
330
5406
330
5407
330
5408
330
5409
330
540A
330
540B
330
540C
330
540D
330
540E
330
540F
330
5410
330
5411
330
5412
330
5413
330
5414
330
5415
330
5416
330
5417
330
5418
330
5419
330
541A
330
541B
330
541C
330
541D
330
541E
330
541F
330
5420
330
5421
330
5422
330
5423
330
5425
330
5426
330
5427
330
5428
330
5429
330
542A
330
542B
330
542C
330
542D
330
542E
330
542F
330
5430
330
5431
330
5432
330
5433
330
5434
330
5435
330
5436
330
5437
330
5438
330
5439
330
543A
330
543B
330
543C
330
543D
330
543E
330
543F
330
5440
330
5441
330
5442
330
5443
330
5444
330
5446
330
5447
330
5448
330
5449
330
544A
330
544B
330
544C
330
544D
330
544E
330
544F
330
5452
330
5453
330
5454
330
5455
330
5456
330
5457
330
5458
330
5459
330
545A
330
545B
330
545C
330
545D
330
545E
330
545F
330
5460
330
546E
330
546F
330
5470
330
5471
330
5472
330
5473
330
5474
330
5475
330
5476
  0
IDBUFFER
  5
55F0
330
0
100
AcDbIdBuffer
330
54A4
330
54A7
330
54AF
  0
IDBUFFER
  5
55F1
330
0
100
AcDbIdBuffer
330
4DA2
  0
IDBUFFER
  5
55F2
330
0
100
AcDbIdBuffer
330
4DA8
330
4DAB
330
53F4
330
5461
330
54B0
  0
IDBUFFER
  5
55F3
330
0
100
AcDbIdBuffer
  0
IDBUFFER
  5
55F4
330
0
100
AcDbIdBuffer
330
C58
  0
IDBUFFER
  5
55F5
330
0
100
AcDbIdBuffer
  0
ENDSEC
  0
EOF
