  0
SECTION
  2
HEADER
  9
$ACADVER
  1
AC1014
  9
$ACADMAINTVER
 70
     9
  9
$DWGCODEPAGE
  3
ANSI_932
  9
$INSBASE
 10
0.0
 20
0.0
 30
0.0
  9
$EXTMIN
 10
-64.34999999999999
 20
-27.25000000001324
 30
-0.00000001
  9
$EXTMAX
 10
7.500000000000246
 20
3.267137389575935
 30
0.00000001
  9
$LIMMIN
 10
-70.89846361013869
 20
-36.51961758074014
  9
$LIMMAX
 10
15.26494816714233
 20
17.17098998277776
  9
$ORTHOMODE
 70
     0
  9
$REGENMODE
 70
     1
  9
$FILLMODE
 70
     1
  9
$QTEXTMODE
 70
     0
  9
$MIRRTEXT
 70
     0
  9
$DRAGMODE
 70
     2
  9
$LTSCALE
 40
1.0
  9
$OSMODE
 70
    55
  9
$ATTMODE
 70
     1
  9
$TEXTSIZE
 40
2.5
  9
$TRACEWID
 40
1.0
  9
$TEXTSTYLE
  7
STANDARD
  9
$CLAYER
  8
AM_0
  9
$CELTYPE
  6
BYLAYER
  9
$CECOLOR
 62
   256
  9
$CELTSCALE
 40
1.0
  9
$DELOBJ
 70
     1
  9
$DISPSILH
 70
     0
  9
$DIMSCALE
 40
0.5
  9
$DIMASZ
 40
2.5
  9
$DIMEXO
 40
1.0
  9
$DIMDLI
 40
12.0
  9
$DIMRND
 40
0.0
  9
$DIMDLE
 40
0.0
  9
$DIMEXE
 40
1.0
  9
$DIMTP
 40
0.1
  9
$DIMTM
 40
0.1
  9
$DIMTXT
 40
3.2
  9
$DIMCEN
 40
0.0
  9
$DIMTSZ
 40
0.0
  9
$DIMTOL
 70
     0
  9
$DIMLIM
 70
     0
  9
$DIMTIH
 70
     0
  9
$DIMTOH
 70
     0
  9
$DIMSE1
 70
     0
  9
$DIMSE2
 70
     0
  9
$DIMTAD
 70
     3
  9
$DIMZIN
 70
     8
  9
$DIMBLK
  1
OPEN30
  9
$DIMASO
 70
     1
  9
$DIMSHO
 70
     1
  9
$DIMPOST
  1

  9
$DIMAPOST
  1
"
  9
$DIMALT
 70
     0
  9
$DIMALTD
 70
     2
  9
$DIMALTF
 40
0.0393701
  9
$DIMLFAC
 40
1.0
  9
$DIMTOFL
 70
     1
  9
$DIMTVP
 40
0.0
  9
$DIMTIX
 70
     0
  9
$DIMSOXD
 70
     0
  9
$DIMSAH
 70
     0
  9
$DIMBLK1
  1

  9
$DIMBLK2
  1

  9
$DIMSTYLE
  2
AM_JIS
  9
$DIMCLRD
 70
   256
  9
$DIMCLRE
 70
   256
  9
$DIMCLRT
 70
     2
  9
$DIMTFAC
 40
0.71
  9
$DIMGAP
 40
1.5
  9
$DIMJUST
 70
     0
  9
$DIMSD1
 70
     0
  9
$DIMSD2
 70
     0
  9
$DIMTOLJ
 70
     0
  9
$DIMTZIN
 70
     0
  9
$DIMALTZ
 70
     0
  9
$DIMALTTZ
 70
     0
  9
$DIMFIT
 70
     3
  9
$DIMUPT
 70
     0
  9
$DIMUNIT
 70
     2
  9
$DIMDEC
 70
     3
  9
$DIMTDEC
 70
     3
  9
$DIMALTU
 70
     2
  9
$DIMALTTD
 70
     2
  9
$DIMTXSTY
  7
ASAMI
  9
$DIMAUNIT
 70
     0
  9
$LUNITS
 70
     2
  9
$LUPREC
 70
     2
  9
$SKETCHINC
 40
1.0
  9
$FILLETRAD
 40
2.5
  9
$AUNITS
 70
     0
  9
$AUPREC
 70
     0
  9
$MENU
  1
.
  9
$ELEVATION
 40
0.0
  9
$PELEVATION
 40
0.0
  9
$THICKNESS
 40
0.0
  9
$LIMCHECK
 70
     0
  9
$BLIPMODE
 70
     0
  9
$CHAMFERA
 40
0.5
  9
$CHAMFERB
 40
0.5
  9
$CHAMFERC
 40
20.0
  9
$CHAMFERD
 40
0.0
  9
$SKPOLY
 70
     0
  9
$TDCREATE
 40
2452838.430434386
  9
$TDUPDATE
 40
2453151.878065138
  9
$TDINDWG
 40
0.1440057986
  9
$TDUSRTIMER
 40
0.1440057986
  9
$USRTIMER
 70
     1
  9
$ANGBASE
 50
0.0
  9
$ANGDIR
 70
     0
  9
$PDMODE
 70
     0
  9
$PDSIZE
 40
0.0
  9
$PLINEWID
 40
0.0
  9
$COORDS
 70
     1
  9
$SPLFRAME
 70
     0
  9
$SPLINETYPE
 70
     6
  9
$SPLINESEGS
 70
     8
  9
$ATTDIA
 70
     1
  9
$ATTREQ
 70
     1
  9
$HANDLING
 70
 12289
  9
$HANDSEED
  5
44E4
  9
$SURFTAB1
 70
     6
  9
$SURFTAB2
 70
     6
  9
$SURFTYPE
 70
     6
  9
$SURFU
 70
     6
  9
$SURFV
 70
     6
  9
$UCSNAME
  2

  9
$UCSORG
 10
0.0
 20
0.0
 30
0.0
  9
$UCSXDIR
 10
1.0
 20
0.0
 30
0.0
  9
$UCSYDIR
 10
0.0
 20
1.0
 30
0.0
  9
$PUCSNAME
  2

  9
$PUCSORG
 10
0.0
 20
0.0
 30
0.0
  9
$PUCSXDIR
 10
1.0
 20
0.0
 30
0.0
  9
$PUCSYDIR
 10
0.0
 20
1.0
 30
0.0
  9
$USERI1
 70
     0
  9
$USERI2
 70
     0
  9
$USERI3
 70
     0
  9
$USERI4
 70
     0
  9
$USERI5
 70
     0
  9
$USERR1
 40
0.0
  9
$USERR2
 40
0.0
  9
$USERR3
 40
0.0
  9
$USERR4
 40
0.0
  9
$USERR5
 40
0.0
  9
$WORLDVIEW
 70
     1
  9
$SHADEDGE
 70
     3
  9
$SHADEDIF
 70
    70
  9
$TILEMODE
 70
     1
  9
$MAXACTVP
 70
    64
  9
$PINSBASE
 10
0.0
 20
0.0
 30
0.0
  9
$PLIMCHECK
 70
     0
  9
$PEXTMIN
 10
1.000000000000000E+20
 20
1.000000000000000E+20
 30
1.000000000000000E+20
  9
$PEXTMAX
 10
-1.000000000000000E+20
 20
-1.000000000000000E+20
 30
-1.000000000000000E+20
  9
$PLIMMIN
 10
0.0
 20
0.0
  9
$PLIMMAX
 10
841.0
 20
594.0
  9
$UNITMODE
 70
     0
  9
$VISRETAIN
 70
     1
  9
$PLINEGEN
 70
     0
  9
$PSLTSCALE
 70
     0
  9
$TREEDEPTH
 70
  3020
  9
$PICKSTYLE
 70
     0
  9
$CMLSTYLE
  2
STANDARD
  9
$CMLJUST
 70
     0
  9
$CMLSCALE
 40
20.0
  9
$PROXYGRAPHICS
 70
     1
  9
$MEASUREMENT
 70
     1
  0
ENDSEC
  0
SECTION
  2
CLASSES
  0
CLASS
  1
ACDBDICTIONARYWDFLT
  2
AcDbDictionaryWithDefault
  3
AutoCAD 2000
 90
        0
280
     0
281
     0
  0
CLASS
  1
ACDBPLACEHOLDER
  2
AcDbPlaceHolder
  3
AutoCAD 2000
 90
        0
280
     0
281
     0
  0
CLASS
  1
LAYOUT
  2
AcDbLayout
  3
AutoCAD 2000
 90
        0
280
     0
281
     0
  0
CLASS
  1
AMGSETTINGSOBJ
  2
AmgSettingsObj
  3
"AcadM|Product Description: AutoCAD Mechanical 2000|Company: Autodesk"
 90
        0
280
     0
281
     0
  0
CLASS
  1
ACME_DOCUMENT
  2
AcMeDbDoc
  3
AcMeServices
 90
        0
280
     0
281
     0
  0
CLASS
  1
ACMESCOPE
  2
AcMeScope
  3
AcMeServices
 90
        0
280
     0
281
     0
  0
CLASS
  1
ACMECOMMANDHISTORY
  2
AcMeCommandHistory
  3
AcMeServices
 90
        0
280
     0
281
     0
  0
CLASS
  1
DICTIONARYVAR
  2
AcDbDictionaryVar
  3
AutoCAD 2000
 90
        0
280
     0
281
     0
  0
CLASS
  1
ACIMSYSVARMAN
  2
AcImSysVarManager
  3
AcMeServices
 90
        0
280
     0
281
     0
  0
CLASS
  1
ACIMREALSYSVAR
  2
AcImRealSysVar
  3
AcMeServices
 90
        0
280
     0
281
     0
  0
CLASS
  1
ACIMINTSYSVAR
  2
AcImIntSysVar
  3
AcMeServices
 90
        0
280
     0
281
     0
  0
CLASS
  1
ACMEDRAWINGMAN
  2
AcMeDrawingMan
  3
AcMeServices
 90
        0
280
     0
281
     0
  0
CLASS
  1
ACMEVIEW
  2
AcMeView
  3
AcMeServices
 90
        0
280
     0
281
     0
  0
CLASS
  1
ACDBENTITYCACHE
  2
AcMeEntityCache
  3
AcMeServices
 90
        0
280
     0
281
     0
  0
CLASS
  1
GSMANAGER
  2
AcMeGSManager
  3
AcMeServices
 90
        0
280
     0
281
     0
  0
CLASS
  1
AmdtInternalReactor
  2
AmdtInternalReactor
  3
AcMeServices
 90
        0
280
     0
281
     0
  0
CLASS
  1
ACMESTATEMGR
  2
AcMeStateMgr
  3
AcMeServices
 90
        0
280
     0
281
     0
  0
CLASS
  1
ACME_DATABASE
  2
AcMeDbDatabase
  3
AcMeServices
 90
        0
280
     0
281
     0
  0
CLASS
  1
ACRFINSADJUSTERMGR
  2
AcRfInsAdjusterMgr
  3
AcMeServices
 90
        0
280
     0
281
     0
  0
CLASS
  1
ACMDATADICTIONARY
  2
AcmDataDictionary
  3
"AcmSymBB|Product Description: AutoCAD Mechanical 2000|Company: Autodesk"
 90
        0
280
     0
281
     0
  0
CLASS
  1
ACMDATAENTRYBLOCK
  2
AcmDataEntryBlock
  3
"AcmSymBB|Product Description: AutoCAD Mechanical 2000|Company: Autodesk"
 90
        0
280
     0
281
     0
  0
CLASS
  1
AMGOBJPROPCFG
  2
AmgObjPropCfg
  3
"AmgLay|Product Description: AutoCAD Mechanical 2000|Company: Autodesk"
 90
        1
280
     0
281
     0
  0
CLASS
  1
ACAMGFILTERDAT
  2
AcAmgFilterDat
  3
"AcadM|Product Description: AutoCAD Mechanical 2000|Company: Autodesk"
 90
        0
280
     0
281
     0
  0
CLASS
  1
LAYER_INDEX
  2
AcDbLayerIndex
  3
AutoCAD 2000
 90
        0
280
     0
281
     0
  0
CLASS
  1
IDBUFFER
  2
AcDbIdBuffer
  3
AutoCAD 2000
 90
        0
280
     0
281
     0
  0
CLASS
  1
ACIMSTRSYSVAR
  2
AcImStrSysVar
  3
AcMeServices
 90
        0
280
     0
281
     0
  0
CLASS
  1
ACMSTANDARDJIS
  2
AcmStandardJIS
  3
"AcmSymBB|Product Description: AutoCAD Mechanical 2000|Company: Autodesk"
 90
        0
280
     0
281
     0
  0
CLASS
  1
ACMSURFSTANDARDJIS
  2
AcmSurfTextStdJIS
  3
"AcmSymBB|Product Description: AutoCAD Mechanical 2000|Company: Autodesk"
 90
        0
280
     0
281
     0
  0
CLASS
  1
ACMFCFSTANDARDJIS
  2
AcmFCFStdJIS
  3
"AcmSymBB|Product Description: AutoCAD Mechanical 2000|Company: Autodesk"
 90
        0
280
     0
281
     0
  0
CLASS
  1
ACMWELDSTANDARDJIS
  2
AcmWeldingStdJIS
  3
"AcmSymBB|Product Description: AutoCAD Mechanical 2000|Company: Autodesk"
 90
        0
280
     0
281
     0
  0
CLASS
  1
ACMIDSTANDARDJIS
  2
AcmIdStdJIS
  3
"AcmSymBB|Product Description: AutoCAD Mechanical 2000|Company: Autodesk"
 90
        0
280
     0
281
     0
  0
CLASS
  1
ACMDATUMSTANDARDJIS
  2
AcmDatumStdJIS
  3
"AcmSymBB|Product Description: AutoCAD Mechanical 2000|Company: Autodesk"
 90
        0
280
     0
281
     0
  0
CLASS
  1
ACMBOMSTANDARDJIS
  2
AcmBOMStdJIS
  3
"AcmSymBB|Product Description: AutoCAD Mechanical 2000|Company: Autodesk"
 90
        0
280
     0
281
     0
  0
CLASS
  1
ACMSTANDARDANSI
  2
AcmStandardANSI
  3
"AcmSymBB|Product Description: AutoCAD Mechanical 2000|Company: Autodesk"
 90
        0
280
     0
281
     0
  0
CLASS
  1
ACMSURFSTANDARDANSI
  2
AcmSurfTextStdANSI
  3
"AcmSymBB|Product Description: AutoCAD Mechanical 2000|Company: Autodesk"
 90
        0
280
     0
281
     0
  0
CLASS
  1
ACMFCFSTANDARDANSI
  2
AcmFCFStdANSI
  3
"AcmSymBB|Product Description: AutoCAD Mechanical 2000|Company: Autodesk"
 90
        0
280
     0
281
     0
  0
CLASS
  1
ACMWELDSTANDARDANSI
  2
AcmWeldingStdANSI
  3
"AcmSymBB|Product Description: AutoCAD Mechanical 2000|Company: Autodesk"
 90
        0
280
     0
281
     0
  0
CLASS
  1
ACMIDSTANDARDANSI
  2
AcmIdStdANSI
  3
"AcmSymBB|Product Description: AutoCAD Mechanical 2000|Company: Autodesk"
 90
        0
280
     0
281
     0
  0
CLASS
  1
ACMDATUMSTANDARDANSI
  2
AcmDatumStdANSI
  3
"AcmSymBB|Product Description: AutoCAD Mechanical 2000|Company: Autodesk"
 90
        0
280
     0
281
     0
  0
CLASS
  1
ACMBOMSTANDARDANSI
  2
AcmBOMStdANSI
  3
"AcmSymBB|Product Description: AutoCAD Mechanical 2000|Company: Autodesk"
 90
        0
280
     0
281
     0
  0
CLASS
  1
ACMSTANDARDBSI
  2
AcmStandardBSI
  3
"AcmSymBB|Product Description: AutoCAD Mechanical 2000|Company: Autodesk"
 90
        0
280
     0
281
     0
  0
CLASS
  1
ACMSURFSTANDARDBSI
  2
AcmSurfTextStdBSI
  3
"AcmSymBB|Product Description: AutoCAD Mechanical 2000|Company: Autodesk"
 90
        0
280
     0
281
     0
  0
CLASS
  1
ACMFCFSTANDARDBSI
  2
AcmFCFStdBSI
  3
"AcmSymBB|Product Description: AutoCAD Mechanical 2000|Company: Autodesk"
 90
        0
280
     0
281
     0
  0
CLASS
  1
ACMWELDSTANDARDBSI
  2
AcmWeldingStdBSI
  3
"AcmSymBB|Product Description: AutoCAD Mechanical 2000|Company: Autodesk"
 90
        0
280
     0
281
     0
  0
CLASS
  1
ACMIDSTANDARDBSI
  2
AcmIdStdBSI
  3
"AcmSymBB|Product Description: AutoCAD Mechanical 2000|Company: Autodesk"
 90
        0
280
     0
281
     0
  0
CLASS
  1
ACMDATUMSTANDARDBSI
  2
AcmDatumStdBSI
  3
"AcmSymBB|Product Description: AutoCAD Mechanical 2000|Company: Autodesk"
 90
        0
280
     0
281
     0
  0
CLASS
  1
ACMBOMSTANDARDBSI
  2
AcmBOMStdBSI
  3
"AcmSymBB|Product Description: AutoCAD Mechanical 2000|Company: Autodesk"
 90
        0
280
     0
281
     0
  0
CLASS
  1
LONG_TRANSACTION
  2
AcDbLongTransaction
  3
AutoCAD 2000
 90
        0
280
     0
281
     0
  0
CLASS
  1
LWPOLYLINE
  2
AcDbPolyline
  3
AutoCAD 2000
 90
        0
280
     0
281
     1
  0
CLASS
  1
HATCH
  2
AcDbHatch
  3
AutoCAD 2000
 90
        0
280
     0
281
     1
  0
CLASS
  1
XRECORD
  2
AcDbXrecord
  3
AutoCAD 2000
 90
        0
280
     0
281
     0
  0
ENDSEC
  0
SECTION
  2
TABLES
  0
TABLE
  2
VPORT
  5
8
330
0
100
AcDbSymbolTable
 70
     3
  0
VPORT
  5
44B9
330
8
100
AcDbSymbolTableRecord
100
AcDbViewportTableRecord
  2
*ACTIVE
 70
     0
 10
0.0
 20
0.0
 11
1.0
 21
1.0
 12
-22.92007176330588
 22
-5.647381216928295
 13
0.0
 23
0.0
 14
2.5
 24
2.5
 15
10.0
 25
10.0
 16
0.0
 26
0.0
 36
1.0
 17
0.0
 27
0.0
 37
0.0
 40
58.46767421339023
 41
1.56570841889117
 42
50.0
 43
0.0
 44
0.0
 50
0.0
 51
0.0
 71
     0
 72
   100
 73
     1
 74
     3
 75
     0
 76
     0
 77
     0
 78
     0
  0
ENDTAB
  0
TABLE
  2
LTYPE
  5
5
330
0
100
AcDbSymbolTable
 70
    10
  0
LTYPE
  5
14
330
5
100
AcDbSymbolTableRecord
100
AcDbLinetypeTableRecord
  2
BYBLOCK
 70
     0
  3

 72
    65
 73
     0
 40
0.0
  0
LTYPE
  5
15
330
5
100
AcDbSymbolTableRecord
100
AcDbLinetypeTableRecord
  2
BYLAYER
 70
     0
  3

 72
    65
 73
     0
 40
0.0
  0
LTYPE
  5
16
330
5
100
AcDbSymbolTableRecord
100
AcDbLinetypeTableRecord
  2
CONTINUOUS
 70
     0
  3
Solid line
 72
    65
 73
     0
 40
0.0
  0
LTYPE
  5
4B
330
5
100
AcDbSymbolTableRecord
100
AcDbLinetypeTableRecord
  2
AM_ISO02W050
 70
     0
  3
__ __ __ __ __ __ __ __ __ __ __ __ __ __ __
 72
    65
 73
     2
 40
7.5
 49
6.0
 74
     0
 49
-1.5
 74
     0
  0
LTYPE
  5
4C
330
5
100
AcDbSymbolTableRecord
100
AcDbLinetypeTableRecord
  2
AM_ISO08W050
 70
     0
  3
____ . ____ . ____ . ____ . ____ . ____ . ____
 72
    65
 73
     4
 40
18.0
 49
12.0
 74
     0
 49
-1.5
 74
     0
 49
3.0
 74
     0
 49
-1.5
 74
     0
  0
LTYPE
  5
4D
330
5
100
AcDbSymbolTableRecord
100
AcDbLinetypeTableRecord
  2
AM_ISO09W050
 70
     0
  3
_____ . . _____ . . _____ . . ____ .. ____
 72
    65
 73
     6
 40
22.5
 49
12.0
 74
     0
 49
-1.5
 74
     0
 49
3.0
 74
     0
 49
-1.5
 74
     0
 49
3.0
 74
     0
 49
-1.5
 74
     0
  0
LTYPE
  5
4E
330
5
100
AcDbSymbolTableRecord
100
AcDbLinetypeTableRecord
  2
AMCONSTR
 70
     0
  3
_______________________
 72
    65
 73
     2
 40
9999.0
 49
9999.0
 74
     0
 49
0.0
 74
     0
  0
LTYPE
  5
4F
330
5
100
AcDbSymbolTableRecord
100
AcDbLinetypeTableRecord
  2
AM_ISO02W050X2
 70
     0
  3
 _ _ _ _ _ _ _ _ _ _ _ _
 72
    65
 73
     2
 40
3.75
 49
3.0
 74
     0
 49
-0.75
 74
     0
  0
LTYPE
  5
50
330
5
100
AcDbSymbolTableRecord
100
AcDbLinetypeTableRecord
  2
AM_ISO08W050X2
 70
     0
  3
__ . __ . __ . __ . __ . __
 72
    65
 73
     4
 40
9.0
 49
6.0
 74
     0
 49
-0.75
 74
     0
 49
1.5
 74
     0
 49
-0.75
 74
     0
  0
LTYPE
  5
53
330
5
100
AcDbSymbolTableRecord
100
AcDbLinetypeTableRecord
  2
AMZIGZAG
 70
     0
  3
/\/-/\/-/\/-/\/-/\/-/\/
 72
    65
 73
     2
 40
11.00009999999999
 49
0.0001
 74
     4
 75
   135
340
52
 46
0.04
 50
0.0
 44
0.0
 45
0.0
 49
-11.0
 74
     0
  0
LTYPE
  5
166
330
5
100
AcDbSymbolTableRecord
100
AcDbLinetypeTableRecord
  2
ACJISTGL
 70
     0
  3
_ _ _ _ _
 72
    65
 73
     2
 40
3.0
 49
2.0
 74
     0
 49
-1.0
 74
     0
  0
LTYPE
  5
26A
330
5
100
AcDbSymbolTableRecord
100
AcDbLinetypeTableRecord
  2
ACJISTGB
 70
     0
  3
__ . . __ . .
 72
    65
 73
     6
 40
9.0
 49
4.0
 74
     0
 49
-1.0
 74
     0
 49
1.0
 74
     0
 49
-1.0
 74
     0
 49
1.0
 74
     0
 49
-1.0
 74
     0
  0
ENDTAB
  0
TABLE
  2
LAYER
  5
2
330
0
100
AcDbSymbolTable
 70
     7
  0
LAYER
  5
10
330
2
100
AcDbSymbolTableRecord
100
AcDbLayerTableRecord
  2
0
 70
     0
 62
     7
  6
CONTINUOUS
  0
LAYER
  5
3F9
330
2
100
AcDbSymbolTableRecord
100
AcDbLayerTableRecord
  2
AM_0
 70
     0
 62
     7
  6
CONTINUOUS
  0
LAYER
  5
BDD
330
2
100
AcDbSymbolTableRecord
100
AcDbLayerTableRecord
  2
AM_11
 70
     0
 62
     3
  6
AM_ISO09W050
  0
LAYER
  5
BDE
330
2
100
AcDbSymbolTableRecord
100
AcDbLayerTableRecord
  2
AM_7
 70
     0
 62
     4
  6
AM_ISO08W050
  0
LAYER
  5
BDF
330
2
100
AcDbSymbolTableRecord
100
AcDbLayerTableRecord
  2
AM_5
 70
     0
 62
     3
  6
CONTINUOUS
  0
LAYER
  5
BE0
330
2
100
AcDbSymbolTableRecord
100
AcDbLayerTableRecord
  2
DEFPOINTS
 70
     0
 62
     7
  6
CONTINUOUS
  0
LAYER
  5
14FF
330
2
100
AcDbSymbolTableRecord
100
AcDbLayerTableRecord
  2
AM_6
 70
     0
 62
     2
  6
CONTINUOUS
  0
ENDTAB
  0
TABLE
  2
STYLE
  5
3
330
0
100
AcDbSymbolTable
 70
     5
  0
STYLE
  5
11
330
3
100
AcDbSymbolTableRecord
100
AcDbTextStyleTableRecord
  2
STANDARD
 70
     0
 40
0.0
 41
1.0
 50
0.0
 71
     0
 42
2.5
  3
simplex.shx
  4
EXTFONT.SHX
  0
STYLE
  5
52
330
3
100
AcDbSymbolTableRecord
100
AcDbTextStyleTableRecord
  2

 70
     1
 40
0.0
 41
1.0
 50
0.0
 71
     0
 42
2.5
  3
ltypeshp.shx
  4

  0
STYLE
  5
6B
330
3
100
AcDbSymbolTableRecord
100
AcDbTextStyleTableRecord
  2
ASAMI
 70
     0
 40
0.0
 41
1.0
 50
0.0
 71
     0
 42
2.5
  3
simplex.shx
  4
EXTFONT.SHX
  0
STYLE
  5
262
330
3
100
AcDbSymbolTableRecord
100
AcDbTextStyleTableRecord
  2
ACJISTS
 70
     0
 40
1.0
 41
1.0
 50
0.0
 71
     0
 42
2.5
  3
simplex.shx
  4
bigfont.shx
  0
STYLE
  5
269
330
3
100
AcDbSymbolTableRecord
100
AcDbTextStyleTableRecord
  2
ACJISGDT
 70
     0
 40
0.0
 41
1.0
 50
0.0
 71
     0
 42
2.5
  3
amgdtans.shx
  4

  0
ENDTAB
  0
TABLE
  2
VIEW
  5
6
330
0
100
AcDbSymbolTable
 70
     0
  0
ENDTAB
  0
TABLE
  2
UCS
  5
7
330
0
100
AcDbSymbolTable
 70
     0
  0
ENDTAB
  0
TABLE
  2
APPID
  5
9
330
0
100
AcDbSymbolTable
 70
    14
  0
APPID
  5
12
330
9
100
AcDbSymbolTableRecord
100
AcDbRegAppTableRecord
  2
ACAD
 70
     0
  0
APPID
  5
30
330
9
100
AcDbSymbolTableRecord
100
AcDbRegAppTableRecord
  2
MCAD_NO_VIS
 70
     0
  0
APPID
  5
31
330
9
100
AcDbSymbolTableRecord
100
AcDbRegAppTableRecord
  2
ACAD_TEMP_GRAPHIC
 70
     0
  0
APPID
  5
2C2
330
9
100
AcDbSymbolTableRecord
100
AcDbRegAppTableRecord
  2
GENIUS_GENDTOL_13
 70
     0
  0
APPID
  5
339
330
9
100
AcDbSymbolTableRecord
100
AcDbRegAppTableRecord
  2
GENIUS_GENODEF_13
 70
     0
  0
APPID
  5
33A
330
9
100
AcDbSymbolTableRecord
100
AcDbRegAppTableRecord
  2
GENIUS_GENOBJ-N-RSBK_13
 70
     0
  0
APPID
  5
33B
330
9
100
AcDbSymbolTableRecord
100
AcDbRegAppTableRecord
  2
GENIUS_GENOBJ-N-LIB_13
 70
     0
  0
APPID
  5
33C
330
9
100
AcDbSymbolTableRecord
100
AcDbRegAppTableRecord
  2
GENIUS_GENSCALE_13
 70
     0
  0
APPID
  5
378
330
9
100
AcDbSymbolTableRecord
100
AcDbRegAppTableRecord
  2
GENIUS_GENDIMSH_14
 70
     0
  0
APPID
  5
BE1
330
9
100
AcDbSymbolTableRecord
100
AcDbRegAppTableRecord
  2
GENIUS_GENFIL_13
 70
     0
  0
APPID
  5
BE2
330
9
100
AcDbSymbolTableRecord
100
AcDbRegAppTableRecord
  2
GENIUS_GENOBJ-N-CHA_13
 70
     0
  0
APPID
  5
151B
330
9
100
AcDbSymbolTableRecord
100
AcDbRegAppTableRecord
  2
DCO15
 70
     0
  0
APPID
  5
1860
330
9
100
AcDbSymbolTableRecord
100
AcDbRegAppTableRecord
  2
GENIUS_GENOBJ-N-CEN_13
 70
     0
  0
APPID
  5
359C
330
9
100
AcDbSymbolTableRecord
100
AcDbRegAppTableRecord
  2
GENIUS_GENOBJ-N-FIL_13
 70
     0
  0
ENDTAB
  0
TABLE
  2
DIMSTYLE
  5
A
330
0
100
AcDbSymbolTable
 70
     8
  0
DIMSTYLE
105
58
102
{ACAD_REACTORS
330
40B9
330
4145
330
423E
330
434A
102
}
330
A
100
AcDbSymbolTableRecord
100
AcDbDimStyleTableRecord
  2
AM_JIS
 70
     0
  3

  4
"
  5
OPEN30
  6

  7

 40
0.5
 41
2.5
 42
1.0
 43
12.0
 44
1.0
 45
0.0
 46
0.0
 47
0.1
 48
0.1
140
3.2
141
0.0
142
0.0
143
0.0393701
144
1.0
145
0.0
146
0.71
147
1.5
 71
     0
 72
     0
 73
     0
 74
     0
 75
     0
 76
     0
 77
     3
 78
     8
170
     0
171
     2
172
     1
173
     0
174
     0
175
     0
176
   256
177
   256
178
     2
270
     2
271
     3
272
     3
273
     2
274
     2
340
6B
275
     0
280
     0
281
     0
282
     0
283
     0
284
     0
285
     0
286
     0
287
     3
288
     0
  0
DIMSTYLE
105
5F
330
A
100
AcDbSymbolTableRecord
100
AcDbDimStyleTableRecord
  2
AM_JIS$3
 70
     0
  3

  4
"
  5
OPEN30
  6

  7

 40
0.5
 41
2.5
 42
1.0
 43
10.0
 44
1.0
 45
0.0
 46
0.0
 47
0.1
 48
0.1
140
3.2
141
0.0
142
0.0
143
0.0393701
144
1.0
145
0.0
146
0.71
147
1.5
 71
     0
 72
     0
 73
     0
 74
     1
 75
     0
 76
     0
 77
     3
 78
     8
170
     0
171
     2
172
     0
173
     0
174
     0
175
     0
176
   256
177
   256
178
     2
270
     2
271
     2
272
     3
273
     2
274
     2
340
6B
275
     0
280
     0
281
     0
282
     0
283
     0
284
     0
285
     0
286
     0
287
     0
288
     1
  0
DIMSTYLE
105
60
330
A
100
AcDbSymbolTableRecord
100
AcDbDimStyleTableRecord
  2
AM_JIS$4
 70
     0
  3

  4
"
  5
OPEN30
  6

  7

 40
0.5
 41
2.5
 42
1.0
 43
10.0
 44
1.0
 45
0.0
 46
0.0
 47
0.1
 48
0.1
140
3.2
141
0.0
142
0.0
143
0.0393701
144
1.0
145
0.0
146
0.71
147
1.5
 71
     0
 72
     0
 73
     0
 74
     1
 75
     0
 76
     0
 77
     3
 78
     8
170
     0
171
     2
172
     0
173
     0
174
     0
175
     0
176
   256
177
   256
178
     2
270
     2
271
     2
272
     3
273
     2
274
     2
340
6B
275
     0
280
     0
281
     0
282
     0
283
     0
284
     0
285
     0
286
     0
287
     0
288
     1
  0
DIMSTYLE
105
61
330
A
100
AcDbSymbolTableRecord
100
AcDbDimStyleTableRecord
  2
AM_JIS$6
 70
     0
  3

  4
"
  5
OPEN30
  6

  7

 40
0.5
 41
2.5
 42
1.0
 43
10.0
 44
1.0
 45
0.0
 46
0.0
 47
0.1
 48
0.1
140
3.2
141
0.0
142
0.0
143
0.0393701
144
1.0
145
0.0
146
0.71
147
1.5
 71
     0
 72
     0
 73
     0
 74
     0
 75
     0
 76
     0
 77
     0
 78
     8
170
     0
171
     2
172
     1
173
     0
174
     0
175
     0
176
   256
177
   256
178
     2
270
     2
271
     2
272
     2
273
     2
274
     2
340
6B
275
     0
280
     0
281
     0
282
     0
283
     0
284
     0
285
     0
286
     0
287
     3
288
     0
  0
DIMSTYLE
105
62
330
A
100
AcDbSymbolTableRecord
100
AcDbDimStyleTableRecord
  2
AM_JIS$7
 70
     0
  3

  4
"
  5
OPEN30
  6

  7

 40
0.5
 41
2.5
 42
1.0
 43
10.0
 44
1.0
 45
0.0
 46
0.0
 47
0.1
 48
0.1
140
3.2
141
0.0
142
0.0
143
0.0393701
144
1.0
145
0.0
146
0.71
147
1.5
 71
     0
 72
     0
 73
     0
 74
     0
 75
     0
 76
     0
 77
     3
 78
     8
170
     0
171
     2
172
     1
173
     0
174
     0
175
     0
176
   256
177
   256
178
     2
270
     2
271
     2
272
     3
273
     2
274
     2
340
6B
275
     0
280
     0
281
     0
282
     0
283
     0
284
     0
285
     0
286
     0
287
     3
288
     0
  0
DIMSTYLE
105
63
330
A
100
AcDbSymbolTableRecord
100
AcDbDimStyleTableRecord
  2
AM_JIS$SF
 70
     0
  3

  4
"
  5
OPEN30
  6

  7

 40
0.5
 41
2.5
 42
1.0
 43
10.0
 44
1.0
 45
0.0
 46
0.0
 47
0.1
 48
0.1
140
3.2
141
0.0
142
0.0
143
0.0393701
144
1.0
145
0.0
146
0.71
147
1.5
 71
     0
 72
     0
 73
     0
 74
     0
 75
     1
 76
     1
 77
     3
 78
     8
170
     0
171
     2
172
     1
173
     0
174
     0
175
     0
176
   256
177
   256
178
     2
270
     2
271
     2
272
     2
273
     2
274
     2
340
6B
275
     0
280
     0
281
     0
282
     0
283
     0
284
     0
285
     0
286
     0
287
     3
288
     0
  0
DIMSTYLE
105
68
330
A
100
AcDbSymbolTableRecord
100
AcDbDimStyleTableRecord
  2
AM_JIS$SH
 70
     0
  3

  4
"
  5

  6
GENAXEH
  7
OPEN30
 40
0.5
 41
2.5
 42
1.0
 43
10.0
 44
1.0
 45
0.0
 46
0.0
 47
0.1
 48
0.1
140
3.2
141
0.0
142
0.0
143
0.0393701
144
2.0
145
0.0
146
0.71
147
1.5
 71
     0
 72
     0
 73
     0
 74
     0
 75
     1
 76
     1
 77
     3
 78
     8
170
     0
171
     2
172
     1
173
     1
174
     0
175
     0
176
   256
177
   256
178
     2
270
     2
271
     2
272
     2
273
     2
274
     2
340
6B
275
     0
280
     0
281
     0
282
     0
283
     0
284
     0
285
     0
286
     0
287
     3
288
     0
  0
DIMSTYLE
105
B34
330
A
100
AcDbSymbolTableRecord
100
AcDbDimStyleTableRecord
  2
AM_JIS$2
 70
     0
  3

  4
"
  5
OPEN30
  6

  7

 40
0.5
 41
2.5
 42
1.0
 43
12.0
 44
1.0
 45
0.0
 46
0.0
 47
0.1
 48
0.1
140
3.2
141
0.0
142
0.0
143
0.0393701
144
1.0
145
0.0
146
0.71
147
1.5
 71
     0
 72
     0
 73
     0
 74
     0
 75
     0
 76
     0
 77
     3
 78
     8
170
     0
171
     2
172
     1
173
     0
174
     0
175
     0
176
   256
177
   256
178
     2
270
     2
271
     3
272
     3
273
     2
274
     2
340
6B
275
     0
280
     0
281
     0
282
     0
283
     0
284
     0
285
     0
286
     0
287
     3
288
     0
  0
ENDTAB
  0
TABLE
  2
BLOCK_RECORD
  5
1
330
0
100
AcDbSymbolTable
 70
     9
  0
BLOCK_RECORD
  5
1F
102
{ACAD_XDICTIONARY
360
74
102
}
330
1
100
AcDbSymbolTableRecord
100
AcDbBlockTableRecord
  2
*MODEL_SPACE
  0
BLOCK_RECORD
  5
101
102
{ACAD_XDICTIONARY
360
44E2
102
}
330
1
100
AcDbSymbolTableRecord
100
AcDbBlockTableRecord
  2
*PAPER_SPACE
  0
BLOCK_RECORD
  5
59
330
1
100
AcDbSymbolTableRecord
100
AcDbBlockTableRecord
  2
_OPEN30
  0
BLOCK_RECORD
  5
64
330
1
100
AcDbSymbolTableRecord
100
AcDbBlockTableRecord
  2
GENAXEH
  0
BLOCK_RECORD
  5
40BA
330
1
100
AcDbSymbolTableRecord
100
AcDbBlockTableRecord
  2
*D5
  0
BLOCK_RECORD
  5
4146
330
1
100
AcDbSymbolTableRecord
100
AcDbBlockTableRecord
  2
*D6
  0
BLOCK_RECORD
  5
423F
330
1
100
AcDbSymbolTableRecord
100
AcDbBlockTableRecord
  2
*D7
  0
BLOCK_RECORD
  5
434B
330
1
100
AcDbSymbolTableRecord
100
AcDbBlockTableRecord
  2
*D8
  0
ENDTAB
  0
ENDSEC
  0
SECTION
  2
BLOCKS
  0
BLOCK
  5
20
330
1F
100
AcDbEntity
  8
0
100
AcDbBlockBegin
  2
*MODEL_SPACE
 70
     0
 10
0.0
 20
0.0
 30
0.0
  3
*MODEL_SPACE
  1

  0
ENDBLK
  5
21
330
1F
100
AcDbEntity
  8
0
100
AcDbBlockEnd
  0
BLOCK
  5
103
330
101
100
AcDbEntity
 67
     1
  8
0
100
AcDbBlockBegin
  2
*PAPER_SPACE
 70
     0
 10
0.0
 20
0.0
 30
0.0
  3
*PAPER_SPACE
  1

  0
ENDBLK
  5
104
330
101
100
AcDbEntity
 67
     1
  8
0
100
AcDbBlockEnd
  0
BLOCK
  5
5D
330
59
100
AcDbEntity
  8
0
100
AcDbBlockBegin
  2
_OPEN30
 70
     0
 10
0.0
 20
0.0
 30
0.0
  3
_OPEN30
  1

  0
LINE
  5
5A
330
59
100
AcDbEntity
  8
0
 62
     0
100
AcDbLine
 10
-1.0
 20
0.26794919
 30
0.0
 11
0.0
 21
0.0
 31
0.0
  0
LINE
  5
5B
330
59
100
AcDbEntity
  8
0
 62
     0
100
AcDbLine
 10
0.0
 20
0.0
 30
0.0
 11
-1.0
 21
-0.26794919
 31
0.0
  0
LINE
  5
5C
330
59
100
AcDbEntity
  8
0
 62
     0
100
AcDbLine
 10
0.0
 20
0.0
 30
0.0
 11
-1.0
 21
0.0
 31
0.0
  0
ENDBLK
  5
5E
330
59
100
AcDbEntity
  8
0
100
AcDbBlockEnd
  0
BLOCK
  5
66
330
64
100
AcDbEntity
  8
0
100
AcDbBlockBegin
  2
GENAXEH
 70
     0
 10
0.0
 20
0.0
 30
0.0
  3
GENAXEH
  1

  0
LINE
  5
65
330
64
100
AcDbEntity
  8
0
100
AcDbLine
 10
-1.0
 20
0.0
 30
0.0
 11
1.0
 21
0.0
 31
0.0
  0
ENDBLK
  5
67
330
64
100
AcDbEntity
  8
0
100
AcDbBlockEnd
  0
BLOCK
  5
40C4
330
40BA
100
AcDbEntity
  8
0
100
AcDbBlockBegin
  2
*D5
 70
     1
 10
0.0
 20
0.0
 30
0.0
  3
*D5
  1

  0
LINE
  5
4445
330
40BA
100
AcDbEntity
  8
AM_5
100
AcDbLine
 10
0.5000000000002388
 20
3.000000000002272
 30
0.0
 11
7.500000000000246
 21
3.00000000000227
 31
0.0
  0
LINE
  5
4446
330
40BA
100
AcDbEntity
  8
AM_5
100
AcDbLine
 10
0.500000000000243
 20
-2.999999999997727
 30
0.0
 11
7.500000000000244
 21
-2.999999999997729
 31
0.0
  0
LINE
  5
4447
330
40BA
100
AcDbEntity
  8
AM_5
100
AcDbLine
 10
7.000000000000245
 20
1.75000000000227
 30
0.0
 11
7.000000000000245
 21
-1.749999999997729
 31
0.0
  0
INSERT
  5
4448
330
40BA
100
AcDbEntity
  8
AM_5
100
AcDbBlockReference
  2
_OPEN30
 10
7.000000000000246
 20
3.00000000000227
 30
0.0
 41
1.25
 42
1.25
 43
1.25
 50
90.0
  0
INSERT
  5
4449
330
40BA
100
AcDbEntity
  8
AM_5
100
AcDbBlockReference
  2
_OPEN30
 10
7.000000000000244
 20
-2.999999999997729
 30
0.0
 41
1.25
 42
1.25
 43
1.25
 50
270.0
  0
MTEXT
  5
444A
330
40BA
100
AcDbEntity
  8
AM_5
 62
     2
100
AcDbMText
 10
5.450000000000244
 20
0.0000000000022717
 30
0.0
 40
1.6
 41
0.0
 71
     5
 72
     1
  1
%%c6
  7
ASAMI
 11
0.0000000000000001
 21
1.0
 31
0.0
1001
ACAD
1000
MTEXTBEGIN
1070
    73
1070
     1
1070
    44
1040
1.0
1070
    74
1070
     0
1000
MTEXTEND
  0
POINT
  5
444B
330
40BA
100
AcDbEntity
  8
DEFPOINTS
 62
     0
100
AcDbPoint
 10
0.0000000000002387
 20
3.000000000002272
 30
0.0
  0
POINT
  5
444C
330
40BA
100
AcDbEntity
  8
DEFPOINTS
 62
     0
100
AcDbPoint
 10
0.000000000000243
 20
-2.999999999997727
 30
0.0
  0
POINT
  5
444D
330
40BA
100
AcDbEntity
  8
DEFPOINTS
 62
     0
100
AcDbPoint
 10
7.000000000000244
 20
-2.999999999997729
 30
0.0
  0
ENDBLK
  5
40C5
330
40BA
100
AcDbEntity
  8
0
100
AcDbBlockEnd
  0
BLOCK
  5
4150
330
4146
100
AcDbEntity
  8
0
100
AcDbBlockBegin
  2
*D6
 70
     1
 10
0.0
 20
0.0
 30
0.0
  3
*D6
  1

  0
LINE
  5
443C
330
4146
100
AcDbEntity
  8
AM_5
100
AcDbLine
 10
0.0000000000002387
 20
-3.499999999997727
 30
0.0
 11
0.0000000000002379
 21
-16.50000000001323
 31
0.0
  0
LINE
  5
443D
330
4146
100
AcDbEntity
  8
AM_5
100
AcDbLine
 10
-55.0
 20
-3.000000000013081
 30
0.0
 11
-55.0
 21
-16.50000000001323
 31
0.0
  0
LINE
  5
443E
330
4146
100
AcDbEntity
  8
AM_5
100
AcDbLine
 10
-1.249999999999761
 20
-16.00000000001323
 30
0.0
 11
-53.75
 21
-16.00000000001323
 31
0.0
  0
INSERT
  5
443F
330
4146
100
AcDbEntity
  8
AM_5
100
AcDbBlockReference
  2
_OPEN30
 10
0.0000000000002379
 20
-16.00000000001323
 30
0.0
 41
1.25
 42
1.25
 43
1.25
  0
INSERT
  5
4440
330
4146
100
AcDbEntity
  8
AM_5
100
AcDbBlockReference
  2
_OPEN30
 10
-55.0
 20
-16.00000000001323
 30
0.0
 41
1.25
 42
1.25
 43
1.25
 50
180.0
  0
MTEXT
  5
4441
330
4146
100
AcDbEntity
  8
AM_5
 62
     2
100
AcDbMText
 10
-27.49999999999988
 20
-14.45000000001322
 30
0.0
 40
1.6
 41
0.0
 71
     5
 72
     1
  1
55
  7
ASAMI
1001
ACAD
1000
MTEXTBEGIN
1070
    73
1070
     1
1070
    44
1040
1.0
1070
    74
1070
     0
1000
MTEXTEND
  0
POINT
  5
4442
330
4146
100
AcDbEntity
  8
DEFPOINTS
 62
     0
100
AcDbPoint
 10
0.0000000000002387
 20
-2.999999999997727
 30
0.0
  0
POINT
  5
4443
330
4146
100
AcDbEntity
  8
DEFPOINTS
 62
     0
100
AcDbPoint
 10
-55.0
 20
-2.500000000013081
 30
0.0
  0
POINT
  5
4444
330
4146
100
AcDbEntity
  8
DEFPOINTS
 62
     0
100
AcDbPoint
 10
-55.0
 20
-16.00000000001323
 30
0.0
  0
ENDBLK
  5
4151
330
4146
100
AcDbEntity
  8
0
100
AcDbBlockEnd
  0
BLOCK
  5
4249
330
423F
100
AcDbEntity
  8
0
100
AcDbBlockBegin
  2
*D7
 70
     1
 10
0.0
 20
0.0
 30
0.0
  3
*D7
  1

  0
LINE
  5
4433
330
423F
100
AcDbEntity
  8
AM_5
100
AcDbLine
 10
0.0000000000002387
 20
-3.499999999997727
 30
0.0
 11
0.0000000000002383
 21
-10.50000000001315
 31
0.0
  0
LINE
  5
4434
330
423F
100
AcDbEntity
  8
AM_5
100
AcDbLine
 10
-18.00000000000023
 20
-3.499999999997795
 30
0.0
 11
-18.00000000000023
 21
-10.50000000001315
 31
0.0
  0
LINE
  5
4435
330
423F
100
AcDbEntity
  8
AM_5
100
AcDbLine
 10
-1.249999999999761
 20
-10.00000000001315
 30
0.0
 11
-16.75000000000023
 21
-10.00000000001315
 31
0.0
  0
INSERT
  5
4436
330
423F
100
AcDbEntity
  8
AM_5
100
AcDbBlockReference
  2
_OPEN30
 10
0.0000000000002383
 20
-10.00000000001315
 30
0.0
 41
1.25
 42
1.25
 43
1.25
  0
INSERT
  5
4437
330
423F
100
AcDbEntity
  8
AM_5
100
AcDbBlockReference
  2
_OPEN30
 10
-18.00000000000023
 20
-10.00000000001315
 30
0.0
 41
1.25
 42
1.25
 43
1.25
 50
180.0
  0
MTEXT
  5
4438
330
423F
100
AcDbEntity
  8
AM_5
 62
     2
100
AcDbMText
 10
-9.0
 20
-8.450000000013154
 30
0.0
 40
1.6
 41
0.0
 71
     5
 72
     1
  1
18
  7
ASAMI
1001
ACAD
1000
MTEXTBEGIN
1070
    73
1070
     1
1070
    44
1040
1.0
1070
    74
1070
     0
1000
MTEXTEND
  0
POINT
  5
4439
330
423F
100
AcDbEntity
  8
DEFPOINTS
 62
     0
100
AcDbPoint
 10
0.0000000000002387
 20
-2.999999999997727
 30
0.0
  0
POINT
  5
443A
330
423F
100
AcDbEntity
  8
DEFPOINTS
 62
     0
100
AcDbPoint
 10
-18.00000000000023
 20
-2.999999999997795
 30
0.0
  0
POINT
  5
443B
330
423F
100
AcDbEntity
  8
DEFPOINTS
 62
     0
100
AcDbPoint
 10
-18.00000000000023
 20
-10.00000000001315
 30
0.0
  0
ENDBLK
  5
424A
330
423F
100
AcDbEntity
  8
0
100
AcDbBlockEnd
  0
BLOCK
  5
4355
330
434B
100
AcDbEntity
  8
0
100
AcDbBlockBegin
  2
*D8
 70
     1
 10
0.0
 20
0.0
 30
0.0
  3
*D8
  1

  0
LINE
  5
442A
330
434B
100
AcDbEntity
  8
AM_5
100
AcDbLine
 10
-54.99999999999998
 20
2.99999999998692
 30
0.0
 11
-62.5
 21
2.999999999986922
 31
0.0
  0
LINE
  5
442B
330
434B
100
AcDbEntity
  8
AM_5
100
AcDbLine
 10
-54.99999999999996
 20
-3.000000000013109
 30
0.0
 11
-62.5
 21
-3.000000000013107
 31
0.0
  0
LINE
  5
442C
330
434B
100
AcDbEntity
  8
AM_5
100
AcDbLine
 10
-61.99999999999999
 20
1.749999999986922
 30
0.0
 11
-61.99999999999999
 21
-1.750000000013107
 31
0.0
  0
INSERT
  5
442D
330
434B
100
AcDbEntity
  8
AM_5
100
AcDbBlockReference
  2
_OPEN30
 10
-61.99999999999999
 20
2.999999999986922
 30
0.0
 41
1.25
 42
1.25
 43
1.25
 50
90.0
  0
INSERT
  5
442E
330
434B
100
AcDbEntity
  8
AM_5
100
AcDbBlockReference
  2
_OPEN30
 10
-61.99999999999999
 20
-3.000000000013107
 30
0.0
 41
1.25
 42
1.25
 43
1.25
 50
270.0
  0
MTEXT
  5
442F
330
434B
100
AcDbEntity
  8
AM_5
 62
     2
100
AcDbMText
 10
-63.54999999999999
 20
-0.0000000000131024
 30
0.0
 40
1.6
 41
0.0
 71
     5
 72
     1
  1
%%c6
  7
ASAMI
 11
0.0000000000000001
 21
1.0
 31
0.0
1001
ACAD
1000
MTEXTBEGIN
1070
    73
1070
     1
1070
    44
1040
1.0
1070
    74
1070
     0
1000
MTEXTEND
  0
POINT
  5
4430
330
434B
100
AcDbEntity
  8
DEFPOINTS
 62
     0
100
AcDbPoint
 10
-54.49999999999998
 20
2.99999999998692
 30
0.0
  0
POINT
  5
4431
330
434B
100
AcDbEntity
  8
DEFPOINTS
 62
     0
100
AcDbPoint
 10
-54.49999999999996
 20
-3.000000000013109
 30
0.0
  0
POINT
  5
4432
330
434B
100
AcDbEntity
  8
DEFPOINTS
 62
     0
100
AcDbPoint
 10
-61.99999999999999
 20
-3.000000000013107
 30
0.0
  0
ENDBLK
  5
4356
330
434B
100
AcDbEntity
  8
0
100
AcDbBlockEnd
  0
ENDSEC
  0
SECTION
  2
ENTITIES
  0
TEXT
  5
1500
330
1F
100
AcDbEntity
  8
AM_6
100
AcDbText
 10
-38.15476190476178
 20
-27.25000000001323
 30
0.0
 40
2.5
  1
RSM4060ZX
 72
     4
 11
-27.49999999999988
 21
-26.00000000001323
 31
0.0
100
AcDbText
  0
LINE
  5
3CF2
330
1F
100
AcDbEntity
  8
AM_7
  6
AM_ISO08W050X2
100
AcDbLine
 10
3.075544978089624
 20
-0.000000000013068
 30
0.0
 11
-57.75369861738856
 21
-0.0000000000130562
 31
0.0
1001
GENIUS_GENODEF_13
1002
{
1000
HIER
1070
     0
1002
}
1002
{
1000
MANEDIT
1070
     0
1002
}
1002
{
1000
NOSEL
1070
     0
1002
}
1002
{
1000
BEHIND
1070
     0
1002
}
1002
{
1000
REACTOR
1002
}
1001
GENIUS_GENOBJ-N-CEN_13
1002
{
1000
OWNER
1000
GEN
1002
}
  0
SPLINE
  5
3F6E
330
1F
100
AcDbEntity
  8
AM_0
100
AcDbSpline
210
0.0
220
0.0
230
1.0
 70
     8
 71
     3
 72
     9
 73
     5
 74
     3
 42
0.0000000001
 43
0.0000000001
 44
0.0000000001
 12
-0.8798907302369263
 22
0.4751760756215831
 32
0.0
 13
-0.960668120577711
 23
-0.2776990495224797
 33
0.0
 40
0.0
 40
0.0
 40
0.0
 40
0.0
 40
0.6851763228301922
 40
1.298061314293702
 40
1.298061314293702
 40
1.298061314293702
 40
1.298061314293702
 10
-9.074999999999761
 20
-2.951000008103552
 30
0.0
 10
-9.27596009834513
 20
-2.84247354270646
 30
0.0
 10
-9.627787824596873
 20
-2.482539369346201
 30
0.0
 10
-10.07874030904264
 20
-2.688422170963238
 30
0.0
 10
-10.27500000000248
 20
-2.745154697495241
 30
0.0
 11
-9.074999999999761
 21
-2.951000008103552
 31
0.0
 11
-9.67499999999976
 21
-2.620142647044282
 31
0.0
 11
-10.27500000000248
 21
-2.745154697495241
 31
0.0
  0
SPLINE
  5
3F6F
330
1F
100
AcDbEntity
  8
AM_0
100
AcDbSpline
210
0.0
220
0.0
230
1.0
 70
     8
 71
     3
 72
     8
 73
     4
 74
     0
 42
0.0000000001
 43
0.0000000001
 40
1.788970302442027
 40
1.788970302442027
 40
1.788970302442027
 40
1.788970302442027
 40
3.332324051699147
 40
3.332324051699147
 40
3.332324051699147
 40
3.332324051699147
 10
-16.16237605517629
 20
-2.845927536718876
 30
0.0
 10
-16.46479302830751
 20
-2.809775061461563
 30
0.0
 10
-16.76469056817471
 20
-2.759057987432346
 30
0.0
 10
-17.06237605517275
 20
-2.695553250812475
 30
0.0
  0
SPLINE
  5
3F70
330
1F
100
AcDbEntity
  8
AM_0
100
AcDbSpline
210
0.0
220
0.0
230
1.0
 70
     8
 71
     3
 72
     8
 73
     4
 74
     0
 42
0.0000000001
 43
0.0000000001
 40
0.0
 40
0.0
 40
0.0
 40
0.0
 40
1.539536607901005
 40
1.539536607901005
 40
1.539536607901005
 40
1.539536607901005
 10
-16.14737605517624
 20
-2.999999999997693
 30
0.0
 10
-16.45528337675663
 20
-2.999999999997693
 30
0.0
 10
-16.76017663028273
 20
-2.983066967750541
 30
0.0
 10
-17.06237605517629
 20
-2.951000008103586
 30
0.0
  0
SPLINE
  5
3F71
330
1F
100
AcDbEntity
  8
AM_0
100
AcDbSpline
210
0.0
220
0.0
230
1.0
 70
     8
 71
     3
 72
     8
 73
     4
 74
     0
 42
0.0000000001
 43
0.0000000001
 40
0.2298684927509915
 40
0.2298684927509915
 40
0.2298684927509915
 40
0.2298684927509915
 40
2.764560748519282
 40
2.764560748519282
 40
2.764560748519282
 40
2.764560748519282
 10
-14.96237605517629
 20
-2.909069721523395
 30
0.0
 10
-14.45683326927259
 20
-2.90100151639341
 30
0.0
 10
-13.95892353661159
 20
-2.84880737251607
 30
0.0
 10
-13.46728523872219
 20
-2.760358673903625
 30
0.0
  0
SPLINE
  5
3F72
330
1F
100
AcDbEntity
  8
AM_0
100
AcDbSpline
210
0.0
220
0.0
230
1.0
 70
     8
 71
     3
 72
     8
 73
     4
 74
     0
 42
0.0000000001
 43
0.0000000001
 40
1.999245295235591
 40
1.999245295235591
 40
1.999245295235591
 40
1.999245295235591
 40
2.130230809022907
 40
2.130230809022907
 40
2.130230809022907
 40
2.130230809022907
 10
-14.96237605517629
 20
-2.918273968857705
 30
0.0
 10
-14.93679903290516
 20
-2.914790357113282
 30
0.0
 10
-14.91124081851315
 20
-2.911201082716446
 30
0.0
 10
-14.8857012147699
 20
-2.907507253709367
 30
0.0
  0
SPLINE
  5
3F73
330
1F
100
AcDbEntity
  8
AM_0
100
AcDbSpline
210
0.0
220
0.0
230
1.0
 70
     8
 71
     3
 72
     9
 73
     5
 74
     3
 42
0.0000000001
 43
0.0000000001
 44
0.0000000001
 12
0.8362726111173659
 22
0.5483138881105815
 32
0.0
 13
0.9001039467105636
 23
-0.4356752059918798
 33
0.0
 40
0.0
 40
0.0
 40
0.0
 40
0.0
 40
0.6670858981348573
 40
1.302722033326109
 40
1.302722033326109
 40
1.302722033326109
 40
1.302722033326109
 10
-16.16237605517629
 20
-2.999986608039047
 30
0.0
 10
-15.97642083321869
 20
-2.878062453869026
 30
0.0
 10
-15.5798825804329
 20
-2.565943654691036
 30
0.0
 10
-15.15308891982879
 20
-2.825963667479261
 30
0.0
 10
-14.96237605517629
 20
-2.918273968857705
 30
0.0
 11
-16.16237605517629
 21
-2.999986608039047
 31
0.0
 11
-15.56237605517629
 21
-2.708432847146845
 31
0.0
 11
-14.96237605517629
 21
-2.918273968857705
 31
0.0
  0
SPLINE
  5
3F74
330
1F
100
AcDbEntity
  8
AM_0
100
AcDbSpline
210
0.0
220
0.0
230
1.0
 70
     8
 71
     3
 72
     8
 73
     4
 74
     2
 42
0.0000000001
 43
0.0000000001
 44
0.0000000001
 12
0.8857418982387386
 22
0.4641780797328071
 32
0.0
 13
0.9626176208368656
 23
-0.2708640176442281
 33
0.0
 40
0.0
 40
0.0
 40
0.0
 40
0.0
 40
0.5993693246578069
 40
0.5993693246578069
 40
0.5993693246578069
 40
0.5993693246578069
 10
-16.16237605517629
 20
-2.845927536718876
 30
0.0
 10
-15.98541388072014
 20
-2.753189502662073
 30
0.0
 10
-15.77106292871126
 20
-2.655376307730042
 30
0.0
 10
-15.57874177094303
 20
-2.709492168839882
 30
0.0
 11
-16.16237605517629
 21
-2.845927536718876
 31
0.0
 11
-15.57874177094303
 21
-2.709492168839882
 31
0.0
  0
SPLINE
  5
3F75
330
1F
100
AcDbEntity
  8
AM_0
100
AcDbSpline
210
0.0
220
0.0
230
1.0
 70
     8
 71
     3
 72
     9
 73
     5
 74
     0
 42
0.0000000001
 43
0.0000000001
 40
0.0
 40
0.0
 40
0.0
 40
0.0
 40
1.141960538050321
 40
1.719110204138551
 40
1.719110204138551
 40
1.719110204138551
 40
1.719110204138551
 10
-17.06237605517629
 20
-2.951000008103586
 30
0.0
 10
-17.26333615352166
 20
-2.842473542706489
 30
0.0
 10
-17.54290567507107
 20
-2.556462472153124
 30
0.0
 10
-17.88506472283496
 20
-2.627720534287835
 30
0.0
 10
-17.99999999999989
 20
-2.66185890463886
 30
0.0
  0
SPLINE
  5
3F76
330
1F
100
AcDbEntity
  8
AM_0
100
AcDbSpline
210
0.0
220
0.0
230
1.0
 70
     8
 71
     3
 72
     8
 73
     4
 74
     2
 42
0.0000000001
 43
0.0000000001
 44
0.0000000001
 12
0.8857418982387386
 22
0.4641780797328071
 32
0.0
 13
0.9626176208368656
 23
-0.2708640176442281
 33
0.0
 40
0.0
 40
0.0
 40
0.0
 40
0.0
 40
0.5993693246578051
 40
0.5993693246578051
 40
0.5993693246578051
 40
0.5993693246578051
 10
-8.174999999999764
 20
-2.845927536718808
 30
0.0
 10
-7.998037825543605
 20
-2.753189502662005
 30
0.0
 10
-7.78368687353473
 20
-2.655376307729974
 30
0.0
 10
-7.591365715766498
 20
-2.709492168839814
 30
0.0
 11
-8.174999999999764
 21
-2.845927536718808
 31
0.0
 11
-7.591365715766498
 21
-2.709492168839814
 31
0.0
  0
SPLINE
  5
3F77
330
1F
100
AcDbEntity
  8
AM_0
100
AcDbSpline
210
0.0
220
0.0
230
1.0
 70
     8
 71
     3
 72
     9
 73
     5
 74
     3
 42
0.0000000001
 43
0.0000000001
 44
0.0000000001
 12
0.8362726111173659
 22
0.5483138881105815
 32
0.0
 13
0.9001039467105636
 23
-0.4356752059918798
 33
0.0
 40
0.0
 40
0.0
 40
0.0
 40
0.0
 40
0.6670858981348557
 40
1.302722033326107
 40
1.302722033326107
 40
1.302722033326107
 40
1.302722033326107
 10
-8.174999999999764
 20
-2.999986608038979
 30
0.0
 10
-7.989044778042161
 20
-2.878062453868958
 30
0.0
 10
-7.592506525256373
 20
-2.565943654690967
 30
0.0
 10
-7.165712864652263
 20
-2.825963667479193
 30
0.0
 10
-6.974999999999765
 20
-2.918273968857637
 30
0.0
 11
-8.174999999999764
 21
-2.999986608038979
 31
0.0
 11
-7.574999999999764
 21
-2.708432847146776
 31
0.0
 11
-6.974999999999765
 21
-2.918273968857637
 31
0.0
  0
SPLINE
  5
3F78
330
1F
100
AcDbEntity
  8
AM_0
100
AcDbSpline
210
0.0
220
0.0
230
1.0
 70
     8
 71
     3
 72
     9
 73
     5
 74
     3
 42
0.0000000001
 43
0.0000000001
 44
0.0000000001
 12
-0.6110826252653754
 22
0.7915668165725347
 32
0.0
 13
-0.9134460065687765
 23
-0.4069599403916245
 33
0.0
 40
0.0
 40
0.0
 40
0.0
 40
0.0
 40
0.6906357458896681
 40
1.298912761047656
 40
1.298912761047656
 40
1.298912761047656
 40
1.298912761047656
 10
-1.199999999999761
 20
-2.916218553724003
 30
0.0
 10
-1.34067850156655
 20
-2.733990440795642
 30
0.0
 10
-1.766797618315923
 20
-2.493901182481008
 30
0.0
 10
-2.214790596538547
 20
-2.591688319226136
 30
0.0
 10
-2.39999999999976
 20
-2.674203111836233
 30
0.0
 11
-1.199999999999761
 21
-2.916218553724003
 31
0.0
 11
-1.799999999999761
 21
-2.574198476096127
 31
0.0
 11
-2.39999999999976
 21
-2.674203111836233
 31
0.0
  0
SPLINE
  5
3F79
330
1F
100
AcDbEntity
  8
AM_0
100
AcDbSpline
210
0.0
220
0.0
230
1.0
 70
     8
 71
     3
 72
     8
 73
     4
 74
     0
 42
0.0000000001
 43
0.0000000001
 40
1.999245295235591
 40
1.999245295235591
 40
1.999245295235591
 40
1.999245295235591
 40
2.130230809022907
 40
2.130230809022907
 40
2.130230809022907
 40
2.130230809022907
 10
-6.974999999999765
 20
-2.918273968857637
 30
0.0
 10
-6.949422977728628
 20
-2.914790357113214
 30
0.0
 10
-6.923864763336625
 20
-2.911201082716378
 30
0.0
 10
-6.89832515959337
 20
-2.907507253709299
 30
0.0
  0
SPLINE
  5
3F7A
330
1F
100
AcDbEntity
  8
AM_0
100
AcDbSpline
210
0.0
220
0.0
230
1.0
 70
     8
 71
     3
 72
     8
 73
     4
 74
     0
 42
0.0000000001
 43
0.0000000001
 40
0.2298684927509915
 40
0.2298684927509915
 40
0.2298684927509915
 40
0.2298684927509915
 40
2.764560748519282
 40
2.764560748519282
 40
2.764560748519282
 40
2.764560748519282
 10
-6.974999999999765
 20
-2.909069721523327
 30
0.0
 10
-6.469457214096057
 20
-2.901001516393343
 30
0.0
 10
-5.971547481435065
 20
-2.848807372516001
 30
0.0
 10
-5.479909183545657
 20
-2.760358673903591
 30
0.0
  0
SPLINE
  5
3F7B
330
1F
100
AcDbEntity
  8
AM_0
100
AcDbSpline
210
0.0
220
0.0
230
1.0
 70
     8
 71
     3
 72
     8
 73
     4
 74
     0
 42
0.0000000001
 43
0.0000000001
 40
1.870660592686466
 40
1.870660592686466
 40
1.870660592686466
 40
1.870660592686466
 40
3.826008700541491
 40
3.826008700541491
 40
3.826008700541491
 40
3.826008700541491
 10
-0.0629999999997722
 20
-2.84006469457072
 30
0.0
 10
-0.4458095997091164
 20
-2.792314311189058
 30
0.0
 10
-0.824601231853228
 20
-2.72133644791934
 30
0.0
 10
-1.199999999998397
 20
-2.630744767710167
 30
0.0
  0
SPLINE
  5
3F7C
330
1F
100
AcDbEntity
  8
AM_0
100
AcDbSpline
210
0.0
220
0.0
230
1.0
 70
     8
 71
     3
 72
     8
 73
     4
 74
     0
 42
0.0000000001
 43
0.0000000001
 40
0.0
 40
0.0
 40
0.0
 40
0.0
 40
2.024855066027545
 40
2.024855066027545
 40
2.024855066027545
 40
2.024855066027545
 10
0.0000000000002387
 20
-2.999999999997727
 30
0.0
 10
-0.4049710132051928
 20
-2.999999999997727
 30
0.0
 10
-0.8047281479961725
 20
-2.970708434663266
 30
0.0
 10
-1.199999999999761
 20
-2.916218553724003
 30
0.0
  0
SPLINE
  5
3F7D
330
1F
100
AcDbEntity
  8
AM_0
100
AcDbSpline
210
0.0
220
0.0
230
1.0
 70
     8
 71
     3
 72
     8
 73
     4
 74
     0
 42
0.0000000001
 43
0.0000000001
 40
1.788970302442027
 40
1.788970302442027
 40
1.788970302442027
 40
1.788970302442027
 40
3.332324051699147
 40
3.332324051699147
 40
3.332324051699147
 40
3.332324051699147
 10
-8.174999999999764
 20
-2.845927536718808
 30
0.0
 10
-8.477416973130987
 20
-2.809775061461495
 30
0.0
 10
-8.777314512998183
 20
-2.759057987432278
 30
0.0
 10
-9.074999999996213
 20
-2.695553250812441
 30
0.0
  0
SPLINE
  5
3F7E
330
1F
100
AcDbEntity
  8
AM_0
100
AcDbSpline
210
0.0
220
0.0
230
1.0
 70
     8
 71
     3
 72
     8
 73
     4
 74
     0
 42
0.0000000001
 43
0.0000000001
 40
0.0
 40
0.0
 40
0.0
 40
0.0
 40
1.539536607901005
 40
1.539536607901005
 40
1.539536607901005
 40
1.539536607901005
 10
-8.15999999999971
 20
-2.999999999997625
 30
0.0
 10
-8.467907321580097
 20
-2.999999999997625
 30
0.0
 10
-8.772800575106195
 20
-2.983066967750472
 30
0.0
 10
-9.074999999999761
 20
-2.951000008103552
 30
0.0
  0
SPLINE
  5
3F7F
330
1F
100
AcDbEntity
  8
AM_0
100
AcDbSpline
210
0.0
220
0.0
230
1.0
 70
     8
 71
     3
 72
     8
 73
     4
 74
     0
 42
0.0000000001
 43
0.0000000001
 40
14.25229543663493
 40
14.25229543663493
 40
14.25229543663493
 40
14.25229543663493
 40
14.43901837670146
 40
14.43901837670146
 40
14.43901837670146
 40
14.43901837670146
 10
-15.37499999999976
 20
0.0564475954331314
 30
0.0
 10
-15.34090988070551
 20
0.03763382815266
 30
0.0
 10
-15.3068203057542
 20
0.0188169140775003
 30
0.0
 10
-15.27273073080317
 20
0.0000000000023405
 30
0.0
  0
SPLINE
  5
3F80
330
1F
100
AcDbEntity
  8
AM_0
100
AcDbSpline
210
0.0
220
0.0
230
1.0
 70
     8
 71
     3
 72
     8
 73
     4
 74
     0
 42
0.0000000001
 43
0.0000000001
 40
12.98298737538389
 40
12.98298737538389
 40
12.98298737538389
 40
12.98298737538389
 40
14.43901837670148
 40
14.43901837670148
 40
14.43901837670148
 40
14.43901837670148
 10
-14.47499999998202
 20
-0.4387003988339771
 30
0.0
 10
-14.74108231167487
 20
-0.2934616414311918
 30
0.0
 10
-15.00690652123888
 20
-0.1467308207144256
 30
0.0
 10
-15.27273073080317
 20
0.0000000000023405
 30
0.0
  0
SPLINE
  5
3F81
330
1F
100
AcDbEntity
  8
AM_0
100
AcDbSpline
210
0.0
220
0.0
230
1.0
 70
     8
 71
     3
 72
     9
 73
     5
 74
     3
 42
0.0000000001
 43
0.0000000001
 44
0.0000000001
 12
-0.70922844039674
 22
0.7049787367945277
 32
0.0
 13
-0.9773066838349782
 23
-0.2118292844048671
 33
0.0
 40
0.0
 40
0.0
 40
0.0
 40
0.0
 40
0.893635771629135
 40
1.493635771629134
 40
1.493635771629134
 40
1.493635771629134
 40
1.493635771629134
 10
-13.27499999999976
 20
-1.077176047631134
 30
0.0
 10
-13.48626396819818
 20
-0.8671779751519641
 30
0.0
 10
-13.70424298393477
 20
-0.2946415918609466
 30
0.0
 10
-14.27953866323276
 20
-0.3725527692476157
 30
0.0
 10
-14.47499999999975
 20
-0.4149186261285891
 30
0.0
 11
-13.27499999999976
 21
-1.077176047631134
 31
0.0
 11
-13.87499999999976
 21
-0.4149186261285891
 31
0.0
 11
-14.47499999999975
 21
-0.4149186261285891
 31
0.0
  0
SPLINE
  5
3F82
330
1F
100
AcDbEntity
  8
AM_0
100
AcDbSpline
210
0.0
220
0.0
230
1.0
 70
     8
 71
     3
 72
     8
 73
     4
 74
     0
 42
0.0000000001
 43
0.0000000001
 40
9.170645305362121
 40
9.170645305362121
 40
9.170645305362121
 40
9.170645305362121
 40
10.79891126818747
 40
10.79891126818747
 40
10.79891126818747
 40
10.79891126818747
 10
-12.37499999999976
 20
-1.522071884367029
 30
0.0
 10
-12.67604758435649
 20
-1.379829255355868
 30
0.0
 10
-12.97592726529195
 20
-1.230835090203505
 30
0.0
 10
-13.27500000004341
 20
-1.077176047608624
 30
0.0
  0
SPLINE
  5
3F83
330
1F
100
AcDbEntity
  8
AM_0
100
AcDbSpline
210
0.0
220
0.0
230
1.0
 70
     8
 71
     3
 72
     9
 73
     5
 74
     3
 42
0.0000000001
 43
0.0000000001
 44
0.0000000001
 12
-0.5352929995799692
 22
0.8446664457646459
 32
0.0
 13
-0.9737293462750431
 23
-0.2277084983103998
 33
0.0
 40
0.0
 40
0.0
 40
0.0
 40
0.0
 40
0.8510069476132251
 40
1.456012053935166
 40
1.456012053935166
 40
1.456012053935166
 40
1.456012053935166
 10
-11.17499999999976
 20
-2.047911697124051
 30
0.0
 10
-11.32684602055018
 20
-1.808306025870223
 30
0.0
 10
-11.65042777366727
 20
-1.292737364139326
 30
0.0
 10
-12.17862959112221
 20
-1.476150282950659
 30
0.0
 10
-12.37500000001285
 20
-1.52207188436089
 30
0.0
 11
-11.17499999999976
 21
-2.047911697124051
 31
0.0
 11
-11.77499999999976
 21
-1.444411220830967
 31
0.0
 11
-12.37500000001285
 21
-1.52207188436089
 31
0.0
  0
SPLINE
  5
3F84
330
1F
100
AcDbEntity
  8
AM_0
100
AcDbSpline
210
0.0
220
0.0
230
1.0
 70
     8
 71
     3
 72
     8
 73
     4
 74
     0
 42
0.0000000001
 43
0.0000000001
 40
5.425905956994038
 40
5.425905956994038
 40
5.425905956994038
 40
5.425905956994038
 40
7.019702002723574
 40
7.019702002723574
 40
7.019702002723574
 40
7.019702002723574
 10
-10.27499999999976
 20
-2.370960512679199
 30
0.0
 10
-10.57680150573154
 20
-2.272929677789421
 30
0.0
 10
-10.87668866738816
 20
-2.163832205905806
 30
0.0
 10
-11.17499999999976
 20
-2.045625019505202
 30
0.0
  0
SPLINE
  5
3F85
330
1F
100
AcDbEntity
  8
AM_0
100
AcDbSpline
210
0.0
220
0.0
230
1.0
 70
     8
 71
     3
 72
     8
 73
     4
 74
     0
 42
0.0000000001
 43
0.0000000001
 40
3.600603813281411
 40
3.600603813281411
 40
3.600603813281411
 40
3.600603813281411
 40
5.175009087017798
 40
5.175009087017798
 40
5.175009087017798
 40
5.175009087017798
 10
-10.27500000000003
 20
-2.745154697495787
 30
0.0
 10
-10.57725470626231
 20
-2.674219880421584
 30
0.0
 10
-10.87714054123529
 20
-2.589976746076969
 30
0.0
 10
-11.17499999999976
 20
-2.494349431592878
 30
0.0
  0
SPLINE
  5
3F86
330
1F
100
AcDbEntity
  8
AM_0
100
AcDbSpline
210
0.0
220
0.0
230
1.0
 70
     8
 71
     3
 72
     9
 73
     5
 74
     3
 42
0.0000000001
 43
0.0000000001
 44
0.0000000001
 12
-0.7007569881530875
 22
0.7134000585608428
 32
0.0
 13
-0.954040132710994
 23
-0.2996788700872805
 33
0.0
 40
0.0
 40
0.0
 40
0.0
 40
0.0
 40
0.7412787847412237
 40
1.352665469883957
 40
1.352665469883957
 40
1.352665469883957
 40
1.352665469883957
 10
-9.074999999999761
 20
-2.688823376941196
 30
0.0
 10
-9.248152096192107
 20
-2.512547267459763
 30
0.0
 10
-9.605158114774257
 20
-2.112517188708787
 30
0.0
 10
-10.08057085525708
 20
-2.309887289015463
 30
0.0
 10
-10.27500000000085
 20
-2.37096051267879
 30
0.0
 11
-9.074999999999761
 21
-2.688823376941196
 31
0.0
 11
-9.67499999999976
 21
-2.253514019463751
 31
0.0
 11
-10.27500000000085
 21
-2.37096051267879
 31
0.0
  0
SPLINE
  5
3F87
330
1F
100
AcDbEntity
  8
AM_0
100
AcDbSpline
210
0.0
220
0.0
230
1.0
 70
     8
 71
     3
 72
     8
 73
     4
 74
     0
 42
0.0000000001
 43
0.0000000001
 40
5.307227569610006
 40
5.307227569610006
 40
5.307227569610006
 40
5.307227569610006
 40
5.635889483499305
 40
5.635889483499305
 40
5.635889483499305
 40
5.635889483499305
 10
-11.24999999999979
 20
2.470017373464518
 30
0.0
 10
-11.31210852772686
 20
2.449658558291797
 30
0.0
 10
-11.37413000377567
 20
2.42881068684894
 30
0.0
 10
-11.4360675438262
 20
2.407491263025052
 30
0.0
  0
SPLINE
  5
3F88
330
1F
100
AcDbEntity
  8
AM_0
100
AcDbSpline
210
0.0
220
0.0
230
1.0
 70
     8
 71
     3
 72
     9
 73
     5
 74
     3
 42
0.0000000001
 43
0.0000000001
 44
0.0000000001
 12
0.9763857352009798
 22
-0.216034478951954
 32
0.0
 13
0.7423022879960327
 23
0.6700651559631014
 33
0.0
 40
0.0
 40
0.0
 40
0.0
 40
0.0
 40
0.6013753406790424
 40
1.304199931115203
 40
1.304199931115203
 40
1.304199931115203
 40
1.304199931115203
 10
-11.24999999999979
 20
2.470017373464791
 30
0.0
 10
-11.05427523195291
 20
2.426711437338741
 30
0.0
 10
-10.59605880283985
 20
2.341493254322632
 30
0.0
 10
-10.22390276718
 20
2.638398202476501
 30
0.0
 10
-10.04999999999979
 20
2.795377625411604
 30
0.0
 11
-11.24999999999979
 21
2.470017373464791
 31
0.0
 11
-10.64999999999976
 21
2.429368875623025
 31
0.0
 11
-10.04999999999979
 21
2.795377625411604
 31
0.0
  0
SPLINE
  5
3F89
330
1F
100
AcDbEntity
  8
AM_0
100
AcDbSpline
210
0.0
220
0.0
230
1.0
 70
     8
 71
     3
 72
     8
 73
     4
 74
     0
 42
0.0000000001
 43
0.0000000001
 40
2.489821994174631
 40
2.489821994174631
 40
2.489821994174631
 40
2.489821994174631
 40
4.043019649814397
 40
4.043019649814397
 40
4.043019649814397
 40
4.043019649814397
 10
-13.79999999999979
 20
2.787832045297021
 30
0.0
 10
-13.4978931350616
 20
2.738505531558642
 30
0.0
 10
-13.19819657440318
 20
2.675245283097523
 30
0.0
 10
-12.90059701838206
 20
2.599862454690195
 30
0.0
  0
SPLINE
  5
3F8A
330
1F
100
AcDbEntity
  8
AM_0
100
AcDbSpline
210
0.0
220
0.0
230
1.0
 70
     8
 71
     3
 72
     8
 73
     4
 74
     0
 42
0.0000000001
 43
0.0000000001
 40
4.306226182506206
 40
4.306226182506206
 40
4.306226182506206
 40
4.306226182506206
 40
5.890739774064351
 40
5.890739774064351
 40
5.890739774064351
 40
5.890739774064351
 10
-13.79999999999979
 20
2.6419328279964
 30
0.0
 10
-13.49787246899556
 20
2.558925835900502
 30
0.0
 10
-13.1979888471277
 20
2.463312563823841
 30
0.0
 10
-12.89999999999976
 20
2.357054448567281
 30
0.0
  0
SPLINE
  5
3F8B
330
1F
100
AcDbEntity
  8
AM_0
100
AcDbSpline
210
0.0
220
0.0
230
1.0
 70
     8
 71
     3
 72
     9
 73
     5
 74
     3
 42
0.0000000001
 43
0.0000000001
 44
0.0000000001
 12
-0.9980349569700278
 22
-0.0626595935658276
 32
0.0
 13
-0.9269020209125923
 23
0.375303402100424
 33
0.0
 40
0.0
 40
0.0
 40
0.0
 40
0.0
 40
0.6005933150532578
 40
1.217800683596475
 40
1.217800683596475
 40
1.217800683596475
 40
1.217800683596475
 10
-13.79999999999979
 20
2.787832045297021
 30
0.0
 10
-13.99980437444835
 20
2.775287734290491
 30
0.0
 10
-14.40649035690508
 20
2.721027753467732
 30
0.0
 10
-14.80930308092484
 20
2.82865284404681
 30
0.0
 10
-14.99999999999979
 20
2.905866185785383
 30
0.0
 11
-13.79999999999979
 21
2.787832045297021
 31
0.0
 11
-14.39999999999979
 21
2.761142532625147
 31
0.0
 11
-14.99999999999979
 21
2.905866185785383
 31
0.0
  0
SPLINE
  5
3F8C
330
1F
100
AcDbEntity
  8
AM_0
100
AcDbSpline
210
0.0
220
0.0
230
1.0
 70
     8
 71
     3
 72
     9
 73
     5
 74
     3
 42
0.0000000001
 43
0.0000000001
 44
0.0000000001
 12
-0.9815548294604763
 22
-0.1911808483159736
 32
0.0
 13
-0.8368779624517479
 23
0.5473895102782028
 33
0.0
 40
0.0
 40
0.0
 40
0.0
 40
0.0
 40
0.6066471948289816
 40
1.299518269605077
 40
1.299518269605077
 40
1.299518269605077
 40
1.299518269605077
 10
-13.79999999999979
 20
2.6419328279964
 30
0.0
 10
-13.99848582795414
 20
2.60327305288443
 30
0.0
 10
-14.45123930450071
 20
2.426957240149378
 30
0.0
 10
-14.80671715556633
 20
2.772462003893079
 30
0.0
 10
-14.99999999999979
 20
2.898885456662286
 30
0.0
 11
-13.79999999999979
 21
2.6419328279964
 31
0.0
 11
-14.39999999999979
 21
2.552373802801433
 31
0.0
 11
-14.99999999999979
 21
2.898885456662286
 31
0.0
  0
SPLINE
  5
3F8D
330
1F
100
AcDbEntity
  8
AM_0
100
AcDbSpline
210
0.0
220
0.0
230
1.0
 70
     8
 71
     3
 72
     8
 73
     4
 74
     0
 42
0.0000000001
 43
0.0000000001
 40
6.150480381241876
 40
6.150480381241876
 40
6.150480381241876
 40
6.150480381241876
 40
7.75241736749254
 40
7.75241736749254
 40
7.75241736749254
 40
7.75241736749254
 10
-11.69999999999976
 20
2.230581734982136
 30
0.0
 10
-11.39833609823457
 20
2.122343027792497
 30
0.0
 10
-11.09845067452355
 20
2.003823111866971
 30
0.0
 10
-10.79999999999976
 20
1.877009050370337
 30
0.0
  0
SPLINE
  5
3F8E
330
1F
100
AcDbEntity
  8
AM_0
100
AcDbSpline
210
0.0
220
0.0
230
1.0
 70
     8
 71
     3
 72
     8
 73
     4
 74
     0
 42
0.0000000001
 43
0.0000000001
 40
8.034594408064972
 40
8.034594408064972
 40
8.034594408064972
 40
8.034594408064972
 40
9.661611892530016
 40
9.661611892530016
 40
9.661611892530016
 40
9.661611892530016
 10
-11.69999999999976
 20
1.872149307845232
 30
0.0
 10
-11.39862626907146
 20
1.737150099239373
 30
0.0
 10
-11.09875226605166
 20
1.59372542027729
 30
0.0
 10
-10.80000000000003
 20
1.443998823804325
 30
0.0
  0
SPLINE
  5
3F8F
330
1F
100
AcDbEntity
  8
AM_0
100
AcDbSpline
210
0.0
220
0.0
230
1.0
 70
     8
 71
     3
 72
     9
 73
     5
 74
     3
 42
0.0000000001
 43
0.0000000001
 44
0.0000000001
 12
-0.8872020512481618
 22
0.4613811008928021
 32
0.0
 13
-0.9856395606727495
 23
0.1688628332014753
 33
0.0
 40
0.0
 40
0.0
 40
0.0
 40
0.0
 40
0.647385001970026
 40
1.260474216359166
 40
1.260474216359166
 40
1.260474216359166
 40
1.260474216359166
 10
-11.69999999999976
 20
2.230581734982273
 30
0.0
 10
-11.89145376723146
 20
2.330145469952412
 30
0.0
 10
-12.28301782094382
 20
2.49336808219679
 30
0.0
 10
-12.69857167202522
 20
2.565201883983367
 30
0.0
 10
-12.89999999999979
 20
2.599711211232373
 30
0.0
 11
-11.69999999999976
 21
2.230581734982273
 31
0.0
 11
-12.29999999999979
 21
2.473701748094502
 31
0.0
 11
-12.89999999999979
 21
2.599711211232373
 31
0.0
  0
SPLINE
  5
3F90
330
1F
100
AcDbEntity
  8
AM_0
100
AcDbSpline
210
0.0
220
0.0
230
1.0
 70
     8
 71
     3
 72
     9
 73
     5
 74
     3
 42
0.0000000001
 43
0.0000000001
 44
0.0000000001
 12
-0.9971207175624305
 22
0.075830565129001
 32
0.0
 13
-0.7822668508322156
 23
0.6229434758379352
 33
0.0
 40
0.0
 40
0.0
 40
0.0
 40
0.0
 40
0.6058536047807063
 40
1.327457769094788
 40
1.327457769094788
 40
1.327457769094788
 40
1.327457769094788
 10
-11.69999999999976
 20
1.872149307845505
 30
0.0
 10
-11.90136972704533
 20
1.887463381590826
 30
0.0
 10
-12.3645070749245
 20
1.891688264696791
 30
0.0
 10
-12.71183766094463
 20
2.207214913134967
 30
0.0
 10
-12.89999999999976
 20
2.357054448567281
 30
0.0
 11
-11.69999999999976
 21
1.872149307845505
 31
0.0
 11
-12.29999999999976
 21
1.956164725631627
 31
0.0
 11
-12.89999999999976
 21
2.357054448567281
 31
0.0
  0
SPLINE
  5
3F91
330
1F
100
AcDbEntity
  8
AM_0
100
AcDbSpline
210
0.0
220
0.0
230
1.0
 70
     8
 71
     3
 72
     9
 73
     5
 74
     3
 42
0.0000000001
 43
0.0000000001
 44
0.0000000001
 12
-0.774417105688407
 22
0.6326753878705817
 32
0.0
 13
-0.997664332449759
 23
-0.0683072452787872
 33
0.0
 40
0.0
 40
0.0
 40
0.0
 40
0.0
 40
0.756601502184129
 40
1.363657336441084
 40
1.363657336441084
 40
1.363657336441084
 40
1.363657336441084
 10
-9.599999999999761
 20
1.323804149467444
 30
0.0
 10
-9.795308381826739
 20
1.483365199086714
 30
0.0
 10
-10.11425323147812
 20
1.8394950384474
 30
0.0
 10
-10.59812068211852
 20
1.890831154293173
 30
0.0
 10
-10.79999999999976
 20
1.877009050370337
 30
0.0
 11
-9.599999999999761
 21
1.323804149467444
 31
0.0
 11
-10.19999999999976
 21
1.784722616343399
 31
0.0
 11
-10.79999999999976
 21
1.877009050370337
 31
0.0
  0
SPLINE
  5
3F92
330
1F
100
AcDbEntity
  8
AM_0
100
AcDbSpline
210
0.0
220
0.0
230
1.0
 70
     8
 71
     3
 72
     9
 73
     5
 74
     3
 42
0.0000000001
 43
0.0000000001
 44
0.0000000001
 12
-0.9430790451623929
 22
0.3325686614454065
 32
0.0
 13
-0.7408851562591475
 23
0.6716317333441437
 33
0.0
 40
0.0
 40
0.0
 40
0.0
 40
0.0
 40
0.6437366265373102
 40
1.364728331078088
 40
1.364728331078088
 40
1.364728331078088
 40
1.364728331078088
 10
-9.599999999999761
 20
0.8109812725791229
 30
0.0
 10
-9.802364841030049
 20
0.8823434819827545
 30
0.0
 10
-10.23431224475517
 20
1.028444765542717
 30
0.0
 10
-10.62194264943804
 20
1.282585187720879
 30
0.0
 10
-10.79999999999812
 20
1.44399882380337
 30
0.0
 11
-9.599999999999761
 21
0.8109812725791229
 31
0.0
 11
-10.19999999999976
 21
1.044212583396596
 31
0.0
 11
-10.79999999999812
 21
1.44399882380337
 31
0.0
  0
SPLINE
  5
3F93
330
1F
100
AcDbEntity
  8
AM_0
100
AcDbSpline
210
0.0
220
0.0
230
1.0
 70
     8
 71
     3
 72
     8
 73
     4
 74
     0
 42
0.0000000001
 43
0.0000000001
 40
0.3581103616548037
 40
0.3581103616548037
 40
0.3581103616548037
 40
0.3581103616548037
 40
0.4557920900567158
 40
0.4557920900567158
 40
0.4557920900567158
 40
0.4557920900567158
 10
-15.05832515959307
 20
2.907507253713877
 30
0.0
 10
-15.03887223163808
 20
2.907025023952858
 30
0.0
 10
-15.01943053775119
 20
2.906477851136217
 30
0.0
 10
-14.99999999999979
 20
2.905866185785383
 30
0.0
  0
SPLINE
  5
3F94
330
1F
100
AcDbEntity
  8
AM_0
100
AcDbSpline
210
0.0
220
0.0
230
1.0
 70
     8
 71
     3
 72
     8
 73
     4
 74
     0
 42
0.0000000001
 43
0.0000000001
 40
1.666991338825053
 40
1.666991338825053
 40
1.666991338825053
 40
1.666991338825053
 40
3.21070440243455
 40
3.21070440243455
 40
3.21070440243455
 40
3.21070440243455
 10
-9.149999999998703
 20
2.942725602120047
 30
0.0
 10
-9.452574190587052
 20
2.908071410830301
 30
0.0
 10
-9.752466573008927
 20
2.85835082311389
 30
0.0
 10
-10.04999999999979
 20
2.795377625411604
 30
0.0
  0
SPLINE
  5
3F95
330
1F
100
AcDbEntity
  8
AM_0
100
AcDbSpline
210
0.0
220
0.0
230
1.0
 70
     8
 71
     3
 72
     8
 73
     4
 74
     0
 42
0.0000000001
 43
0.0000000001
 40
11.33959573889505
 40
11.33959573889505
 40
11.33959573889505
 40
11.33959573889505
 40
14.36247867694493
 40
14.36247867694493
 40
14.36247867694493
 40
14.36247867694493
 10
-17.99999999999982
 20
1.954920288595324
 30
0.0
 10
-15.17967545049572
 20
0.5831024514062606
 30
0.0
 10
-14.62324272095523
 20
0.2915512257043005
 30
0.0
 10
-14.06680999141475
 20
0.0000000000023405
 30
0.0
  0
SPLINE
  5
3F96
330
1F
100
AcDbEntity
  8
AM_0
100
AcDbSpline
210
0.0
220
0.0
230
1.0
 70
     8
 71
     3
 72
     9
 73
     5
 74
     3
 42
0.0000000001
 43
0.0000000001
 44
0.0000000001
 12
-0.70922844039674
 22
0.7049787367945277
 32
0.0
 13
-0.9773066838349782
 23
-0.2118292844048671
 33
0.0
 40
0.0
 40
0.0
 40
0.0
 40
0.0
 40
0.8738226541303298
 40
1.474156454803049
 40
1.474156454803049
 40
1.474156454803049
 40
1.474156454803049
 10
-15.37499999999976
 20
0.0564475954330632
 30
0.0
 10
-15.58157995939049
 20
0.2617897257301436
 30
0.0
 10
-15.81580748099091
 20
0.7939820614678045
 30
0.0
 10
-16.37942992140161
 20
0.754122290740982
 30
0.0
 10
-16.57500000004478
 20
0.7117328642741299
 30
0.0
 11
-15.37499999999976
 21
0.0564475954330632
 31
0.0
 11
-15.97499999999976
 21
0.6917160669247423
 31
0.0
 11
-16.57500000004478
 21
0.7117328642741299
 31
0.0
  0
SPLINE
  5
3F97
330
1F
100
AcDbEntity
  8
AM_0
100
AcDbSpline
210
0.0
220
0.0
230
1.0
 70
     8
 71
     3
 72
     9
 73
     5
 74
     3
 42
0.0000000001
 43
0.0000000001
 44
0.0000000001
 12
-0.8041147091497457
 22
0.5944741664101309
 32
0.0
 13
-0.9870280271745949
 23
-0.1605480413204323
 33
0.0
 40
0.0
 40
0.0
 40
0.0
 40
0.0
 40
0.7179994188451757
 40
1.319985603298565
 40
1.319985603298565
 40
1.319985603298565
 40
1.319985603298565
 10
-11.17499999999976
 20
-2.494349431594379
 30
0.0
 10
-11.36745129795121
 20
-2.352072062927398
 30
0.0
 10
-11.70614783420362
 20
-2.042658365339765
 30
0.0
 10
-12.17694092132669
 20
-2.018908593612889
 30
0.0
 10
-12.37500000000248
 20
-2.051124494551539
 30
0.0
 11
-11.17499999999976
 21
-2.494349431594379
 31
0.0
 11
-11.77499999999976
 21
-2.09998517679685
 31
0.0
 11
-12.37500000000248
 21
-2.051124494551539
 31
0.0
  0
SPLINE
  5
3F98
330
1F
100
AcDbEntity
  8
AM_0
100
AcDbSpline
210
0.0
220
0.0
230
1.0
 70
     8
 71
     3
 72
     8
 73
     4
 74
     0
 42
0.0000000001
 43
0.0000000001
 40
7.307451768075528
 40
7.307451768075528
 40
7.307451768075528
 40
7.307451768075528
 40
8.927702162744216
 40
8.927702162744216
 40
8.927702162744216
 40
8.927702162744216
 10
-12.37499999999976
 20
-2.051124494552631
 30
0.0
 10
-12.67653037561498
 20
-1.921396019423833
 30
0.0
 10
-12.97640594424441
 20
-1.785583637218384
 30
0.0
 10
-13.27499999999976
 20
-1.645480992145509
 30
0.0
  0
SPLINE
  5
3F99
330
1F
100
AcDbEntity
  8
AM_0
100
AcDbSpline
210
0.0
220
0.0
230
1.0
 70
     8
 71
     3
 72
     9
 73
     5
 74
     3
 42
0.0000000001
 43
0.0000000001
 44
0.0000000001
 12
-0.6468728043913146
 22
0.7625979117063699
 32
0.0
 13
-0.9968429144675985
 23
0.0793990168436886
 33
0.0
 40
0.0
 40
0.0
 40
0.0
 40
0.0
 40
0.7253619712879679
 40
1.358926286985648
 40
1.358926286985648
 40
1.358926286985648
 40
1.358926286985648
 10
-13.27499999999976
 20
-1.645480992145509
 30
0.0
 10
-13.43140564418838
 20
-1.461094483967035
 30
0.0
 10
-13.84577254084436
 20
-1.247258840201163
 30
0.0
 10
-14.26447863367884
 20
-1.051155023582442
 30
0.0
 10
-14.47499999999975
 20
-1.034386895657895
 30
0.0
 11
-13.27499999999976
 21
-1.645480992145509
 31
0.0
 11
-13.87499999999976
 21
-1.237865990715523
 31
0.0
 11
-14.47499999999975
 21
-1.034386895657895
 31
0.0
  0
SPLINE
  5
3F9A
330
1F
100
AcDbEntity
  8
AM_0
100
AcDbSpline
210
0.0
220
0.0
230
1.0
 70
     8
 71
     3
 72
     9
 73
     5
 74
     3
 42
0.0000000001
 43
0.0000000001
 44
0.0000000001
 12
-0.6468728043913146
 22
0.7625979117063699
 32
0.0
 13
-0.9968429144675985
 23
0.0793990168436886
 33
0.0
 40
0.0
 40
0.0
 40
0.0
 40
0.0
 40
0.7150072547513455
 40
1.404869709030389
 40
1.404869709030389
 40
1.404869709030389
 40
1.404869709030389
 10
-15.37499999999976
 20
-0.53838394567846
 30
0.0
 10
-15.52917291601347
 20
-0.3566295992356998
 30
0.0
 10
-15.89513033101692
 20
-0.0545895320483445
 30
0.0
 10
-16.34577183349799
 20
0.1290709244536794
 30
0.0
 10
-16.57499999999976
 20
0.1473290579960562
 30
0.0
 11
-15.37499999999976
 21
-0.53838394567846
 31
0.0
 11
-15.92361600731014
 21
-0.0798473049725445
 31
0.0
 11
-16.57499999999976
 21
0.1473290579960562
 31
0.0
  0
SPLINE
  5
3F9B
330
1F
100
AcDbEntity
  8
AM_0
100
AcDbSpline
210
0.0
220
0.0
230
1.0
 70
     8
 71
     3
 72
     8
 73
     4
 74
     0
 42
0.0000000001
 43
0.0000000001
 40
12.93073884177286
 40
12.93073884177286
 40
12.93073884177286
 40
12.93073884177286
 40
13.17864449622839
 40
13.17864449622839
 40
13.17864449622839
 40
13.17864449622839
 10
-16.57499999999976
 20
0.1473290579960903
 30
0.0
 10
-16.77040832890926
 20
0.2583937654817973
 30
0.0
 10
-16.98626897304831
 20
0.3811688291834557
 30
0.0
 10
-17.22536785658618
 20
0.5172340193384898
 30
0.0
  0
SPLINE
  5
3F9C
330
1F
100
AcDbEntity
  8
AM_0
100
AcDbSpline
210
0.0
220
0.0
230
1.0
 70
     8
 71
     3
 72
     8
 73
     4
 74
     0
 42
0.0000000001
 43
0.0000000001
 40
8.337842376104966
 40
8.337842376104966
 40
8.337842376104966
 40
8.337842376104966
 40
9.419743745067137
 40
9.419743745067137
 40
9.419743745067137
 40
9.419743745067137
 10
-14.47499999999975
 20
-1.034386895657895
 30
0.0
 10
-14.769246039708
 20
-0.8767112141850603
 30
0.0
 10
-15.06891070954914
 20
-0.711172183766054
 30
0.0
 10
-15.37499999999972
 20
-0.53838394567846
 30
0.0
  0
SPLINE
  5
3F9D
330
1F
100
AcDbEntity
  8
AM_0
100
AcDbSpline
210
0.0
220
0.0
230
1.0
 70
     8
 71
     3
 72
     8
 73
     4
 74
     0
 42
0.0000000001
 43
0.0000000001
 40
0.0
 40
0.0
 40
0.0
 40
0.0
 40
4.451443990518192
 40
4.451443990518192
 40
4.451443990518192
 40
4.451443990518192
 10
-13.89418604659107
 20
-2.770466702279339
 30
0.0
 10
-13.00389724848768
 20
-2.770466702279306
 30
0.0
 10
-12.1355815836879
 20
-2.637401048546122
 30
0.0
 10
-11.28242879510483
 20
-2.41251152935181
 30
0.0
  0
SPLINE
  5
3F9E
330
1F
100
AcDbEntity
  8
AM_0
100
AcDbSpline
210
0.0
220
0.0
230
1.0
 70
     8
 71
     3
 72
     8
 73
     4
 74
     0
 42
0.0000000001
 43
0.0000000001
 40
0.0
 40
0.0
 40
0.0
 40
0.0
 40
7.074983227811165
 40
7.074983227811165
 40
7.074983227811165
 40
7.074983227811165
 10
-13.89418604659107
 20
-2.770466702279339
 30
0.0
 10
-15.30918269215329
 20
-2.770466702279339
 30
0.0
 10
-16.66867320201412
 20
-2.434330743371198
 30
0.0
 10
-17.9999999999961
 20
-1.927640012829864
 30
0.0
  0
SPLINE
  5
3F9F
330
1F
100
AcDbEntity
  8
AM_0
100
AcDbSpline
210
0.0
220
0.0
230
1.0
 70
     8
 71
     3
 72
     9
 73
     5
 74
     0
 42
0.0000000001
 43
0.0000000001
 40
0.0
 40
0.0
 40
0.0
 40
0.0
 40
1.235464641235373
 40
1.810002043229209
 40
1.810002043229209
 40
1.810002043229209
 40
1.810002043229209
 10
-17.06237605517629
 20
-2.68882337694123
 30
0.0
 10
-17.23552815136863
 20
-2.512547267459787
 30
0.0
 10
-17.52215406330275
 20
-2.191379051365176
 30
0.0
 10
-17.88510310680904
 20
-2.255285700409446
 30
0.0
 10
-17.99999999998652
 20
-2.287450697516329
 30
0.0
  0
SPLINE
  5
3FA0
330
1F
100
AcDbEntity
  8
AM_0
100
AcDbSpline
210
0.0
220
0.0
230
1.0
 70
     8
 71
     3
 72
     9
 73
     5
 74
     0
 42
0.0000000001
 43
0.0000000001
 40
0.0
 40
0.0
 40
0.0
 40
0.0
 40
1.377102510827414
 40
1.588709529415735
 40
1.588709529415735
 40
1.588709529415735
 40
1.588709529415735
 10
-17.22536785658615
 20
1.058853022888204
 30
0.0
 10
-17.37279852333613
 20
1.291491479543047
 30
0.0
 10
-17.64275289111045
 20
1.522930170470066
 30
0.0
 10
-17.95762738595068
 20
1.59104874730027
 30
0.0
 10
-17.99999999999986
 20
1.597412132526447
 30
0.0
  0
SPLINE
  5
3FA1
330
1F
100
AcDbEntity
  8
AM_0
100
AcDbSpline
210
0.0
220
0.0
230
1.0
 70
     8
 71
     3
 72
     9
 73
     5
 74
     0
 42
0.0000000001
 43
0.0000000001
 40
0.0
 40
0.0
 40
0.0
 40
0.0
 40
1.272333962187949
 40
1.530678401467986
 40
1.530678401467986
 40
1.530678401467986
 40
1.530678401467986
 10
-17.22536785658615
 20
0.5172340193384898
 30
0.0
 10
-17.42998834737535
 20
0.6685079536518956
 30
0.0
 10
-17.65736556653599
 20
0.8787773530921967
 30
0.0
 10
-17.94957025082784
 20
0.9936074100567552
 30
0.0
 10
-17.99999999999996
 20
1.00955487532443
 30
0.0
  0
SPLINE
  5
3FA2
330
1F
100
AcDbEntity
  8
AM_0
100
AcDbSpline
210
0.0
220
0.0
230
1.0
 70
     8
 71
     3
 72
     8
 73
     4
 74
     0
 42
0.0000000001
 43
0.0000000001
 40
10.84126532222565
 40
10.84126532222565
 40
10.84126532222565
 40
10.84126532222565
 40
12.06337302160172
 40
12.06337302160172
 40
12.06337302160172
 40
12.06337302160172
 10
-17.2253678565859
 20
1.058853022888545
 30
0.0
 10
-17.02268482874493
 20
0.9496647123855481
 30
0.0
 10
-16.79869407712096
 20
0.8315563116893471
 30
0.0
 10
-16.57500000004478
 20
0.7117328642741299
 30
0.0
  0
SPLINE
  5
3FA3
330
1F
100
AcDbEntity
  8
AM_0
100
AcDbSpline
210
0.0
220
0.0
230
1.0
 70
     8
 71
     3
 72
     8
 73
     4
 74
     0
 42
0.0000000001
 43
0.0000000001
 40
0.3507760400854742
 40
0.3507760400854742
 40
0.3507760400854742
 40
0.3507760400854742
 40
1.871307041999678
 40
1.871307041999678
 40
1.871307041999678
 40
1.871307041999678
 10
-15.95832515959307
 20
2.97671314646494
 30
0.0
 10
-15.6555590659859
 20
2.969184427523883
 30
0.0
 10
-15.35566190770184
 20
2.945538031917236
 30
0.0
 10
-15.05832515959307
 20
2.907507253713843
 30
0.0
  0
SPLINE
  5
3FA4
330
1F
100
AcDbEntity
  8
AM_0
100
AcDbSpline
210
0.0
220
0.0
230
1.0
 70
     8
 71
     3
 72
     9
 73
     5
 74
     3
 42
0.0000000001
 43
0.0000000001
 44
0.0000000001
 12
0.9127464726416866
 22
-0.4085264699871465
 32
0.0
 13
0.886564333846492
 23
0.4626053198476276
 33
0.0
 40
0.0
 40
0.0
 40
0.0
 40
0.0
 40
0.6412869307778828
 40
1.303845547986189
 40
1.303845547986189
 40
1.303845547986189
 40
1.303845547986189
 10
-17.15832515959307
 20
2.922054624181042
 30
0.0
 10
-16.96321436492016
 20
2.834727062154515
 30
0.0
 10
-16.54477677697314
 20
2.537273630008867
 30
0.0
 10
-16.15412543929291
 20
2.87454543278779
 30
0.0
 10
-15.95832515959307
 20
2.97671314646494
 30
0.0
 11
-17.15832515959307
 21
2.922054624181042
 31
0.0
 11
-16.55832515959307
 21
2.695672364305151
 31
0.0
 11
-15.95832515959307
 21
2.97671314646494
 31
0.0
  0
SPLINE
  5
3FA5
330
1F
100
AcDbEntity
  8
AM_0
100
AcDbSpline
210
0.0
220
0.0
230
1.0
 70
     8
 71
     3
 72
     8
 73
     4
 74
     0
 42
0.0000000001
 43
0.0000000001
 40
1.666991338825053
 40
1.666991338825053
 40
1.666991338825053
 40
1.666991338825053
 40
3.109885954059111
 40
3.109885954059111
 40
3.109885954059111
 40
3.109885954059111
 10
-17.15832515959198
 20
2.922054624181315
 30
0.0
 10
-17.44113851435358
 20
2.889663665533633
 30
0.0
 10
-17.72160891504245
 20
2.844109992523941
 30
0.0
 10
-17.99999999999979
 20
2.786874725167284
 30
0.0
  0
SPLINE
  5
3FA6
330
1F
100
AcDbEntity
  8
AM_0
100
AcDbSpline
210
0.0
220
0.0
230
1.0
 70
     8
 71
     3
 72
     8
 73
     4
 74
     0
 42
0.0000000001
 43
0.0000000001
 40
2.130606102564619
 40
2.130606102564619
 40
2.130606102564619
 40
2.130606102564619
 40
3.679329335050426
 40
3.679329335050426
 40
3.679329335050426
 40
3.679329335050426
 10
-5.849999999999795
 20
2.819797749380596
 30
0.0
 10
-5.547635054578108
 20
2.777136414881543
 30
0.0
 10
-5.247738587842775
 20
2.720205045073053
 30
0.0
 10
-4.950000000001125
 20
2.650799187156336
 30
0.0
  0
SPLINE
  5
3FA7
330
1F
100
AcDbEntity
  8
AM_0
100
AcDbSpline
210
0.0
220
0.0
230
1.0
 70
     8
 71
     3
 72
     8
 73
     4
 74
     0
 42
0.0000000001
 43
0.0000000001
 40
3.939746932601999
 40
3.939746932601999
 40
3.939746932601999
 40
3.939746932601999
 40
5.519086939037594
 40
5.519086939037594
 40
5.519086939037594
 40
5.519086939037594
 10
-5.84999999999976
 20
2.697481076749873
 30
0.0
 10
-5.54780573778147
 20
2.620662020096606
 30
0.0
 10
-5.247920979675416
 20
2.530868170936592
 30
0.0
 10
-4.949999999999761
 20
2.430041815909645
 30
0.0
  0
SPLINE
  5
3FA8
330
1F
100
AcDbEntity
  8
AM_0
100
AcDbSpline
210
0.0
220
0.0
230
1.0
 70
     8
 71
     3
 72
     9
 73
     5
 74
     0
 42
0.0000000001
 43
0.0000000001
 40
0.0
 40
0.0
 40
0.0
 40
0.0
 40
1.008936993267342
 40
1.777052715134862
 40
1.777052715134862
 40
1.777052715134862
 40
1.777052715134862
 10
-5.849999999999795
 20
2.819797749380459
 30
0.0
 10
-6.045626037570286
 20
2.770314341254116
 30
0.0
 10
-6.405861367452268
 20
2.692988515420903
 30
0.0
 10
-6.751579974160881
 20
2.792157314110373
 30
0.0
 10
-6.900338094005178
 20
2.835058799633553
 30
0.0
  0
SPLINE
  5
3FA9
330
1F
100
AcDbEntity
  8
AM_0
100
AcDbSpline
210
0.0
220
0.0
230
1.0
 70
     8
 71
     3
 72
     9
 73
     5
 74
     3
 42
0.0000000001
 43
0.0000000001
 44
0.0000000001
 12
-0.9326421945680822
 22
-0.3608026287476735
 32
0.0
 13
-0.8816144343688907
 23
0.4719703265168488
 33
0.0
 40
0.0
 40
0.0
 40
0.0
 40
0.0
 40
0.6096197945643391
 40
1.298552911021827
 40
1.298552911021827
 40
1.298552911021827
 40
1.298552911021827
 10
-5.84999999999976
 20
2.697481076749873
 30
0.0
 10
-6.039519047684636
 20
2.62416360194473
 30
0.0
 10
-6.506055253754553
 20
2.468242710928997
 30
0.0
 10
-6.847542206738573
 20
2.81979290234504
 30
0.0
 10
-7.049999999999795
 20
2.92817823165261
 30
0.0
 11
-5.84999999999976
 21
2.697481076749873
 31
0.0
 11
-6.449999999999761
 21
2.589609421878604
 31
0.0
 11
-7.049999999999795
 21
2.92817823165261
 31
0.0
  0
SPLINE
  5
3FAA
330
1F
100
AcDbEntity
  8
AM_0
100
AcDbSpline
210
0.0
220
0.0
230
1.0
 70
     8
 71
     3
 72
     8
 73
     4
 74
     0
 42
0.0000000001
 43
0.0000000001
 40
5.779271486987545
 40
5.779271486987545
 40
5.779271486987545
 40
5.779271486987545
 40
7.377122246071414
 40
7.377122246071414
 40
7.377122246071414
 40
7.377122246071414
 10
-3.749999999999761
 20
2.304145668496083
 30
0.0
 10
-3.448265040456169
 20
2.201042155816865
 30
0.0
 10
-3.148378742194779
 20
2.087251711983615
 30
0.0
 10
-2.849999999999761
 20
1.964746233089179
 30
0.0
  0
SPLINE
  5
3FAB
330
1F
100
AcDbEntity
  8
AM_0
100
AcDbSpline
210
0.0
220
0.0
230
1.0
 70
     8
 71
     3
 72
     8
 73
     4
 74
     0
 42
0.0000000001
 43
0.0000000001
 40
7.657131739025505
 40
7.657131739025505
 40
7.657131739025505
 40
7.657131739025505
 40
9.280732515295124
 40
9.280732515295124
 40
9.280732515295124
 40
9.280732515295124
 10
-3.749999999999761
 20
1.964720461271825
 30
0.0
 10
-3.448544444426295
 20
1.834019956322161
 30
0.0
 10
-3.148669649298096
 20
1.694438740282519
 30
0.0
 10
-2.850000000000033
 20
1.5480870158015
 30
0.0
  0
SPLINE
  5
3FAC
330
1F
100
AcDbEntity
  8
AM_0
100
AcDbSpline
210
0.0
220
0.0
230
1.0
 70
     8
 71
     3
 72
     9
 73
     5
 74
     3
 42
0.0000000001
 43
0.0000000001
 44
0.0000000001
 12
-0.8654492111584179
 22
0.5009966695550704
 32
0.0
 13
-0.9979873375911878
 23
0.0634135159698014
 33
0.0
 40
0.0
 40
0.0
 40
0.0
 40
0.0
 40
0.6385013537575868
 40
1.252062703201191
 40
1.252062703201191
 40
1.252062703201191
 40
1.252062703201191
 10
-3.749999999999761
 20
2.304145668496083
 30
0.0
 10
-3.934196830977456
 20
2.410774685742401
 30
0.0
 10
-4.343789231876779
 20
2.51619635399697
 30
0.0
 10
-4.745891180806401
 20
2.637829826345871
 30
0.0
 10
-4.949999999999761
 20
2.650799187156336
 30
0.0
 11
-3.749999999999761
 21
2.304145668496083
 31
0.0
 11
-4.34999999999976
 21
2.522512283962531
 31
0.0
 11
-4.949999999999761
 21
2.650799187156336
 31
0.0
  0
SPLINE
  5
3FAD
330
1F
100
AcDbEntity
  8
AM_0
100
AcDbSpline
210
0.0
220
0.0
230
1.0
 70
     8
 71
     3
 72
     9
 73
     5
 74
     3
 42
0.0000000001
 43
0.0000000001
 44
0.0000000001
 12
-0.9981770100665452
 22
0.0603544246481742
 32
0.0
 13
-0.7796355206958436
 23
0.6262335465857136
 33
0.0
 40
0.0
 40
0.0
 40
0.0
 40
0.0
 40
0.6037914280359298
 40
1.32366339973873
 40
1.32366339973873
 40
1.32366339973873
 40
1.32366339973873
 10
-3.749999999999761
 20
1.964720461271825
 30
0.0
 10
-3.950896907446665
 20
1.976867622687361
 30
0.0
 10
-4.414747576183431
 20
1.961517796390387
 30
0.0
 10
-4.762920746835475
 20
2.279772489934083
 30
0.0
 10
-4.949999999999761
 20
2.430041815909781
 30
0.0
 11
-3.749999999999761
 21
1.964720461271825
 31
0.0
 11
-4.34999999999976
 21
2.032278499799211
 31
0.0
 11
-4.949999999999761
 21
2.430041815909781
 31
0.0
  0
SPLINE
  5
3FAE
330
1F
100
AcDbEntity
  8
AM_0
100
AcDbSpline
210
0.0
220
0.0
230
1.0
 70
     8
 71
     3
 72
     8
 73
     4
 74
     0
 42
0.0000000001
 43
0.0000000001
 40
9.532359626456116
 40
9.532359626456116
 40
9.532359626456116
 40
9.532359626456116
 40
12.40023413887867
 40
12.40023413887867
 40
12.40023413887867
 40
12.40023413887867
 10
-1.650000000004945
 20
1.4262989103202
 30
0.0
 10
-1.120645655533769
 20
1.170664163357558
 30
0.0
 10
-0.5946656279357172
 20
0.8955228185856853
 30
0.0
 10
-0.0700876754371507
 20
0.6122762139676511
 30
0.0
  0
SPLINE
  5
3FAF
330
1F
100
AcDbEntity
  8
AM_0
100
AcDbSpline
210
0.0
220
0.0
230
1.0
 70
     8
 71
     3
 72
     8
 73
     4
 74
     0
 42
0.0000000001
 43
0.0000000001
 40
11.46537929237052
 40
11.46537929237052
 40
11.46537929237052
 40
11.46537929237052
 40
14.48999654934396
 40
14.48999654934396
 40
14.48999654934396
 40
14.48999654934396
 10
-1.650000000000034
 20
0.9256797360938421
 30
0.0
 10
-1.098381082381581
 20
0.626214902126138
 30
0.0
 10
-0.5491905411906714
 20
0.3131074510642051
 30
0.0
 10
0.0000000000002387
 20
0.0000000000024087
 30
0.0
  0
SPLINE
  5
3FB0
330
1F
100
AcDbEntity
  8
AM_0
100
AcDbSpline
210
0.0
220
0.0
230
1.0
 70
     8
 71
     3
 72
     9
 73
     5
 74
     3
 42
0.0000000001
 43
0.0000000001
 44
0.0000000001
 12
-0.8176346168783101
 22
0.5757374690622967
 32
0.0
 13
-0.9964633055848633
 23
-0.0840290463047593
 33
0.0
 40
0.0
 40
0.0
 40
0.0
 40
0.0
 40
0.745196320241127
 40
1.352906961818208
 40
1.352906961818208
 40
1.352906961818208
 40
1.352906961818208
 10
-1.649999999999761
 20
1.426298910317608
 30
0.0
 10
-1.853099435932921
 20
1.569311391440995
 30
0.0
 10
-2.167726517469073
 20
1.920535582896445
 30
0.0
 10
-2.648146215084762
 20
1.981768014969505
 30
0.0
 10
-2.849999999999761
 20
1.964746233089179
 30
0.0
 11
-1.649999999999761
 21
1.426298910317608
 31
0.0
 11
-2.249999999999761
 21
1.868246368394828
 31
0.0
 11
-2.849999999999761
 21
1.964746233089179
 31
0.0
  0
SPLINE
  5
3FB1
330
1F
100
AcDbEntity
  8
AM_0
100
AcDbSpline
210
0.0
220
0.0
230
1.0
 70
     8
 71
     3
 72
     9
 73
     5
 74
     3
 42
0.0000000001
 43
0.0000000001
 44
0.0000000001
 12
-0.9681805968441551
 22
0.2502525362398859
 32
0.0
 13
-0.8208259885173385
 23
0.5711783404283938
 33
0.0
 40
0.0
 40
0.0
 40
0.0
 40
0.0
 40
0.6389883976533522
 40
1.361555605578583
 40
1.361555605578583
 40
1.361555605578583
 40
1.361555605578583
 10
-1.649999999999761
 20
0.9256797360937056
 30
0.0
 10
-1.856218722738598
 20
0.9789825584739096
 30
0.0
 10
-2.294760822309434
 20
1.122400720291883
 30
0.0
 10
-2.652299352427947
 20
1.41051543624446
 30
0.0
 10
-2.849999999999761
 20
1.548087015801364
 30
0.0
 11
-1.649999999999761
 21
0.9256797360937056
 31
0.0
 11
-2.249999999999761
 21
1.145466387953182
 31
0.0
 11
-2.849999999999761
 21
1.548087015801364
 31
0.0
  0
SPLINE
  5
3FB2
330
1F
100
AcDbEntity
  8
AM_0
100
AcDbSpline
210
0.0
220
0.0
230
1.0
 70
     8
 71
     3
 72
     9
 73
     5
 74
     0
 42
0.0000000001
 43
0.0000000001
 40
0.0
 40
0.0
 40
0.0
 40
0.0
 40
1.173671883824386
 40
1.360226551015519
 40
1.360226551015519
 40
1.360226551015519
 40
1.360226551015519
 10
-2.249999999999761
 20
2.712554714349242
 30
0.0
 10
-2.396261045428161
 20
2.528957507874518
 30
0.0
 10
-2.651269761709897
 20
2.384600893180275
 30
0.0
 10
-2.924639882985536
 20
2.326293488127747
 30
0.0
 10
-2.962301686208354
 20
2.320013295339229
 30
0.0
  0
SPLINE
  5
3FB3
330
1F
100
AcDbEntity
  8
AM_0
100
AcDbSpline
210
0.0
220
0.0
230
1.0
 70
     8
 71
     3
 72
     8
 73
     4
 74
     0
 42
0.0000000001
 43
0.0000000001
 40
13.73199344169106
 40
13.73199344169106
 40
13.73199344169106
 40
13.73199344169106
 40
14.43901837670146
 40
14.43901837670146
 40
14.43901837670146
 40
14.43901837670146
 10
-7.499999999999765
 20
0.2135794526685103
 30
0.0
 10
-7.370890542401995
 20
0.1425001924947182
 30
0.0
 10
-7.241810636602478
 20
0.0712500962484782
 30
0.0
 10
-7.112730730802961
 20
0.0000000000023746
 30
0.0
  0
SPLINE
  5
3FB4
330
1F
100
AcDbEntity
  8
AM_0
100
AcDbSpline
210
0.0
220
0.0
230
1.0
 70
     8
 71
     3
 72
     9
 73
     5
 74
     3
 42
0.0000000001
 43
0.0000000001
 44
0.0000000001
 12
-0.5307113561502299
 22
0.8475526275419031
 32
0.0
 13
-0.9709540402127611
 23
-0.2392660690413831
 33
0.0
 40
0.0
 40
0.0
 40
0.0
 40
0.0
 40
0.8538874408371157
 40
1.455367808670276
 40
1.455367808670276
 40
1.455367808670276
 40
1.455367808670276
 10
-7.499999999999765
 20
0.2135794526685103
 30
0.0
 10
-7.651055920575204
 20
0.4548176340373534
 30
0.0
 10
-7.970406631516897
 20
0.8861654881080951
 30
0.0
 10
-8.505330068914343
 20
0.91128013760355
 30
0.0
 10
-8.699999999999764
 20
0.8633088565312149
 30
0.0
 11
-7.499999999999765
 21
0.2135794526685103
 31
0.0
 11
-8.099999999999765
 21
0.8211350152464191
 31
0.0
 11
-8.699999999999764
 21
0.8633088565312149
 31
0.0
  0
SPLINE
  5
3FB5
330
1F
100
AcDbEntity
  8
AM_0
100
AcDbSpline
210
0.0
220
0.0
230
1.0
 70
     8
 71
     3
 72
     8
 73
     4
 74
     0
 42
0.0000000001
 43
0.0000000001
 40
13.50299628442394
 40
13.50299628442394
 40
13.50299628442394
 40
13.50299628442394
 40
14.43901837670146
 40
14.43901837670146
 40
14.43901837670146
 40
14.43901837670146
 10
-6.599999999999765
 20
-0.2825851223710643
 30
0.0
 10
-6.770955957341304
 20
-0.1886543482698826
 30
0.0
 10
-6.941843344072132
 20
-0.0943271741338222
 30
0.0
 10
-7.112730730802961
 20
0.0000000000023746
 30
0.0
  0
SPLINE
  5
3FB6
330
1F
100
AcDbEntity
  8
AM_0
100
AcDbSpline
210
0.0
220
0.0
230
1.0
 70
     8
 71
     3
 72
     8
 73
     4
 74
     0
 42
0.0000000001
 43
0.0000000001
 40
11.62991291415682
 40
11.62991291415682
 40
11.62991291415682
 40
11.62991291415682
 40
14.48999654934396
 40
14.48999654934396
 40
14.48999654934396
 40
14.48999654934396
 10
-6.599999999999765
 20
-0.876689809791641
 30
0.0
 10
-7.121368830493467
 20
-0.592149961962322
 30
0.0
 10
-7.640684415246452
 20
-0.2960749809799736
 30
0.0
 10
-8.15999999999971
 20
0.0000000000022382
 30
0.0
  0
SPLINE
  5
3FB7
330
1F
100
AcDbEntity
  8
AM_0
100
AcDbSpline
210
0.0
220
0.0
230
1.0
 70
     8
 71
     3
 72
     9
 73
     5
 74
     3
 42
0.0000000001
 43
0.0000000001
 44
0.0000000001
 12
-0.4936303795221301
 22
0.869671805000506
 32
0.0
 13
-0.8861177952488985
 23
-0.4634600877564662
 33
0.0
 40
0.0
 40
0.0
 40
0.0
 40
0.0
 40
0.8938733654499317
 40
1.493873365449931
 40
1.493873365449931
 40
1.493873365449931
 40
1.493873365449931
 10
-5.399999999999761
 20
-0.929280284031337
 30
0.0
 10
-5.547081016210352
 20
-0.6701547963070973
 30
0.0
 10
-5.837083934556607
 20
-0.200342138900902
 30
0.0
 10
-6.422776440949985
 20
-0.1740102760058791
 30
0.0
 10
-6.599999999999765
 20
-0.2667022935571722
 30
0.0
 11
-5.399999999999761
 21
-0.929280284031337
 31
0.0
 11
-5.999999999999765
 21
-0.2667022935571722
 31
0.0
 11
-6.599999999999765
 21
-0.2667022935571722
 31
0.0
  0
SPLINE
  5
3FB8
330
1F
100
AcDbEntity
  8
AM_0
100
AcDbSpline
210
0.0
220
0.0
230
1.0
 70
     8
 71
     3
 72
     9
 73
     5
 74
     3
 42
0.0000000001
 43
0.0000000001
 44
0.0000000001
 12
-0.7690286934869394
 22
0.639214258753488
 32
0.0
 13
-0.9823098605277891
 23
0.1872627509940925
 33
0.0
 40
0.0
 40
0.0
 40
0.0
 40
0.0
 40
0.7219325989937854
 40
1.362941991750003
 40
1.362941991750003
 40
1.362941991750003
 40
1.362941991750003
 10
-5.399999999999761
 20
-1.503765278056461
 30
0.0
 10
-5.585062294463035
 20
-1.34994207434453
 30
0.0
 10
-5.964533721782378
 20
-1.096841749422676
 30
0.0
 10
-6.390110050934644
 20
-0.916702203891835
 30
0.0
 10
-6.599999999999765
 20
-0.876689809791641
 30
0.0
 11
-5.399999999999761
 21
-1.503765278056461
 31
0.0
 11
-5.999999999999765
 21
-1.102284671439009
 31
0.0
 11
-6.599999999999765
 21
-0.876689809791641
 31
0.0
  0
SPLINE
  5
3FB9
330
1F
100
AcDbEntity
  8
AM_0
100
AcDbSpline
210
0.0
220
0.0
230
1.0
 70
     8
 71
     3
 72
     8
 73
     4
 74
     0
 42
0.0000000001
 43
0.0000000001
 40
9.685078621624523
 40
9.685078621624523
 40
9.685078621624523
 40
9.685078621624523
 40
11.31655044551473
 40
11.31655044551473
 40
11.31655044551473
 40
11.31655044551473
 10
-4.499999999999761
 20
-1.385295783691562
 30
0.0
 10
-4.800936985606893
 20
-1.238707239829217
 30
0.0
 10
-5.100815954448386
 20
-1.086002403899182
 30
0.0
 10
-5.400000000007127
 20
-0.9292802840275172
 30
0.0
  0
SPLINE
  5
3FBA
330
1F
100
AcDbEntity
  8
AM_0
100
AcDbSpline
210
0.0
220
0.0
230
1.0
 70
     8
 71
     3
 72
     8
 73
     4
 74
     0
 42
0.0000000001
 43
0.0000000001
 40
7.818791612490512
 40
7.818791612490512
 40
7.818791612490512
 40
7.818791612490512
 40
9.443881246512125
 40
9.443881246512125
 40
9.443881246512125
 40
9.443881246512125
 10
-4.499999999999761
 20
-1.925417364619478
 30
0.0
 10
-4.801420643195376
 20
-1.792847841590754
 30
0.0
 10
-5.101295093565419
 20
-1.651591808335469
 30
0.0
 10
-5.399999999999761
 20
-1.503765278056461
 30
0.0
  0
SPLINE
  5
3FBB
330
1F
100
AcDbEntity
  8
AM_0
100
AcDbSpline
210
0.0
220
0.0
230
1.0
 70
     8
 71
     3
 72
     9
 73
     5
 74
     3
 42
0.0000000001
 43
0.0000000001
 44
0.0000000001
 12
-0.6311748102206569
 22
0.7756406119736884
 32
0.0
 13
-0.993948350019866
 23
-0.1098484296327715
 33
0.0
 40
0.0
 40
0.0
 40
0.0
 40
0.0
 40
0.8564237374891421
 40
1.460609200947041
 40
1.460609200947041
 40
1.460609200947041
 40
1.460609200947041
 10
-3.299999999999761
 20
-1.92541736461958
 30
0.0
 10
-3.480184363325819
 20
-1.703991687334623
 30
0.0
 10
-3.76471274054071
 20
-1.142207636679185
 30
0.0
 10
-4.299823618496438
 20
-1.363172842235629
 30
0.0
 10
-4.499999999999761
 20
-1.385295783691562
 30
0.0
 11
-3.299999999999761
 21
-1.92541736461958
 31
0.0
 11
-3.89999999999976
 21
-1.314302303330079
 31
0.0
 11
-4.499999999999761
 21
-1.385295783691562
 31
0.0
  0
SPLINE
  5
3FBC
330
1F
100
AcDbEntity
  8
AM_0
100
AcDbSpline
210
0.0
220
0.0
230
1.0
 70
     8
 71
     3
 72
     9
 73
     5
 74
     3
 42
0.0000000001
 43
0.0000000001
 44
0.0000000001
 12
-0.6160346874185745
 22
0.7877190259839477
 32
0.0
 13
-0.9511353387127352
 23
-0.3087742985609561
 33
0.0
 40
0.0
 40
0.0
 40
0.0
 40
0.0
 40
0.7206511282122719
 40
1.325275858920117
 40
1.325275858920117
 40
1.325275858920117
 40
1.325275858920117
 10
-3.299999999999761
 20
-2.399228634911652
 30
0.0
 10
-3.447982030835124
 20
-2.210005099981784
 30
0.0
 10
-3.846291046133417
 20
-1.993551710590642
 30
0.0
 10
-4.308306683987793
 20
-1.86318650558064
 30
0.0
 10
-4.499999999999761
 20
-1.925417364619614
 30
0.0
 11
-3.299999999999761
 21
-2.399228634911652
 31
0.0
 11
-3.89999999999976
 21
-2.000056931764221
 31
0.0
 11
-4.499999999999761
 21
-1.925417364619614
 31
0.0
  0
SPLINE
  5
3FBD
330
1F
100
AcDbEntity
  8
AM_0
100
AcDbSpline
210
0.0
220
0.0
230
1.0
 70
     8
 71
     3
 72
     8
 73
     4
 74
     0
 42
0.0000000001
 43
0.0000000001
 40
5.928582328726523
 40
5.928582328726523
 40
5.928582328726523
 40
5.928582328726523
 40
7.528098176779675
 40
7.528098176779675
 40
7.528098176779675
 40
7.528098176779675
 10
-2.400000000002489
 20
-2.274963864044049
 30
0.0
 10
-2.701706517651234
 20
-2.169770788043935
 30
0.0
 10
-3.001592460077097
 20
-2.054053143668762
 30
0.0
 10
-3.299999999985027
 20
-1.929788998060168
 30
0.0
  0
SPLINE
  5
3FBE
330
1F
100
AcDbEntity
  8
AM_0
100
AcDbSpline
210
0.0
220
0.0
230
1.0
 70
     8
 71
     3
 72
     8
 73
     4
 74
     0
 42
0.0000000001
 43
0.0000000001
 40
4.096652702081863
 40
4.096652702081863
 40
4.096652702081863
 40
4.096652702081863
 40
5.678228147290397
 40
5.678228147290397
 40
5.678228147290397
 40
5.678228147290397
 10
-2.399999999998669
 20
-2.674203111835687
 30
0.0
 10
-2.70216586988148
 20
-2.594712808365513
 30
0.0
 10
-3.002050137945786
 20
-2.502404467454836
 30
0.0
 10
-3.299999999999761
 20
-2.399228634911652
 30
0.0
  0
SPLINE
  5
3FBF
330
1F
100
AcDbEntity
  8
AM_0
100
AcDbSpline
210
0.0
220
0.0
230
1.0
 70
     8
 71
     3
 72
     9
 73
     5
 74
     3
 42
0.0000000001
 43
0.0000000001
 44
0.0000000001
 12
-0.6494269884643477
 22
0.7604239519203273
 32
0.0
 13
-0.9604248968033772
 23
-0.2785390773306726
 33
0.0
 40
0.0
 40
0.0
 40
0.0
 40
0.0
 40
0.7614970378497878
 40
1.372069285845672
 40
1.372069285845672
 40
1.372069285845672
 40
1.372069285845672
 10
-1.199999999999761
 20
-2.630744767716033
 30
0.0
 10
-1.364845576004864
 20
-2.43772457208358
 30
0.0
 10
-1.722192241679526
 20
-2.016031963199715
 30
0.0
 10
-2.204530403911671
 20
-2.218274453843886
 30
0.0
 10
-2.400000000002489
 20
-2.274963864044049
 30
0.0
 11
-1.199999999999761
 21
-2.630744767716033
 31
0.0
 11
-1.799999999999761
 21
-2.161833540878798
 31
0.0
 11
-2.400000000002489
 21
-2.274963864044049
 31
0.0
  0
SPLINE
  5
3FC0
330
1F
100
AcDbEntity
  8
AM_0
100
AcDbSpline
210
0.0
220
0.0
230
1.0
 70
     8
 71
     3
 72
     8
 73
     4
 74
     2
 42
0.0000000001
 43
0.0000000001
 44
0.0000000001
 12
0.6880548427449759
 22
-0.7256586893128109
 32
0.0
 13
-0.9854444993171648
 23
-0.1699974669386056
 33
0.0
 40
0.0
 40
0.0
 40
0.0
 40
0.0
 40
1.7176929178972
 40
1.7176929178972
 40
1.7176929178972
 40
1.7176929178972
 10
-0.1799999999996316
 20
3.000000000002272
 30
0.0
 10
0.2139556435030073
 20
2.584513736187878
 30
0.0
 10
-0.8497129927935594
 20
1.902406535192822
 30
0.0
 10
-1.413943338612841
 20
1.805072053519187
 30
0.0
 11
-0.1799999999996316
 21
3.000000000002272
 31
0.0
 11
-1.413943338612841
 21
1.805072053519187
 31
0.0
  0
SPLINE
  5
3FC1
330
1F
100
AcDbEntity
  8
AM_0
100
AcDbSpline
210
0.0
220
0.0
230
1.0
 70
     8
 71
     3
 72
     8
 73
     4
 74
     0
 42
0.0000000001
 43
0.0000000001
 40
0.0
 40
0.0
 40
0.0
 40
0.0
 40
4.451443990518192
 40
4.451443990518192
 40
4.451443990518192
 40
4.451443990518192
 10
-5.90680999141454
 20
-2.770466702279271
 30
0.0
 10
-5.016521193311143
 20
-2.770466702279271
 30
0.0
 10
-4.148205528511368
 20
-2.637401048546054
 30
0.0
 10
-3.295052739928303
 20
-2.412511529351742
 30
0.0
  0
SPLINE
  5
3FC2
330
1F
100
AcDbEntity
  8
AM_0
100
AcDbSpline
210
0.0
220
0.0
230
1.0
 70
     8
 71
     3
 72
     8
 73
     4
 74
     0
 42
0.0000000001
 43
0.0000000001
 40
4.542668862435135
 40
4.542668862435135
 40
4.542668862435135
 40
4.542668862435135
 40
14.36247867694493
 40
14.36247867694493
 40
14.36247867694493
 40
14.36247867694493
 10
-0.41099999999891
 20
-2.398569993271668
 30
0.0
 10
-2.291675902113035
 20
-1.894203411941408
 30
0.0
 10
-4.099242946763785
 20
-0.9471017059695
 30
0.0
 10
-5.90680999141454
 20
0.0000000000023746
 30
0.0
  0
SPLINE
  5
3FC3
330
1F
100
AcDbEntity
  8
AM_0
100
AcDbSpline
210
0.0
220
0.0
230
1.0
 70
     8
 71
     3
 72
     8
 73
     4
 74
     0
 42
0.0000000001
 43
0.0000000001
 40
0.0
 40
0.0
 40
0.0
 40
0.0
 40
3.835275104118792
 40
3.835275104118792
 40
3.835275104118792
 40
3.835275104118792
 10
0.0000000000002387
 20
3.000000000002272
 30
0.0
 10
-0.7670550208235682
 20
3.000000000002272
 30
0.0
 10
-1.515404682287623
 20
2.894913304029794
 30
0.0
 10
-2.249999999999761
 20
2.712554714349242
 30
0.0
  0
SPLINE
  5
3FC4
330
1F
100
AcDbEntity
  8
AM_0
100
AcDbSpline
210
0.0
220
0.0
230
1.0
 70
     8
 71
     3
 72
     8
 73
     4
 74
     0
 42
0.0000000001
 43
0.0000000001
 40
0.3507760400854742
 40
0.3507760400854742
 40
0.3507760400854742
 40
0.3507760400854742
 40
1.871307041999678
 40
1.871307041999678
 40
1.871307041999678
 40
1.871307041999678
 10
-7.949999999999795
 20
2.997384124403707
 30
0.0
 10
-7.647233906392624
 20
2.98985540546265
 30
0.0
 10
-7.347336748108568
 20
2.966209009856002
 30
0.0
 10
-7.049999999999795
 20
2.92817823165261
 30
0.0
  0
SPLINE
  5
3FC5
330
1F
100
AcDbEntity
  8
AM_0
100
AcDbSpline
210
0.0
220
0.0
230
1.0
 70
     8
 71
     3
 72
     8
 73
     4
 74
     0
 42
0.0000000001
 43
0.0000000001
 40
0.7142832446738512
 40
0.7142832446738512
 40
0.7142832446738512
 40
0.7142832446738512
 40
9.361146747480315
 40
9.361146747480315
 40
9.361146747480315
 40
9.361146747480315
 10
-5.479909183482391
 20
2.760358673896881
 30
0.0
 10
-3.763893620331452
 20
2.679470063385359
 30
0.0
 10
-2.126664810868476
 20
2.121461929682116
 30
0.0
 10
-0.5183071227776395
 20
1.388615069690875
 30
0.0
  0
SPLINE
  5
3FC6
330
1F
100
AcDbEntity
  8
AM_0
100
AcDbSpline
210
0.0
220
0.0
230
1.0
 70
     8
 71
     3
 72
     9
 73
     5
 74
     3
 42
0.0000000001
 43
0.0000000001
 44
0.0000000001
 12
0.9127464726416866
 22
-0.4085264699871465
 32
0.0
 13
0.886564333846492
 23
0.4626053198476276
 33
0.0
 40
0.0
 40
0.0
 40
0.0
 40
0.0
 40
0.6412869307779006
 40
1.303845547986178
 40
1.303845547986178
 40
1.303845547986178
 40
1.303845547986178
 10
-9.149999999999794
 20
2.942725602119774
 30
0.0
 10
-8.95488920532688
 20
2.855398040093245
 30
0.0
 10
-8.536451617379842
 20
2.557944607947649
 30
0.0
 10
-8.145800279699631
 20
2.895216410726561
 30
0.0
 10
-7.949999999999795
 20
2.997384124403707
 30
0.0
 11
-9.149999999999794
 21
2.942725602119774
 31
0.0
 11
-8.54999999999976
 21
2.716343342243918
 31
0.0
 11
-7.949999999999795
 21
2.997384124403707
 31
0.0
  0
SPLINE
  5
3FC7
330
1F
100
AcDbEntity
  8
AM_0
100
AcDbSpline
210
0.0
220
0.0
230
1.0
 70
     8
 71
     3
 72
     8
 73
     4
 74
     0
 42
0.0000000001
 43
0.0000000001
 40
9.911909440357588
 40
9.911909440357588
 40
9.911909440357588
 40
9.911909440357588
 40
11.54467281373877
 40
11.54467281373877
 40
11.54467281373877
 40
11.54467281373877
 10
-9.599999999999761
 20
1.323804149467308
 30
0.0
 10
-9.299112188719789
 20
1.175438069188724
 30
0.0
 10
-8.99923350755029
 20
1.021238305845802
 30
0.0
 10
-8.699999999999764
 20
0.8633088565312149
 30
0.0
  0
SPLINE
  5
3FC8
330
1F
100
AcDbEntity
  8
AM_0
100
AcDbSpline
210
0.0
220
0.0
230
1.0
 70
     8
 71
     3
 72
     8
 73
     4
 74
     0
 42
0.0000000001
 43
0.0000000001
 40
11.84940637128532
 40
11.84940637128532
 40
11.84940637128532
 40
11.84940637128532
 40
14.48999654934396
 40
14.48999654934396
 40
14.48999654934396
 40
14.48999654934396
 10
-9.599999999999761
 20
0.8109812725791229
 30
0.0
 10
-9.118922750048875
 20
0.5467061712011159
 30
0.0
 10
-8.639461375024295
 20
0.2733530856018305
 30
0.0
 10
-8.15999999999971
 20
0.0000000000023746
 30
0.0
  0
SPLINE
  5
3FC9
330
1F
100
AcDbEntity
  8
AM_0
100
AcDbSpline
210
0.0
220
0.0
230
1.0
 70
     8
 71
     3
 72
     8
 73
     4
 74
     0
 42
0.0000000001
 43
0.0000000001
 40
0.7142832446738512
 40
0.7142832446738512
 40
0.7142832446738512
 40
0.7142832446738512
 40
14.36247867694493
 40
14.36247867694493
 40
14.36247867694493
 40
14.36247867694493
 10
-13.63990918348233
 20
2.760358673896847
 30
0.0
 10
-10.9313529812133
 20
2.632684221287557
 30
0.0
 10
-8.419081486314041
 20
1.316342110644983
 30
0.0
 10
-5.90680999141454
 20
0.0000000000023746
 30
0.0
  0
SPLINE
  5
3FCA
330
1F
100
AcDbEntity
  8
AM_0
100
AcDbSpline
210
0.0
220
0.0
230
1.0
 70
     8
 71
     3
 72
     8
 73
     4
 74
     2
 42
0.0000000001
 43
0.0000000001
 44
0.0000000001
 12
-1.0
 22
-0.0000000000000038
 32
0.0
 40
0.0
 40
0.0
 40
0.0
 40
0.0
 40
8.617487206167156
 40
8.617487206167156
 40
8.617487206167156
 40
8.617487206167156
 10
-5.90680999141454
 20
-2.770466702279271
 30
0.0
 10
-8.779305726803592
 20
-2.770466702279283
 30
0.0
 10
-11.42305785910917
 20
-1.385233351138471
 30
0.0
 10
-14.06680999141475
 20
0.0000000000023405
 30
0.0
 11
-5.90680999141454
 21
-2.770466702279271
 31
0.0
 11
-14.06680999141475
 21
0.0000000000023405
 31
0.0
  0
LINE
  5
3FCC
330
1F
100
AcDbEntity
  8
AM_11
100
AcDbLine
 10
-18.00000000000023
 20
-2.999999999997795
 30
0.0
 11
0.0000000000002387
 21
-2.999999999997727
 31
0.0
  0
LINE
  5
3FCD
330
1F
100
AcDbEntity
  8
AM_11
100
AcDbLine
 10
-0.000000000000307
 20
3.000000000002272
 30
0.0
 11
-17.99999999999979
 21
3.000000000002204
 31
0.0
  0
LINE
  5
3FCE
330
1F
100
AcDbEntity
  8
AM_0
100
AcDbLine
 10
-2.39999999999976
 20
-2.674203111836233
 30
0.0
 11
-2.39999999999976
 21
-2.274963864045004
 31
0.0
  0
LINE
  5
3FCF
330
1F
100
AcDbEntity
  8
AM_0
100
AcDbLine
 10
-0.0629999999997722
 20
-2.84006469457072
 30
0.0
 11
-0.4109999999997286
 21
-2.398569993274806
 31
0.0
  0
LINE
  5
3FD0
330
1F
100
AcDbEntity
  8
AM_0
100
AcDbLine
 10
-0.0629999999997722
 20
-2.84006469457072
 30
0.0
 11
-0.0629999999997722
 21
-0.7961387127355025
 31
0.0
  0
LINE
  5
3FD1
330
1F
100
AcDbEntity
  8
AM_0
100
AcDbLine
 10
0.0000000000002387
 20
-2.999999999997727
 30
0.0
 11
0.0000000000002387
 21
-0.5999999999977277
 31
0.0
  0
LINE
  5
3FD2
330
1F
100
AcDbEntity
  8
AM_11
100
AcDbLine
 10
-0.0000000000002387
 20
-2.999999999997727
 30
0.0
 11
0.0000000000002387
 21
3.000000000002272
 31
0.0
  0
LINE
  5
3FD3
330
1F
100
AcDbEntity
  8
AM_0
100
AcDbLine
 10
-3.299999999999761
 20
-2.399228634911652
 30
0.0
 11
-3.299999999999761
 21
-1.929788998054029
 31
0.0
  0
LINE
  5
3FD4
330
1F
100
AcDbEntity
  8
AM_0
100
AcDbLine
 10
-0.5162747914143778
 20
-0.8841928590975854
 30
0.0
 11
-0.0629999999997722
 21
-0.7961387127355025
 31
0.0
  0
LINE
  5
3FD5
330
1F
100
AcDbEntity
  8
AM_0
100
AcDbLine
 10
-0.0629999999997722
 20
-0.7961387127355025
 30
0.0
 11
0.0000000000002387
 21
-0.5999999999977277
 31
0.0
  0
ARC
  5
3FD6
330
1F
100
AcDbEntity
  8
AM_0
100
AcDbCircle
 10
1.191403909216621
 20
-1.52632809882844
 30
0.0
 40
1.82441886930963
100
AcDbArc
 50
159.3923269732575
 51
208.5609268810316
  0
LINE
  5
3FD7
330
1F
100
AcDbEntity
  8
AM_0
100
AcDbLine
 10
-1.649999999999761
 20
0.9256797360937056
 30
0.0
 11
-1.649999999999761
 21
1.426298910317608
 31
0.0
  0
LINE
  5
3FD8
330
1F
100
AcDbEntity
  8
AM_0
100
AcDbLine
 10
-1.413943338612841
 20
0.0000000000022723
 30
0.0
 11
-1.413943338612841
 21
-0.4799999999977004
 31
0.0
  0
LINE
  5
3FD9
330
1F
100
AcDbEntity
  8
AM_0
100
AcDbLine
 10
-2.849999999999761
 20
1.548087015801364
 30
0.0
 11
-2.849999999999761
 21
1.964746233089179
 31
0.0
  0
LINE
  5
3FDA
330
1F
100
AcDbEntity
  8
AM_0
100
AcDbLine
 10
-3.749999999999761
 20
1.964720461271825
 30
0.0
 11
-3.749999999999761
 21
2.304145668496083
 31
0.0
  0
LINE
  5
3FDB
330
1F
100
AcDbEntity
  8
AM_0
100
AcDbLine
 10
0.0000000000002387
 20
0.0000000000022723
 30
0.0
 11
-0.0629999999997722
 21
0.6000000000024088
 31
0.0
  0
LINE
  5
3FDC
330
1F
100
AcDbEntity
  8
AM_0
100
AcDbLine
 10
-0.0629999999997722
 20
0.6000000000024088
 30
0.0
 11
-0.640514518647376
 21
1.600284488408577
 31
0.0
  0
LINE
  5
3FDD
330
1F
100
AcDbEntity
  8
AM_0
100
AcDbLine
 10
0.0000000000002387
 20
0.0000000000022723
 30
0.0
 11
-0.053305565486005
 21
-0.5076720522491101
 31
0.0
  0
LINE
  5
3FDE
330
1F
100
AcDbEntity
  8
AM_0
100
AcDbLine
 10
-0.640514518647376
 20
1.600284488408577
 30
0.0
 11
-1.413943338612841
 21
1.805072053519187
 31
0.0
  0
LINE
  5
3FDF
330
1F
100
AcDbEntity
  8
AM_0
100
AcDbLine
 10
0.0000000000002387
 20
0.0000000000022723
 30
0.0
 11
-1.413943338612841
 21
0.0000000000022723
 31
0.0
  0
LINE
  5
3FE0
330
1F
100
AcDbEntity
  8
AM_0
100
AcDbLine
 10
-1.413943338612841
 20
-0.4799999999977004
 30
0.0
 11
-0.0692820323023966
 21
-0.4799999999977004
 31
0.0
  0
LINE
  5
3FE1
330
1F
100
AcDbEntity
  8
AM_0
100
AcDbLine
 10
-1.413943338612841
 20
-0.4799999999977004
 30
0.0
 11
-0.5162747914143778
 21
-0.8841928590975854
 31
0.0
  0
LINE
  5
3FE2
330
1F
100
AcDbEntity
  8
AM_0
100
AcDbLine
 10
0.0000000000002387
 20
-0.5999999999977277
 30
0.0
 11
-0.3464101615134836
 21
0.0000000000024087
 31
0.0
  0
LINE
  5
3FE3
330
1F
100
AcDbEntity
  8
AM_0
100
AcDbLine
 10
0.0000000000002387
 20
0.0000000000022723
 30
0.0
 11
0.0000000000002387
 21
3.000000000002272
 31
0.0
  0
LINE
  5
3FE4
330
1F
100
AcDbEntity
  8
AM_0
100
AcDbLine
 10
-1.199999999999761
 20
-2.916218553724003
 30
0.0
 11
-1.199999999999761
 21
-2.630744767716033
 31
0.0
  0
LINE
  5
3FE5
330
1F
100
AcDbEntity
  8
AM_0
100
AcDbLine
 10
0.0000000000002387
 20
-2.999999999997727
 30
0.0
 11
-0.0629999999997722
 21
-2.84006469457072
 31
0.0
  0
LINE
  5
3FE6
330
1F
100
AcDbEntity
  8
AM_0
100
AcDbLine
 10
-18.00000000000013
 20
-1.927640012840471
 30
0.0
 11
-18.00000000000013
 21
-2.661858904637769
 31
0.0
  0
LINE
  5
3FE7
330
1F
100
AcDbEntity
  8
AM_0
100
AcDbLine
 10
-10.27499999999976
 20
-2.745154697499198
 30
0.0
 11
-10.27499999999976
 21
-2.370960512679336
 31
0.0
  0
LINE
  5
3FE8
330
1F
100
AcDbEntity
  8
AM_11
100
AcDbLine
 10
-18.00000000000023
 20
-2.999999999996363
 30
0.0
 11
-17.99999999999979
 21
3.000000000003636
 31
0.0
  0
ARC
  5
3FE9
330
1F
100
AcDbEntity
  8
AM_0
100
AcDbCircle
 10
-17.8041727068097
 20
-5.910398706751517
 30
0.0
 40
3.254436844473762
100
AcDbArc
 50
93.44970875008563
 51
116.5830794396971
  0
LINE
  5
3FEB
330
1F
100
AcDbEntity
  8
AM_0
100
AcDbLine
 10
-5.399999999998397
 20
-1.503765278057143
 30
0.0
 11
-5.399999999999761
 21
-0.9292802840136019
 31
0.0
  0
LINE
  5
3FEC
330
1F
100
AcDbEntity
  8
AM_0
100
AcDbLine
 10
-4.499999999999761
 20
-1.925417364619614
 30
0.0
 11
-4.499999999999761
 21
-1.385295783691562
 31
0.0
  0
LINE
  5
3FED
330
1F
100
AcDbEntity
  8
AM_0
100
AcDbLine
 10
-7.499999999999765
 20
-0.3753174246929475
 30
0.0
 11
-7.499999999999765
 21
0.2135794526685103
 31
0.0
  0
LINE
  5
3FEE
330
1F
100
AcDbEntity
  8
AM_0
100
AcDbLine
 10
-5.84999999999976
 20
2.697481076749873
 30
0.0
 11
-5.849999999999795
 21
2.819797749380459
 31
0.0
  0
LINE
  5
3FEF
330
1F
100
AcDbEntity
  8
AM_0
100
AcDbLine
 10
-4.949999999999761
 20
2.430041815909781
 30
0.0
 11
-4.949999999999761
 21
2.650799187156336
 31
0.0
  0
LINE
  5
3FF0
330
1F
100
AcDbEntity
  8
AM_0
100
AcDbLine
 10
-6.599999999999765
 20
-0.876689809791641
 30
0.0
 11
-6.599999999999765
 21
-0.2825851223710643
 31
0.0
  0
LINE
  5
3FF1
330
1F
100
AcDbEntity
  8
AM_0
100
AcDbLine
 10
-12.37499999999976
 20
-2.051124494552631
 30
0.0
 11
-12.37499999999976
 21
-1.522071884367029
 31
0.0
  0
LINE
  5
3FF2
330
1F
100
AcDbEntity
  8
AM_0
100
AcDbLine
 10
-11.17499999999976
 20
-2.494349431592878
 30
0.0
 11
-11.17499999999976
 21
-2.045625019505202
 31
0.0
  0
LINE
  5
3FF3
330
1F
100
AcDbEntity
  8
AM_0
100
AcDbLine
 10
-11.69999999999976
 20
1.872149307845505
 30
0.0
 11
-11.69999999999948
 21
2.230581734982136
 31
0.0
  0
LINE
  5
3FF4
330
1F
100
AcDbEntity
  8
AM_0
100
AcDbLine
 10
-9.599999999999761
 20
0.8109812725792593
 30
0.0
 11
-9.600000000006854
 21
1.323804149470855
 31
0.0
  0
LINE
  5
3FF5
330
1F
100
AcDbEntity
  8
AM_0
100
AcDbLine
 10
-10.79999999999976
 20
1.443998823804734
 30
0.0
 11
-10.79999999999976
 21
1.877009050370337
 31
0.0
  0
LINE
  5
3FF6
330
1F
100
AcDbEntity
  8
AM_0
100
AcDbLine
 10
-8.699999999999764
 20
0.3073388591368356
 30
0.0
 11
-8.699999999999764
 21
0.8633088565312149
 31
0.0
  0
LINE
  5
3FF7
330
1F
100
AcDbEntity
  8
AM_0
100
AcDbLine
 10
-16.57499999999976
 20
0.1473290579960562
 30
0.0
 11
-16.57500000004478
 21
0.7117328642741299
 31
0.0
  0
LINE
  5
3FF8
330
1F
100
AcDbEntity
  8
AM_0
100
AcDbLine
 10
-13.79999999999979
 20
2.6419328279964
 30
0.0
 11
-13.79999999999979
 21
2.787832045297021
 31
0.0
  0
LINE
  5
3FF9
330
1F
100
AcDbEntity
  8
AM_0
100
AcDbLine
 10
-14.47499999999975
 20
-1.034386895657895
 30
0.0
 11
-14.47499999999975
 21
-0.438700398824291
 31
0.0
  0
LINE
  5
3FFA
330
1F
100
AcDbEntity
  8
AM_0
100
AcDbLine
 10
-15.37499999999976
 20
-0.53838394567846
 30
0.0
 11
-15.37499999999976
 21
0.0564475954331314
 31
0.0
  0
LINE
  5
3FFB
330
1F
100
AcDbEntity
  8
AM_0
100
AcDbLine
 10
-15.37499999999976
 20
-0.53838394567846
 30
0.0
 11
-15.37499999999976
 21
0.0294586454221971
 31
0.0
  0
LINE
  5
3FFC
330
1F
100
AcDbEntity
  8
AM_0
100
AcDbLine
 10
-13.27499999999976
 20
-1.645480992145509
 30
0.0
 11
-13.27499999999976
 21
-1.077176047631134
 31
0.0
  0
LINE
  5
3FFD
330
1F
100
AcDbEntity
  8
AM_0
100
AcDbLine
 10
-12.89999999999976
 20
2.357054448567281
 30
0.0
 11
-12.89999999999979
 21
2.599711211232373
 31
0.0
  0
LINE
  5
3FFE
330
1F
100
AcDbEntity
  8
AM_0
100
AcDbLine
 10
-17.99999999999982
 20
1.95492028859529
 30
0.0
 11
-17.99999999999993
 21
1.00955487532443
 31
0.0
  0
LINE
  5
3FFF
330
1F
100
AcDbEntity
  8
AM_0
100
AcDbLine
 10
-17.22536785658615
 20
0.5172340193384898
 30
0.0
 11
-17.22536785658615
 21
1.058853022888204
 31
0.0
  0
LINE
  5
4000
330
1F
100
AcDbEntity
  8
AM_0
100
AcDbLine
 10
-17.99999999999979
 20
2.786874725167284
 30
0.0
 11
-17.99999999999979
 21
2.665223907893469
 31
0.0
  0
POLYLINE
  5
4014
330
1F
100
AcDbEntity
  8
AM_0
100
AcDb2dPolyline
 66
     1
 10
0.0
 20
0.0
 30
0.0
 70
     2
  0
VERTEX
  5
4015
330
4014
100
AcDbEntity
  8
AM_0
100
AcDbVertex
100
AcDb2dVertex
 10
-17.99999999999983
 20
1.954920288595286
 30
0.0
 42
-0.017926386117277
  0
VERTEX
  5
4016
330
4014
100
AcDbEntity
  8
AM_0
100
AcDbVertex
100
AcDb2dVertex
 10
-18.64361398756045
 20
2.207766962731119
 30
0.0
 42
-0.0246514885553179
 70
     1
  0
VERTEX
  5
4017
330
4014
100
AcDbEntity
  8
AM_0
100
AcDbVertex
100
AcDb2dVertex
 10
-19.09444310363537
 20
2.430834022361903
 30
0.0
 42
-0.0037081416177052
  0
VERTEX
  5
4018
330
4014
100
AcDbEntity
  8
AM_0
100
AcDbVertex
100
AcDb2dVertex
 10
-19.56507950474481
 20
2.697922023096697
 30
0.0
 42
-0.0130511132204554
 70
     1
  0
VERTEX
  5
4019
330
4014
100
AcDbEntity
  8
AM_0
100
AcDbVertex
100
AcDb2dVertex
 10
-19.69620128082343
 20
2.77825926794847
 30
0.0
 42
-0.0524474852199747
  0
VERTEX
  5
401A
330
4014
100
AcDbEntity
  8
AM_0
100
AcDbVertex
100
AcDb2dVertex
 10
-19.76445701381674
 20
2.833522721186244
 30
0.0
 42
-0.0202944684139966
 70
     1
  0
VERTEX
  5
401B
330
4014
100
AcDbEntity
  8
AM_0
100
AcDbVertex
100
AcDb2dVertex
 10
-19.91794201287712
 20
3.000000000002165
 30
0.0
  0
SEQEND
  5
401C
330
4014
100
AcDbEntity
  8
AM_0
  0
ARC
  5
401D
330
1F
100
AcDbEntity
  8
AM_0
100
AcDbCircle
 10
-18.29641832380051
 20
6.6283956306486
 30
0.0
 40
3.974241302026194
100
AcDbArc
 50
245.9202154420432
 51
274.277371066389
  0
LINE
  5
401F
330
1F
100
AcDbEntity
  8
AM_0
100
AcDbLine
 10
-8.174999999999219
 20
-2.99998660803857
 30
0.0
 11
-8.17500000001368
 21
-2.845927536717171
 31
0.0
  0
LINE
  5
4020
330
1F
100
AcDbEntity
  8
AM_0
100
AcDbLine
 10
-9.074999999999761
 20
-2.951000008103552
 30
0.0
 11
-9.074999999999761
 21
-2.695553250828812
 31
0.0
  0
LINE
  5
4021
330
1F
100
AcDbEntity
  8
AM_0
100
AcDbLine
 10
-16.16237605517575
 20
-2.999986608038638
 30
0.0
 11
-16.16237605519021
 21
-2.845927536717239
 31
0.0
  0
LINE
  5
4022
330
1F
100
AcDbEntity
  8
AM_0
100
AcDbLine
 10
-17.06237605517629
 20
-2.951000008103586
 30
0.0
 11
-17.06237605517629
 21
-2.695553250828846
 31
0.0
  0
DIMENSION
  5
40B9
330
1F
100
AcDbEntity
  8
AM_5
100
AcDbDimension
  2
*D5
 10
7.000000000000244
 20
-2.999999999997729
 30
0.0
 11
5.450000000000244
 21
0.0000000000022717
 31
0.0
 70
    32
  1
%%c<>
  3
AM_JIS
100
AcDbAlignedDimension
 13
0.0000000000002387
 23
3.000000000002272
 33
0.0
 14
0.000000000000243
 24
-2.999999999997727
 34
0.0
 50
90.0
100
AcDbRotatedDimension
1001
GENIUS_GENDTOL_13
1000

1000
h7
1000

1040
0.0
  0
DIMENSION
  5
4145
330
1F
100
AcDbEntity
  8
AM_5
100
AcDbDimension
  2
*D6
 10
-55.0
 20
-16.00000000001323
 30
0.0
 11
-27.49999999999988
 21
-14.45000000001322
 31
0.0
 70
    32
  1
<>
  3
AM_JIS
100
AcDbAlignedDimension
 13
0.0000000000002387
 23
-2.999999999997727
 33
0.0
 14
-55.0
 24
-2.500000000013081
 34
0.0
 50
0.0000000000001132
100
AcDbRotatedDimension
1001
GENIUS_GENDTOL_13
1000

1000
h7
1000

1040
0.0
  0
DIMENSION
  5
423E
330
1F
100
AcDbEntity
  8
AM_5
100
AcDbDimension
  2
*D7
 10
-18.00000000000023
 20
-10.00000000001315
 30
0.0
 11
-9.0
 21
-8.450000000013154
 31
0.0
 70
    32
  1
<>
  3
AM_JIS
100
AcDbAlignedDimension
 13
0.0000000000002387
 23
-2.999999999997727
 33
0.0
 14
-18.00000000000023
 24
-2.999999999997795
 34
0.0
 50
0.0000000000001132
100
AcDbRotatedDimension
1001
GENIUS_GENDTOL_13
1000

1000
h7
1000

1040
0.0
  0
LINE
  5
4345
330
1F
100
AcDbEntity
  8
AM_0
100
AcDbLine
 10
-19.26051694580706
 20
-3.000000000013062
 30
0.0
 11
-54.49999999999999
 21
-3.000000000013081
 31
0.0
  0
LINE
  5
4348
330
1F
100
AcDbEntity
  8
AM_0
100
AcDbLine
 10
-54.49999999999998
 20
2.99999999998692
 30
0.0
 11
-54.49999999999996
 21
-3.000000000013089
 31
0.0
  0
LINE
  5
4349
330
1F
100
AcDbEntity
  8
AM_0
100
AcDbLine
 10
-55.0
 20
-2.500000000013081
 30
0.0
 11
-54.99999999999998
 21
2.499999999986919
 31
0.0
  0
DIMENSION
  5
434A
330
1F
100
AcDbEntity
  8
AM_5
100
AcDbDimension
  2
*D8
 10
-61.99999999999999
 20
-3.000000000013107
 30
0.0
 11
-63.54999999999999
 21
-0.0000000000131024
 31
0.0
 70
    32
  1
%%c<>
  3
AM_JIS
100
AcDbAlignedDimension
 13
-54.49999999999998
 23
2.99999999998692
 33
0.0
 14
-54.49999999999996
 24
-3.000000000013109
 34
0.0
 50
270.0
100
AcDbRotatedDimension
1001
GENIUS_GENDTOL_13
1000

1000
h7
1000

1040
0.0
  0
LINE
  5
4357
330
1F
100
AcDbEntity
  8
AM_0
100
AcDbLine
 10
-19.91794201287712
 20
3.000000000002149
 30
0.0
 11
-54.49999999999998
 21
2.99999999998692
 31
0.0
  0
LINE
  5
4363
330
1F
100
AcDbEntity
  8
AM_0
100
AcDbLine
 10
-54.49999999999998
 20
2.99999999998692
 30
0.0
 11
-54.99999999999998
 21
2.499999999986919
 31
0.0
1001
GENIUS_GENFIL_13
1070
     0
1040
0.5
1040
0.5
1040
20.0
1040
0.0
1002
{
1002
}
1001
GENIUS_GENODEF_13
1002
{
1000
HIER
1070
     0
1002
}
1002
{
1000
MANEDIT
1070
     0
1002
}
1002
{
1000
NOSEL
1070
     0
1002
}
1002
{
1000
BEHIND
1070
     0
1002
}
1002
{
1000
REACTOR
1002
}
1001
GENIUS_GENOBJ-N-CHA_13
1002
{
1000
OWNER
1000
GEN
1002
}
  0
LINE
  5
4366
330
1F
100
AcDbEntity
  8
AM_0
100
AcDbLine
 10
-55.0
 20
-2.500000000013081
 30
0.0
 11
-54.49999999999999
 21
-3.000000000013081
 31
0.0
1001
GENIUS_GENFIL_13
1070
     0
1040
0.5
1040
0.5
1040
20.0
1040
0.0
1002
{
1002
}
1001
GENIUS_GENODEF_13
1002
{
1000
HIER
1070
     0
1002
}
1002
{
1000
MANEDIT
1070
     0
1002
}
1002
{
1000
NOSEL
1070
     0
1002
}
1002
{
1000
BEHIND
1070
     0
1002
}
1002
{
1000
REACTOR
1002
}
1001
GENIUS_GENOBJ-N-CHA_13
1002
{
1000
OWNER
1000
GEN
1002
}
  0
SPLINE
  5
447F
330
1F
100
AcDbEntity
  8
AM_0
100
AcDbSpline
210
0.0
220
0.0
230
1.0
 70
     8
 71
     3
 72
    14
 73
    10
 74
     8
 42
0.0000000001
 43
0.0000000001
 44
0.0000000001
 40
0.0
 40
0.0
 40
0.0
 40
0.0
 40
0.3480482923109653
 40
0.6049446657169641
 40
0.8094086025256917
 40
1.197641124187644
 40
1.562317410000865
 40
2.335080567366891
 40
2.649624029256707
 40
2.649624029256707
 40
2.649624029256707
 40
2.649624029256707
 10
-17.99999999999996
 20
1.00955487532443
 30
0.0
 10
-18.11593701487414
 20
1.016293498822596
 30
0.0
 10
-18.31744778293911
 20
1.028005937669585
 30
0.0
 10
-18.5872697715911
 20
1.008075855503544
 30
0.0
 10
-18.86678613340686
 20
0.9643760527529284
 30
0.0
 10
-19.18580323535934
 20
0.9265345479355245
 30
0.0
 10
-19.67134034270777
 20
0.8060236194093128
 30
0.0
 10
-20.18011555377559
 20
0.6193556589444672
 30
0.0
 10
-20.32588819399556
 20
0.2791171876070916
 30
0.0
 10
-20.36805829587077
 20
0.1806906860598081
 30
0.0
 11
-17.99999999999996
 21
1.00955487532443
 31
0.0
 11
-18.34786127443516
 21
1.020963097311124
 31
0.0
 11
-18.604125297741
 21
1.002949296261505
 31
0.0
 11
-18.80662392833517
 21
0.974668453579369
 31
0.0
 11
-19.19065450708188
 21
0.9177035041502676
 31
0.0
 11
-19.54522843979236
 21
0.8324619668767638
 31
0.0
 11
-20.22186317599516
 21
0.4591948625853775
 31
0.0
 11
-20.36805829587077
 21
0.1806906860598081
 31
0.0
  0
POLYLINE
  5
448C
330
1F
100
AcDbEntity
  8
AM_0
100
AcDb2dPolyline
 66
     1
 10
0.0
 20
0.0
 30
0.0
  0
VERTEX
  5
448D
330
448C
100
AcDbEntity
  8
AM_0
100
AcDbVertex
100
AcDb2dVertex
 10
-18.00000000000014
 20
-1.927640012840475
 30
0.0
 42
-0.0198889565917329
  0
VERTEX
  5
448E
330
448C
100
AcDbEntity
  8
AM_0
100
AcDbVertex
100
AcDb2dVertex
 10
-18.62079015343105
 20
-1.706176510780443
 30
0.0
 42
-0.029463196711072
  0
VERTEX
  5
448F
330
448C
100
AcDbEntity
  8
AM_0
100
AcDbVertex
100
AcDb2dVertex
 10
-19.02327330864345
 20
-1.516029766821253
 30
0.0
 42
-0.0043615462457846
  0
VERTEX
  5
4490
330
448C
100
AcDbEntity
  8
AM_0
100
AcDbVertex
100
AcDb2dVertex
 10
-19.48503030066494
 20
-1.258356913952258
 30
0.0
 42
-0.009441808533592
  0
VERTEX
  5
4491
330
448C
100
AcDbEntity
  8
AM_0
100
AcDbVertex
100
AcDb2dVertex
 10
-19.69498211960311
 20
-1.13347644988965
 30
0.0
 42
-0.0439302380745563
  0
VERTEX
  5
4492
330
448C
100
AcDbEntity
  8
AM_0
100
AcDbVertex
100
AcDb2dVertex
 10
-20.05023002673319
 20
-0.8671642167814127
 30
0.0
 42
-0.0551946304363759
  0
VERTEX
  5
4493
330
448C
100
AcDbEntity
  8
AM_0
100
AcDbVertex
100
AcDb2dVertex
 10
-20.28599910152963
 20
-0.60341198842454
 30
0.0
 42
-0.108531418392727
  0
VERTEX
  5
4494
330
448C
100
AcDbEntity
  8
AM_0
100
AcDbVertex
100
AcDb2dVertex
 10
-20.38613686155993
 20
-0.3684937260764684
 30
0.0
 42
-0.0746999284091838
  0
VERTEX
  5
4495
330
448C
100
AcDbEntity
  8
AM_0
100
AcDbVertex
100
AcDb2dVertex
 10
-20.4
 20
0.0000000000021998
 30
0.0
 42
-0.031734878325147
  0
VERTEX
  5
4496
330
448C
100
AcDbEntity
  8
AM_0
100
AcDbVertex
100
AcDb2dVertex
 10
-20.3680582870511
 20
0.180690722348968
 30
0.0
 42
-0.0519299244436891
  0
SEQEND
  5
4497
330
448C
100
AcDbEntity
  8
AM_0
  0
VIEWPORT
  5
110
330
101
100
AcDbEntity
 67
     1
  8
0
100
AcDbViewport
 10
420.5
 20
297.0
 30
0.0
 40
948.9782706766916
 41
628.452
 68
     1
 69
     1
1001
ACAD
1000
MVIEW
1002
{
1070
    16
1010
0.0
1020
0.0
1030
0.0
1010
0.0
1020
0.0
1030
1.0
1040
0.0
1040
628.452
1040
420.5
1040
297.0
1040
50.0
1040
0.0
1040
0.0
1070
     0
1070
   100
1070
     1
1070
     1
1070
     0
1070
     0
1070
     0
1070
     0
1040
0.0
1040
0.0
1040
0.0
1040
10.0
1040
10.0
1040
10.0
1040
10.0
1070
     0
1002
{
1002
}
1002
}
  0
ENDSEC
  0
SECTION
  2
OBJECTS
  0
DICTIONARY
  5
C
330
0
100
AcDbDictionary
  3
ACAD_GROUP
350
D
  3
ACAD_LAYOUT
350
1A
  3
ACAD_MLINESTYLE
350
17
  3
ACAD_PLOTSETTINGS
350
19
  3
ACAD_PLOTSTYLENAME
350
E
  3
ACDBVARIABLEDICTIONARY
350
34
  3
ACMDICTIONARY
350
43
  3
AMG
350
2B
  3
AMGSNAPSETTINGS
350
6E
  3
ASE_INDEX_DICTIONARY
350
151A
  3
DWGPROPS
350
44AE
  3
ACDBHEADERROUNDTRIPXREC
350
44BA
  0
DICTIONARY
  5
74
330
1F
100
AcDbDictionary
280
     1
  3
ACAD_INDEX
360
44B0
  3
ACAD_LAYOUTSELFREF
360
44DD
  0
DICTIONARY
  5
44E2
330
101
100
AcDbDictionary
280
     1
  3
ACAD_LAYOUTSELFREF
360
44E3
  0
DICTIONARY
  5
D
102
{ACAD_REACTORS
330
C
102
}
330
C
100
AcDbDictionary
  0
DICTIONARY
  5
1A
102
{ACAD_REACTORS
330
C
102
}
330
C
100
AcDbDictionary
  0
DICTIONARY
  5
17
102
{ACAD_REACTORS
330
C
102
}
330
C
100
AcDbDictionary
  3
STANDARD
350
18
  0
DICTIONARY
  5
19
102
{ACAD_REACTORS
330
C
102
}
330
C
100
AcDbDictionary
  0
ACDBDICTIONARYWDFLT
  5
E
102
{ACAD_REACTORS
330
C
102
}
330
C
100
AcDbDictionary
281
     1
  3
Normal
350
F
100
AcDbDictionaryWithDefault
340
F
  0
DICTIONARY
  5
34
102
{ACAD_REACTORS
330
C
102
}
330
C
100
AcDbDictionary
  3
INDEXCTL
350
35
  3
SORTENTS
350
B5E
  0
DICTIONARY
  5
43
102
{ACAD_REACTORS
330
C
102
}
330
C
100
AcDbDictionary
  3
ACMSTDDICTIONARY
350
260
  0
DICTIONARY
  5
2B
102
{ACAD_REACTORS
330
C
102
}
330
C
100
AcDbDictionary
  3
ACMGSETTINGS
350
2C
  0
DICTIONARY
  5
6E
102
{ACAD_REACTORS
330
C
102
}
330
C
100
AcDbDictionary
  0
DICTIONARY
  5
151A
102
{ACAD_REACTORS
330
C
102
}
330
C
100
AcDbDictionary
  3
ASEBLOCKHIERARCHYINDEXRECORD
350
151C
1001
DCO15
1040
1471862535.906
  0
XRECORD
  5
44AE
102
{ACAD_REACTORS
330
C
102
}
330
C
100
AcDbXrecord
  1
DWGPROPS COOKIE
  2

  3

  4

  6

  7

  8

  9

300
AmdtFileType=82
301
=
302
=
303
=
304
=
305
=
306
=
307
=
308
=
309
=
 40
0.1437614699074074
 41
2452838.430434386
 42
2453045.553044352
  1

 90
        1
  0
DICTIONARY
  5
44BA
102
{ACAD_REACTORS
330
C
102
}
330
C
100
AcDbDictionary
  3
TSTACKALIGN
350
44BB
  3
TSTACKSIZE
350
44BC
  3
HYPERLINKBASE
350
44BD
  3
STYLESHEET
350
44BE
  3
LAYOUTDICT
350
44BF
  3
PLOTSETDICT
350
44C0
  3
PLOTSTYLNAMDICT
350
44C1
  3
LWETCUNION
350
44C2
  3
INSUNITS
350
44C3
  3
CEPSNTYPE
350
44C4
  3
FINGERPRINTGUID
350
44C5
  3
VERSIONGUID
350
44C6
  3
PSVPSCALE
350
44C7
  3
DIMSTYLEDATA
350
44C8
  3
PUCSORTHOREF
350
44C9
  3
PUCSORTHOVIEW
350
44CA
  3
PUCSBASE
350
44CB
  3
PUCSORGTOP
350
44CC
  3
PUCSORGBOTTOM
350
44CD
  3
PUCSORGLEFT
350
44CE
  3
PUCSORGRIGHT
350
44CF
  3
PUCSORGFRONT
350
44D0
  3
PUCSORGBACK
350
44D1
  3
UCSORTHOREF
350
44D2
  3
UCSORTHOVIEW
350
44D3
  3
UCSBASE
350
44D4
  3
UCSORGTOP
350
44D5
  3
UCSORGBOTTOM
350
44D6
  3
UCSORGLEFT
350
44D7
  3
UCSORGRIGHT
350
44D8
  3
UCSORGFRONT
350
44D9
  3
UCSORGBACK
350
44DA
  0
DICTIONARY
  5
44B0
102
{ACAD_REACTORS
330
74
102
}
330
74
100
AcDbDictionary
  3
*A1
350
44B1
  0
XRECORD
  5
44DD
102
{ACAD_REACTORS
330
74
102
}
330
74
100
AcDbXrecord
340
1F
  0
XRECORD
  5
44E3
102
{ACAD_REACTORS
330
44E2
102
}
330
44E2
100
AcDbXrecord
340
101
  0
MLINESTYLE
  5
18
102
{ACAD_REACTORS
330
17
102
}
330
17
100
AcDbMlineStyle
  2
STANDARD
 70
     0
  3

 62
   256
 51
90.0
 52
90.0
 71
     2
 49
0.5
 62
   256
  6
BYLAYER
 49
-0.5
 62
   256
  6
BYLAYER
  0
ACDBPLACEHOLDER
  5
F
102
{ACAD_REACTORS
330
E
102
}
330
E
100
AcDbPlaceHolder
280
     0
  0
DICTIONARYVAR
  5
35
102
{ACAD_REACTORS
330
34
102
}
330
34
100
DictionaryVariables
280
     0
  1
1
  0
DICTIONARYVAR
  5
B5E
102
{ACAD_REACTORS
330
34
102
}
330
34
100
DictionaryVariables
280
     0
  1
96
  0
DICTIONARY
  5
260
102
{ACAD_REACTORS
330
43
102
}
330
43
100
AcDbDictionary
  0
DICTIONARY
  5
2C
102
{ACAD_REACTORS
330
2B
102
}
330
2B
100
AcDbDictionary
  3
DWGSETTINGS
350
2D
  0
XRECORD
  5
151C
102
{ACAD_REACTORS
330
151A
102
}
330
151A
100
AcDbXrecord
330
0
330
0
330
0
330
0
330
0
330
0
330
0
330
0
  0
XRECORD
  5
44BB
102
{ACAD_REACTORS
330
44BA
102
}
330
44BA
100
AcDbXrecord
 90
        1
  0
XRECORD
  5
44BC
102
{ACAD_REACTORS
330
44BA
102
}
330
44BA
100
AcDbXrecord
 90
       70
  0
XRECORD
  5
44BD
102
{ACAD_REACTORS
330
44BA
102
}
330
44BA
100
AcDbXrecord
  1

  0
XRECORD
  5
44BE
102
{ACAD_REACTORS
330
44BA
102
}
330
44BA
100
AcDbXrecord
  1
ASAMI.ctb
  0
XRECORD
  5
44BF
102
{ACAD_REACTORS
330
44BA
102
}
330
44BA
100
AcDbXrecord
340
1A
  0
XRECORD
  5
44C0
102
{ACAD_REACTORS
330
44BA
102
}
330
44BA
100
AcDbXrecord
340
19
  0
XRECORD
  5
44C1
102
{ACAD_REACTORS
330
44BA
102
}
330
44BA
100
AcDbXrecord
340
E
  0
XRECORD
  5
44C2
102
{ACAD_REACTORS
330
44BA
102
}
330
44BA
100
AcDbXrecord
 90
    10781
  0
XRECORD
  5
44C3
102
{ACAD_REACTORS
330
44BA
102
}
330
44BA
100
AcDbXrecord
 90
        4
  0
XRECORD
  5
44C4
102
{ACAD_REACTORS
330
44BA
102
}
330
44BA
100
AcDbXrecord
 90
        0
  0
XRECORD
  5
44C5
102
{ACAD_REACTORS
330
44BA
102
}
330
44BA
100
AcDbXrecord
  1
{AFB28963-8C59-40AE-9337-C84526B81ACE}
  0
XRECORD
  5
44C6
102
{ACAD_REACTORS
330
44BA
102
}
330
44BA
100
AcDbXrecord
  1
{12A74FEF-8AE3-48A4-91F2-4541E528FFCC}
  0
XRECORD
  5
44C7
102
{ACAD_REACTORS
330
44BA
102
}
330
44BA
100
AcDbXrecord
 40
0.0
  0
XRECORD
  5
44C8
102
{ACAD_REACTORS
330
44BA
102
}
330
44BA
100
AcDbXrecord
1000
DSTYLE
1002
{
1070
    79
 70
     2
1070
   341
340
59
1070
   342
340
59
1070
   371
 70
    -1
1070
   372
 70
    -1
1002
}
  0
XRECORD
  5
44C9
102
{ACAD_REACTORS
330
44BA
102
}
330
44BA
100
AcDbXrecord
340
0
  0
XRECORD
  5
44CA
102
{ACAD_REACTORS
330
44BA
102
}
330
44BA
100
AcDbXrecord
 70
     0
  0
XRECORD
  5
44CB
102
{ACAD_REACTORS
330
44BA
102
}
330
44BA
100
AcDbXrecord
340
0
  0
XRECORD
  5
44CC
102
{ACAD_REACTORS
330
44BA
102
}
330
44BA
100
AcDbXrecord
 10
0.0
 20
0.0
 30
0.0
  0
XRECORD
  5
44CD
102
{ACAD_REACTORS
330
44BA
102
}
330
44BA
100
AcDbXrecord
 10
0.0
 20
0.0
 30
0.0
  0
XRECORD
  5
44CE
102
{ACAD_REACTORS
330
44BA
102
}
330
44BA
100
AcDbXrecord
 10
0.0
 20
0.0
 30
0.0
  0
XRECORD
  5
44CF
102
{ACAD_REACTORS
330
44BA
102
}
330
44BA
100
AcDbXrecord
 10
0.0
 20
0.0
 30
0.0
  0
XRECORD
  5
44D0
102
{ACAD_REACTORS
330
44BA
102
}
330
44BA
100
AcDbXrecord
 10
0.0
 20
0.0
 30
0.0
  0
XRECORD
  5
44D1
102
{ACAD_REACTORS
330
44BA
102
}
330
44BA
100
AcDbXrecord
 10
0.0
 20
0.0
 30
0.0
  0
XRECORD
  5
44D2
102
{ACAD_REACTORS
330
44BA
102
}
330
44BA
100
AcDbXrecord
340
0
  0
XRECORD
  5
44D3
102
{ACAD_REACTORS
330
44BA
102
}
330
44BA
100
AcDbXrecord
 70
     0
  0
XRECORD
  5
44D4
102
{ACAD_REACTORS
330
44BA
102
}
330
44BA
100
AcDbXrecord
340
0
  0
XRECORD
  5
44D5
102
{ACAD_REACTORS
330
44BA
102
}
330
44BA
100
AcDbXrecord
 10
0.0
 20
0.0
 30
0.0
  0
XRECORD
  5
44D6
102
{ACAD_REACTORS
330
44BA
102
}
330
44BA
100
AcDbXrecord
 10
0.0
 20
0.0
 30
0.0
  0
XRECORD
  5
44D7
102
{ACAD_REACTORS
330
44BA
102
}
330
44BA
100
AcDbXrecord
 10
0.0
 20
0.0
 30
0.0
  0
XRECORD
  5
44D8
102
{ACAD_REACTORS
330
44BA
102
}
330
44BA
100
AcDbXrecord
 10
0.0
 20
0.0
 30
0.0
  0
XRECORD
  5
44D9
102
{ACAD_REACTORS
330
44BA
102
}
330
44BA
100
AcDbXrecord
 10
0.0
 20
0.0
 30
0.0
  0
XRECORD
  5
44DA
102
{ACAD_REACTORS
330
44BA
102
}
330
44BA
100
AcDbXrecord
 10
0.0
 20
0.0
 30
0.0
  0
LAYER_INDEX
  5
44B1
102
{ACAD_REACTORS
330
44B0
102
}
330
44B0
100
AcDbIndex
 40
2453151.878065138
100
AcDbLayerIndex
  8
0
360
44B2
 90
        0
  8
AM_0
360
44B3
 90
      155
  8
AM_11
360
44B4
 90
        4
  8
AM_7
360
44B5
 90
        1
  8
AM_5
360
44B6
 90
        4
  8
Defpoints
360
44B7
 90
        0
  8
AM_6
360
44B8
 90
        1
  0
XRECORD
  5
2D
102
{ACAD_REACTORS
330
2C
102
}
330
2C
100
AcDbXrecord
  1
VERSION
140
15.0
  1
PRODUCT
  2
AutoCAD Mechanical 2000
  0
IDBUFFER
  5
44B2
330
0
100
AcDbIdBuffer
  0
IDBUFFER
  5
44B3
330
0
100
AcDbIdBuffer
330
3FE2
330
3FE3
330
3FE4
330
3FE5
330
3FE6
330
3FE7
330
3FE9
330
3FEB
330
3FEC
330
3FED
330
3FEE
330
3FEF
330
3FF0
330
3FF1
330
3FF2
330
3FF3
330
3FF4
330
3FF5
330
3FF6
330
3FF7
330
3FF8
330
3FF9
330
3FFA
330
3FFB
330
3FFC
330
3FFD
330
3FFE
330
3FFF
330
4000
330
4014
330
401D
330
401F
330
4020
330
4021
330
4022
330
4345
330
4348
330
4349
330
4357
330
4363
330
4366
330
447F
330
448C
330
3F6E
330
3F6F
330
3F70
330
3F71
330
3F72
330
3F73
330
3F74
330
3F75
330
3F76
330
3F77
330
3F78
330
3F79
330
3F7A
330
3F7B
330
3F7C
330
3F7D
330
3F7E
330
3F7F
330
3F80
330
3F81
330
3F82
330
3F83
330
3F84
330
3F85
330
3F86
330
3F87
330
3F88
330
3F89
330
3F8A
330
3F8B
330
3F8C
330
3F8D
330
3F8E
330
3F8F
330
3F90
330
3F91
330
3F92
330
3F93
330
3F94
330
3F95
330
3F96
330
3F97
330
3F98
330
3F99
330
3F9A
330
3F9B
330
3F9C
330
3F9D
330
3F9E
330
3F9F
330
3FA0
330
3FA1
330
3FA2
330
3FA3
330
3FA4
330
3FA5
330
3FA6
330
3FA7
330
3FA8
330
3FA9
330
3FAA
330
3FAB
330
3FAC
330
3FAD
330
3FAE
330
3FAF
330
3FB0
330
3FB1
330
3FB2
330
3FB3
330
3FB4
330
3FB5
330
3FB6
330
3FB7
330
3FB8
330
3FB9
330
3FBA
330
3FBB
330
3FBC
330
3FBD
330
3FBE
330
3FBF
330
3FC0
330
3FC1
330
3FC2
330
3FC3
330
3FC4
330
3FC5
330
3FC6
330
3FC7
330
3FC8
330
3FC9
330
3FCA
330
3FCE
330
3FCF
330
3FD0
330
3FD1
330
3FD3
330
3FD4
330
3FD5
330
3FD6
330
3FD7
330
3FD8
330
3FD9
330
3FDA
330
3FDB
330
3FDC
330
3FDD
330
3FDE
330
3FDF
330
3FE0
330
3FE1
  0
IDBUFFER
  5
44B4
330
0
100
AcDbIdBuffer
330
3FCC
330
3FCD
330
3FD2
330
3FE8
  0
IDBUFFER
  5
44B5
330
0
100
AcDbIdBuffer
330
3CF2
  0
IDBUFFER
  5
44B6
330
0
100
AcDbIdBuffer
330
40B9
330
4145
330
423E
330
434A
  0
IDBUFFER
  5
44B7
330
0
100
AcDbIdBuffer
  0
IDBUFFER
  5
44B8
330
0
100
AcDbIdBuffer
330
1500
  0
ENDSEC
  0
EOF
