  0
SECTION
  2
HEADER
  9
$ACADVER
  1
AC1014
  9
$ACADMAINTVER
 70
     9
  9
$DWGCODEPAGE
  3
ANSI_932
  9
$INSBASE
 10
0.0
 20
0.0
 30
0.0
  9
$EXTMIN
 10
-87.10369961738855
 20
-29.2500010099941
 30
-0.00000001
  9
$EXTMAX
 10
12.05776903085655
 20
5.445228974056881
 30
0.00000001
  9
$LIMMIN
 10
-90.45675404917972
 20
-39.45865059116039
  9
$LIMMAX
 10
15.65519779291105
 20
18.31404807618872
  9
$ORTHOMODE
 70
     0
  9
$REGENMODE
 70
     1
  9
$FILLMODE
 70
     1
  9
$QTEXTMODE
 70
     0
  9
$MIRRTEXT
 70
     0
  9
$DRAGMODE
 70
     2
  9
$LTSCALE
 40
1.0
  9
$OSMODE
 70
    55
  9
$ATTMODE
 70
     1
  9
$TEXTSIZE
 40
2.5
  9
$TRACEWID
 40
1.0
  9
$TEXTSTYLE
  7
STANDARD
  9
$CLAYER
  8
AM_0
  9
$CELTYPE
  6
BYLAYER
  9
$CECOLOR
 62
   256
  9
$CELTSCALE
 40
1.0
  9
$DELOBJ
 70
     1
  9
$DISPSILH
 70
     0
  9
$DIMSCALE
 40
0.5
  9
$DIMASZ
 40
2.5
  9
$DIMEXO
 40
1.0
  9
$DIMDLI
 40
12.0
  9
$DIMRND
 40
0.0
  9
$DIMDLE
 40
0.0
  9
$DIMEXE
 40
1.0
  9
$DIMTP
 40
0.1
  9
$DIMTM
 40
0.1
  9
$DIMTXT
 40
3.2
  9
$DIMCEN
 40
0.0
  9
$DIMTSZ
 40
0.0
  9
$DIMTOL
 70
     0
  9
$DIMLIM
 70
     0
  9
$DIMTIH
 70
     0
  9
$DIMTOH
 70
     0
  9
$DIMSE1
 70
     0
  9
$DIMSE2
 70
     0
  9
$DIMTAD
 70
     3
  9
$DIMZIN
 70
     8
  9
$DIMBLK
  1
OPEN30
  9
$DIMASO
 70
     1
  9
$DIMSHO
 70
     1
  9
$DIMPOST
  1

  9
$DIMAPOST
  1
"
  9
$DIMALT
 70
     0
  9
$DIMALTD
 70
     2
  9
$DIMALTF
 40
0.0393701
  9
$DIMLFAC
 40
1.0
  9
$DIMTOFL
 70
     1
  9
$DIMTVP
 40
0.0
  9
$DIMTIX
 70
     0
  9
$DIMSOXD
 70
     0
  9
$DIMSAH
 70
     0
  9
$DIMBLK1
  1

  9
$DIMBLK2
  1

  9
$DIMSTYLE
  2
AM_JIS
  9
$DIMCLRD
 70
   256
  9
$DIMCLRE
 70
   256
  9
$DIMCLRT
 70
     2
  9
$DIMTFAC
 40
0.71
  9
$DIMGAP
 40
1.5
  9
$DIMJUST
 70
     0
  9
$DIMSD1
 70
     0
  9
$DIMSD2
 70
     0
  9
$DIMTOLJ
 70
     0
  9
$DIMTZIN
 70
     0
  9
$DIMALTZ
 70
     0
  9
$DIMALTTZ
 70
     0
  9
$DIMFIT
 70
     3
  9
$DIMUPT
 70
     0
  9
$DIMUNIT
 70
     2
  9
$DIMDEC
 70
     3
  9
$DIMTDEC
 70
     3
  9
$DIMALTU
 70
     2
  9
$DIMALTTD
 70
     2
  9
$DIMTXSTY
  7
ASAMI
  9
$DIMAUNIT
 70
     0
  9
$LUNITS
 70
     2
  9
$LUPREC
 70
     2
  9
$SKETCHINC
 40
1.0
  9
$FILLETRAD
 40
2.5
  9
$AUNITS
 70
     0
  9
$AUPREC
 70
     0
  9
$MENU
  1
.
  9
$ELEVATION
 40
0.0
  9
$PELEVATION
 40
0.0
  9
$THICKNESS
 40
0.0
  9
$LIMCHECK
 70
     0
  9
$BLIPMODE
 70
     0
  9
$CHAMFERA
 40
0.75
  9
$CHAMFERB
 40
0.75
  9
$CHAMFERC
 40
20.0
  9
$CHAMFERD
 40
0.0
  9
$SKPOLY
 70
     0
  9
$TDCREATE
 40
2452838.430434386
  9
$TDUPDATE
 40
2453151.881416643
  9
$TDINDWG
 40
0.1370508912
  9
$TDUSRTIMER
 40
0.1370508912
  9
$USRTIMER
 70
     1
  9
$ANGBASE
 50
0.0
  9
$ANGDIR
 70
     0
  9
$PDMODE
 70
     0
  9
$PDSIZE
 40
0.0
  9
$PLINEWID
 40
0.0
  9
$COORDS
 70
     1
  9
$SPLFRAME
 70
     0
  9
$SPLINETYPE
 70
     6
  9
$SPLINESEGS
 70
     8
  9
$ATTDIA
 70
     1
  9
$ATTREQ
 70
     1
  9
$HANDLING
 70
 12289
  9
$HANDSEED
  5
43D1
  9
$SURFTAB1
 70
     6
  9
$SURFTAB2
 70
     6
  9
$SURFTYPE
 70
     6
  9
$SURFU
 70
     6
  9
$SURFV
 70
     6
  9
$UCSNAME
  2

  9
$UCSORG
 10
0.0
 20
0.0
 30
0.0
  9
$UCSXDIR
 10
1.0
 20
0.0
 30
0.0
  9
$UCSYDIR
 10
0.0
 20
1.0
 30
0.0
  9
$PUCSNAME
  2

  9
$PUCSORG
 10
0.0
 20
0.0
 30
0.0
  9
$PUCSXDIR
 10
1.0
 20
0.0
 30
0.0
  9
$PUCSYDIR
 10
0.0
 20
1.0
 30
0.0
  9
$USERI1
 70
     0
  9
$USERI2
 70
     0
  9
$USERI3
 70
     0
  9
$USERI4
 70
     0
  9
$USERI5
 70
     0
  9
$USERR1
 40
0.0
  9
$USERR2
 40
0.0
  9
$USERR3
 40
0.0
  9
$USERR4
 40
0.0
  9
$USERR5
 40
0.0
  9
$WORLDVIEW
 70
     1
  9
$SHADEDGE
 70
     3
  9
$SHADEDIF
 70
    70
  9
$TILEMODE
 70
     1
  9
$MAXACTVP
 70
    64
  9
$PINSBASE
 10
0.0
 20
0.0
 30
0.0
  9
$PLIMCHECK
 70
     0
  9
$PEXTMIN
 10
1.000000000000000E+20
 20
1.000000000000000E+20
 30
1.000000000000000E+20
  9
$PEXTMAX
 10
-1.000000000000000E+20
 20
-1.000000000000000E+20
 30
-1.000000000000000E+20
  9
$PLIMMIN
 10
0.0
 20
0.0
  9
$PLIMMAX
 10
841.0
 20
594.0
  9
$UNITMODE
 70
     0
  9
$VISRETAIN
 70
     1
  9
$PLINEGEN
 70
     0
  9
$PSLTSCALE
 70
     0
  9
$TREEDEPTH
 70
  3020
  9
$PICKSTYLE
 70
     0
  9
$CMLSTYLE
  2
STANDARD
  9
$CMLJUST
 70
     0
  9
$CMLSCALE
 40
20.0
  9
$PROXYGRAPHICS
 70
     1
  9
$MEASUREMENT
 70
     1
  0
ENDSEC
  0
SECTION
  2
CLASSES
  0
CLASS
  1
ACDBDICTIONARYWDFLT
  2
AcDbDictionaryWithDefault
  3
AutoCAD 2000
 90
        0
280
     0
281
     0
  0
CLASS
  1
ACDBPLACEHOLDER
  2
AcDbPlaceHolder
  3
AutoCAD 2000
 90
        0
280
     0
281
     0
  0
CLASS
  1
LAYOUT
  2
AcDbLayout
  3
AutoCAD 2000
 90
        0
280
     0
281
     0
  0
CLASS
  1
AMGSETTINGSOBJ
  2
AmgSettingsObj
  3
"AcadM|Product Description: AutoCAD Mechanical 2000|Company: Autodesk"
 90
        0
280
     0
281
     0
  0
CLASS
  1
ACME_DOCUMENT
  2
AcMeDbDoc
  3
AcMeServices
 90
        0
280
     0
281
     0
  0
CLASS
  1
ACMESCOPE
  2
AcMeScope
  3
AcMeServices
 90
        0
280
     0
281
     0
  0
CLASS
  1
ACMECOMMANDHISTORY
  2
AcMeCommandHistory
  3
AcMeServices
 90
        0
280
     0
281
     0
  0
CLASS
  1
DICTIONARYVAR
  2
AcDbDictionaryVar
  3
AutoCAD 2000
 90
        0
280
     0
281
     0
  0
CLASS
  1
ACIMSYSVARMAN
  2
AcImSysVarManager
  3
AcMeServices
 90
        0
280
     0
281
     0
  0
CLASS
  1
ACIMREALSYSVAR
  2
AcImRealSysVar
  3
AcMeServices
 90
        0
280
     0
281
     0
  0
CLASS
  1
ACIMINTSYSVAR
  2
AcImIntSysVar
  3
AcMeServices
 90
        0
280
     0
281
     0
  0
CLASS
  1
ACMEDRAWINGMAN
  2
AcMeDrawingMan
  3
AcMeServices
 90
        0
280
     0
281
     0
  0
CLASS
  1
ACMEVIEW
  2
AcMeView
  3
AcMeServices
 90
        0
280
     0
281
     0
  0
CLASS
  1
ACDBENTITYCACHE
  2
AcMeEntityCache
  3
AcMeServices
 90
        0
280
     0
281
     0
  0
CLASS
  1
GSMANAGER
  2
AcMeGSManager
  3
AcMeServices
 90
        0
280
     0
281
     0
  0
CLASS
  1
AmdtInternalReactor
  2
AmdtInternalReactor
  3
AcMeServices
 90
        0
280
     0
281
     0
  0
CLASS
  1
ACMESTATEMGR
  2
AcMeStateMgr
  3
AcMeServices
 90
        0
280
     0
281
     0
  0
CLASS
  1
ACME_DATABASE
  2
AcMeDbDatabase
  3
AcMeServices
 90
        0
280
     0
281
     0
  0
CLASS
  1
ACRFINSADJUSTERMGR
  2
AcRfInsAdjusterMgr
  3
AcMeServices
 90
        0
280
     0
281
     0
  0
CLASS
  1
ACMDATADICTIONARY
  2
AcmDataDictionary
  3
"AcmSymBB|Product Description: AutoCAD Mechanical 2000|Company: Autodesk"
 90
        0
280
     0
281
     0
  0
CLASS
  1
ACMDATAENTRYBLOCK
  2
AcmDataEntryBlock
  3
"AcmSymBB|Product Description: AutoCAD Mechanical 2000|Company: Autodesk"
 90
        0
280
     0
281
     0
  0
CLASS
  1
AMGOBJPROPCFG
  2
AmgObjPropCfg
  3
"AmgLay|Product Description: AutoCAD Mechanical 2000|Company: Autodesk"
 90
        1
280
     0
281
     0
  0
CLASS
  1
ACAMGFILTERDAT
  2
AcAmgFilterDat
  3
"AcadM|Product Description: AutoCAD Mechanical 2000|Company: Autodesk"
 90
        0
280
     0
281
     0
  0
CLASS
  1
LAYER_INDEX
  2
AcDbLayerIndex
  3
AutoCAD 2000
 90
        0
280
     0
281
     0
  0
CLASS
  1
IDBUFFER
  2
AcDbIdBuffer
  3
AutoCAD 2000
 90
        0
280
     0
281
     0
  0
CLASS
  1
ACIMSTRSYSVAR
  2
AcImStrSysVar
  3
AcMeServices
 90
        0
280
     0
281
     0
  0
CLASS
  1
ACMSTANDARDJIS
  2
AcmStandardJIS
  3
"AcmSymBB|Product Description: AutoCAD Mechanical 2000|Company: Autodesk"
 90
        0
280
     0
281
     0
  0
CLASS
  1
ACMSURFSTANDARDJIS
  2
AcmSurfTextStdJIS
  3
"AcmSymBB|Product Description: AutoCAD Mechanical 2000|Company: Autodesk"
 90
        0
280
     0
281
     0
  0
CLASS
  1
ACMFCFSTANDARDJIS
  2
AcmFCFStdJIS
  3
"AcmSymBB|Product Description: AutoCAD Mechanical 2000|Company: Autodesk"
 90
        0
280
     0
281
     0
  0
CLASS
  1
ACMWELDSTANDARDJIS
  2
AcmWeldingStdJIS
  3
"AcmSymBB|Product Description: AutoCAD Mechanical 2000|Company: Autodesk"
 90
        0
280
     0
281
     0
  0
CLASS
  1
ACMIDSTANDARDJIS
  2
AcmIdStdJIS
  3
"AcmSymBB|Product Description: AutoCAD Mechanical 2000|Company: Autodesk"
 90
        0
280
     0
281
     0
  0
CLASS
  1
ACMDATUMSTANDARDJIS
  2
AcmDatumStdJIS
  3
"AcmSymBB|Product Description: AutoCAD Mechanical 2000|Company: Autodesk"
 90
        0
280
     0
281
     0
  0
CLASS
  1
ACMBOMSTANDARDJIS
  2
AcmBOMStdJIS
  3
"AcmSymBB|Product Description: AutoCAD Mechanical 2000|Company: Autodesk"
 90
        0
280
     0
281
     0
  0
CLASS
  1
ACMSTANDARDANSI
  2
AcmStandardANSI
  3
"AcmSymBB|Product Description: AutoCAD Mechanical 2000|Company: Autodesk"
 90
        0
280
     0
281
     0
  0
CLASS
  1
ACMSURFSTANDARDANSI
  2
AcmSurfTextStdANSI
  3
"AcmSymBB|Product Description: AutoCAD Mechanical 2000|Company: Autodesk"
 90
        0
280
     0
281
     0
  0
CLASS
  1
ACMFCFSTANDARDANSI
  2
AcmFCFStdANSI
  3
"AcmSymBB|Product Description: AutoCAD Mechanical 2000|Company: Autodesk"
 90
        0
280
     0
281
     0
  0
CLASS
  1
ACMWELDSTANDARDANSI
  2
AcmWeldingStdANSI
  3
"AcmSymBB|Product Description: AutoCAD Mechanical 2000|Company: Autodesk"
 90
        0
280
     0
281
     0
  0
CLASS
  1
ACMIDSTANDARDANSI
  2
AcmIdStdANSI
  3
"AcmSymBB|Product Description: AutoCAD Mechanical 2000|Company: Autodesk"
 90
        0
280
     0
281
     0
  0
CLASS
  1
ACMDATUMSTANDARDANSI
  2
AcmDatumStdANSI
  3
"AcmSymBB|Product Description: AutoCAD Mechanical 2000|Company: Autodesk"
 90
        0
280
     0
281
     0
  0
CLASS
  1
ACMBOMSTANDARDANSI
  2
AcmBOMStdANSI
  3
"AcmSymBB|Product Description: AutoCAD Mechanical 2000|Company: Autodesk"
 90
        0
280
     0
281
     0
  0
CLASS
  1
ACMSTANDARDBSI
  2
AcmStandardBSI
  3
"AcmSymBB|Product Description: AutoCAD Mechanical 2000|Company: Autodesk"
 90
        0
280
     0
281
     0
  0
CLASS
  1
ACMSURFSTANDARDBSI
  2
AcmSurfTextStdBSI
  3
"AcmSymBB|Product Description: AutoCAD Mechanical 2000|Company: Autodesk"
 90
        0
280
     0
281
     0
  0
CLASS
  1
ACMFCFSTANDARDBSI
  2
AcmFCFStdBSI
  3
"AcmSymBB|Product Description: AutoCAD Mechanical 2000|Company: Autodesk"
 90
        0
280
     0
281
     0
  0
CLASS
  1
ACMWELDSTANDARDBSI
  2
AcmWeldingStdBSI
  3
"AcmSymBB|Product Description: AutoCAD Mechanical 2000|Company: Autodesk"
 90
        0
280
     0
281
     0
  0
CLASS
  1
ACMIDSTANDARDBSI
  2
AcmIdStdBSI
  3
"AcmSymBB|Product Description: AutoCAD Mechanical 2000|Company: Autodesk"
 90
        0
280
     0
281
     0
  0
CLASS
  1
ACMDATUMSTANDARDBSI
  2
AcmDatumStdBSI
  3
"AcmSymBB|Product Description: AutoCAD Mechanical 2000|Company: Autodesk"
 90
        0
280
     0
281
     0
  0
CLASS
  1
ACMBOMSTANDARDBSI
  2
AcmBOMStdBSI
  3
"AcmSymBB|Product Description: AutoCAD Mechanical 2000|Company: Autodesk"
 90
        0
280
     0
281
     0
  0
CLASS
  1
LONG_TRANSACTION
  2
AcDbLongTransaction
  3
AutoCAD 2000
 90
        0
280
     0
281
     0
  0
CLASS
  1
LWPOLYLINE
  2
AcDbPolyline
  3
AutoCAD 2000
 90
        0
280
     0
281
     1
  0
CLASS
  1
HATCH
  2
AcDbHatch
  3
AutoCAD 2000
 90
        0
280
     0
281
     1
  0
CLASS
  1
XRECORD
  2
AcDbXrecord
  3
AutoCAD 2000
 90
        0
280
     0
281
     0
  0
ENDSEC
  0
SECTION
  2
TABLES
  0
TABLE
  2
VPORT
  5
8
330
0
100
AcDbSymbolTable
 70
     3
  0
VPORT
  5
43A6
330
8
100
AcDbSymbolTableRecord
100
AcDbViewportTableRecord
  2
*ACTIVE
 70
     0
 10
0.0
 20
0.0
 11
1.0
 21
1.0
 12
-25.89107881682908
 22
-7.947325240811231
 13
0.0
 23
0.0
 14
2.5
 24
2.5
 15
10.0
 25
10.0
 16
0.0
 26
0.0
 36
1.0
 17
0.0
 27
0.0
 37
0.0
 40
86.57550657058591
 41
1.56570841889117
 42
50.0
 43
0.0
 44
0.0
 50
0.0
 51
0.0
 71
     0
 72
   100
 73
     1
 74
     3
 75
     0
 76
     0
 77
     0
 78
     0
  0
ENDTAB
  0
TABLE
  2
LTYPE
  5
5
330
0
100
AcDbSymbolTable
 70
    10
  0
LTYPE
  5
14
330
5
100
AcDbSymbolTableRecord
100
AcDbLinetypeTableRecord
  2
BYBLOCK
 70
     0
  3

 72
    65
 73
     0
 40
0.0
  0
LTYPE
  5
15
330
5
100
AcDbSymbolTableRecord
100
AcDbLinetypeTableRecord
  2
BYLAYER
 70
     0
  3

 72
    65
 73
     0
 40
0.0
  0
LTYPE
  5
16
330
5
100
AcDbSymbolTableRecord
100
AcDbLinetypeTableRecord
  2
CONTINUOUS
 70
     0
  3
Solid line
 72
    65
 73
     0
 40
0.0
  0
LTYPE
  5
4B
330
5
100
AcDbSymbolTableRecord
100
AcDbLinetypeTableRecord
  2
AM_ISO02W050
 70
     0
  3
__ __ __ __ __ __ __ __ __ __ __ __ __ __ __
 72
    65
 73
     2
 40
7.5
 49
6.0
 74
     0
 49
-1.5
 74
     0
  0
LTYPE
  5
4C
330
5
100
AcDbSymbolTableRecord
100
AcDbLinetypeTableRecord
  2
AM_ISO08W050
 70
     0
  3
____ . ____ . ____ . ____ . ____ . ____ . ____
 72
    65
 73
     4
 40
18.0
 49
12.0
 74
     0
 49
-1.5
 74
     0
 49
3.0
 74
     0
 49
-1.5
 74
     0
  0
LTYPE
  5
4D
330
5
100
AcDbSymbolTableRecord
100
AcDbLinetypeTableRecord
  2
AM_ISO09W050
 70
     0
  3
_____ . . _____ . . _____ . . ____ .. ____
 72
    65
 73
     6
 40
22.5
 49
12.0
 74
     0
 49
-1.5
 74
     0
 49
3.0
 74
     0
 49
-1.5
 74
     0
 49
3.0
 74
     0
 49
-1.5
 74
     0
  0
LTYPE
  5
4E
330
5
100
AcDbSymbolTableRecord
100
AcDbLinetypeTableRecord
  2
AMCONSTR
 70
     0
  3
_______________________
 72
    65
 73
     2
 40
9999.0
 49
9999.0
 74
     0
 49
0.0
 74
     0
  0
LTYPE
  5
4F
330
5
100
AcDbSymbolTableRecord
100
AcDbLinetypeTableRecord
  2
AM_ISO02W050X2
 70
     0
  3
 _ _ _ _ _ _ _ _ _ _ _ _
 72
    65
 73
     2
 40
3.75
 49
3.0
 74
     0
 49
-0.75
 74
     0
  0
LTYPE
  5
50
330
5
100
AcDbSymbolTableRecord
100
AcDbLinetypeTableRecord
  2
AM_ISO08W050X2
 70
     0
  3
__ . __ . __ . __ . __ . __
 72
    65
 73
     4
 40
9.0
 49
6.0
 74
     0
 49
-0.75
 74
     0
 49
1.5
 74
     0
 49
-0.75
 74
     0
  0
LTYPE
  5
53
330
5
100
AcDbSymbolTableRecord
100
AcDbLinetypeTableRecord
  2
AMZIGZAG
 70
     0
  3
/\/-/\/-/\/-/\/-/\/-/\/
 72
    65
 73
     2
 40
11.00009999999999
 49
0.0001
 74
     4
 75
   135
340
52
 46
0.04
 50
0.0
 44
0.0
 45
0.0
 49
-11.0
 74
     0
  0
LTYPE
  5
166
330
5
100
AcDbSymbolTableRecord
100
AcDbLinetypeTableRecord
  2
ACJISTGL
 70
     0
  3
_ _ _ _ _
 72
    65
 73
     2
 40
3.0
 49
2.0
 74
     0
 49
-1.0
 74
     0
  0
LTYPE
  5
26A
330
5
100
AcDbSymbolTableRecord
100
AcDbLinetypeTableRecord
  2
ACJISTGB
 70
     0
  3
__ . . __ . .
 72
    65
 73
     6
 40
9.0
 49
4.0
 74
     0
 49
-1.0
 74
     0
 49
1.0
 74
     0
 49
-1.0
 74
     0
 49
1.0
 74
     0
 49
-1.0
 74
     0
  0
ENDTAB
  0
TABLE
  2
LAYER
  5
2
330
0
100
AcDbSymbolTable
 70
     7
  0
LAYER
  5
10
330
2
100
AcDbSymbolTableRecord
100
AcDbLayerTableRecord
  2
0
 70
     0
 62
     7
  6
CONTINUOUS
  0
LAYER
  5
3F9
330
2
100
AcDbSymbolTableRecord
100
AcDbLayerTableRecord
  2
AM_0
 70
     0
 62
     7
  6
CONTINUOUS
  0
LAYER
  5
BDD
330
2
100
AcDbSymbolTableRecord
100
AcDbLayerTableRecord
  2
AM_11
 70
     0
 62
     3
  6
AM_ISO09W050
  0
LAYER
  5
BDE
330
2
100
AcDbSymbolTableRecord
100
AcDbLayerTableRecord
  2
AM_7
 70
     0
 62
     4
  6
AM_ISO08W050
  0
LAYER
  5
BDF
330
2
100
AcDbSymbolTableRecord
100
AcDbLayerTableRecord
  2
AM_5
 70
     0
 62
     3
  6
CONTINUOUS
  0
LAYER
  5
BE0
330
2
100
AcDbSymbolTableRecord
100
AcDbLayerTableRecord
  2
DEFPOINTS
 70
     0
 62
     7
  6
CONTINUOUS
  0
LAYER
  5
14FF
330
2
100
AcDbSymbolTableRecord
100
AcDbLayerTableRecord
  2
AM_6
 70
     0
 62
     2
  6
CONTINUOUS
  0
ENDTAB
  0
TABLE
  2
STYLE
  5
3
330
0
100
AcDbSymbolTable
 70
     5
  0
STYLE
  5
11
330
3
100
AcDbSymbolTableRecord
100
AcDbTextStyleTableRecord
  2
STANDARD
 70
     0
 40
0.0
 41
1.0
 50
0.0
 71
     0
 42
2.5
  3
simplex.shx
  4
EXTFONT.SHX
  0
STYLE
  5
52
330
3
100
AcDbSymbolTableRecord
100
AcDbTextStyleTableRecord
  2

 70
     1
 40
0.0
 41
1.0
 50
0.0
 71
     0
 42
2.5
  3
ltypeshp.shx
  4

  0
STYLE
  5
6B
330
3
100
AcDbSymbolTableRecord
100
AcDbTextStyleTableRecord
  2
ASAMI
 70
     0
 40
0.0
 41
1.0
 50
0.0
 71
     0
 42
2.5
  3
simplex.shx
  4
EXTFONT.SHX
  0
STYLE
  5
262
330
3
100
AcDbSymbolTableRecord
100
AcDbTextStyleTableRecord
  2
ACJISTS
 70
     0
 40
1.0
 41
1.0
 50
0.0
 71
     0
 42
2.5
  3
simplex.shx
  4
bigfont.shx
  0
STYLE
  5
269
330
3
100
AcDbSymbolTableRecord
100
AcDbTextStyleTableRecord
  2
ACJISGDT
 70
     0
 40
0.0
 41
1.0
 50
0.0
 71
     0
 42
2.5
  3
amgdtans.shx
  4

  0
ENDTAB
  0
TABLE
  2
VIEW
  5
6
330
0
100
AcDbSymbolTable
 70
     0
  0
ENDTAB
  0
TABLE
  2
UCS
  5
7
330
0
100
AcDbSymbolTable
 70
     0
  0
ENDTAB
  0
TABLE
  2
APPID
  5
9
330
0
100
AcDbSymbolTable
 70
    14
  0
APPID
  5
12
330
9
100
AcDbSymbolTableRecord
100
AcDbRegAppTableRecord
  2
ACAD
 70
     0
  0
APPID
  5
30
330
9
100
AcDbSymbolTableRecord
100
AcDbRegAppTableRecord
  2
MCAD_NO_VIS
 70
     0
  0
APPID
  5
31
330
9
100
AcDbSymbolTableRecord
100
AcDbRegAppTableRecord
  2
ACAD_TEMP_GRAPHIC
 70
     0
  0
APPID
  5
2C2
330
9
100
AcDbSymbolTableRecord
100
AcDbRegAppTableRecord
  2
GENIUS_GENDTOL_13
 70
     0
  0
APPID
  5
339
330
9
100
AcDbSymbolTableRecord
100
AcDbRegAppTableRecord
  2
GENIUS_GENODEF_13
 70
     0
  0
APPID
  5
33A
330
9
100
AcDbSymbolTableRecord
100
AcDbRegAppTableRecord
  2
GENIUS_GENOBJ-N-RSBK_13
 70
     0
  0
APPID
  5
33B
330
9
100
AcDbSymbolTableRecord
100
AcDbRegAppTableRecord
  2
GENIUS_GENOBJ-N-LIB_13
 70
     0
  0
APPID
  5
33C
330
9
100
AcDbSymbolTableRecord
100
AcDbRegAppTableRecord
  2
GENIUS_GENSCALE_13
 70
     0
  0
APPID
  5
378
330
9
100
AcDbSymbolTableRecord
100
AcDbRegAppTableRecord
  2
GENIUS_GENDIMSH_14
 70
     0
  0
APPID
  5
BE1
330
9
100
AcDbSymbolTableRecord
100
AcDbRegAppTableRecord
  2
GENIUS_GENFIL_13
 70
     0
  0
APPID
  5
BE2
330
9
100
AcDbSymbolTableRecord
100
AcDbRegAppTableRecord
  2
GENIUS_GENOBJ-N-CHA_13
 70
     0
  0
APPID
  5
151B
330
9
100
AcDbSymbolTableRecord
100
AcDbRegAppTableRecord
  2
DCO15
 70
     0
  0
APPID
  5
1860
330
9
100
AcDbSymbolTableRecord
100
AcDbRegAppTableRecord
  2
GENIUS_GENOBJ-N-CEN_13
 70
     0
  0
APPID
  5
359C
330
9
100
AcDbSymbolTableRecord
100
AcDbRegAppTableRecord
  2
GENIUS_GENOBJ-N-FIL_13
 70
     0
  0
ENDTAB
  0
TABLE
  2
DIMSTYLE
  5
A
330
0
100
AcDbSymbolTable
 70
     8
  0
DIMSTYLE
105
58
102
{ACAD_REACTORS
330
402C
330
40B9
330
4145
330
423E
102
}
330
A
100
AcDbSymbolTableRecord
100
AcDbDimStyleTableRecord
  2
AM_JIS
 70
     0
  3

  4
"
  5
OPEN30
  6

  7

 40
0.5
 41
2.5
 42
1.0
 43
12.0
 44
1.0
 45
0.0
 46
0.0
 47
0.1
 48
0.1
140
3.2
141
0.0
142
0.0
143
0.0393701
144
1.0
145
0.0
146
0.71
147
1.5
 71
     0
 72
     0
 73
     0
 74
     0
 75
     0
 76
     0
 77
     3
 78
     8
170
     0
171
     2
172
     1
173
     0
174
     0
175
     0
176
   256
177
   256
178
     2
270
     2
271
     3
272
     3
273
     2
274
     2
340
6B
275
     0
280
     0
281
     0
282
     0
283
     0
284
     0
285
     0
286
     0
287
     3
288
     0
  0
DIMSTYLE
105
5F
330
A
100
AcDbSymbolTableRecord
100
AcDbDimStyleTableRecord
  2
AM_JIS$3
 70
     0
  3

  4
"
  5
OPEN30
  6

  7

 40
0.5
 41
2.5
 42
1.0
 43
10.0
 44
1.0
 45
0.0
 46
0.0
 47
0.1
 48
0.1
140
3.2
141
0.0
142
0.0
143
0.0393701
144
1.0
145
0.0
146
0.71
147
1.5
 71
     0
 72
     0
 73
     0
 74
     1
 75
     0
 76
     0
 77
     3
 78
     8
170
     0
171
     2
172
     0
173
     0
174
     0
175
     0
176
   256
177
   256
178
     2
270
     2
271
     2
272
     3
273
     2
274
     2
340
6B
275
     0
280
     0
281
     0
282
     0
283
     0
284
     0
285
     0
286
     0
287
     0
288
     1
  0
DIMSTYLE
105
60
330
A
100
AcDbSymbolTableRecord
100
AcDbDimStyleTableRecord
  2
AM_JIS$4
 70
     0
  3

  4
"
  5
OPEN30
  6

  7

 40
0.5
 41
2.5
 42
1.0
 43
10.0
 44
1.0
 45
0.0
 46
0.0
 47
0.1
 48
0.1
140
3.2
141
0.0
142
0.0
143
0.0393701
144
1.0
145
0.0
146
0.71
147
1.5
 71
     0
 72
     0
 73
     0
 74
     1
 75
     0
 76
     0
 77
     3
 78
     8
170
     0
171
     2
172
     0
173
     0
174
     0
175
     0
176
   256
177
   256
178
     2
270
     2
271
     2
272
     3
273
     2
274
     2
340
6B
275
     0
280
     0
281
     0
282
     0
283
     0
284
     0
285
     0
286
     0
287
     0
288
     1
  0
DIMSTYLE
105
61
330
A
100
AcDbSymbolTableRecord
100
AcDbDimStyleTableRecord
  2
AM_JIS$6
 70
     0
  3

  4
"
  5
OPEN30
  6

  7

 40
0.5
 41
2.5
 42
1.0
 43
10.0
 44
1.0
 45
0.0
 46
0.0
 47
0.1
 48
0.1
140
3.2
141
0.0
142
0.0
143
0.0393701
144
1.0
145
0.0
146
0.71
147
1.5
 71
     0
 72
     0
 73
     0
 74
     0
 75
     0
 76
     0
 77
     0
 78
     8
170
     0
171
     2
172
     1
173
     0
174
     0
175
     0
176
   256
177
   256
178
     2
270
     2
271
     2
272
     2
273
     2
274
     2
340
6B
275
     0
280
     0
281
     0
282
     0
283
     0
284
     0
285
     0
286
     0
287
     3
288
     0
  0
DIMSTYLE
105
62
330
A
100
AcDbSymbolTableRecord
100
AcDbDimStyleTableRecord
  2
AM_JIS$7
 70
     0
  3

  4
"
  5
OPEN30
  6

  7

 40
0.5
 41
2.5
 42
1.0
 43
10.0
 44
1.0
 45
0.0
 46
0.0
 47
0.1
 48
0.1
140
3.2
141
0.0
142
0.0
143
0.0393701
144
1.0
145
0.0
146
0.71
147
1.5
 71
     0
 72
     0
 73
     0
 74
     0
 75
     0
 76
     0
 77
     3
 78
     8
170
     0
171
     2
172
     1
173
     0
174
     0
175
     0
176
   256
177
   256
178
     2
270
     2
271
     2
272
     3
273
     2
274
     2
340
6B
275
     0
280
     0
281
     0
282
     0
283
     0
284
     0
285
     0
286
     0
287
     3
288
     0
  0
DIMSTYLE
105
63
330
A
100
AcDbSymbolTableRecord
100
AcDbDimStyleTableRecord
  2
AM_JIS$SF
 70
     0
  3

  4
"
  5
OPEN30
  6

  7

 40
0.5
 41
2.5
 42
1.0
 43
10.0
 44
1.0
 45
0.0
 46
0.0
 47
0.1
 48
0.1
140
3.2
141
0.0
142
0.0
143
0.0393701
144
1.0
145
0.0
146
0.71
147
1.5
 71
     0
 72
     0
 73
     0
 74
     0
 75
     1
 76
     1
 77
     3
 78
     8
170
     0
171
     2
172
     1
173
     0
174
     0
175
     0
176
   256
177
   256
178
     2
270
     2
271
     2
272
     2
273
     2
274
     2
340
6B
275
     0
280
     0
281
     0
282
     0
283
     0
284
     0
285
     0
286
     0
287
     3
288
     0
  0
DIMSTYLE
105
68
330
A
100
AcDbSymbolTableRecord
100
AcDbDimStyleTableRecord
  2
AM_JIS$SH
 70
     0
  3

  4
"
  5

  6
GENAXEH
  7
OPEN30
 40
0.5
 41
2.5
 42
1.0
 43
10.0
 44
1.0
 45
0.0
 46
0.0
 47
0.1
 48
0.1
140
3.2
141
0.0
142
0.0
143
0.0393701
144
2.0
145
0.0
146
0.71
147
1.5
 71
     0
 72
     0
 73
     0
 74
     0
 75
     1
 76
     1
 77
     3
 78
     8
170
     0
171
     2
172
     1
173
     1
174
     0
175
     0
176
   256
177
   256
178
     2
270
     2
271
     2
272
     2
273
     2
274
     2
340
6B
275
     0
280
     0
281
     0
282
     0
283
     0
284
     0
285
     0
286
     0
287
     3
288
     0
  0
DIMSTYLE
105
B34
330
A
100
AcDbSymbolTableRecord
100
AcDbDimStyleTableRecord
  2
AM_JIS$2
 70
     0
  3

  4
"
  5
OPEN30
  6

  7

 40
0.5
 41
2.5
 42
1.0
 43
12.0
 44
1.0
 45
0.0
 46
0.0
 47
0.1
 48
0.1
140
3.2
141
0.0
142
0.0
143
0.0393701
144
1.0
145
0.0
146
0.71
147
1.5
 71
     0
 72
     0
 73
     0
 74
     0
 75
     0
 76
     0
 77
     3
 78
     8
170
     0
171
     2
172
     1
173
     0
174
     0
175
     0
176
   256
177
   256
178
     2
270
     2
271
     3
272
     3
273
     2
274
     2
340
6B
275
     0
280
     0
281
     0
282
     0
283
     0
284
     0
285
     0
286
     0
287
     3
288
     0
  0
ENDTAB
  0
TABLE
  2
BLOCK_RECORD
  5
1
330
0
100
AcDbSymbolTable
 70
     9
  0
BLOCK_RECORD
  5
1F
102
{ACAD_XDICTIONARY
360
74
102
}
330
1
100
AcDbSymbolTableRecord
100
AcDbBlockTableRecord
  2
*MODEL_SPACE
  0
BLOCK_RECORD
  5
101
102
{ACAD_XDICTIONARY
360
43CF
102
}
330
1
100
AcDbSymbolTableRecord
100
AcDbBlockTableRecord
  2
*PAPER_SPACE
  0
BLOCK_RECORD
  5
59
330
1
100
AcDbSymbolTableRecord
100
AcDbBlockTableRecord
  2
_OPEN30
  0
BLOCK_RECORD
  5
64
330
1
100
AcDbSymbolTableRecord
100
AcDbBlockTableRecord
  2
GENAXEH
  0
BLOCK_RECORD
  5
402D
330
1
100
AcDbSymbolTableRecord
100
AcDbBlockTableRecord
  2
*D5
  0
BLOCK_RECORD
  5
40BA
330
1
100
AcDbSymbolTableRecord
100
AcDbBlockTableRecord
  2
*D6
  0
BLOCK_RECORD
  5
4146
330
1
100
AcDbSymbolTableRecord
100
AcDbBlockTableRecord
  2
*D7
  0
BLOCK_RECORD
  5
423F
330
1
100
AcDbSymbolTableRecord
100
AcDbBlockTableRecord
  2
*D8
  0
ENDTAB
  0
ENDSEC
  0
SECTION
  2
BLOCKS
  0
BLOCK
  5
20
330
1F
100
AcDbEntity
  8
0
100
AcDbBlockBegin
  2
*MODEL_SPACE
 70
     0
 10
0.0
 20
0.0
 30
0.0
  3
*MODEL_SPACE
  1

  0
ENDBLK
  5
21
330
1F
100
AcDbEntity
  8
0
100
AcDbBlockEnd
  0
BLOCK
  5
103
330
101
100
AcDbEntity
 67
     1
  8
0
100
AcDbBlockBegin
  2
*PAPER_SPACE
 70
     0
 10
0.0
 20
0.0
 30
0.0
  3
*PAPER_SPACE
  1

  0
ENDBLK
  5
104
330
101
100
AcDbEntity
 67
     1
  8
0
100
AcDbBlockEnd
  0
BLOCK
  5
5D
330
59
100
AcDbEntity
  8
0
100
AcDbBlockBegin
  2
_OPEN30
 70
     0
 10
0.0
 20
0.0
 30
0.0
  3
_OPEN30
  1

  0
LINE
  5
5A
330
59
100
AcDbEntity
  8
0
 62
     0
100
AcDbLine
 10
-1.0
 20
0.26794919
 30
0.0
 11
0.0
 21
0.0
 31
0.0
  0
LINE
  5
5B
330
59
100
AcDbEntity
  8
0
 62
     0
100
AcDbLine
 10
0.0
 20
0.0
 30
0.0
 11
-1.0
 21
-0.26794919
 31
0.0
  0
LINE
  5
5C
330
59
100
AcDbEntity
  8
0
 62
     0
100
AcDbLine
 10
0.0
 20
0.0
 30
0.0
 11
-1.0
 21
0.0
 31
0.0
  0
ENDBLK
  5
5E
330
59
100
AcDbEntity
  8
0
100
AcDbBlockEnd
  0
BLOCK
  5
66
330
64
100
AcDbEntity
  8
0
100
AcDbBlockBegin
  2
GENAXEH
 70
     0
 10
0.0
 20
0.0
 30
0.0
  3
GENAXEH
  1

  0
LINE
  5
65
330
64
100
AcDbEntity
  8
0
100
AcDbLine
 10
-1.0
 20
0.0
 30
0.0
 11
1.0
 21
0.0
 31
0.0
  0
ENDBLK
  5
67
330
64
100
AcDbEntity
  8
0
100
AcDbBlockEnd
  0
BLOCK
  5
4037
330
402D
100
AcDbEntity
  8
0
100
AcDbBlockBegin
  2
*D5
 70
     1
 10
0.0
 20
0.0
 30
0.0
  3
*D5
  1

  0
LINE
  5
42DA
330
402D
100
AcDbEntity
  8
AM_5
100
AcDbLine
 10
-74.74999999999998
 20
4.999999999986904
 30
0.0
 11
-85.25369961738856
 21
4.999999999986907
 31
0.0
  0
LINE
  5
42DB
330
402D
100
AcDbEntity
  8
AM_5
100
AcDbLine
 10
-74.74999999999997
 20
-5.000000000013097
 30
0.0
 11
-85.25369961738856
 21
-5.000000000013095
 31
0.0
  0
LINE
  5
42DC
330
402D
100
AcDbEntity
  8
AM_5
100
AcDbLine
 10
-84.75369961738856
 20
3.749999999986907
 30
0.0
 11
-84.75369961738856
 21
-3.750000000013095
 31
0.0
  0
INSERT
  5
42DD
330
402D
100
AcDbEntity
  8
AM_5
100
AcDbBlockReference
  2
_OPEN30
 10
-84.75369961738856
 20
4.999999999986907
 30
0.0
 41
1.25
 42
1.25
 43
1.25
 50
90.0
  0
INSERT
  5
42DE
330
402D
100
AcDbEntity
  8
AM_5
100
AcDbBlockReference
  2
_OPEN30
 10
-84.75369961738856
 20
-5.000000000013095
 30
0.0
 41
1.25
 42
1.25
 43
1.25
 50
270.0
  0
MTEXT
  5
42DF
330
402D
100
AcDbEntity
  8
AM_5
 62
     2
100
AcDbMText
 10
-86.30369961738855
 20
-0.0000000000131072
 30
0.0
 40
1.6
 41
0.0
 71
     5
 72
     1
  1
%%c10
  7
ASAMI
 11
0.0000000000000001
 21
1.0
 31
0.0
1001
ACAD
1000
MTEXTBEGIN
1070
    73
1070
     1
1070
    44
1040
1.0
1070
    74
1070
     0
1000
MTEXTEND
  0
POINT
  5
42E0
330
402D
100
AcDbEntity
  8
DEFPOINTS
 62
     0
100
AcDbPoint
 10
-74.24999999999998
 20
4.999999999986904
 30
0.0
  0
POINT
  5
42E1
330
402D
100
AcDbEntity
  8
DEFPOINTS
 62
     0
100
AcDbPoint
 10
-74.24999999999997
 20
-5.000000000013097
 30
0.0
  0
POINT
  5
42E2
330
402D
100
AcDbEntity
  8
DEFPOINTS
 62
     0
100
AcDbPoint
 10
-84.75369961738856
 20
-5.000000000013095
 30
0.0
  0
ENDBLK
  5
4038
330
402D
100
AcDbEntity
  8
0
100
AcDbBlockEnd
  0
BLOCK
  5
40C4
330
40BA
100
AcDbEntity
  8
0
100
AcDbBlockBegin
  2
*D6
 70
     1
 10
0.0
 20
0.0
 30
0.0
  3
*D6
  1

  0
LINE
  5
42E3
330
40BA
100
AcDbEntity
  8
AM_5
100
AcDbLine
 10
0.5000000000003979
 20
5.000000000003787
 30
0.0
 11
12.05776903085655
 21
5.000000000003783
 31
0.0
  0
LINE
  5
42E4
330
40BA
100
AcDbEntity
  8
AM_5
100
AcDbLine
 10
0.500000000000405
 20
-4.999999999996212
 30
0.0
 11
12.05776903085654
 21
-4.999999999996216
 31
0.0
  0
LINE
  5
42E5
330
40BA
100
AcDbEntity
  8
AM_5
100
AcDbLine
 10
11.55776903085655
 20
3.750000000003783
 30
0.0
 11
11.55776903085655
 21
-3.749999999996216
 31
0.0
  0
INSERT
  5
42E6
330
40BA
100
AcDbEntity
  8
AM_5
100
AcDbBlockReference
  2
_OPEN30
 10
11.55776903085655
 20
5.000000000003783
 30
0.0
 41
1.25
 42
1.25
 43
1.25
 50
90.0
  0
INSERT
  5
42E7
330
40BA
100
AcDbEntity
  8
AM_5
100
AcDbBlockReference
  2
_OPEN30
 10
11.55776903085654
 20
-4.999999999996216
 30
0.0
 41
1.25
 42
1.25
 43
1.25
 50
270.0
  0
MTEXT
  5
42E8
330
40BA
100
AcDbEntity
  8
AM_5
 62
     2
100
AcDbMText
 10
10.00776903085655
 20
0.0000000000037858
 30
0.0
 40
1.6
 41
0.0
 71
     5
 72
     1
  1
%%c10
  7
ASAMI
 11
0.0000000000000001
 21
1.0
 31
0.0
1001
ACAD
1000
MTEXTBEGIN
1070
    73
1070
     1
1070
    44
1040
1.0
1070
    74
1070
     0
1000
MTEXTEND
  0
POINT
  5
42E9
330
40BA
100
AcDbEntity
  8
DEFPOINTS
 62
     0
100
AcDbPoint
 10
0.0000000000003979
 20
5.000000000003787
 30
0.0
  0
POINT
  5
42EA
330
40BA
100
AcDbEntity
  8
DEFPOINTS
 62
     0
100
AcDbPoint
 10
0.0000000000004049
 20
-4.999999999996212
 30
0.0
  0
POINT
  5
42EB
330
40BA
100
AcDbEntity
  8
DEFPOINTS
 62
     0
100
AcDbPoint
 10
11.55776903085654
 20
-4.999999999996216
 30
0.0
  0
ENDBLK
  5
40C5
330
40BA
100
AcDbEntity
  8
0
100
AcDbBlockEnd
  0
BLOCK
  5
4150
330
4146
100
AcDbEntity
  8
0
100
AcDbBlockBegin
  2
*D7
 70
     1
 10
0.0
 20
0.0
 30
0.0
  3
*D7
  1

  0
LINE
  5
42D1
330
4146
100
AcDbEntity
  8
AM_5
100
AcDbLine
 10
-0.0000000000003979
 20
-5.499999999996212
 30
0.0
 11
-0.0000000000003987
 21
-18.50000100999409
 31
0.0
  0
LINE
  5
42D2
330
4146
100
AcDbEntity
  8
AM_5
100
AcDbLine
 10
-74.99999999999999
 20
-4.750000000013098
 30
0.0
 11
-74.99999999999999
 21
-18.50000100999409
 31
0.0
  0
LINE
  5
42D3
330
4146
100
AcDbEntity
  8
AM_5
100
AcDbLine
 10
-1.250000000000398
 20
-18.00000100999409
 30
0.0
 11
-73.74999999999999
 21
-18.00000100999409
 31
0.0
  0
INSERT
  5
42D4
330
4146
100
AcDbEntity
  8
AM_5
100
AcDbBlockReference
  2
_OPEN30
 10
-0.0000000000003987
 20
-18.00000100999409
 30
0.0
 41
1.25
 42
1.25
 43
1.25
  0
INSERT
  5
42D5
330
4146
100
AcDbEntity
  8
AM_5
100
AcDbBlockReference
  2
_OPEN30
 10
-74.99999999999999
 20
-18.00000100999409
 30
0.0
 41
1.25
 42
1.25
 43
1.25
 50
180.0
  0
MTEXT
  5
42D6
330
4146
100
AcDbEntity
  8
AM_5
 62
     2
100
AcDbMText
 10
-37.50000000000019
 20
-16.45000100999409
 30
0.0
 40
1.6
 41
0.0
 71
     5
 72
     1
  1
75
  7
ASAMI
1001
ACAD
1000
MTEXTBEGIN
1070
    73
1070
     1
1070
    44
1040
1.0
1070
    74
1070
     0
1000
MTEXTEND
  0
POINT
  5
42D7
330
4146
100
AcDbEntity
  8
DEFPOINTS
 62
     0
100
AcDbPoint
 10
-0.0000000000003979
 20
-4.999999999996212
 30
0.0
  0
POINT
  5
42D8
330
4146
100
AcDbEntity
  8
DEFPOINTS
 62
     0
100
AcDbPoint
 10
-74.99999999999999
 20
-4.250000000013098
 30
0.0
  0
POINT
  5
42D9
330
4146
100
AcDbEntity
  8
DEFPOINTS
 62
     0
100
AcDbPoint
 10
-74.99999999999999
 20
-18.00000100999409
 30
0.0
  0
ENDBLK
  5
4151
330
4146
100
AcDbEntity
  8
0
100
AcDbBlockEnd
  0
BLOCK
  5
4249
330
423F
100
AcDbEntity
  8
0
100
AcDbBlockBegin
  2
*D8
 70
     1
 10
0.0
 20
0.0
 30
0.0
  3
*D8
  1

  0
LINE
  5
42EC
330
423F
100
AcDbEntity
  8
AM_5
100
AcDbLine
 10
-0.0000000000003979
 20
-5.499999999996212
 30
0.0
 11
-0.0000000000003984
 21
-12.500001009994
 31
0.0
  0
LINE
  5
42ED
330
423F
100
AcDbEntity
  8
AM_5
100
AcDbLine
 10
-30.00000000000039
 20
-5.499999999996326
 30
0.0
 11
-30.00000000000039
 21
-12.500001009994
 31
0.0
  0
LINE
  5
42EE
330
423F
100
AcDbEntity
  8
AM_5
100
AcDbLine
 10
-1.250000000000398
 20
-12.000001009994
 30
0.0
 11
-28.75000000000039
 21
-12.000001009994
 31
0.0
  0
INSERT
  5
42EF
330
423F
100
AcDbEntity
  8
AM_5
100
AcDbBlockReference
  2
_OPEN30
 10
-0.0000000000003983
 20
-12.000001009994
 30
0.0
 41
1.25
 42
1.25
 43
1.25
  0
INSERT
  5
42F0
330
423F
100
AcDbEntity
  8
AM_5
100
AcDbBlockReference
  2
_OPEN30
 10
-30.00000000000039
 20
-12.000001009994
 30
0.0
 41
1.25
 42
1.25
 43
1.25
 50
180.0
  0
MTEXT
  5
42F1
330
423F
100
AcDbEntity
  8
AM_5
 62
     2
100
AcDbMText
 10
-15.00000000000039
 20
-10.450001009994
 30
0.0
 40
1.6
 41
0.0
 71
     5
 72
     1
  1
30
  7
ASAMI
1001
ACAD
1000
MTEXTBEGIN
1070
    73
1070
     1
1070
    44
1040
1.0
1070
    74
1070
     0
1000
MTEXTEND
  0
POINT
  5
42F2
330
423F
100
AcDbEntity
  8
DEFPOINTS
 62
     0
100
AcDbPoint
 10
-0.0000000000003979
 20
-4.999999999996212
 30
0.0
  0
POINT
  5
42F3
330
423F
100
AcDbEntity
  8
DEFPOINTS
 62
     0
100
AcDbPoint
 10
-30.00000000000039
 20
-4.999999999996326
 30
0.0
  0
POINT
  5
42F4
330
423F
100
AcDbEntity
  8
DEFPOINTS
 62
     0
100
AcDbPoint
 10
-30.00000000000039
 20
-12.000001009994
 30
0.0
  0
ENDBLK
  5
424A
330
423F
100
AcDbEntity
  8
0
100
AcDbBlockEnd
  0
ENDSEC
  0
SECTION
  2
ENTITIES
  0
TEXT
  5
1500
330
1F
100
AcDbEntity
  8
AM_6
100
AcDbText
 10
-45.53571428571446
 20
-29.25000100999409
 30
0.0
 40
2.5
  1
RSM4100
 72
     4
 11
-37.50000000000017
 21
-28.00000100999409
 31
0.0
100
AcDbText
  0
LINE
  5
3CF2
330
1F
100
AcDbEntity
  8
AM_7
  6
AM_ISO08W050X2
100
AcDbLine
 10
4.557768030856557
 20
-0.0000000000130669
 30
0.0
 11
-77.75369861738856
 21
-0.0000000000130562
 31
0.0
1001
GENIUS_GENODEF_13
1002
{
1000
HIER
1070
     0
1002
}
1002
{
1000
MANEDIT
1070
     0
1002
}
1002
{
1000
NOSEL
1070
     0
1002
}
1002
{
1000
BEHIND
1070
     0
1002
}
1002
{
1000
REACTOR
1002
}
1001
GENIUS_GENOBJ-N-CEN_13
1002
{
1000
OWNER
1000
GEN
1002
}
  0
LINE
  5
3DAB
330
1F
100
AcDbEntity
  8
AM_0
100
AcDbLine
 10
-33.19657002142461
 20
4.999999999986933
 30
0.0
 11
-74.24999999999998
 21
4.999999999986904
 31
0.0
  0
LINE
  5
3DAC
330
1F
100
AcDbEntity
  8
AM_0
100
AcDbLine
 10
-32.10086157633178
 20
-5.000000000013067
 30
0.0
 11
-74.24999999999998
 21
-5.000000000013097
 31
0.0
  0
LINE
  5
3DAD
330
1F
100
AcDbEntity
  8
AM_0
100
AcDbLine
 10
-74.99999999999999
 20
-4.250000000013098
 30
0.0
 11
-74.99999999999999
 21
4.249999999986903
 31
0.0
  0
LINE
  5
3DBA
330
1F
100
AcDbEntity
  8
AM_0
100
AcDbLine
 10
-74.24999999999998
 20
4.999999999986904
 30
0.0
 11
-74.99999999999999
 21
4.249999999986903
 31
0.0
1001
GENIUS_GENFIL_13
1070
     0
1040
0.75
1040
0.75
1040
20.0
1040
0.0
1002
{
1002
}
1001
GENIUS_GENODEF_13
1002
{
1000
HIER
1070
     0
1002
}
1002
{
1000
MANEDIT
1070
     0
1002
}
1002
{
1000
NOSEL
1070
     0
1002
}
1002
{
1000
BEHIND
1070
     0
1002
}
1002
{
1000
REACTOR
1002
}
1001
GENIUS_GENOBJ-N-CHA_13
1002
{
1000
OWNER
1000
GEN
1002
}
  0
LINE
  5
3DBD
330
1F
100
AcDbEntity
  8
AM_0
100
AcDbLine
 10
-74.99999999999999
 20
-4.250000000013098
 30
0.0
 11
-74.24999999999998
 21
-5.000000000013097
 31
0.0
1001
GENIUS_GENFIL_13
1070
     0
1040
0.75
1040
0.75
1040
20.0
1040
0.0
1002
{
1002
}
1001
GENIUS_GENODEF_13
1002
{
1000
HIER
1070
     0
1002
}
1002
{
1000
MANEDIT
1070
     0
1002
}
1002
{
1000
NOSEL
1070
     0
1002
}
1002
{
1000
BEHIND
1070
     0
1002
}
1002
{
1000
REACTOR
1002
}
1001
GENIUS_GENOBJ-N-CHA_13
1002
{
1000
OWNER
1000
GEN
1002
}
  0
LINE
  5
3DBE
330
1F
100
AcDbEntity
  8
AM_0
100
AcDbLine
 10
-74.24999999999998
 20
4.999999999986904
 30
0.0
 11
-74.24999999999997
 21
-5.000000000013112
 31
0.0
  0
SPLINE
  5
3F6E
330
1F
100
AcDbEntity
  8
AM_0
100
AcDbSpline
210
0.0
220
0.0
230
1.0
 70
     8
 71
     3
 72
     9
 73
     5
 74
     3
 42
0.0000000001
 43
0.0000000001
 44
0.0000000001
 12
-0.8798907302369265
 22
0.4751760756215832
 32
0.0
 13
-0.960668120577711
 23
-0.2776990495224798
 33
0.0
 40
0.0
 40
0.0
 40
0.0
 40
0.0
 40
1.141960538050321
 40
2.163435523822838
 40
2.163435523822838
 40
2.163435523822838
 40
2.163435523822838
 10
-15.1249999999996
 20
-4.918333346839254
 30
0.0
 10
-15.45993349724188
 20
-4.737455904510767
 30
0.0
 10
-16.04631304099479
 20
-4.137565615577001
 30
0.0
 10
-16.79790051507107
 20
-4.480703618272064
 30
0.0
 10
-17.12500000000415
 20
-4.575257829158736
 30
0.0
 11
-15.1249999999996
 21
-4.918333346839254
 31
0.0
 11
-16.1249999999996
 21
-4.36690441174047
 31
0.0
 11
-17.12500000000415
 21
-4.575257829158736
 31
0.0
  0
SPLINE
  5
3F6F
330
1F
100
AcDbEntity
  8
AM_0
100
AcDbSpline
210
0.0
220
0.0
230
1.0
 70
     8
 71
     3
 72
     8
 73
     4
 74
     0
 42
0.0000000001
 43
0.0000000001
 40
1.788970302442027
 40
1.788970302442027
 40
1.788970302442027
 40
1.788970302442027
 40
3.332324051699147
 40
3.332324051699147
 40
3.332324051699147
 40
3.332324051699147
 10
-26.93729342529383
 20
-4.743212561198127
 30
0.0
 10
-27.44132171384586
 20
-4.682958435769272
 30
0.0
 10
-27.94115094695786
 20
-4.598429979053911
 30
0.0
 10
-28.43729342528792
 20
-4.492588751354126
 30
0.0
  0
SPLINE
  5
3F70
330
1F
100
AcDbEntity
  8
AM_0
100
AcDbSpline
210
0.0
220
0.0
230
1.0
 70
     8
 71
     3
 72
     8
 73
     4
 74
     0
 42
0.0000000001
 43
0.0000000001
 40
0.0
 40
0.0
 40
0.0
 40
0.0
 40
1.539536607901005
 40
1.539536607901005
 40
1.539536607901005
 40
1.539536607901005
 10
-26.91229342529374
 20
-4.999999999996155
 30
0.0
 10
-27.42547229459438
 20
-4.999999999996155
 30
0.0
 10
-27.93362771713788
 20
-4.971778279584235
 30
0.0
 10
-28.43729342529383
 20
-4.918333346839311
 30
0.0
  0
SPLINE
  5
3F71
330
1F
100
AcDbEntity
  8
AM_0
100
AcDbSpline
210
0.0
220
0.0
230
1.0
 70
     8
 71
     3
 72
     8
 73
     4
 74
     0
 42
0.0000000001
 43
0.0000000001
 40
0.2298684927509915
 40
0.2298684927509915
 40
0.2298684927509915
 40
0.2298684927509915
 40
2.764560748519282
 40
2.764560748519282
 40
2.764560748519282
 40
2.764560748519282
 10
-24.93729342529383
 20
-4.848449535872326
 30
0.0
 10
-24.09472211545431
 20
-4.835002527322352
 30
0.0
 10
-23.26487256101933
 20
-4.748012287526783
 30
0.0
 10
-22.44547539787032
 20
-4.600597789839376
 30
0.0
  0
SPLINE
  5
3F72
330
1F
100
AcDbEntity
  8
AM_0
100
AcDbSpline
210
0.0
220
0.0
230
1.0
 70
     8
 71
     3
 72
     8
 73
     4
 74
     0
 42
0.0000000001
 43
0.0000000001
 40
1.999245295235591
 40
1.999245295235591
 40
1.999245295235591
 40
1.999245295235591
 40
2.130230809022907
 40
2.130230809022907
 40
2.130230809022907
 40
2.130230809022907
 10
-24.93729342529383
 20
-4.863789948096176
 30
0.0
 10
-24.89466505484193
 20
-4.857983928522138
 30
0.0
 10
-24.85206803085526
 20
-4.852001804527411
 30
0.0
 10
-24.8095020246165
 20
-4.845845422848945
 30
0.0
  0
SPLINE
  5
3F73
330
1F
100
AcDbEntity
  8
AM_0
100
AcDbSpline
210
0.0
220
0.0
230
1.0
 70
     8
 71
     3
 72
     9
 73
     5
 74
     3
 42
0.0000000001
 43
0.0000000001
 44
0.0000000001
 12
0.8362726111173659
 22
0.5483138881105814
 32
0.0
 13
0.9001039467105636
 23
-0.4356752059918798
 33
0.0
 40
0.0
 40
0.0
 40
0.0
 40
0.0
 40
1.111809830224759
 40
2.171203388876847
 40
2.171203388876847
 40
2.171203388876847
 40
2.171203388876847
 10
-26.93729342529383
 20
-4.999977680065079
 30
0.0
 10
-26.62736805536449
 20
-4.796770756448378
 30
0.0
 10
-25.96647096738817
 20
-4.276572757818394
 30
0.0
 10
-25.25514819971466
 20
-4.709939445798769
 30
0.0
 10
-24.93729342529383
 20
-4.863789948096176
 30
0.0
 11
-26.93729342529383
 21
-4.999977680065079
 31
0.0
 11
-25.93729342529383
 21
-4.514054745244742
 31
0.0
 11
-24.93729342529383
 21
-4.863789948096176
 31
0.0
  0
SPLINE
  5
3F74
330
1F
100
AcDbEntity
  8
AM_0
100
AcDbSpline
210
0.0
220
0.0
230
1.0
 70
     8
 71
     3
 72
     8
 73
     4
 74
     2
 42
0.0000000001
 43
0.0000000001
 44
0.0000000001
 12
0.8857418982387384
 22
0.464178079732807
 32
0.0
 13
0.9626176208368654
 23
-0.2708640176442281
 33
0.0
 40
0.0
 40
0.0
 40
0.0
 40
0.0
 40
0.9989488744296764
 40
0.9989488744296764
 40
0.9989488744296764
 40
0.9989488744296764
 10
-26.93729342529383
 20
-4.743212561198127
 30
0.0
 10
-26.6423564678669
 20
-4.588649171103456
 30
0.0
 10
-26.28510488118544
 20
-4.42562717955007
 30
0.0
 10
-25.96456961823838
 20
-4.515820281399804
 30
0.0
 11
-26.93729342529383
 21
-4.743212561198127
 31
0.0
 11
-25.96456961823838
 21
-4.515820281399804
 31
0.0
  0
SPLINE
  5
3F75
330
1F
100
AcDbEntity
  8
AM_0
100
AcDbSpline
210
0.0
220
0.0
230
1.0
 70
     8
 71
     3
 72
     9
 73
     5
 74
     0
 42
0.0000000001
 43
0.0000000001
 40
0.0
 40
0.0
 40
0.0
 40
0.0
 40
1.141960538050321
 40
1.719110204138551
 40
1.719110204138551
 40
1.719110204138551
 40
1.719110204138551
 10
-28.43729342529383
 20
-4.918333346839311
 30
0.0
 10
-28.7722269225361
 20
-4.737455904510817
 30
0.0
 10
-29.23817612511845
 20
-4.260770786921874
 30
0.0
 10
-29.80844120472494
 20
-4.37953422381306
 30
0.0
 10
-29.99999999999983
 20
-4.436431507731434
 30
0.0
  0
SPLINE
  5
3F76
330
1F
100
AcDbEntity
  8
AM_0
100
AcDbSpline
210
0.0
220
0.0
230
1.0
 70
     8
 71
     3
 72
     8
 73
     4
 74
     2
 42
0.0000000001
 43
0.0000000001
 44
0.0000000001
 12
0.8857418982387384
 22
0.464178079732807
 32
0.0
 13
0.9626176208368654
 23
-0.2708640176442281
 33
0.0
 40
0.0
 40
0.0
 40
0.0
 40
0.0
 40
0.9989488744296764
 40
0.9989488744296764
 40
0.9989488744296764
 40
0.9989488744296764
 10
-13.6249999999996
 20
-4.743212561198014
 30
0.0
 10
-13.33006304257267
 20
-4.588649171103342
 30
0.0
 10
-12.97281145589121
 20
-4.425627179549956
 30
0.0
 10
-12.65227619294416
 20
-4.51582028139969
 30
0.0
 11
-13.6249999999996
 21
-4.743212561198014
 31
0.0
 11
-12.65227619294416
 21
-4.51582028139969
 31
0.0
  0
SPLINE
  5
3F77
330
1F
100
AcDbEntity
  8
AM_0
100
AcDbSpline
210
0.0
220
0.0
230
1.0
 70
     8
 71
     3
 72
     9
 73
     5
 74
     3
 42
0.0000000001
 43
0.0000000001
 44
0.0000000001
 12
0.8362726111173659
 22
0.5483138881105814
 32
0.0
 13
0.9001039467105636
 23
-0.4356752059918798
 33
0.0
 40
0.0
 40
0.0
 40
0.0
 40
0.0
 40
1.111809830224759
 40
2.171203388876847
 40
2.171203388876847
 40
2.171203388876847
 40
2.171203388876847
 10
-13.6249999999996
 20
-4.999977680064965
 30
0.0
 10
-13.31507463007027
 20
-4.796770756448264
 30
0.0
 10
-12.65417754209395
 20
-4.276572757818279
 30
0.0
 10
-11.94285477442043
 20
-4.709939445798656
 30
0.0
 10
-11.62499999999961
 20
-4.863789948096062
 30
0.0
 11
-13.6249999999996
 21
-4.999977680064965
 31
0.0
 11
-12.62499999999961
 21
-4.514054745244628
 31
0.0
 11
-11.62499999999961
 21
-4.863789948096062
 31
0.0
  0
SPLINE
  5
3F78
330
1F
100
AcDbEntity
  8
AM_0
100
AcDbSpline
210
0.0
220
0.0
230
1.0
 70
     8
 71
     3
 72
     9
 73
     5
 74
     3
 42
0.0000000001
 43
0.0000000001
 44
0.0000000001
 12
-0.6110826252653754
 22
0.7915668165725347
 32
0.0
 13
-0.9134460065687767
 23
-0.4069599403916245
 33
0.0
 40
0.0
 40
0.0
 40
0.0
 40
0.0
 40
1.15105957648278
 40
2.164854601746093
 40
2.164854601746093
 40
2.164854601746093
 40
2.164854601746093
 10
-1.999999999999602
 20
-4.860364256206672
 30
0.0
 10
-2.234464169277584
 20
-4.556650734659404
 30
0.0
 10
-2.944662697193205
 20
-4.156501970801681
 30
0.0
 10
-3.691317660897579
 20
-4.319480532043561
 30
0.0
 10
-3.999999999999602
 20
-4.457005186393722
 30
0.0
 11
-1.999999999999602
 21
-4.860364256206672
 31
0.0
 11
-2.999999999999602
 21
-4.290330793493545
 31
0.0
 11
-3.999999999999602
 21
-4.457005186393722
 31
0.0
  0
SPLINE
  5
3F79
330
1F
100
AcDbEntity
  8
AM_0
100
AcDbSpline
210
0.0
220
0.0
230
1.0
 70
     8
 71
     3
 72
     8
 73
     4
 74
     0
 42
0.0000000001
 43
0.0000000001
 40
1.999245295235591
 40
1.999245295235591
 40
1.999245295235591
 40
1.999245295235591
 40
2.130230809022907
 40
2.130230809022907
 40
2.130230809022907
 40
2.130230809022907
 10
-11.62499999999961
 20
-4.863789948096062
 30
0.0
 10
-11.58237162954771
 20
-4.857983928522024
 30
0.0
 10
-11.53977460556104
 20
-4.852001804527297
 30
0.0
 10
-11.49720859932228
 20
-4.845845422848832
 30
0.0
  0
SPLINE
  5
3F7A
330
1F
100
AcDbEntity
  8
AM_0
100
AcDbSpline
210
0.0
220
0.0
230
1.0
 70
     8
 71
     3
 72
     8
 73
     4
 74
     0
 42
0.0000000001
 43
0.0000000001
 40
0.2298684927509915
 40
0.2298684927509915
 40
0.2298684927509915
 40
0.2298684927509915
 40
2.764560748519282
 40
2.764560748519282
 40
2.764560748519282
 40
2.764560748519282
 10
-11.62499999999961
 20
-4.848449535872212
 30
0.0
 10
-10.78242869016009
 20
-4.835002527322238
 30
0.0
 10
-9.952579135725109
 20
-4.74801228752667
 30
0.0
 10
-9.133181972576096
 20
-4.600597789839319
 30
0.0
  0
SPLINE
  5
3F7B
330
1F
100
AcDbEntity
  8
AM_0
100
AcDbSpline
210
0.0
220
0.0
230
1.0
 70
     8
 71
     3
 72
     8
 73
     4
 74
     0
 42
0.0000000001
 43
0.0000000001
 40
1.870660592686466
 40
1.870660592686466
 40
1.870660592686466
 40
1.870660592686466
 40
3.826008700541491
 40
3.826008700541491
 40
3.826008700541491
 40
3.826008700541491
 10
-0.1049999999996203
 20
-4.733441157617868
 30
0.0
 10
-0.743015999515194
 20
-4.653857185315096
 30
0.0
 10
-1.374335386422046
 20
-4.535560746532233
 30
0.0
 10
-1.999999999997328
 20
-4.384574612850279
 30
0.0
  0
SPLINE
  5
3F7C
330
1F
100
AcDbEntity
  8
AM_0
100
AcDbSpline
210
0.0
220
0.0
230
1.0
 70
     8
 71
     3
 72
     8
 73
     4
 74
     0
 42
0.0000000001
 43
0.0000000001
 40
0.0
 40
0.0
 40
0.0
 40
0.0
 40
2.024855066027545
 40
2.024855066027545
 40
2.024855066027545
 40
2.024855066027545
 10
0.0000000000003979
 20
-4.999999999996212
 30
0.0
 10
-0.6749516886753213
 20
-4.999999999996212
 30
0.0
 10
-1.34121357999362
 20
-4.951180724438778
 30
0.0
 10
-1.999999999999602
 20
-4.860364256206672
 30
0.0
  0
SPLINE
  5
3F7D
330
1F
100
AcDbEntity
  8
AM_0
100
AcDbSpline
210
0.0
220
0.0
230
1.0
 70
     8
 71
     3
 72
     8
 73
     4
 74
     0
 42
0.0000000001
 43
0.0000000001
 40
1.788970302442027
 40
1.788970302442027
 40
1.788970302442027
 40
1.788970302442027
 40
3.332324051699147
 40
3.332324051699147
 40
3.332324051699147
 40
3.332324051699147
 10
-13.6249999999996
 20
-4.743212561198014
 30
0.0
 10
-14.12902828855164
 20
-4.682958435769158
 30
0.0
 10
-14.62885752166364
 20
-4.598429979053797
 30
0.0
 10
-15.12499999999369
 20
-4.49258875135407
 30
0.0
  0
SPLINE
  5
3F7E
330
1F
100
AcDbEntity
  8
AM_0
100
AcDbSpline
210
0.0
220
0.0
230
1.0
 70
     8
 71
     3
 72
     8
 73
     4
 74
     0
 42
0.0000000001
 43
0.0000000001
 40
0.0
 40
0.0
 40
0.0
 40
0.0
 40
1.539536607901005
 40
1.539536607901005
 40
1.539536607901005
 40
1.539536607901005
 10
-13.59999999999951
 20
-4.999999999996042
 30
0.0
 10
-14.11317886930016
 20
-4.999999999996042
 30
0.0
 10
-14.62133429184365
 20
-4.971778279584121
 30
0.0
 10
-15.1249999999996
 20
-4.918333346839254
 30
0.0
  0
SPLINE
  5
3F7F
330
1F
100
AcDbEntity
  8
AM_0
100
AcDbSpline
210
0.0
220
0.0
230
1.0
 70
     8
 71
     3
 72
     8
 73
     4
 74
     0
 42
0.0000000001
 43
0.0000000001
 40
14.25229543663493
 40
14.25229543663493
 40
14.25229543663493
 40
14.25229543663493
 40
14.43901837670146
 40
14.43901837670146
 40
14.43901837670146
 40
14.43901837670146
 10
-25.6249999999996
 20
0.0940793257218857
 30
0.0
 10
-25.56818313450918
 20
0.0627230469211
 30
0.0
 10
-25.51136717625701
 20
0.0313615234625004
 30
0.0
 10
-25.45455121800529
 20
0.0000000000039009
 30
0.0
  0
SPLINE
  5
3F80
330
1F
100
AcDbEntity
  8
AM_0
100
AcDbSpline
210
0.0
220
0.0
230
1.0
 70
     8
 71
     3
 72
     8
 73
     4
 74
     0
 42
0.0000000001
 43
0.0000000001
 40
12.98298737538389
 40
12.98298737538389
 40
12.98298737538389
 40
12.98298737538389
 40
14.43901837670148
 40
14.43901837670148
 40
14.43901837670148
 40
14.43901837670148
 10
-24.12499999997004
 20
-0.7311673313899619
 30
0.0
 10
-24.56847051945811
 20
-0.4891027357186531
 30
0.0
 10
-25.01151086873147
 20
-0.2445513678573761
 30
0.0
 10
-25.45455121800529
 20
0.0000000000039009
 30
0.0
  0
SPLINE
  5
3F81
330
1F
100
AcDbEntity
  8
AM_0
100
AcDbSpline
210
0.0
220
0.0
230
1.0
 70
     8
 71
     3
 72
     9
 73
     5
 74
     3
 42
0.0000000001
 43
0.0000000001
 44
0.0000000001
 12
-0.7092284403967401
 22
0.7049787367945278
 32
0.0
 13
-0.9773066838349782
 23
-0.211829284404867
 33
0.0
 40
0.0
 40
0.0
 40
0.0
 40
0.0
 40
1.489392952715225
 40
2.489392952715225
 40
2.489392952715225
 40
2.489392952715225
 40
2.489392952715225
 10
-22.1249999999996
 20
-1.795293412718557
 30
0.0
 10
-22.47710661366363
 20
-1.445296625253273
 30
0.0
 10
-22.84040497322462
 20
-0.4910693197682442
 30
0.0
 10
-23.79923110538794
 20
-0.6209212820793595
 30
0.0
 10
-24.1249999999996
 20
-0.6915310435476485
 30
0.0
 11
-22.1249999999996
 21
-1.795293412718557
 31
0.0
 11
-23.1249999999996
 21
-0.6915310435476485
 31
0.0
 11
-24.1249999999996
 21
-0.6915310435476485
 31
0.0
  0
SPLINE
  5
3F82
330
1F
100
AcDbEntity
  8
AM_0
100
AcDbSpline
210
0.0
220
0.0
230
1.0
 70
     8
 71
     3
 72
     8
 73
     4
 74
     0
 42
0.0000000001
 43
0.0000000001
 40
9.170645305362121
 40
9.170645305362121
 40
9.170645305362121
 40
9.170645305362121
 40
10.79891126818747
 40
10.79891126818747
 40
10.79891126818747
 40
10.79891126818747
 10
-20.6249999999996
 20
-2.536786473945049
 30
0.0
 10
-21.12674597392748
 20
-2.299715425593113
 30
0.0
 10
-21.62654544215325
 20
-2.051391817005843
 30
0.0
 10
-22.12500000007236
 20
-1.79529341268104
 30
0.0
  0
SPLINE
  5
3F83
330
1F
100
AcDbEntity
  8
AM_0
100
AcDbSpline
210
0.0
220
0.0
230
1.0
 70
     8
 71
     3
 72
     9
 73
     5
 74
     3
 42
0.0000000001
 43
0.0000000001
 44
0.0000000001
 12
-0.5352929995799692
 22
0.8446664457646456
 32
0.0
 13
-0.9737293462750431
 23
-0.2277084983103998
 33
0.0
 40
0.0
 40
0.0
 40
0.0
 40
0.0
 40
1.418344912688709
 40
2.426686756558611
 40
2.426686756558611
 40
2.426686756558611
 40
2.426686756558611
 10
-18.6249999999996
 20
-3.413186161873419
 30
0.0
 10
-18.87807670091697
 20
-3.013843376450373
 30
0.0
 10
-19.41737962277879
 20
-2.154562273565544
 30
0.0
 10
-20.29771598520369
 20
-2.460250471584432
 30
0.0
 10
-20.62500000002143
 20
-2.536786473934817
 30
0.0
 11
-18.6249999999996
 21
-3.413186161873419
 31
0.0
 11
-19.6249999999996
 21
-2.407352034718279
 31
0.0
 11
-20.62500000002143
 21
-2.536786473934817
 31
0.0
  0
SPLINE
  5
3F84
330
1F
100
AcDbEntity
  8
AM_0
100
AcDbSpline
210
0.0
220
0.0
230
1.0
 70
     8
 71
     3
 72
     8
 73
     4
 74
     0
 42
0.0000000001
 43
0.0000000001
 40
5.425905956994038
 40
5.425905956994038
 40
5.425905956994038
 40
5.425905956994038
 40
7.019702002723574
 40
7.019702002723574
 40
7.019702002723574
 40
7.019702002723574
 10
-17.1249999999996
 20
-3.951600854465333
 30
0.0
 10
-17.62800250955257
 20
-3.788216129649036
 30
0.0
 10
-18.12781444564694
 20
-3.606387009843011
 30
0.0
 10
-18.6249999999996
 20
-3.40937503250867
 30
0.0
  0
SPLINE
  5
3F85
330
1F
100
AcDbEntity
  8
AM_0
100
AcDbSpline
210
0.0
220
0.0
230
1.0
 70
     8
 71
     3
 72
     8
 73
     4
 74
     0
 42
0.0000000001
 43
0.0000000001
 40
3.600603813281411
 40
3.600603813281411
 40
3.600603813281411
 40
3.600603813281411
 40
5.175009087017798
 40
5.175009087017798
 40
5.175009087017798
 40
5.175009087017798
 10
-17.12500000000005
 20
-4.575257829159646
 30
0.0
 10
-17.62875784377053
 20
-4.457033134035974
 30
0.0
 10
-18.12856756872548
 20
-4.316627910128282
 30
0.0
 10
-18.6249999999996
 20
-4.157249052654798
 30
0.0
  0
SPLINE
  5
3F86
330
1F
100
AcDbEntity
  8
AM_0
100
AcDbSpline
210
0.0
220
0.0
230
1.0
 70
     8
 71
     3
 72
     9
 73
     5
 74
     3
 42
0.0000000001
 43
0.0000000001
 44
0.0000000001
 12
-0.7007569881530875
 22
0.7134000585608428
 32
0.0
 13
-0.954040132710994
 23
-0.2996788700872805
 33
0.0
 40
0.0
 40
0.0
 40
0.0
 40
0.0
 40
1.235464641235373
 40
2.254442449806595
 40
2.254442449806595
 40
2.254442449806595
 40
2.254442449806595
 10
-15.1249999999996
 20
-4.481372294901994
 30
0.0
 10
-15.41358682698684
 20
-4.187578779099606
 30
0.0
 10
-16.00859685795709
 20
-3.520861981181313
 30
0.0
 10
-16.80095142542847
 20
-3.849812148359105
 30
0.0
 10
-17.12500000000142
 20
-3.951600854464651
 30
0.0
 11
-15.1249999999996
 21
-4.481372294901994
 31
0.0
 11
-16.1249999999996
 21
-3.755856699106253
 31
0.0
 11
-17.12500000000142
 21
-3.951600854464651
 31
0.0
  0
SPLINE
  5
3F87
330
1F
100
AcDbEntity
  8
AM_0
100
AcDbSpline
210
0.0
220
0.0
230
1.0
 70
     8
 71
     3
 72
     8
 73
     4
 74
     0
 42
0.0000000001
 43
0.0000000001
 40
5.307227569610006
 40
5.307227569610006
 40
5.307227569610006
 40
5.307227569610006
 40
5.635889483499305
 40
5.635889483499305
 40
5.635889483499305
 40
5.635889483499305
 10
-18.74999999999966
 20
4.116695622440865
 30
0.0
 10
-18.85351421287811
 20
4.082764263819662
 30
0.0
 10
-18.95688333962613
 20
4.048017811414901
 30
0.0
 10
-19.06011257304368
 20
4.012485438375087
 30
0.0
  0
SPLINE
  5
3F88
330
1F
100
AcDbEntity
  8
AM_0
100
AcDbSpline
210
0.0
220
0.0
230
1.0
 70
     8
 71
     3
 72
     9
 73
     5
 74
     3
 42
0.0000000001
 43
0.0000000001
 44
0.0000000001
 12
0.9763857352009798
 22
-0.2160344789519539
 32
0.0
 13
0.7423022879960327
 23
0.6700651559631014
 33
0.0
 40
0.0
 40
0.0
 40
0.0
 40
0.0
 40
1.002292234465068
 40
2.173666551858671
 40
2.173666551858671
 40
2.173666551858671
 40
2.173666551858671
 10
-18.74999999999966
 20
4.116695622441319
 30
0.0
 10
-18.42379205325485
 20
4.044519062231236
 30
0.0
 10
-17.66009800473309
 20
3.902488757204388
 30
0.0
 10
-17.03983794530001
 20
4.397330337460836
 30
0.0
 10
-16.74999999999966
 20
4.658962709019341
 30
0.0
 11
-18.74999999999966
 21
4.116695622441319
 31
0.0
 11
-17.7499999999996
 21
4.048948126038375
 31
0.0
 11
-16.74999999999966
 21
4.658962709019341
 31
0.0
  0
SPLINE
  5
3F89
330
1F
100
AcDbEntity
  8
AM_0
100
AcDbSpline
210
0.0
220
0.0
230
1.0
 70
     8
 71
     3
 72
     8
 73
     4
 74
     0
 42
0.0000000001
 43
0.0000000001
 40
2.489821994174631
 40
2.489821994174631
 40
2.489821994174631
 40
2.489821994174631
 40
4.043019649814397
 40
4.043019649814397
 40
4.043019649814397
 40
4.043019649814397
 10
-22.99999999999966
 20
4.646386742161702
 30
0.0
 10
-22.496488558436
 20
4.564175885931071
 30
0.0
 10
-21.99699429067198
 20
4.458742138495871
 30
0.0
 10
-21.50099503063677
 20
4.333104091150325
 30
0.0
  0
SPLINE
  5
3F8A
330
1F
100
AcDbEntity
  8
AM_0
100
AcDbSpline
210
0.0
220
0.0
230
1.0
 70
     8
 71
     3
 72
     8
 73
     4
 74
     0
 42
0.0000000001
 43
0.0000000001
 40
4.306226182506206
 40
4.306226182506206
 40
4.306226182506206
 40
4.306226182506206
 40
5.890739774064351
 40
5.890739774064351
 40
5.890739774064351
 40
5.890739774064351
 10
-22.99999999999966
 20
4.403221379994
 30
0.0
 10
-22.49645411499261
 20
4.264876393167504
 30
0.0
 10
-21.99664807854617
 20
4.105520939706401
 30
0.0
 10
-21.4999999999996
 20
3.928424080945468
 30
0.0
  0
SPLINE
  5
3F8B
330
1F
100
AcDbEntity
  8
AM_0
100
AcDbSpline
210
0.0
220
0.0
230
1.0
 70
     8
 71
     3
 72
     9
 73
     5
 74
     3
 42
0.0000000001
 43
0.0000000001
 44
0.0000000001
 12
-0.998034956970028
 22
-0.0626595935658276
 32
0.0
 13
-0.9269020209125923
 23
0.375303402100424
 33
0.0
 40
0.0
 40
0.0
 40
0.0
 40
0.0
 40
1.000988858422096
 40
2.029667805994127
 40
2.029667805994127
 40
2.029667805994127
 40
2.029667805994127
 10
-22.99999999999966
 20
4.646386742161702
 30
0.0
 10
-23.33300729074724
 20
4.625479557150819
 30
0.0
 10
-24.01081726150847
 20
4.535046255779554
 30
0.0
 10
-24.68217180154141
 20
4.714421406744683
 30
0.0
 10
-24.99999999999966
 20
4.843110309642305
 30
0.0
 11
-22.99999999999966
 21
4.646386742161702
 31
0.0
 11
-23.99999999999966
 21
4.601904221041912
 31
0.0
 11
-24.99999999999966
 21
4.843110309642305
 31
0.0
  0
SPLINE
  5
3F8C
330
1F
100
AcDbEntity
  8
AM_0
100
AcDbSpline
210
0.0
220
0.0
230
1.0
 70
     8
 71
     3
 72
     9
 73
     5
 74
     3
 42
0.0000000001
 43
0.0000000001
 44
0.0000000001
 12
-0.9815548294604765
 22
-0.1911808483159737
 32
0.0
 13
-0.8368779624517479
 23
0.5473895102782028
 33
0.0
 40
0.0
 40
0.0
 40
0.0
 40
0.0
 40
1.011078658048303
 40
2.16586378267513
 40
2.16586378267513
 40
2.16586378267513
 40
2.16586378267513
 10
-22.99999999999966
 20
4.403221379994
 30
0.0
 10
-23.3308097132569
 20
4.33878842147405
 30
0.0
 10
-24.08539884083452
 20
4.044928733582296
 30
0.0
 10
-24.6778619259439
 20
4.620770006488466
 30
0.0
 10
-24.99999999999966
 20
4.83147576110381
 30
0.0
 11
-22.99999999999966
 21
4.403221379994
 31
0.0
 11
-23.99999999999966
 21
4.253956338002389
 31
0.0
 11
-24.99999999999966
 21
4.83147576110381
 31
0.0
  0
SPLINE
  5
3F8D
330
1F
100
AcDbEntity
  8
AM_0
100
AcDbSpline
210
0.0
220
0.0
230
1.0
 70
     8
 71
     3
 72
     8
 73
     4
 74
     0
 42
0.0000000001
 43
0.0000000001
 40
6.150480381241876
 40
6.150480381241876
 40
6.150480381241876
 40
6.150480381241876
 40
7.75241736749254
 40
7.75241736749254
 40
7.75241736749254
 40
7.75241736749254
 10
-19.4999999999996
 20
3.717636224970227
 30
0.0
 10
-18.99722683039095
 20
3.537238379654162
 30
0.0
 10
-18.49741779087258
 20
3.339705186444952
 30
0.0
 10
-17.9999999999996
 20
3.128348417283895
 30
0.0
  0
SPLINE
  5
3F8E
330
1F
100
AcDbEntity
  8
AM_0
100
AcDbSpline
210
0.0
220
0.0
230
1.0
 70
     8
 71
     3
 72
     8
 73
     4
 74
     0
 42
0.0000000001
 43
0.0000000001
 40
8.034594408064972
 40
8.034594408064972
 40
8.034594408064972
 40
8.034594408064972
 40
9.661611892530016
 40
9.661611892530016
 40
9.661611892530016
 40
9.661611892530016
 10
-19.4999999999996
 20
3.120248846408721
 30
0.0
 10
-18.99771044845243
 20
2.895250165398955
 30
0.0
 10
-18.49792044341944
 20
2.656209033795484
 30
0.0
 10
-18.00000000000005
 20
2.406664706340542
 30
0.0
  0
SPLINE
  5
3F8F
330
1F
100
AcDbEntity
  8
AM_0
100
AcDbSpline
210
0.0
220
0.0
230
1.0
 70
     8
 71
     3
 72
     9
 73
     5
 74
     3
 42
0.0000000001
 43
0.0000000001
 44
0.0000000001
 12
-0.8872020512481618
 22
0.4613811008928021
 32
0.0
 13
-0.9856395606727495
 23
0.1688628332014753
 33
0.0
 40
0.0
 40
0.0
 40
0.0
 40
0.0
 40
1.078975003283378
 40
2.100790360598613
 40
2.100790360598613
 40
2.100790360598613
 40
2.100790360598613
 10
-19.4999999999996
 20
3.717636224970455
 30
0.0
 10
-19.81908961205243
 20
3.883575783254022
 30
0.0
 10
-20.47169636823971
 20
4.155613470327985
 30
0.0
 10
-21.16428612004204
 20
4.275336473305612
 30
0.0
 10
-21.49999999999966
 20
4.332852018720622
 30
0.0
 11
-19.4999999999996
 21
3.717636224970455
 31
0.0
 11
-20.49999999999966
 21
4.122836246824171
 31
0.0
 11
-21.49999999999966
 21
4.332852018720622
 31
0.0
  0
SPLINE
  5
3F90
330
1F
100
AcDbEntity
  8
AM_0
100
AcDbSpline
210
0.0
220
0.0
230
1.0
 70
     8
 71
     3
 72
     9
 73
     5
 74
     3
 42
0.0000000001
 43
0.0000000001
 44
0.0000000001
 12
-0.9971207175624307
 22
0.075830565129001
 32
0.0
 13
-0.7822668508322156
 23
0.6229434758379352
 33
0.0
 40
0.0
 40
0.0
 40
0.0
 40
0.0
 40
1.009756007967844
 40
2.212429615157981
 40
2.212429615157981
 40
2.212429615157981
 40
2.212429615157981
 10
-19.4999999999996
 20
3.120248846409175
 30
0.0
 10
-19.83561621174222
 20
3.145772302651377
 30
0.0
 10
-20.60751179154085
 20
3.152813774494653
 30
0.0
 10
-21.18639610157438
 20
3.678691521891611
 30
0.0
 10
-21.4999999999996
 20
3.928424080945468
 30
0.0
 11
-19.4999999999996
 21
3.120248846409175
 31
0.0
 11
-20.4999999999996
 21
3.260274542719379
 31
0.0
 11
-21.4999999999996
 21
3.928424080945468
 31
0.0
  0
SPLINE
  5
3F91
330
1F
100
AcDbEntity
  8
AM_0
100
AcDbSpline
210
0.0
220
0.0
230
1.0
 70
     8
 71
     3
 72
     9
 73
     5
 74
     3
 42
0.0000000001
 43
0.0000000001
 44
0.0000000001
 12
-0.7744171056884069
 22
0.6326753878705816
 32
0.0
 13
-0.997664332449759
 23
-0.0683072452787872
 33
0.0
 40
0.0
 40
0.0
 40
0.0
 40
0.0
 40
1.261002503640215
 40
2.272762227401807
 40
2.272762227401807
 40
2.272762227401807
 40
2.272762227401807
 10
-15.9999999999996
 20
2.206340249112408
 30
0.0
 10
-16.32551396971123
 20
2.47227533181119
 30
0.0
 10
-16.8570887191302
 20
3.065825064079
 30
0.0
 10
-17.66353447019754
 20
3.151385257155288
 30
0.0
 10
-17.9999999999996
 20
3.128348417283895
 30
0.0
 11
-15.9999999999996
 21
2.206340249112408
 31
0.0
 11
-16.9999999999996
 21
2.974537693905666
 31
0.0
 11
-17.9999999999996
 21
3.128348417283895
 31
0.0
  0
SPLINE
  5
3F92
330
1F
100
AcDbEntity
  8
AM_0
100
AcDbSpline
210
0.0
220
0.0
230
1.0
 70
     8
 71
     3
 72
     9
 73
     5
 74
     3
 42
0.0000000001
 43
0.0000000001
 44
0.0000000001
 12
-0.9430790451623929
 22
0.3325686614454065
 32
0.0
 13
-0.7408851562591475
 23
0.6716317333441437
 33
0.0
 40
0.0
 40
0.0
 40
0.0
 40
0.0
 40
1.072894377562183
 40
2.274547218463483
 40
2.274547218463483
 40
2.274547218463483
 40
2.274547218463483
 10
-15.9999999999996
 20
1.351635454298538
 30
0.0
 10
-16.33727473505008
 20
1.470572469971257
 30
0.0
 10
-17.05718707459194
 20
1.714074609237863
 30
0.0
 10
-17.7032377490634
 20
2.137641979534799
 30
0.0
 10
-17.99999999999687
 20
2.406664706338951
 30
0.0
 11
-15.9999999999996
 21
1.351635454298538
 31
0.0
 11
-16.9999999999996
 21
1.740354305660993
 31
0.0
 11
-17.99999999999687
 21
2.406664706338951
 31
0.0
  0
SPLINE
  5
3F93
330
1F
100
AcDbEntity
  8
AM_0
100
AcDbSpline
210
0.0
220
0.0
230
1.0
 70
     8
 71
     3
 72
     8
 73
     4
 74
     0
 42
0.0000000001
 43
0.0000000001
 40
0.3581103616548037
 40
0.3581103616548037
 40
0.3581103616548037
 40
0.3581103616548037
 40
0.4557920900567158
 40
0.4557920900567158
 40
0.4557920900567158
 40
0.4557920900567158
 10
-25.09720859932178
 20
4.845845422856463
 30
0.0
 10
-25.06478705273014
 20
4.845041706588098
 30
0.0
 10
-25.03238422958531
 20
4.844129751893696
 30
0.0
 10
-24.99999999999966
 20
4.843110309642305
 30
0.0
  0
SPLINE
  5
3F94
330
1F
100
AcDbEntity
  8
AM_0
100
AcDbSpline
210
0.0
220
0.0
230
1.0
 70
     8
 71
     3
 72
     8
 73
     4
 74
     0
 42
0.0000000001
 43
0.0000000001
 40
1.666991338825053
 40
1.666991338825053
 40
1.666991338825053
 40
1.666991338825053
 40
3.21070440243455
 40
3.21070440243455
 40
3.21070440243455
 40
3.21070440243455
 10
-15.24999999999784
 20
4.904542670200079
 30
0.0
 10
-15.75429031764508
 20
4.846785684717168
 30
0.0
 10
-16.25411095501488
 20
4.763918038523151
 30
0.0
 10
-16.74999999999966
 20
4.658962709019341
 30
0.0
  0
SPLINE
  5
3F95
330
1F
100
AcDbEntity
  8
AM_0
100
AcDbSpline
210
0.0
220
0.0
230
1.0
 70
     8
 71
     3
 72
     8
 73
     4
 74
     0
 42
0.0000000001
 43
0.0000000001
 40
11.33959573889505
 40
11.33959573889505
 40
11.33959573889505
 40
11.33959573889505
 40
14.36247867694493
 40
14.36247867694493
 40
14.36247867694493
 40
14.36247867694493
 10
-29.99999999999971
 20
3.258200480992208
 30
0.0
 10
-25.29945908415953
 20
0.9718374190104341
 30
0.0
 10
-24.37207120159206
 20
0.4859187095071676
 30
0.0
 10
-23.44468331902459
 20
0.0000000000039009
 30
0.0
  0
SPLINE
  5
3F96
330
1F
100
AcDbEntity
  8
AM_0
100
AcDbSpline
210
0.0
220
0.0
230
1.0
 70
     8
 71
     3
 72
     9
 73
     5
 74
     3
 42
0.0000000001
 43
0.0000000001
 44
0.0000000001
 12
-0.7092284403967401
 22
0.7049787367945278
 32
0.0
 13
-0.9773066838349782
 23
-0.211829284404867
 33
0.0
 40
0.0
 40
0.0
 40
0.0
 40
0.0
 40
1.456371090217216
 40
2.456927424671746
 40
2.456927424671746
 40
2.456927424671746
 40
2.456927424671746
 10
-25.6249999999996
 20
0.094079325721772
 30
0.0
 10
-25.96929993231748
 20
0.4363162095502396
 30
0.0
 10
-26.35967913498486
 20
1.323303435779673
 30
0.0
 10
-27.29904986900269
 20
1.256870484568302
 30
0.0
 10
-27.62500000007463
 20
1.186221440456883
 30
0.0
 11
-25.6249999999996
 21
0.094079325721772
 31
0.0
 11
-26.6249999999996
 21
1.152860111541237
 31
0.0
 11
-27.62500000007463
 21
1.186221440456883
 31
0.0
  0
SPLINE
  5
3F97
330
1F
100
AcDbEntity
  8
AM_0
100
AcDbSpline
210
0.0
220
0.0
230
1.0
 70
     8
 71
     3
 72
     9
 73
     5
 74
     3
 42
0.0000000001
 43
0.0000000001
 44
0.0000000001
 12
-0.8041147091497457
 22
0.5944741664101308
 32
0.0
 13
-0.9870280271745951
 23
-0.1605480413204323
 33
0.0
 40
0.0
 40
0.0
 40
0.0
 40
0.0
 40
1.196665698075292
 40
2.19997600549761
 40
2.19997600549761
 40
2.19997600549761
 40
2.19997600549761
 10
-18.6249999999996
 20
-4.157249052657299
 30
0.0
 10
-18.94575216325203
 20
-3.920120104878996
 30
0.0
 10
-19.51024639033937
 20
-3.40443060889961
 30
0.0
 10
-20.29490153554448
 20
-3.364847656021482
 30
0.0
 10
-20.62500000000415
 20
-3.418540824252566
 30
0.0
 11
-18.6249999999996
 21
-4.157249052657299
 31
0.0
 11
-19.6249999999996
 21
-3.499975294661417
 31
0.0
 11
-20.62500000000415
 21
-3.418540824252566
 31
0.0
  0
SPLINE
  5
3F98
330
1F
100
AcDbEntity
  8
AM_0
100
AcDbSpline
210
0.0
220
0.0
230
1.0
 70
     8
 71
     3
 72
     8
 73
     4
 74
     0
 42
0.0000000001
 43
0.0000000001
 40
7.307451768075528
 40
7.307451768075528
 40
7.307451768075528
 40
7.307451768075528
 40
8.927702162744216
 40
8.927702162744216
 40
8.927702162744216
 40
8.927702162744216
 10
-20.6249999999996
 20
-3.418540824254385
 30
0.0
 10
-21.12755062602496
 20
-3.202326699039723
 30
0.0
 10
-21.62734324040735
 20
-2.975972728697307
 30
0.0
 10
-22.1249999999996
 20
-2.742468320242515
 30
0.0
  0
SPLINE
  5
3F99
330
1F
100
AcDbEntity
  8
AM_0
100
AcDbSpline
210
0.0
220
0.0
230
1.0
 70
     8
 71
     3
 72
     9
 73
     5
 74
     3
 42
0.0000000001
 43
0.0000000001
 44
0.0000000001
 12
-0.6468728043913145
 22
0.7625979117063697
 32
0.0
 13
-0.9968429144675983
 23
0.0793990168436886
 33
0.0
 40
0.0
 40
0.0
 40
0.0
 40
0.0
 40
1.20893661881328
 40
2.264877144976082
 40
2.264877144976082
 40
2.264877144976082
 40
2.264877144976082
 10
-22.1249999999996
 20
-2.742468320242515
 30
0.0
 10
-22.3856760736473
 20
-2.435157473278393
 30
0.0
 10
-23.07628756807394
 20
-2.078764733668606
 30
0.0
 10
-23.77413105613141
 20
-1.751925039304071
 30
0.0
 10
-24.1249999999996
 20
-1.723978159429826
 30
0.0
 11
-22.1249999999996
 21
-2.742468320242515
 31
0.0
 11
-23.1249999999996
 21
-2.063109984525873
 31
0.0
 11
-24.1249999999996
 21
-1.723978159429826
 31
0.0
  0
SPLINE
  5
3F9A
330
1F
100
AcDbEntity
  8
AM_0
100
AcDbSpline
210
0.0
220
0.0
230
1.0
 70
     8
 71
     3
 72
     9
 73
     5
 74
     3
 42
0.0000000001
 43
0.0000000001
 44
0.0000000001
 12
-0.6468728043913145
 22
0.7625979117063697
 32
0.0
 13
-0.9968429144675983
 23
0.0793990168436886
 33
0.0
 40
0.0
 40
0.0
 40
0.0
 40
0.0
 40
1.191678757918908
 40
2.341449515050646
 40
2.341449515050646
 40
2.341449515050646
 40
2.341449515050646
 10
-25.6249999999996
 20
-0.8973065761307665
 30
0.0
 10
-25.88195486002245
 20
-0.5943826653928332
 30
0.0
 10
-26.49188388502821
 20
-0.0909825534139081
 30
0.0
 10
-27.24295305582999
 20
0.2151182074227991
 30
0.0
 10
-27.6249999999996
 20
0.245548429993427
 30
0.0
 11
-25.6249999999996
 21
-0.8973065761307665
 31
0.0
 11
-26.53936001218358
 21
-0.1330788416209074
 31
0.0
 11
-27.6249999999996
 21
0.245548429993427
 31
0.0
  0
SPLINE
  5
3F9B
330
1F
100
AcDbEntity
  8
AM_0
100
AcDbSpline
210
0.0
220
0.0
230
1.0
 70
     8
 71
     3
 72
     8
 73
     4
 74
     0
 42
0.0000000001
 43
0.0000000001
 40
12.93073884177286
 40
12.93073884177286
 40
12.93073884177286
 40
12.93073884177286
 40
13.17864449622839
 40
13.17864449622839
 40
13.17864449622839
 40
13.17864449622839
 10
-27.6249999999996
 20
0.2455484299934838
 30
0.0
 10
-27.9506805481821
 20
0.4306562758029955
 30
0.0
 10
-28.31044828841385
 20
0.6352813819724262
 30
0.0
 10
-28.70894642764364
 20
0.8620566988974829
 30
0.0
  0
SPLINE
  5
3F9C
330
1F
100
AcDbEntity
  8
AM_0
100
AcDbSpline
210
0.0
220
0.0
230
1.0
 70
     8
 71
     3
 72
     8
 73
     4
 74
     0
 42
0.0000000001
 43
0.0000000001
 40
8.337842376104966
 40
8.337842376104966
 40
8.337842376104966
 40
8.337842376104966
 40
9.419743745067137
 40
9.419743745067137
 40
9.419743745067137
 40
9.419743745067137
 10
-24.1249999999996
 20
-1.723978159429826
 30
0.0
 10
-24.61541006618
 20
-1.4611853569751
 30
0.0
 10
-25.1148511825819
 20
-1.185286972943423
 30
0.0
 10
-25.62499999999954
 20
-0.8973065761307665
 30
0.0
  0
SPLINE
  5
3F9D
330
1F
100
AcDbEntity
  8
AM_0
100
AcDbSpline
210
0.0
220
0.0
230
1.0
 70
     8
 71
     3
 72
     8
 73
     4
 74
     0
 42
0.0000000001
 43
0.0000000001
 40
0.0
 40
0.0
 40
0.0
 40
0.0
 40
4.451443990518192
 40
4.451443990518192
 40
4.451443990518192
 40
4.451443990518192
 10
-23.15697674431845
 20
-4.6174445037989
 30
0.0
 10
-21.6731620808128
 20
-4.617444503798843
 30
0.0
 10
-20.22596930614651
 20
-4.395668414243537
 30
0.0
 10
-18.8040479918414
 20
-4.020852548919684
 30
0.0
  0
SPLINE
  5
3F9E
330
1F
100
AcDbEntity
  8
AM_0
100
AcDbSpline
210
0.0
220
0.0
230
1.0
 70
     8
 71
     3
 72
     8
 73
     4
 74
     0
 42
0.0000000001
 43
0.0000000001
 40
0.0
 40
0.0
 40
0.0
 40
0.0
 40
7.074983227811165
 40
7.074983227811165
 40
7.074983227811165
 40
7.074983227811165
 10
-23.15697674431845
 20
-4.6174445037989
 30
0.0
 10
-25.51530448692216
 20
-4.6174445037989
 30
0.0
 10
-27.78112200335687
 20
-4.057217905618664
 30
0.0
 10
-29.99999999999351
 20
-3.212733354716441
 30
0.0
  0
SPLINE
  5
3F9F
330
1F
100
AcDbEntity
  8
AM_0
100
AcDbSpline
210
0.0
220
0.0
230
1.0
 70
     8
 71
     3
 72
     9
 73
     5
 74
     0
 42
0.0000000001
 43
0.0000000001
 40
0.0
 40
0.0
 40
0.0
 40
0.0
 40
1.235464641235373
 40
1.810002043229209
 40
1.810002043229209
 40
1.810002043229209
 40
1.810002043229209
 10
-28.43729342529383
 20
-4.481372294902051
 30
0.0
 10
-28.72588025228106
 20
-4.187578779099645
 30
0.0
 10
-29.20359010550459
 20
-3.65229841894196
 30
0.0
 10
-29.80850517801508
 20
-3.75880950068241
 30
0.0
 10
-29.99999999997754
 20
-3.812417829193883
 30
0.0
  0
SPLINE
  5
3FA0
330
1F
100
AcDbEntity
  8
AM_0
100
AcDbSpline
210
0.0
220
0.0
230
1.0
 70
     8
 71
     3
 72
     9
 73
     5
 74
     0
 42
0.0000000001
 43
0.0000000001
 40
0.0
 40
0.0
 40
0.0
 40
0.0
 40
1.377102510827414
 40
1.588709529415735
 40
1.588709529415735
 40
1.588709529415735
 40
1.588709529415735
 10
-28.70894642764358
 20
1.764755038147008
 30
0.0
 10
-28.95466420556022
 20
2.152485799238412
 30
0.0
 10
-29.40458815185076
 20
2.538216950783443
 30
0.0
 10
-29.92937897658447
 20
2.651747912167117
 30
0.0
 10
-29.99999999999977
 20
2.662353554210746
 30
0.0
  0
SPLINE
  5
3FA1
330
1F
100
AcDbEntity
  8
AM_0
100
AcDbSpline
210
0.0
220
0.0
230
1.0
 70
     8
 71
     3
 72
     9
 73
     5
 74
     0
 42
0.0000000001
 43
0.0000000001
 40
0.0
 40
0.0
 40
0.0
 40
0.0
 40
1.272333962187949
 40
1.530678401467986
 40
1.530678401467986
 40
1.530678401467986
 40
1.530678401467986
 10
-28.70894642764358
 20
0.8620566988974829
 30
0.0
 10
-29.04998057895892
 20
1.114179922753159
 30
0.0
 10
-29.42894261089333
 20
1.464628921820327
 30
0.0
 10
-29.9159504180464
 20
1.656012350094592
 30
0.0
 10
-29.99999999999994
 20
1.68259145887405
 30
0.0
  0
SPLINE
  5
3FA2
330
1F
100
AcDbEntity
  8
AM_0
100
AcDbSpline
210
0.0
220
0.0
230
1.0
 70
     8
 71
     3
 72
     8
 73
     4
 74
     0
 42
0.0000000001
 43
0.0000000001
 40
10.84126532222565
 40
10.84126532222565
 40
10.84126532222565
 40
10.84126532222565
 40
12.06337302160172
 40
12.06337302160172
 40
12.06337302160172
 40
12.06337302160172
 10
-28.70894642764318
 20
1.764755038147576
 30
0.0
 10
-28.37114138124155
 20
1.58277452064258
 30
0.0
 10
-27.99782346186828
 20
1.385927186148911
 30
0.0
 10
-27.62500000007463
 20
1.186221440456883
 30
0.0
  0
SPLINE
  5
3FA3
330
1F
100
AcDbEntity
  8
AM_0
100
AcDbSpline
210
0.0
220
0.0
230
1.0
 70
     8
 71
     3
 72
     8
 73
     4
 74
     0
 42
0.0000000001
 43
0.0000000001
 40
0.3507760400854742
 40
0.3507760400854742
 40
0.3507760400854742
 40
0.3507760400854742
 40
1.871307041999678
 40
1.871307041999678
 40
1.871307041999678
 40
1.871307041999678
 10
-26.59720859932178
 20
4.961188577441568
 30
0.0
 10
-26.09259844330984
 20
4.948640712539805
 30
0.0
 10
-25.59276984616974
 20
4.909230053195393
 30
0.0
 10
-25.09720859932178
 20
4.845845422856406
 30
0.0
  0
SPLINE
  5
3FA4
330
1F
100
AcDbEntity
  8
AM_0
100
AcDbSpline
210
0.0
220
0.0
230
1.0
 70
     8
 71
     3
 72
     9
 73
     5
 74
     3
 42
0.0000000001
 43
0.0000000001
 44
0.0000000001
 12
0.9127464726416867
 22
-0.4085264699871465
 32
0.0
 13
0.886564333846492
 23
0.4626053198476277
 33
0.0
 40
0.0
 40
0.0
 40
0.0
 40
0.0
 40
1.068811551296469
 40
2.173075913310317
 40
2.173075913310317
 40
2.173075913310317
 40
2.173075913310317
 10
-28.59720859932179
 20
4.870091040301737
 30
0.0
 10
-28.2720239415336
 20
4.72454510359086
 30
0.0
 10
-27.57462796162192
 20
4.228789383348112
 30
0.0
 10
-26.92354239882153
 20
4.790909054646317
 30
0.0
 10
-26.59720859932178
 20
4.961188577441568
 30
0.0
 11
-28.59720859932179
 21
4.870091040301737
 31
0.0
 11
-27.59720859932178
 21
4.492787273841919
 31
0.0
 11
-26.59720859932178
 21
4.961188577441568
 31
0.0
  0
SPLINE
  5
3FA5
330
1F
100
AcDbEntity
  8
AM_0
100
AcDbSpline
210
0.0
220
0.0
230
1.0
 70
     8
 71
     3
 72
     8
 73
     4
 74
     0
 42
0.0000000001
 43
0.0000000001
 40
1.666991338825053
 40
1.666991338825053
 40
1.666991338825053
 40
1.666991338825053
 40
3.109885954059111
 40
3.109885954059111
 40
3.109885954059111
 40
3.109885954059111
 10
-28.59720859931996
 20
4.870091040302192
 30
0.0
 10
-29.06856419058931
 20
4.816106109222722
 30
0.0
 10
-29.53601485840408
 20
4.740183320873235
 30
0.0
 10
-29.99999999999966
 20
4.64479120861214
 30
0.0
  0
SPLINE
  5
3FA6
330
1F
100
AcDbEntity
  8
AM_0
100
AcDbSpline
210
0.0
220
0.0
230
1.0
 70
     8
 71
     3
 72
     8
 73
     4
 74
     0
 42
0.0000000001
 43
0.0000000001
 40
2.130606102564619
 40
2.130606102564619
 40
2.130606102564619
 40
2.130606102564619
 40
3.679329335050426
 40
3.679329335050426
 40
3.679329335050426
 40
3.679329335050426
 10
-9.749999999999658
 20
4.699662915634327
 30
0.0
 10
-9.246058424296847
 20
4.628560691469239
 30
0.0
 10
-8.746230979737958
 20
4.533675075121756
 30
0.0
 10
-8.250000000001875
 20
4.41799864526056
 30
0.0
  0
SPLINE
  5
3FA7
330
1F
100
AcDbEntity
  8
AM_0
100
AcDbSpline
210
0.0
220
0.0
230
1.0
 70
     8
 71
     3
 72
     8
 73
     4
 74
     0
 42
0.0000000001
 43
0.0000000001
 40
3.939746932601999
 40
3.939746932601999
 40
3.939746932601999
 40
3.939746932601999
 40
5.519086939037594
 40
5.519086939037594
 40
5.519086939037594
 40
5.519086939037594
 10
-9.749999999999602
 20
4.495801794583123
 30
0.0
 10
-9.246342896302451
 20
4.367770033494345
 30
0.0
 10
-8.746534966125693
 20
4.218113618227654
 30
0.0
 10
-8.249999999999602
 20
4.050069693182742
 30
0.0
  0
SPLINE
  5
3FA8
330
1F
100
AcDbEntity
  8
AM_0
100
AcDbSpline
210
0.0
220
0.0
230
1.0
 70
     8
 71
     3
 72
     9
 73
     5
 74
     0
 42
0.0000000001
 43
0.0000000001
 40
0.0
 40
0.0
 40
0.0
 40
0.0
 40
1.008936993267342
 40
1.777052715134862
 40
1.777052715134862
 40
1.777052715134862
 40
1.777052715134862
 10
-9.749999999999658
 20
4.6996629156341
 30
0.0
 10
-10.07604339595047
 20
4.617190568756861
 30
0.0
 10
-10.67643561242044
 20
4.488314192368171
 30
0.0
 10
-11.25263329026813
 20
4.653595523517289
 30
0.0
 10
-11.50056349000863
 20
4.725097999389255
 30
0.0
  0
SPLINE
  5
3FA9
330
1F
100
AcDbEntity
  8
AM_0
100
AcDbSpline
210
0.0
220
0.0
230
1.0
 70
     8
 71
     3
 72
     9
 73
     5
 74
     3
 42
0.0000000001
 43
0.0000000001
 44
0.0000000001
 12
-0.9326421945680822
 22
-0.3608026287476736
 32
0.0
 13
-0.8816144343688907
 23
0.4719703265168488
 33
0.0
 40
0.0
 40
0.0
 40
0.0
 40
0.0
 40
1.016032990940564
 40
2.164254851703045
 40
2.164254851703045
 40
2.164254851703045
 40
2.164254851703045
 10
-9.749999999999602
 20
4.495801794583123
 30
0.0
 10
-10.06586507947439
 20
4.373606003241217
 30
0.0
 10
-10.84342542292425
 20
4.113737851548329
 30
0.0
 10
-11.41257034456429
 20
4.699654837241733
 30
0.0
 10
-11.74999999999965
 20
4.88029705275435
 30
0.0
 11
-9.749999999999602
 21
4.495801794583123
 31
0.0
 11
-10.7499999999996
 21
4.316015703131007
 31
0.0
 11
-11.74999999999965
 21
4.88029705275435
 31
0.0
  0
SPLINE
  5
3FAA
330
1F
100
AcDbEntity
  8
AM_0
100
AcDbSpline
210
0.0
220
0.0
230
1.0
 70
     8
 71
     3
 72
     8
 73
     4
 74
     0
 42
0.0000000001
 43
0.0000000001
 40
5.779271486987545
 40
5.779271486987545
 40
5.779271486987545
 40
5.779271486987545
 40
7.377122246071414
 40
7.377122246071414
 40
7.377122246071414
 40
7.377122246071414
 10
-6.249999999999602
 20
3.840242780826805
 30
0.0
 10
-5.747108400760282
 20
3.668403593028109
 30
0.0
 10
-5.247297903657965
 20
3.478752853306026
 30
0.0
 10
-4.749999999999602
 20
3.274577055148633
 30
0.0
  0
SPLINE
  5
3FAB
330
1F
100
AcDbEntity
  8
AM_0
100
AcDbSpline
210
0.0
220
0.0
230
1.0
 70
     8
 71
     3
 72
     8
 73
     4
 74
     0
 42
0.0000000001
 43
0.0000000001
 40
7.657131739025505
 40
7.657131739025505
 40
7.657131739025505
 40
7.657131739025505
 40
9.280732515295124
 40
9.280732515295124
 40
9.280732515295124
 40
9.280732515295124
 10
-6.249999999999602
 20
3.274534102119709
 30
0.0
 10
-5.747574074043825
 20
3.056699927203602
 30
0.0
 10
-5.247782748830161
 20
2.824064567137533
 30
0.0
 10
-4.750000000000056
 20
2.580145026335834
 30
0.0
  0
SPLINE
  5
3FAC
330
1F
100
AcDbEntity
  8
AM_0
100
AcDbSpline
210
0.0
220
0.0
230
1.0
 70
     8
 71
     3
 72
     9
 73
     5
 74
     3
 42
0.0000000001
 43
0.0000000001
 44
0.0000000001
 12
-0.8654492111584179
 22
0.5009966695550703
 32
0.0
 13
-0.997987337591188
 23
0.0634135159698014
 33
0.0
 40
0.0
 40
0.0
 40
0.0
 40
0.0
 40
1.064168922929312
 40
2.086771172001985
 40
2.086771172001985
 40
2.086771172001985
 40
2.086771172001985
 10
-6.249999999999602
 20
3.840242780826805
 30
0.0
 10
-6.556994718295761
 20
4.01795780957067
 30
0.0
 10
-7.23964871979463
 20
4.19366058999495
 30
0.0
 10
-7.909818634677336
 20
4.396383043909785
 30
0.0
 10
-8.249999999999602
 20
4.41799864526056
 30
0.0
 11
-6.249999999999602
 21
3.840242780826805
 31
0.0
 11
-7.249999999999602
 21
4.204187139937552
 31
0.0
 11
-8.249999999999602
 21
4.41799864526056
 31
0.0
  0
SPLINE
  5
3FAD
330
1F
100
AcDbEntity
  8
AM_0
100
AcDbSpline
210
0.0
220
0.0
230
1.0
 70
     8
 71
     3
 72
     9
 73
     5
 74
     3
 42
0.0000000001
 43
0.0000000001
 44
0.0000000001
 12
-0.9981770100665453
 22
0.0603544246481742
 32
0.0
 13
-0.7796355206958437
 23
0.6262335465857137
 33
0.0
 40
0.0
 40
0.0
 40
0.0
 40
0.0
 40
1.00631904672655
 40
2.206105666231217
 40
2.206105666231217
 40
2.206105666231217
 40
2.206105666231217
 10
-6.249999999999602
 20
3.274534102119709
 30
0.0
 10
-6.584828179077776
 20
3.294779371145602
 30
0.0
 10
-7.357912626972387
 20
3.269196327317312
 30
0.0
 10
-7.938201244725792
 20
3.799620816556805
 30
0.0
 10
-8.249999999999602
 20
4.050069693182969
 30
0.0
 11
-6.249999999999602
 21
3.274534102119709
 31
0.0
 11
-7.249999999999602
 21
3.387130832998686
 31
0.0
 11
-8.249999999999602
 21
4.050069693182969
 31
0.0
  0
SPLINE
  5
3FAE
330
1F
100
AcDbEntity
  8
AM_0
100
AcDbSpline
210
0.0
220
0.0
230
1.0
 70
     8
 71
     3
 72
     8
 73
     4
 74
     0
 42
0.0000000001
 43
0.0000000001
 40
9.532359626456116
 40
9.532359626456116
 40
9.532359626456116
 40
9.532359626456116
 40
12.40023413887867
 40
12.40023413887867
 40
12.40023413887867
 40
12.40023413887867
 10
-2.750000000008242
 20
2.377164850533667
 30
0.0
 10
-1.867742759222949
 20
1.951106938929264
 30
0.0
 10
-0.9911093798928618
 20
1.492538030976142
 30
0.0
 10
-0.1168127923952511
 20
1.020460356612751
 30
0.0
  0
SPLINE
  5
3FAF
330
1F
100
AcDbEntity
  8
AM_0
100
AcDbSpline
210
0.0
220
0.0
230
1.0
 70
     8
 71
     3
 72
     8
 73
     4
 74
     0
 42
0.0000000001
 43
0.0000000001
 40
11.46537929237052
 40
11.46537929237052
 40
11.46537929237052
 40
11.46537929237052
 40
14.48999654934396
 40
14.48999654934396
 40
14.48999654934396
 40
14.48999654934396
 10
-2.750000000000056
 20
1.542799560156403
 30
0.0
 10
-1.830635137302635
 20
1.043691503543563
 30
0.0
 10
-0.915317568651119
 20
0.5218457517736752
 30
0.0
 10
0.0000000000003979
 20
0.0000000000040146
 30
0.0
  0
SPLINE
  5
3FB0
330
1F
100
AcDbEntity
  8
AM_0
100
AcDbSpline
210
0.0
220
0.0
230
1.0
 70
     8
 71
     3
 72
     9
 73
     5
 74
     3
 42
0.0000000001
 43
0.0000000001
 44
0.0000000001
 12
-0.8176346168783101
 22
0.5757374690622967
 32
0.0
 13
-0.9964633055848633
 23
-0.0840290463047593
 33
0.0
 40
0.0
 40
0.0
 40
0.0
 40
0.0
 40
1.241993867068545
 40
2.254844936363681
 40
2.254844936363681
 40
2.254844936363681
 40
2.254844936363681
 10
-2.749999999999602
 20
2.377164850529347
 30
0.0
 10
-3.088499059888202
 20
2.615518985734993
 30
0.0
 10
-3.612877529115122
 20
3.200892638160742
 30
0.0
 10
-4.41357702514127
 20
3.302946691615841
 30
0.0
 10
-4.749999999999602
 20
3.274577055148633
 30
0.0
 11
-2.749999999999602
 21
2.377164850529347
 31
0.0
 11
-3.749999999999602
 21
3.113743947324714
 31
0.0
 11
-4.749999999999602
 21
3.274577055148633
 31
0.0
  0
SPLINE
  5
3FB1
330
1F
100
AcDbEntity
  8
AM_0
100
AcDbSpline
210
0.0
220
0.0
230
1.0
 70
     8
 71
     3
 72
     9
 73
     5
 74
     3
 42
0.0000000001
 43
0.0000000001
 44
0.0000000001
 12
-0.9681805968441551
 22
0.2502525362398859
 32
0.0
 13
-0.8208259885173385
 23
0.5711783404283938
 33
0.0
 40
0.0
 40
0.0
 40
0.0
 40
0.0
 40
1.064980662755587
 40
2.269259342630972
 40
2.269259342630972
 40
2.269259342630972
 40
2.269259342630972
 10
-2.749999999999602
 20
1.542799560156176
 30
0.0
 10
-3.093697871230998
 20
1.631637597456516
 30
0.0
 10
-3.824601370515726
 20
1.870667867153138
 30
0.0
 10
-4.420498920713245
 20
2.350859060407434
 30
0.0
 10
-4.749999999999602
 20
2.580145026335607
 30
0.0
 11
-2.749999999999602
 21
1.542799560156176
 31
0.0
 11
-3.749999999999602
 21
1.909110646588636
 31
0.0
 11
-4.749999999999602
 21
2.580145026335607
 31
0.0
  0
SPLINE
  5
3FB2
330
1F
100
AcDbEntity
  8
AM_0
100
AcDbSpline
210
0.0
220
0.0
230
1.0
 70
     8
 71
     3
 72
     9
 73
     5
 74
     0
 42
0.0000000001
 43
0.0000000001
 40
0.0
 40
0.0
 40
0.0
 40
0.0
 40
1.173671883824386
 40
1.360226551015519
 40
1.360226551015519
 40
1.360226551015519
 40
1.360226551015519
 10
-3.749999999999602
 20
4.520924523915404
 30
0.0
 10
-3.993768409046936
 20
4.214929179790864
 30
0.0
 10
-4.418782936183163
 20
3.974334821967126
 30
0.0
 10
-4.874399804975894
 20
3.877155813546245
 30
0.0
 10
-4.937169477013924
 20
3.866688825565383
 30
0.0
  0
SPLINE
  5
3FB3
330
1F
100
AcDbEntity
  8
AM_0
100
AcDbSpline
210
0.0
220
0.0
230
1.0
 70
     8
 71
     3
 72
     8
 73
     4
 74
     0
 42
0.0000000001
 43
0.0000000001
 40
13.73199344169106
 40
13.73199344169106
 40
13.73199344169106
 40
13.73199344169106
 40
14.43901837670146
 40
14.43901837670146
 40
14.43901837670146
 40
14.43901837670146
 10
-12.4999999999996
 20
0.3559657544475172
 30
0.0
 10
-12.28481757066999
 20
0.2375003208245303
 30
0.0
 10
-12.06968439433746
 20
0.1187501604141303
 30
0.0
 10
-11.85455121800493
 20
0.0000000000039577
 30
0.0
  0
SPLINE
  5
3FB4
330
1F
100
AcDbEntity
  8
AM_0
100
AcDbSpline
210
0.0
220
0.0
230
1.0
 70
     8
 71
     3
 72
     9
 73
     5
 74
     3
 42
0.0000000001
 43
0.0000000001
 44
0.0000000001
 12
-0.5307113561502297
 22
0.847552627541903
 32
0.0
 13
-0.9709540402127611
 23
-0.2392660690413831
 33
0.0
 40
0.0
 40
0.0
 40
0.0
 40
0.0
 40
1.423145734728526
 40
2.425613014450462
 40
2.425613014450462
 40
2.425613014450462
 40
2.425613014450462
 10
-12.4999999999996
 20
0.3559657544475172
 30
0.0
 10
-12.75175986762534
 20
0.7580293900622556
 30
0.0
 10
-13.28401105252816
 20
1.476942480180158
 30
0.0
 10
-14.17555011485724
 20
1.51880022933925
 30
0.0
 10
-14.49999999999961
 20
1.438848094218691
 30
0.0
 11
-12.4999999999996
 21
0.3559657544475172
 31
0.0
 11
-13.49999999999961
 21
1.368558358744031
 31
0.0
 11
-14.49999999999961
 21
1.438848094218691
 31
0.0
  0
SPLINE
  5
3FB5
330
1F
100
AcDbEntity
  8
AM_0
100
AcDbSpline
210
0.0
220
0.0
230
1.0
 70
     8
 71
     3
 72
     8
 73
     4
 74
     0
 42
0.0000000001
 43
0.0000000001
 40
13.50299628442394
 40
13.50299628442394
 40
13.50299628442394
 40
13.50299628442394
 40
14.43901837670146
 40
14.43901837670146
 40
14.43901837670146
 40
14.43901837670146
 10
-10.99999999999961
 20
-0.4709752039517739
 30
0.0
 10
-11.28492659556884
 20
-0.3144239137831377
 30
0.0
 10
-11.56973890678688
 20
-0.1572119568897037
 30
0.0
 10
-11.85455121800493
 20
0.0000000000039577
 30
0.0
  0
SPLINE
  5
3FB6
330
1F
100
AcDbEntity
  8
AM_0
100
AcDbSpline
210
0.0
220
0.0
230
1.0
 70
     8
 71
     3
 72
     8
 73
     4
 74
     0
 42
0.0000000001
 43
0.0000000001
 40
11.62991291415682
 40
11.62991291415682
 40
11.62991291415682
 40
11.62991291415682
 40
14.48999654934396
 40
14.48999654934396
 40
14.48999654934396
 40
14.48999654934396
 10
-10.99999999999961
 20
-1.461149682986068
 30
0.0
 10
-11.86894805082244
 20
-0.9869166032705365
 30
0.0
 10
-12.73447402541075
 20
-0.4934583016332894
 30
0.0
 10
-13.59999999999951
 20
0.0000000000037303
 30
0.0
  0
SPLINE
  5
3FB7
330
1F
100
AcDbEntity
  8
AM_0
100
AcDbSpline
210
0.0
220
0.0
230
1.0
 70
     8
 71
     3
 72
     9
 73
     5
 74
     3
 42
0.0000000001
 43
0.0000000001
 44
0.0000000001
 12
-0.4936303795221301
 22
0.8696718050005058
 32
0.0
 13
-0.8861177952488986
 23
-0.4634600877564662
 33
0.0
 40
0.0
 40
0.0
 40
0.0
 40
0.0
 40
1.489788942416553
 40
2.489788942416553
 40
2.489788942416553
 40
2.489788942416553
 40
2.489788942416553
 10
-8.999999999999602
 20
-1.548800473385561
 30
0.0
 10
-9.245135027017253
 20
-1.116924660511829
 30
0.0
 10
-9.728473224261012
 20
-0.3339035648348364
 30
0.0
 10
-10.7046274015833
 20
-0.2900171266764651
 30
0.0
 10
-10.99999999999961
 20
-0.4445038225952871
 30
0.0
 11
-8.999999999999602
 21
-1.548800473385561
 31
0.0
 11
-9.999999999999609
 21
-0.4445038225952871
 31
0.0
 11
-10.99999999999961
 21
-0.4445038225952871
 31
0.0
  0
SPLINE
  5
3FB8
330
1F
100
AcDbEntity
  8
AM_0
100
AcDbSpline
210
0.0
220
0.0
230
1.0
 70
     8
 71
     3
 72
     9
 73
     5
 74
     3
 42
0.0000000001
 43
0.0000000001
 44
0.0000000001
 12
-0.7690286934869395
 22
0.639214258753488
 32
0.0
 13
-0.9823098605277891
 23
0.1872627509940925
 33
0.0
 40
0.0
 40
0.0
 40
0.0
 40
0.0
 40
1.203220998322975
 40
2.271569986250005
 40
2.271569986250005
 40
2.271569986250005
 40
2.271569986250005
 10
-8.999999999999602
 20
-2.506275463427435
 30
0.0
 10
-9.308437157438392
 20
-2.249903457240884
 30
0.0
 10
-9.940889536303961
 20
-1.828069582371127
 30
0.0
 10
-10.6501834182244
 20
-1.527837006486391
 30
0.0
 10
-10.99999999999961
 20
-1.461149682986068
 30
0.0
 11
-8.999999999999602
 21
-2.506275463427435
 31
0.0
 11
-9.999999999999609
 21
-1.837141119065016
 31
0.0
 11
-10.99999999999961
 21
-1.461149682986068
 31
0.0
  0
SPLINE
  5
3FB9
330
1F
100
AcDbEntity
  8
AM_0
100
AcDbSpline
210
0.0
220
0.0
230
1.0
 70
     8
 71
     3
 72
     8
 73
     4
 74
     0
 42
0.0000000001
 43
0.0000000001
 40
9.685078621624523
 40
9.685078621624523
 40
9.685078621624523
 40
9.685078621624523
 40
11.31655044551473
 40
11.31655044551473
 40
11.31655044551473
 40
11.31655044551473
 10
-7.499999999999602
 20
-2.308826306152603
 30
0.0
 10
-8.001561642678154
 20
-2.064512066382029
 30
0.0
 10
-8.501359924080645
 20
-1.810004006498637
 30
0.0
 10
-9.00000000001188
 20
-1.548800473379195
 30
0.0
  0
SPLINE
  5
3FBA
330
1F
100
AcDbEntity
  8
AM_0
100
AcDbSpline
210
0.0
220
0.0
230
1.0
 70
     8
 71
     3
 72
     8
 73
     4
 74
     0
 42
0.0000000001
 43
0.0000000001
 40
7.818791612490512
 40
7.818791612490512
 40
7.818791612490512
 40
7.818791612490512
 40
9.443881246512125
 40
9.443881246512125
 40
9.443881246512125
 40
9.443881246512125
 10
-7.499999999999602
 20
-3.209028941032464
 30
0.0
 10
-8.002367738658961
 20
-2.988079735984591
 30
0.0
 10
-8.5021584892757
 20
-2.752653013892448
 30
0.0
 10
-8.999999999999602
 20
-2.506275463427435
 30
0.0
  0
SPLINE
  5
3FBB
330
1F
100
AcDbEntity
  8
AM_0
100
AcDbSpline
210
0.0
220
0.0
230
1.0
 70
     8
 71
     3
 72
     9
 73
     5
 74
     3
 42
0.0000000001
 43
0.0000000001
 44
0.0000000001
 12
-0.6311748102206569
 22
0.7756406119736884
 32
0.0
 13
-0.9939483500198662
 23
-0.1098484296327715
 33
0.0
 40
0.0
 40
0.0
 40
0.0
 40
0.0
 40
1.427372895815237
 40
2.434348668245069
 40
2.434348668245069
 40
2.434348668245069
 40
2.434348668245069
 10
-5.499999999999602
 20
-3.209028941032634
 30
0.0
 10
-5.800307272209699
 20
-2.839986145557706
 30
0.0
 10
-6.274521234234517
 20
-1.903679394465309
 30
0.0
 10
-7.166372697494065
 20
-2.271954737059382
 30
0.0
 10
-7.499999999999602
 20
-2.308826306152603
 30
0.0
 11
-5.499999999999602
 21
-3.209028941032634
 31
0.0
 11
-6.499999999999602
 21
-2.190503838883465
 31
0.0
 11
-7.499999999999602
 21
-2.308826306152603
 31
0.0
  0
SPLINE
  5
3FBC
330
1F
100
AcDbEntity
  8
AM_0
100
AcDbSpline
210
0.0
220
0.0
230
1.0
 70
     8
 71
     3
 72
     9
 73
     5
 74
     3
 42
0.0000000001
 43
0.0000000001
 44
0.0000000001
 12
-0.6160346874185745
 22
0.7877190259839479
 32
0.0
 13
-0.9511353387127352
 23
-0.3087742985609561
 33
0.0
 40
0.0
 40
0.0
 40
0.0
 40
0.0
 40
1.20108521368712
 40
2.208793098200195
 40
2.208793098200195
 40
2.208793098200195
 40
2.208793098200195
 10
-5.499999999999602
 20
-3.99871439151942
 30
0.0
 10
-5.746636718058541
 20
-3.683341833302974
 30
0.0
 10
-6.410485076889029
 20
-3.322586184317736
 30
0.0
 10
-7.180511139979656
 20
-3.105310842634401
 30
0.0
 10
-7.499999999999602
 20
-3.209028941032691
 30
0.0
 11
-5.499999999999602
 21
-3.99871439151942
 31
0.0
 11
-6.499999999999602
 21
-3.333428219607036
 31
0.0
 11
-7.499999999999602
 21
-3.209028941032691
 31
0.0
  0
SPLINE
  5
3FBD
330
1F
100
AcDbEntity
  8
AM_0
100
AcDbSpline
210
0.0
220
0.0
230
1.0
 70
     8
 71
     3
 72
     8
 73
     4
 74
     0
 42
0.0000000001
 43
0.0000000001
 40
5.928582328726523
 40
5.928582328726523
 40
5.928582328726523
 40
5.928582328726523
 40
7.528098176779675
 40
7.528098176779675
 40
7.528098176779675
 40
7.528098176779675
 10
-4.000000000004149
 20
-3.791606440073415
 30
0.0
 10
-4.502844196085391
 20
-3.616284646739892
 30
0.0
 10
-5.002654100128495
 20
-3.423421906114604
 30
0.0
 10
-5.499999999975045
 20
-3.216314996766946
 30
0.0
  0
SPLINE
  5
3FBE
330
1F
100
AcDbEntity
  8
AM_0
100
AcDbSpline
210
0.0
220
0.0
230
1.0
 70
     8
 71
     3
 72
     8
 73
     4
 74
     0
 42
0.0000000001
 43
0.0000000001
 40
4.096652702081863
 40
4.096652702081863
 40
4.096652702081863
 40
4.096652702081863
 40
5.678228147290397
 40
5.678228147290397
 40
5.678228147290397
 40
5.678228147290397
 10
-3.999999999997783
 20
-4.457005186392812
 30
0.0
 10
-4.5036097831358
 20
-4.324521347275855
 30
0.0
 10
-5.003416896576311
 20
-4.170674112424727
 30
0.0
 10
-5.499999999999602
 20
-3.99871439151942
 30
0.0
  0
SPLINE
  5
3FBF
330
1F
100
AcDbEntity
  8
AM_0
100
AcDbSpline
210
0.0
220
0.0
230
1.0
 70
     8
 71
     3
 72
     9
 73
     5
 74
     3
 42
0.0000000001
 43
0.0000000001
 44
0.0000000001
 12
-0.6494269884643477
 22
0.7604239519203274
 32
0.0
 13
-0.9604248968033772
 23
-0.2785390773306727
 33
0.0
 40
0.0
 40
0.0
 40
0.0
 40
0.0
 40
1.269161729749646
 40
2.286782143076121
 40
2.286782143076121
 40
2.286782143076121
 40
2.286782143076121
 10
-1.999999999999602
 20
-4.384574612860056
 30
0.0
 10
-2.274742626674773
 20
-4.062874286805968
 30
0.0
 10
-2.87032040279921
 20
-3.360053271999525
 30
0.0
 10
-3.674217339852786
 20
-3.697124089739811
 30
0.0
 10
-4.000000000004149
 20
-3.791606440073415
 30
0.0
 11
-1.999999999999602
 21
-4.384574612860056
 31
0.0
 11
-2.999999999999602
 21
-3.603055901464664
 31
0.0
 11
-4.000000000004149
 21
-3.791606440073415
 31
0.0
  0
SPLINE
  5
3FC0
330
1F
100
AcDbEntity
  8
AM_0
100
AcDbSpline
210
0.0
220
0.0
230
1.0
 70
     8
 71
     3
 72
     8
 73
     4
 74
     2
 42
0.0000000001
 43
0.0000000001
 44
0.0000000001
 12
0.6880548427449759
 22
-0.7256586893128109
 32
0.0
 13
-0.9854444993171648
 23
-0.1699974669386056
 33
0.0
 40
0.0
 40
0.0
 40
0.0
 40
0.0
 40
2.862821529828667
 40
2.862821529828667
 40
2.862821529828667
 40
2.862821529828667
 10
-0.2999999999993861
 20
5.000000000003787
 30
0.0
 10
0.3565927391716789
 20
4.307522893646464
 30
0.0
 10
-1.416188321322599
 20
3.170677558654704
 30
0.0
 10
-2.356572231021402
 20
3.008453422531978
 30
0.0
 11
-0.2999999999993861
 21
5.000000000003787
 31
0.0
 11
-2.356572231021402
 21
3.008453422531978
 31
0.0
  0
SPLINE
  5
3FC1
330
1F
100
AcDbEntity
  8
AM_0
100
AcDbSpline
210
0.0
220
0.0
230
1.0
 70
     8
 71
     3
 72
     8
 73
     4
 74
     0
 42
0.0000000001
 43
0.0000000001
 40
0.0
 40
0.0
 40
0.0
 40
0.0
 40
4.451443990518192
 40
4.451443990518192
 40
4.451443990518192
 40
4.451443990518192
 10
-9.844683319024234
 20
-4.617444503798786
 30
0.0
 10
-8.360868655518572
 20
-4.617444503798786
 30
0.0
 10
-6.913675880852281
 20
-4.395668414243424
 30
0.0
 10
-5.491754566547172
 20
-4.02085254891957
 30
0.0
  0
SPLINE
  5
3FC2
330
1F
100
AcDbEntity
  8
AM_0
100
AcDbSpline
210
0.0
220
0.0
230
1.0
 70
     8
 71
     3
 72
     8
 73
     4
 74
     0
 42
0.0000000001
 43
0.0000000001
 40
4.542668862435135
 40
4.542668862435135
 40
4.542668862435135
 40
4.542668862435135
 40
14.36247867694493
 40
14.36247867694493
 40
14.36247867694493
 40
14.36247867694493
 10
-0.6849999999981833
 20
-3.99761665545278
 30
0.0
 10
-3.81945983685506
 20
-3.157005686569014
 30
0.0
 10
-6.832071577939643
 20
-1.5785028432825
 30
0.0
 10
-9.844683319024234
 20
0.0000000000039577
 30
0.0
  0
SPLINE
  5
3FC3
330
1F
100
AcDbEntity
  8
AM_0
100
AcDbSpline
210
0.0
220
0.0
230
1.0
 70
     8
 71
     3
 72
     8
 73
     4
 74
     0
 42
0.0000000001
 43
0.0000000001
 40
0.0
 40
0.0
 40
0.0
 40
0.0
 40
3.835275104118792
 40
3.835275104118792
 40
3.835275104118792
 40
3.835275104118792
 10
0.0000000000003979
 20
5.000000000003787
 30
0.0
 10
-1.278425034705946
 20
5.000000000003787
 30
0.0
 10
-2.525674470479373
 20
4.824855506716325
 30
0.0
 10
-3.749999999999602
 20
4.520924523915404
 30
0.0
  0
SPLINE
  5
3FC4
330
1F
100
AcDbEntity
  8
AM_0
100
AcDbSpline
210
0.0
220
0.0
230
1.0
 70
     8
 71
     3
 72
     8
 73
     4
 74
     0
 42
0.0000000001
 43
0.0000000001
 40
0.3507760400854742
 40
0.3507760400854742
 40
0.3507760400854742
 40
0.3507760400854742
 40
1.871307041999678
 40
1.871307041999678
 40
1.871307041999678
 40
1.871307041999678
 10
-13.24999999999965
 20
4.995640207339512
 30
0.0
 10
-12.74538984398771
 20
4.98309234243775
 30
0.0
 10
-12.24556124684761
 20
4.943681683093338
 30
0.0
 10
-11.74999999999965
 20
4.88029705275435
 30
0.0
  0
SPLINE
  5
3FC5
330
1F
100
AcDbEntity
  8
AM_0
100
AcDbSpline
210
0.0
220
0.0
230
1.0
 70
     8
 71
     3
 72
     8
 73
     4
 74
     0
 42
0.0000000001
 43
0.0000000001
 40
0.7142832446738512
 40
0.7142832446738512
 40
0.7142832446738512
 40
0.7142832446738512
 40
9.361146747480315
 40
9.361146747480315
 40
9.361146747480315
 40
9.361146747480315
 10
-9.133181972470651
 20
4.600597789828135
 30
0.0
 10
-6.273156033885754
 20
4.465783438975599
 30
0.0
 10
-3.54444135144746
 20
3.535769882803528
 30
0.0
 10
-0.8638452046293991
 20
2.314358449484792
 30
0.0
  0
SPLINE
  5
3FC6
330
1F
100
AcDbEntity
  8
AM_0
100
AcDbSpline
210
0.0
220
0.0
230
1.0
 70
     8
 71
     3
 72
     9
 73
     5
 74
     3
 42
0.0000000001
 43
0.0000000001
 44
0.0000000001
 12
0.9127464726416867
 22
-0.4085264699871465
 32
0.0
 13
0.886564333846492
 23
0.4626053198476277
 33
0.0
 40
0.0
 40
0.0
 40
0.0
 40
0.0
 40
1.068811551296502
 40
2.173075913310298
 40
2.173075913310298
 40
2.173075913310298
 40
2.173075913310298
 10
-15.24999999999965
 20
4.904542670199624
 30
0.0
 10
-14.92481534221147
 20
4.758996733488743
 30
0.0
 10
-14.22741936229973
 20
4.263241013246083
 30
0.0
 10
-13.57633379949938
 20
4.82536068454427
 30
0.0
 10
-13.24999999999965
 20
4.995640207339512
 30
0.0
 11
-15.24999999999965
 21
4.904542670199624
 31
0.0
 11
-14.2499999999996
 21
4.527238903739863
 31
0.0
 11
-13.24999999999965
 21
4.995640207339512
 31
0.0
  0
SPLINE
  5
3FC7
330
1F
100
AcDbEntity
  8
AM_0
100
AcDbSpline
210
0.0
220
0.0
230
1.0
 70
     8
 71
     3
 72
     8
 73
     4
 74
     0
 42
0.0000000001
 43
0.0000000001
 40
9.911909440357588
 40
9.911909440357588
 40
9.911909440357588
 40
9.911909440357588
 40
11.54467281373877
 40
11.54467281373877
 40
11.54467281373877
 40
11.54467281373877
 10
-15.9999999999996
 20
2.20634024911218
 30
0.0
 10
-15.49852031453298
 20
1.959063448647874
 30
0.0
 10
-14.99872251258381
 20
1.702063843076338
 30
0.0
 10
-14.49999999999961
 20
1.438848094218691
 30
0.0
  0
SPLINE
  5
3FC8
330
1F
100
AcDbEntity
  8
AM_0
100
AcDbSpline
210
0.0
220
0.0
230
1.0
 70
     8
 71
     3
 72
     8
 73
     4
 74
     0
 42
0.0000000001
 43
0.0000000001
 40
11.84940637128532
 40
11.84940637128532
 40
11.84940637128532
 40
11.84940637128532
 40
14.48999654934396
 40
14.48999654934396
 40
14.48999654934396
 40
14.48999654934396
 10
-15.9999999999996
 20
1.351635454298538
 30
0.0
 10
-15.19820458341479
 20
0.9111769520018597
 30
0.0
 10
-14.39910229170715
 20
0.4555884760030509
 30
0.0
 10
-13.59999999999951
 20
0.0000000000039577
 30
0.0
  0
SPLINE
  5
3FC9
330
1F
100
AcDbEntity
  8
AM_0
100
AcDbSpline
210
0.0
220
0.0
230
1.0
 70
     8
 71
     3
 72
     8
 73
     4
 74
     0
 42
0.0000000001
 43
0.0000000001
 40
0.7142832446738512
 40
0.7142832446738512
 40
0.7142832446738512
 40
0.7142832446738512
 40
14.36247867694493
 40
14.36247867694493
 40
14.36247867694493
 40
14.36247867694493
 10
-22.73318197247056
 20
4.600597789828078
 30
0.0
 10
-18.21892163535551
 20
4.387807035479262
 30
0.0
 10
-14.03180247719006
 20
2.193903517741638
 30
0.0
 10
-9.844683319024234
 20
0.0000000000039577
 30
0.0
  0
SPLINE
  5
3FCA
330
1F
100
AcDbEntity
  8
AM_0
100
AcDbSpline
210
0.0
220
0.0
230
1.0
 70
     8
 71
     3
 72
     8
 73
     4
 74
     2
 42
0.0000000001
 43
0.0000000001
 44
0.0000000001
 12
-1.0
 22
-0.0000000000000038
 32
0.0
 40
0.0
 40
0.0
 40
0.0
 40
0.0
 40
14.36247867694526
 40
14.36247867694526
 40
14.36247867694526
 40
14.36247867694526
 10
-9.844683319024234
 20
-4.617444503798786
 30
0.0
 10
-14.63217621133932
 20
-4.617444503798805
 30
0.0
 10
-19.03842976518195
 20
-2.308722251897451
 30
0.0
 10
-23.44468331902459
 20
0.0000000000039009
 30
0.0
 11
-9.844683319024234
 21
-4.617444503798786
 31
0.0
 11
-23.44468331902459
 21
0.0000000000039009
 31
0.0
  0
LINE
  5
3FCC
330
1F
100
AcDbEntity
  8
AM_11
100
AcDbLine
 10
-30.00000000000039
 20
-4.999999999996326
 30
0.0
 11
0.0000000000003979
 21
-4.999999999996212
 31
0.0
  0
LINE
  5
3FCD
330
1F
100
AcDbEntity
  8
AM_11
100
AcDbLine
 10
-0.0000000000005116
 20
5.000000000003787
 30
0.0
 11
-29.99999999999966
 21
5.000000000003673
 31
0.0
  0
LINE
  5
3FCE
330
1F
100
AcDbEntity
  8
AM_0
100
AcDbLine
 10
-3.999999999999602
 20
-4.457005186393722
 30
0.0
 11
-3.999999999999602
 21
-3.791606440075007
 31
0.0
  0
LINE
  5
3FCF
330
1F
100
AcDbEntity
  8
AM_0
100
AcDbLine
 10
-0.1049999999996203
 20
-4.733441157617868
 30
0.0
 11
-0.6849999999995476
 21
-3.99761665545801
 31
0.0
  0
LINE
  5
3FD0
330
1F
100
AcDbEntity
  8
AM_0
100
AcDbLine
 10
-0.1049999999996203
 20
-4.733441157617868
 30
0.0
 11
-0.1049999999996203
 21
-1.32689785455917
 31
0.0
  0
LINE
  5
3FD1
330
1F
100
AcDbEntity
  8
AM_0
100
AcDbLine
 10
0.0000000000003979
 20
-4.999999999996212
 30
0.0
 11
0.0000000000003979
 21
-0.9999999999962128
 31
0.0
  0
LINE
  5
3FD2
330
1F
100
AcDbEntity
  8
AM_11
100
AcDbLine
 10
-0.0000000000003979
 20
-4.999999999996212
 30
0.0
 11
0.0000000000003979
 21
5.000000000003787
 31
0.0
  0
LINE
  5
3FD3
330
1F
100
AcDbEntity
  8
AM_0
100
AcDbLine
 10
-5.499999999999602
 20
-3.99871439151942
 30
0.0
 11
-5.499999999999602
 21
-3.216314996756715
 31
0.0
  0
LINE
  5
3FD4
330
1F
100
AcDbEntity
  8
AM_0
100
AcDbLine
 10
-0.8604579856906298
 20
-1.473654765162642
 30
0.0
 11
-0.1049999999996203
 21
-1.32689785455917
 31
0.0
  0
LINE
  5
3FD5
330
1F
100
AcDbEntity
  8
AM_0
100
AcDbLine
 10
-0.1049999999996203
 20
-1.32689785455917
 30
0.0
 11
0.0000000000003979
 21
-0.9999999999962128
 31
0.0
  0
ARC
  5
3FD6
330
1F
100
AcDbEntity
  8
AM_0
100
AcDbCircle
 10
1.985673182027703
 20
-2.543880164714067
 30
0.0
 40
3.04069811551605
100
AcDbArc
 50
159.3923269732575
 51
208.5609268810316
  0
LINE
  5
3FD7
330
1F
100
AcDbEntity
  8
AM_0
100
AcDbLine
 10
-2.749999999999602
 20
1.542799560156176
 30
0.0
 11
-2.749999999999602
 21
2.377164850529347
 31
0.0
  0
LINE
  5
3FD8
330
1F
100
AcDbEntity
  8
AM_0
100
AcDbLine
 10
-2.356572231021402
 20
0.0000000000037872
 30
0.0
 11
-2.356572231021402
 21
-0.7999999999961674
 31
0.0
  0
LINE
  5
3FD9
330
1F
100
AcDbEntity
  8
AM_0
100
AcDbLine
 10
-4.749999999999602
 20
2.580145026335607
 30
0.0
 11
-4.749999999999602
 21
3.274577055148633
 31
0.0
  0
LINE
  5
3FDA
330
1F
100
AcDbEntity
  8
AM_0
100
AcDbLine
 10
-6.249999999999602
 20
3.274534102119709
 30
0.0
 11
-6.249999999999602
 21
3.840242780826805
 31
0.0
  0
LINE
  5
3FDB
330
1F
100
AcDbEntity
  8
AM_0
100
AcDbLine
 10
0.0000000000003979
 20
0.0000000000037872
 30
0.0
 11
-0.1049999999996203
 21
1.000000000004014
 31
0.0
  0
LINE
  5
3FDC
330
1F
100
AcDbEntity
  8
AM_0
100
AcDbLine
 10
-0.1049999999996203
 20
1.000000000004014
 30
0.0
 11
-1.067524197745626
 21
2.667140814014295
 31
0.0
  0
LINE
  5
3FDD
330
1F
100
AcDbEntity
  8
AM_0
100
AcDbLine
 10
0.0000000000003979
 20
0.0000000000037872
 30
0.0
 11
-0.0888426091433417
 21
-0.8461200870818501
 31
0.0
  0
LINE
  5
3FDE
330
1F
100
AcDbEntity
  8
AM_0
100
AcDbLine
 10
-1.067524197745626
 20
2.667140814014295
 30
0.0
 11
-2.356572231021402
 21
3.008453422531978
 31
0.0
  0
LINE
  5
3FDF
330
1F
100
AcDbEntity
  8
AM_0
100
AcDbLine
 10
0.0000000000003979
 20
0.0000000000037872
 30
0.0
 11
-2.356572231021402
 21
0.0000000000037872
 31
0.0
  0
LINE
  5
3FE0
330
1F
100
AcDbEntity
  8
AM_0
100
AcDbLine
 10
-2.356572231021402
 20
-0.7999999999961674
 30
0.0
 11
-0.1154700538373277
 21
-0.7999999999961674
 31
0.0
  0
LINE
  5
3FE1
330
1F
100
AcDbEntity
  8
AM_0
100
AcDbLine
 10
-2.356572231021402
 20
-0.7999999999961674
 30
0.0
 11
-0.8604579856906298
 21
-1.473654765162642
 31
0.0
  0
LINE
  5
3FE2
330
1F
100
AcDbEntity
  8
AM_0
100
AcDbLine
 10
0.0000000000003979
 20
-0.9999999999962128
 30
0.0
 11
-0.5773502691891395
 21
0.0000000000040146
 31
0.0
  0
LINE
  5
3FE3
330
1F
100
AcDbEntity
  8
AM_0
100
AcDbLine
 10
0.0000000000003979
 20
0.0000000000037872
 30
0.0
 11
0.0000000000003979
 21
5.000000000003787
 31
0.0
  0
LINE
  5
3FE4
330
1F
100
AcDbEntity
  8
AM_0
100
AcDbLine
 10
-1.999999999999602
 20
-4.860364256206672
 30
0.0
 11
-1.999999999999602
 21
-4.384574612860056
 31
0.0
  0
LINE
  5
3FE5
330
1F
100
AcDbEntity
  8
AM_0
100
AcDbLine
 10
0.0000000000003979
 20
-4.999999999996212
 30
0.0
 11
-0.1049999999996203
 21
-4.733441157617868
 31
0.0
  0
LINE
  5
3FE6
330
1F
100
AcDbEntity
  8
AM_0
100
AcDbLine
 10
-30.00000000000023
 20
-3.212733354734119
 30
0.0
 11
-30.00000000000023
 21
-4.436431507729615
 31
0.0
  0
LINE
  5
3FE7
330
1F
100
AcDbEntity
  8
AM_0
100
AcDbLine
 10
-17.1249999999996
 20
-4.57525782916533
 30
0.0
 11
-17.1249999999996
 21
-3.95160085446556
 31
0.0
  0
LINE
  5
3FE8
330
1F
100
AcDbEntity
  8
AM_11
100
AcDbLine
 10
-30.00000000000039
 20
-4.999999999993939
 30
0.0
 11
-29.99999999999966
 21
5.00000000000606
 31
0.0
  0
ARC
  5
3FE9
330
1F
100
AcDbEntity
  8
AM_0
100
AcDbCircle
 10
-28.50599546194608
 20
-14.20332090715579
 30
0.0
 40
9.880494830743536
100
AcDbArc
 50
98.69690717394126
 51
111.3358810159395
  0
LINE
  5
3FEB
330
1F
100
AcDbEntity
  8
AM_0
100
AcDbLine
 10
-8.999999999997328
 20
-2.506275463428572
 30
0.0
 11
-8.999999999999602
 21
-1.548800473356003
 31
0.0
  0
LINE
  5
3FEC
330
1F
100
AcDbEntity
  8
AM_0
100
AcDbLine
 10
-7.499999999999602
 20
-3.209028941032691
 30
0.0
 11
-7.499999999999602
 21
-2.308826306152603
 31
0.0
  0
LINE
  5
3FED
330
1F
100
AcDbEntity
  8
AM_0
100
AcDbLine
 10
-12.4999999999996
 20
-0.6255290411549126
 30
0.0
 11
-12.4999999999996
 21
0.3559657544475172
 31
0.0
  0
LINE
  5
3FEE
330
1F
100
AcDbEntity
  8
AM_0
100
AcDbLine
 10
-9.749999999999602
 20
4.495801794583123
 30
0.0
 11
-9.749999999999658
 21
4.6996629156341
 31
0.0
  0
LINE
  5
3FEF
330
1F
100
AcDbEntity
  8
AM_0
100
AcDbLine
 10
-8.249999999999602
 20
4.050069693182969
 30
0.0
 11
-8.249999999999602
 21
4.41799864526056
 31
0.0
  0
LINE
  5
3FF0
330
1F
100
AcDbEntity
  8
AM_0
100
AcDbLine
 10
-10.99999999999961
 20
-1.461149682986068
 30
0.0
 11
-10.99999999999961
 21
-0.4709752039517739
 31
0.0
  0
LINE
  5
3FF1
330
1F
100
AcDbEntity
  8
AM_0
100
AcDbLine
 10
-20.6249999999996
 20
-3.418540824254385
 30
0.0
 11
-20.6249999999996
 21
-2.536786473945049
 31
0.0
  0
LINE
  5
3FF2
330
1F
100
AcDbEntity
  8
AM_0
100
AcDbLine
 10
-18.6249999999996
 20
-4.157249052654798
 30
0.0
 11
-18.6249999999996
 21
-3.40937503250867
 31
0.0
  0
LINE
  5
3FF3
330
1F
100
AcDbEntity
  8
AM_0
100
AcDbLine
 10
-19.4999999999996
 20
3.120248846409175
 30
0.0
 11
-19.49999999999914
 21
3.717636224970227
 31
0.0
  0
LINE
  5
3FF4
330
1F
100
AcDbEntity
  8
AM_0
100
AcDbLine
 10
-15.9999999999996
 20
1.351635454298765
 30
0.0
 11
-16.00000000001142
 21
2.206340249118092
 31
0.0
  0
LINE
  5
3FF5
330
1F
100
AcDbEntity
  8
AM_0
100
AcDbLine
 10
-17.9999999999996
 20
2.406664706341224
 30
0.0
 11
-17.9999999999996
 21
3.128348417283895
 31
0.0
  0
LINE
  5
3FF6
330
1F
100
AcDbEntity
  8
AM_0
100
AcDbLine
 10
-14.49999999999961
 20
0.5122314318947261
 30
0.0
 11
-14.49999999999961
 21
1.438848094218691
 31
0.0
  0
LINE
  5
3FF7
330
1F
100
AcDbEntity
  8
AM_0
100
AcDbLine
 10
-27.6249999999996
 20
0.245548429993427
 30
0.0
 11
-27.62500000007463
 21
1.186221440456883
 31
0.0
  0
LINE
  5
3FF8
330
1F
100
AcDbEntity
  8
AM_0
100
AcDbLine
 10
-22.99999999999966
 20
4.403221379994
 30
0.0
 11
-22.99999999999966
 21
4.646386742161702
 31
0.0
  0
LINE
  5
3FF9
330
1F
100
AcDbEntity
  8
AM_0
100
AcDbLine
 10
-24.1249999999996
 20
-1.723978159429826
 30
0.0
 11
-24.1249999999996
 21
-0.7311673313738183
 31
0.0
  0
LINE
  5
3FFA
330
1F
100
AcDbEntity
  8
AM_0
100
AcDbLine
 10
-25.6249999999996
 20
-0.8973065761307665
 30
0.0
 11
-25.6249999999996
 21
0.0940793257218857
 31
0.0
  0
LINE
  5
3FFB
330
1F
100
AcDbEntity
  8
AM_0
100
AcDbLine
 10
-25.6249999999996
 20
-0.8973065761307665
 30
0.0
 11
-25.6249999999996
 21
0.0490977423703285
 31
0.0
  0
LINE
  5
3FFC
330
1F
100
AcDbEntity
  8
AM_0
100
AcDbLine
 10
-22.1249999999996
 20
-2.742468320242515
 30
0.0
 11
-22.1249999999996
 21
-1.795293412718557
 31
0.0
  0
LINE
  5
3FFD
330
1F
100
AcDbEntity
  8
AM_0
100
AcDbLine
 10
-21.4999999999996
 20
3.928424080945468
 30
0.0
 11
-21.49999999999966
 21
4.332852018720622
 31
0.0
  0
LINE
  5
3FFE
330
1F
100
AcDbEntity
  8
AM_0
100
AcDbLine
 10
-29.99999999999971
 20
3.258200480992151
 30
0.0
 11
-29.99999999999988
 21
1.68259145887405
 31
0.0
  0
LINE
  5
3FFF
330
1F
100
AcDbEntity
  8
AM_0
100
AcDbLine
 10
-28.70894642764358
 20
0.8620566988974829
 30
0.0
 11
-28.70894642764358
 21
1.764755038147008
 31
0.0
  0
LINE
  5
4000
330
1F
100
AcDbEntity
  8
AM_0
100
AcDbLine
 10
-29.99999999999966
 20
4.64479120861214
 30
0.0
 11
-29.99999999999966
 21
4.442039846489116
 31
0.0
  0
POLYLINE
  5
4014
330
1F
100
AcDbEntity
  8
AM_0
100
AcDb2dPolyline
 66
     1
 10
0.0
 20
0.0
 30
0.0
 70
     2
  0
VERTEX
  5
4015
330
4014
100
AcDbEntity
  8
AM_0
100
AcDbVertex
100
AcDb2dVertex
 10
-29.99999999999973
 20
3.258200480992144
 30
0.0
 42
-0.017926386117277
  0
VERTEX
  5
4016
330
4014
100
AcDbEntity
  8
AM_0
100
AcDbVertex
100
AcDb2dVertex
 10
-31.07268997926742
 20
3.679611604551865
 30
0.0
 42
-0.0246514885553179
 70
     1
  0
VERTEX
  5
4017
330
4014
100
AcDbEntity
  8
AM_0
100
AcDbVertex
100
AcDb2dVertex
 10
-31.82407183939229
 20
4.05139003726984
 30
0.0
 42
-0.0037081416177052
  0
VERTEX
  5
4018
330
4014
100
AcDbEntity
  8
AM_0
100
AcDbVertex
100
AcDb2dVertex
 10
-32.60846584124136
 20
4.496536705161162
 30
0.0
 42
-0.0130511132204554
 70
     1
  0
VERTEX
  5
4019
330
4014
100
AcDbEntity
  8
AM_0
100
AcDbVertex
100
AcDb2dVertex
 10
-32.82700213470572
 20
4.630432113247451
 30
0.0
 42
-0.0524474852199747
  0
VERTEX
  5
401A
330
4014
100
AcDbEntity
  8
AM_0
100
AcDbVertex
100
AcDb2dVertex
 10
-32.94076168969458
 20
4.72253786864374
 30
0.0
 42
-0.0202944684139966
 70
     1
  0
VERTEX
  5
401B
330
4014
100
AcDbEntity
  8
AM_0
100
AcDbVertex
100
AcDb2dVertex
 10
-33.19657002146188
 20
5.000000000003609
 30
0.0
  0
SEQEND
  5
401C
330
4014
100
AcDbEntity
  8
AM_0
  0
ARC
  5
401D
330
1F
100
AcDbEntity
  8
AM_0
100
AcDbCircle
 10
-30.49403053966752
 20
11.047326051081
 30
0.0
 40
6.62373550337699
100
AcDbArc
 50
245.9202154420432
 51
274.277371066389
  0
LINE
  5
401F
330
1F
100
AcDbEntity
  8
AM_0
100
AcDbLine
 10
-13.6249999999987
 20
-4.999977680064283
 30
0.0
 11
-13.6250000000228
 21
-4.743212561195285
 31
0.0
  0
LINE
  5
4020
330
1F
100
AcDbEntity
  8
AM_0
100
AcDbLine
 10
-15.1249999999996
 20
-4.918333346839254
 30
0.0
 11
-15.1249999999996
 21
-4.492588751381354
 31
0.0
  0
LINE
  5
4021
330
1F
100
AcDbEntity
  8
AM_0
100
AcDbLine
 10
-26.93729342529292
 20
-4.999977680064397
 30
0.0
 11
-26.93729342531702
 21
-4.743212561195399
 31
0.0
  0
LINE
  5
4022
330
1F
100
AcDbEntity
  8
AM_0
100
AcDbLine
 10
-28.43729342529383
 20
-4.918333346839311
 30
0.0
 11
-28.43729342529383
 21
-4.492588751381411
 31
0.0
  0
DIMENSION
  5
402C
330
1F
100
AcDbEntity
  8
AM_5
100
AcDbDimension
  2
*D5
 10
-84.75369961738856
 20
-5.000000000013095
 30
0.0
 11
-86.30369961738855
 21
-0.0000000000131072
 31
0.0
 70
    32
  1
%%c<>
  3
AM_JIS
100
AcDbAlignedDimension
 13
-74.24999999999998
 23
4.999999999986904
 33
0.0
 14
-74.24999999999997
 24
-5.000000000013097
 34
0.0
 50
270.0000000000001
100
AcDbRotatedDimension
1001
GENIUS_GENDTOL_13
1000

1000
h7
1000

1040
0.0
  0
DIMENSION
  5
40B9
330
1F
100
AcDbEntity
  8
AM_5
100
AcDbDimension
  2
*D6
 10
11.55776903085654
 20
-4.999999999996216
 30
0.0
 11
10.00776903085655
 21
0.0000000000037858
 31
0.0
 70
    32
  1
%%c<>
  3
AM_JIS
100
AcDbAlignedDimension
 13
0.0000000000003979
 23
5.000000000003787
 33
0.0
 14
0.0000000000004049
 24
-4.999999999996212
 34
0.0
 50
90.0
100
AcDbRotatedDimension
1001
GENIUS_GENDTOL_13
1000

1000
h7
1000

1040
0.0
  0
DIMENSION
  5
4145
330
1F
100
AcDbEntity
  8
AM_5
100
AcDbDimension
  2
*D7
 10
-74.99999999999999
 20
-18.00000100999409
 30
0.0
 11
-37.50000000000019
 21
-16.45000100999409
 31
0.0
 70
    32
  1
<>
  3
AM_JIS
100
AcDbAlignedDimension
 13
-0.0000000000003979
 23
-4.999999999996212
 33
0.0
 14
-74.99999999999999
 24
-4.250000000013098
 34
0.0
 50
0.0000000000001132
100
AcDbRotatedDimension
1001
GENIUS_GENDTOL_13
1000

1000
h7
1000

1040
0.0
  0
DIMENSION
  5
423E
330
1F
100
AcDbEntity
  8
AM_5
100
AcDbDimension
  2
*D8
 10
-30.00000000000039
 20
-12.000001009994
 30
0.0
 11
-15.00000000000039
 21
-10.450001009994
 31
0.0
 70
    32
  1
<>
  3
AM_JIS
100
AcDbAlignedDimension
 13
-0.0000000000003979
 23
-4.999999999996212
 33
0.0
 14
-30.00000000000039
 24
-4.999999999996326
 34
0.0
 50
0.0000000000001132
100
AcDbRotatedDimension
1001
GENIUS_GENDTOL_13
1000

1000
h7
1000

1040
0.0
  0
SPLINE
  5
4378
330
1F
100
AcDbEntity
  8
AM_0
100
AcDbSpline
210
0.0
220
0.0
230
1.0
 70
     8
 71
     3
 72
    14
 73
    10
 74
     8
 42
0.0000000001
 43
0.0000000001
 44
0.0000000001
 40
0.0
 40
0.0
 40
0.0
 40
0.0
 40
0.5800804871849409
 40
1.008241109528272
 40
1.349014337542816
 40
1.996068540312742
 40
2.603862350001439
 40
3.891800945611484
 40
4.416039988376957
 40
4.416039988376957
 40
4.416039988376957
 40
4.416039988376957
 10
-29.99999999999991
 20
1.682591458874037
 30
0.0
 10
-30.19322835812418
 20
1.693822498037711
 30
0.0
 10
-30.52907963823356
 20
1.713343229449467
 30
0.0
 10
-30.97878295264735
 20
1.680126425838786
 30
0.0
 10
-31.44464355569597
 20
1.60729342125664
 30
0.0
 10
-31.97633872546464
 20
1.544224246545895
 30
0.0
 10
-32.78556723852118
 20
1.343372699082373
 30
0.0
 10
-33.63352589755204
 20
1.032259438916198
 30
0.0
 10
-33.87648031068652
 20
0.46519535082106
 30
0.0
 10
-33.9467638117518
 20
0.3011512039149331
 30
0.0
 11
-29.99999999999991
 21
1.682591458874037
 31
0.0
 11
-30.57976879072524
 21
1.701605162185194
 31
0.0
 11
-31.00687549623498
 21
1.671582160435828
 31
0.0
 11
-31.34437321389192
 21
1.624447422632268
 31
0.0
 11
-31.98442417846978
 21
1.529505840250432
 31
0.0
 11
-32.57538073298725
 21
1.387436611461259
 31
0.0
 11
-33.70310529332525
 21
0.7653247709756159
 31
0.0
 11
-33.9467638117518
 21
0.3011512039149331
 31
0.0
  0
POLYLINE
  5
4379
330
1F
100
AcDbEntity
  8
AM_0
100
AcDb2dPolyline
 66
     1
 10
0.0
 20
0.0
 30
0.0
  0
VERTEX
  5
437A
330
4379
100
AcDbEntity
  8
AM_0
100
AcDbVertex
100
AcDb2dVertex
 10
-30.00000000000024
 20
-3.212733354734126
 30
0.0
 42
-0.0198889565917329
  0
VERTEX
  5
437B
330
4379
100
AcDbEntity
  8
AM_0
100
AcDbVertex
100
AcDb2dVertex
 10
-31.03465025571843
 20
-2.843627517967405
 30
0.0
 42
-0.029463196711072
  0
VERTEX
  5
437C
330
4379
100
AcDbEntity
  8
AM_0
100
AcDbVertex
100
AcDb2dVertex
 10
-31.70545551440575
 20
-2.526716278035422
 30
0.0
 42
-0.0043615462457846
  0
VERTEX
  5
437D
330
4379
100
AcDbEntity
  8
AM_0
100
AcDbVertex
100
AcDb2dVertex
 10
-32.47505050110824
 20
-2.097261523253763
 30
0.0
 42
-0.009441808533592
  0
VERTEX
  5
437E
330
4379
100
AcDbEntity
  8
AM_0
100
AcDbVertex
100
AcDb2dVertex
 10
-32.82497019933852
 20
-1.88912741648275
 30
0.0
 42
-0.0439302380745563
  0
VERTEX
  5
437F
330
4379
100
AcDbEntity
  8
AM_0
100
AcDbVertex
100
AcDb2dVertex
 10
-33.41705004455532
 20
-1.445273694635687
 30
0.0
 42
-0.0551946304363759
  0
VERTEX
  5
4380
330
4379
100
AcDbEntity
  8
AM_0
100
AcDbVertex
100
AcDb2dVertex
 10
-33.80999850254939
 20
-1.005686647374233
 30
0.0
 42
-0.108531418392727
  0
VERTEX
  5
4381
330
4379
100
AcDbEntity
  8
AM_0
100
AcDbVertex
100
AcDb2dVertex
 10
-33.97689476926656
 20
-0.6141562101274474
 30
0.0
 42
-0.0746999284091838
  0
VERTEX
  5
4382
330
4379
100
AcDbEntity
  8
AM_0
100
AcDbVertex
100
AcDb2dVertex
 10
-34.00000000000001
 20
0.0000000000036664
 30
0.0
 42
-0.0317348783233532
  0
VERTEX
  5
4383
330
4379
100
AcDbEntity
  8
AM_0
100
AcDbVertex
100
AcDb2dVertex
 10
-33.94676381175591
 20
0.3011512038981733
 30
0.0
 42
-0.0519299244436891
  0
SEQEND
  5
4384
330
4379
100
AcDbEntity
  8
AM_0
  0
VIEWPORT
  5
110
330
101
100
AcDbEntity
 67
     1
  8
0
100
AcDbViewport
 10
420.5
 20
297.0
 30
0.0
 40
948.9782706766916
 41
628.452
 68
     1
 69
     1
1001
ACAD
1000
MVIEW
1002
{
1070
    16
1010
0.0
1020
0.0
1030
0.0
1010
0.0
1020
0.0
1030
1.0
1040
0.0
1040
628.452
1040
420.5
1040
297.0
1040
50.0
1040
0.0
1040
0.0
1070
     0
1070
   100
1070
     1
1070
     1
1070
     0
1070
     0
1070
     0
1070
     0
1040
0.0
1040
0.0
1040
0.0
1040
10.0
1040
10.0
1040
10.0
1040
10.0
1070
     0
1002
{
1002
}
1002
}
  0
ENDSEC
  0
SECTION
  2
OBJECTS
  0
DICTIONARY
  5
C
330
0
100
AcDbDictionary
  3
ACAD_GROUP
350
D
  3
ACAD_LAYOUT
350
1A
  3
ACAD_MLINESTYLE
350
17
  3
ACAD_PLOTSETTINGS
350
19
  3
ACAD_PLOTSTYLENAME
350
E
  3
ACDBVARIABLEDICTIONARY
350
34
  3
ACMDICTIONARY
350
43
  3
AMG
350
2B
  3
AMGSNAPSETTINGS
350
6E
  3
ASE_INDEX_DICTIONARY
350
151A
  3
DWGPROPS
350
439B
  3
ACDBHEADERROUNDTRIPXREC
350
43A7
  0
DICTIONARY
  5
74
330
1F
100
AcDbDictionary
280
     1
  3
ACAD_INDEX
360
439D
  3
ACAD_LAYOUTSELFREF
360
43CA
  0
DICTIONARY
  5
43CF
330
101
100
AcDbDictionary
280
     1
  3
ACAD_LAYOUTSELFREF
360
43D0
  0
DICTIONARY
  5
D
102
{ACAD_REACTORS
330
C
102
}
330
C
100
AcDbDictionary
  0
DICTIONARY
  5
1A
102
{ACAD_REACTORS
330
C
102
}
330
C
100
AcDbDictionary
  0
DICTIONARY
  5
17
102
{ACAD_REACTORS
330
C
102
}
330
C
100
AcDbDictionary
  3
STANDARD
350
18
  0
DICTIONARY
  5
19
102
{ACAD_REACTORS
330
C
102
}
330
C
100
AcDbDictionary
  0
ACDBDICTIONARYWDFLT
  5
E
102
{ACAD_REACTORS
330
C
102
}
330
C
100
AcDbDictionary
281
     1
  3
Normal
350
F
100
AcDbDictionaryWithDefault
340
F
  0
DICTIONARY
  5
34
102
{ACAD_REACTORS
330
C
102
}
330
C
100
AcDbDictionary
  3
INDEXCTL
350
35
  3
SORTENTS
350
B5E
  0
DICTIONARY
  5
43
102
{ACAD_REACTORS
330
C
102
}
330
C
100
AcDbDictionary
  3
ACMSTDDICTIONARY
350
260
  0
DICTIONARY
  5
2B
102
{ACAD_REACTORS
330
C
102
}
330
C
100
AcDbDictionary
  3
ACMGSETTINGS
350
2C
  0
DICTIONARY
  5
6E
102
{ACAD_REACTORS
330
C
102
}
330
C
100
AcDbDictionary
  0
DICTIONARY
  5
151A
102
{ACAD_REACTORS
330
C
102
}
330
C
100
AcDbDictionary
  3
ASEBLOCKHIERARCHYINDEXRECORD
350
151C
1001
DCO15
1040
1471862535.906
  0
XRECORD
  5
439B
102
{ACAD_REACTORS
330
C
102
}
330
C
100
AcDbXrecord
  1
DWGPROPS COOKIE
  2

  3

  4

  6

  7

  8

  9

300
AmdtFileType=82
301
=
302
=
303
=
304
=
305
=
306
=
307
=
308
=
309
=
 40
0.1368127199074074
 41
2452838.430434386
 42
2453045.550437708
  1

 90
        1
  0
DICTIONARY
  5
43A7
102
{ACAD_REACTORS
330
C
102
}
330
C
100
AcDbDictionary
  3
TSTACKALIGN
350
43A8
  3
TSTACKSIZE
350
43A9
  3
HYPERLINKBASE
350
43AA
  3
STYLESHEET
350
43AB
  3
LAYOUTDICT
350
43AC
  3
PLOTSETDICT
350
43AD
  3
PLOTSTYLNAMDICT
350
43AE
  3
LWETCUNION
350
43AF
  3
INSUNITS
350
43B0
  3
CEPSNTYPE
350
43B1
  3
FINGERPRINTGUID
350
43B2
  3
VERSIONGUID
350
43B3
  3
PSVPSCALE
350
43B4
  3
DIMSTYLEDATA
350
43B5
  3
PUCSORTHOREF
350
43B6
  3
PUCSORTHOVIEW
350
43B7
  3
PUCSBASE
350
43B8
  3
PUCSORGTOP
350
43B9
  3
PUCSORGBOTTOM
350
43BA
  3
PUCSORGLEFT
350
43BB
  3
PUCSORGRIGHT
350
43BC
  3
PUCSORGFRONT
350
43BD
  3
PUCSORGBACK
350
43BE
  3
UCSORTHOREF
350
43BF
  3
UCSORTHOVIEW
350
43C0
  3
UCSBASE
350
43C1
  3
UCSORGTOP
350
43C2
  3
UCSORGBOTTOM
350
43C3
  3
UCSORGLEFT
350
43C4
  3
UCSORGRIGHT
350
43C5
  3
UCSORGFRONT
350
43C6
  3
UCSORGBACK
350
43C7
  0
DICTIONARY
  5
439D
102
{ACAD_REACTORS
330
74
102
}
330
74
100
AcDbDictionary
  3
*A1
350
439E
  0
XRECORD
  5
43CA
102
{ACAD_REACTORS
330
74
102
}
330
74
100
AcDbXrecord
340
1F
  0
XRECORD
  5
43D0
102
{ACAD_REACTORS
330
43CF
102
}
330
43CF
100
AcDbXrecord
340
101
  0
MLINESTYLE
  5
18
102
{ACAD_REACTORS
330
17
102
}
330
17
100
AcDbMlineStyle
  2
STANDARD
 70
     0
  3

 62
   256
 51
90.0
 52
90.0
 71
     2
 49
0.5
 62
   256
  6
BYLAYER
 49
-0.5
 62
   256
  6
BYLAYER
  0
ACDBPLACEHOLDER
  5
F
102
{ACAD_REACTORS
330
E
102
}
330
E
100
AcDbPlaceHolder
280
     0
  0
DICTIONARYVAR
  5
35
102
{ACAD_REACTORS
330
34
102
}
330
34
100
DictionaryVariables
280
     0
  1
1
  0
DICTIONARYVAR
  5
B5E
102
{ACAD_REACTORS
330
34
102
}
330
34
100
DictionaryVariables
280
     0
  1
96
  0
DICTIONARY
  5
260
102
{ACAD_REACTORS
330
43
102
}
330
43
100
AcDbDictionary
  0
DICTIONARY
  5
2C
102
{ACAD_REACTORS
330
2B
102
}
330
2B
100
AcDbDictionary
  3
DWGSETTINGS
350
2D
  0
XRECORD
  5
151C
102
{ACAD_REACTORS
330
151A
102
}
330
151A
100
AcDbXrecord
330
0
330
0
330
0
330
0
330
0
330
0
330
0
330
0
  0
XRECORD
  5
43A8
102
{ACAD_REACTORS
330
43A7
102
}
330
43A7
100
AcDbXrecord
 90
        1
  0
XRECORD
  5
43A9
102
{ACAD_REACTORS
330
43A7
102
}
330
43A7
100
AcDbXrecord
 90
       70
  0
XRECORD
  5
43AA
102
{ACAD_REACTORS
330
43A7
102
}
330
43A7
100
AcDbXrecord
  1

  0
XRECORD
  5
43AB
102
{ACAD_REACTORS
330
43A7
102
}
330
43A7
100
AcDbXrecord
  1
ASAMI.ctb
  0
XRECORD
  5
43AC
102
{ACAD_REACTORS
330
43A7
102
}
330
43A7
100
AcDbXrecord
340
1A
  0
XRECORD
  5
43AD
102
{ACAD_REACTORS
330
43A7
102
}
330
43A7
100
AcDbXrecord
340
19
  0
XRECORD
  5
43AE
102
{ACAD_REACTORS
330
43A7
102
}
330
43A7
100
AcDbXrecord
340
E
  0
XRECORD
  5
43AF
102
{ACAD_REACTORS
330
43A7
102
}
330
43A7
100
AcDbXrecord
 90
    10781
  0
XRECORD
  5
43B0
102
{ACAD_REACTORS
330
43A7
102
}
330
43A7
100
AcDbXrecord
 90
        4
  0
XRECORD
  5
43B1
102
{ACAD_REACTORS
330
43A7
102
}
330
43A7
100
AcDbXrecord
 90
        0
  0
XRECORD
  5
43B2
102
{ACAD_REACTORS
330
43A7
102
}
330
43A7
100
AcDbXrecord
  1
{AFB28963-8C59-40AE-9337-C84526B81ACE}
  0
XRECORD
  5
43B3
102
{ACAD_REACTORS
330
43A7
102
}
330
43A7
100
AcDbXrecord
  1
{7FE04A76-4EEA-4618-ACB5-80A0C9E3981F}
  0
XRECORD
  5
43B4
102
{ACAD_REACTORS
330
43A7
102
}
330
43A7
100
AcDbXrecord
 40
0.0
  0
XRECORD
  5
43B5
102
{ACAD_REACTORS
330
43A7
102
}
330
43A7
100
AcDbXrecord
1000
DSTYLE
1002
{
1070
    79
 70
     2
1070
   341
340
59
1070
   342
340
59
1070
   371
 70
    -1
1070
   372
 70
    -1
1002
}
  0
XRECORD
  5
43B6
102
{ACAD_REACTORS
330
43A7
102
}
330
43A7
100
AcDbXrecord
340
0
  0
XRECORD
  5
43B7
102
{ACAD_REACTORS
330
43A7
102
}
330
43A7
100
AcDbXrecord
 70
     0
  0
XRECORD
  5
43B8
102
{ACAD_REACTORS
330
43A7
102
}
330
43A7
100
AcDbXrecord
340
0
  0
XRECORD
  5
43B9
102
{ACAD_REACTORS
330
43A7
102
}
330
43A7
100
AcDbXrecord
 10
0.0
 20
0.0
 30
0.0
  0
XRECORD
  5
43BA
102
{ACAD_REACTORS
330
43A7
102
}
330
43A7
100
AcDbXrecord
 10
0.0
 20
0.0
 30
0.0
  0
XRECORD
  5
43BB
102
{ACAD_REACTORS
330
43A7
102
}
330
43A7
100
AcDbXrecord
 10
0.0
 20
0.0
 30
0.0
  0
XRECORD
  5
43BC
102
{ACAD_REACTORS
330
43A7
102
}
330
43A7
100
AcDbXrecord
 10
0.0
 20
0.0
 30
0.0
  0
XRECORD
  5
43BD
102
{ACAD_REACTORS
330
43A7
102
}
330
43A7
100
AcDbXrecord
 10
0.0
 20
0.0
 30
0.0
  0
XRECORD
  5
43BE
102
{ACAD_REACTORS
330
43A7
102
}
330
43A7
100
AcDbXrecord
 10
0.0
 20
0.0
 30
0.0
  0
XRECORD
  5
43BF
102
{ACAD_REACTORS
330
43A7
102
}
330
43A7
100
AcDbXrecord
340
0
  0
XRECORD
  5
43C0
102
{ACAD_REACTORS
330
43A7
102
}
330
43A7
100
AcDbXrecord
 70
     0
  0
XRECORD
  5
43C1
102
{ACAD_REACTORS
330
43A7
102
}
330
43A7
100
AcDbXrecord
340
0
  0
XRECORD
  5
43C2
102
{ACAD_REACTORS
330
43A7
102
}
330
43A7
100
AcDbXrecord
 10
0.0
 20
0.0
 30
0.0
  0
XRECORD
  5
43C3
102
{ACAD_REACTORS
330
43A7
102
}
330
43A7
100
AcDbXrecord
 10
0.0
 20
0.0
 30
0.0
  0
XRECORD
  5
43C4
102
{ACAD_REACTORS
330
43A7
102
}
330
43A7
100
AcDbXrecord
 10
0.0
 20
0.0
 30
0.0
  0
XRECORD
  5
43C5
102
{ACAD_REACTORS
330
43A7
102
}
330
43A7
100
AcDbXrecord
 10
0.0
 20
0.0
 30
0.0
  0
XRECORD
  5
43C6
102
{ACAD_REACTORS
330
43A7
102
}
330
43A7
100
AcDbXrecord
 10
0.0
 20
0.0
 30
0.0
  0
XRECORD
  5
43C7
102
{ACAD_REACTORS
330
43A7
102
}
330
43A7
100
AcDbXrecord
 10
0.0
 20
0.0
 30
0.0
  0
LAYER_INDEX
  5
439E
102
{ACAD_REACTORS
330
439D
102
}
330
439D
100
AcDbIndex
 40
2453151.881416643
100
AcDbLayerIndex
  8
0
360
439F
 90
        0
  8
AM_0
360
43A0
 90
      155
  8
AM_11
360
43A1
 90
        4
  8
AM_7
360
43A2
 90
        1
  8
AM_5
360
43A3
 90
        4
  8
Defpoints
360
43A4
 90
        0
  8
AM_6
360
43A5
 90
        1
  0
XRECORD
  5
2D
102
{ACAD_REACTORS
330
2C
102
}
330
2C
100
AcDbXrecord
  1
VERSION
140
15.0
  1
PRODUCT
  2
AutoCAD Mechanical 2000
  0
IDBUFFER
  5
439F
330
0
100
AcDbIdBuffer
  0
IDBUFFER
  5
43A0
330
0
100
AcDbIdBuffer
330
3FDC
330
3FDD
330
3FDE
330
3FDF
330
3FE0
330
3FE1
330
3FE2
330
3FE3
330
3FE4
330
3FE5
330
3FE6
330
3FE7
330
3FE9
330
3FEB
330
3FEC
330
3FED
330
3FEE
330
3FEF
330
3FF0
330
3FF1
330
3FF2
330
3FF3
330
3FF4
330
3FF5
330
3FF6
330
3FF7
330
3FF8
330
3FF9
330
3FFA
330
3FFB
330
3FFC
330
3FFD
330
3FFE
330
3FFF
330
4000
330
4014
330
401D
330
401F
330
4020
330
4021
330
4022
330
4378
330
4379
330
3DAB
330
3DAC
330
3DAD
330
3DBA
330
3DBD
330
3DBE
330
3F6E
330
3F6F
330
3F70
330
3F71
330
3F72
330
3F73
330
3F74
330
3F75
330
3F76
330
3F77
330
3F78
330
3F79
330
3F7A
330
3F7B
330
3F7C
330
3F7D
330
3F7E
330
3F7F
330
3F80
330
3F81
330
3F82
330
3F83
330
3F84
330
3F85
330
3F86
330
3F87
330
3F88
330
3F89
330
3F8A
330
3F8B
330
3F8C
330
3F8D
330
3F8E
330
3F8F
330
3F90
330
3F91
330
3F92
330
3F93
330
3F94
330
3F95
330
3F96
330
3F97
330
3F98
330
3F99
330
3F9A
330
3F9B
330
3F9C
330
3F9D
330
3F9E
330
3F9F
330
3FA0
330
3FA1
330
3FA2
330
3FA3
330
3FA4
330
3FA5
330
3FA6
330
3FA7
330
3FA8
330
3FA9
330
3FAA
330
3FAB
330
3FAC
330
3FAD
330
3FAE
330
3FAF
330
3FB0
330
3FB1
330
3FB2
330
3FB3
330
3FB4
330
3FB5
330
3FB6
330
3FB7
330
3FB8
330
3FB9
330
3FBA
330
3FBB
330
3FBC
330
3FBD
330
3FBE
330
3FBF
330
3FC0
330
3FC1
330
3FC2
330
3FC3
330
3FC4
330
3FC5
330
3FC6
330
3FC7
330
3FC8
330
3FC9
330
3FCA
330
3FCE
330
3FCF
330
3FD0
330
3FD1
330
3FD3
330
3FD4
330
3FD5
330
3FD6
330
3FD7
330
3FD8
330
3FD9
330
3FDA
330
3FDB
  0
IDBUFFER
  5
43A1
330
0
100
AcDbIdBuffer
330
3FCC
330
3FCD
330
3FD2
330
3FE8
  0
IDBUFFER
  5
43A2
330
0
100
AcDbIdBuffer
330
3CF2
  0
IDBUFFER
  5
43A3
330
0
100
AcDbIdBuffer
330
402C
330
40B9
330
4145
330
423E
  0
IDBUFFER
  5
43A4
330
0
100
AcDbIdBuffer
  0
IDBUFFER
  5
43A5
330
0
100
AcDbIdBuffer
330
1500
  0
ENDSEC
  0
EOF
