  0
SECTION
  2
HEADER
  9
$ACADVER
  1
AC1014
  9
$ACADMAINTVER
 70
     9
  9
$DWGCODEPAGE
  3
ANSI_932
  9
$INSBASE
 10
0.0
 20
0.0
 30
0.0
  9
$EXTMIN
 10
-116.4536996173885
 20
-56.50000100001318
 30
-0.00000001
  9
$EXTMAX
 10
19.55776903085654
 20
7.999999999986936
 30
0.00000001
  9
$LIMMIN
 10
-126.4831099746504
 20
-74.34635783367693
  9
$LIMMAX
 10
27.35027023875102
 20
33.85599538147252
  9
$ORTHOMODE
 70
     0
  9
$REGENMODE
 70
     1
  9
$FILLMODE
 70
     1
  9
$QTEXTMODE
 70
     0
  9
$MIRRTEXT
 70
     0
  9
$DRAGMODE
 70
     2
  9
$LTSCALE
 40
1.0
  9
$OSMODE
 70
    55
  9
$ATTMODE
 70
     1
  9
$TEXTSIZE
 40
2.5
  9
$TRACEWID
 40
1.0
  9
$TEXTSTYLE
  7
STANDARD
  9
$CLAYER
  8
AM_0
  9
$CELTYPE
  6
BYLAYER
  9
$CECOLOR
 62
   256
  9
$CELTSCALE
 40
1.0
  9
$DELOBJ
 70
     1
  9
$DISPSILH
 70
     0
  9
$DIMSCALE
 40
1.0
  9
$DIMASZ
 40
2.5
  9
$DIMEXO
 40
1.0
  9
$DIMDLI
 40
12.0
  9
$DIMRND
 40
0.0
  9
$DIMDLE
 40
0.0
  9
$DIMEXE
 40
1.0
  9
$DIMTP
 40
0.1
  9
$DIMTM
 40
0.1
  9
$DIMTXT
 40
3.2
  9
$DIMCEN
 40
0.0
  9
$DIMTSZ
 40
0.0
  9
$DIMTOL
 70
     0
  9
$DIMLIM
 70
     0
  9
$DIMTIH
 70
     0
  9
$DIMTOH
 70
     0
  9
$DIMSE1
 70
     0
  9
$DIMSE2
 70
     0
  9
$DIMTAD
 70
     3
  9
$DIMZIN
 70
     8
  9
$DIMBLK
  1
OPEN30
  9
$DIMASO
 70
     1
  9
$DIMSHO
 70
     1
  9
$DIMPOST
  1

  9
$DIMAPOST
  1
"
  9
$DIMALT
 70
     0
  9
$DIMALTD
 70
     2
  9
$DIMALTF
 40
0.0393701
  9
$DIMLFAC
 40
1.0
  9
$DIMTOFL
 70
     1
  9
$DIMTVP
 40
0.0
  9
$DIMTIX
 70
     0
  9
$DIMSOXD
 70
     0
  9
$DIMSAH
 70
     0
  9
$DIMBLK1
  1

  9
$DIMBLK2
  1

  9
$DIMSTYLE
  2
AM_JIS
  9
$DIMCLRD
 70
   256
  9
$DIMCLRE
 70
   256
  9
$DIMCLRT
 70
     2
  9
$DIMTFAC
 40
0.71
  9
$DIMGAP
 40
1.5
  9
$DIMJUST
 70
     0
  9
$DIMSD1
 70
     0
  9
$DIMSD2
 70
     0
  9
$DIMTOLJ
 70
     0
  9
$DIMTZIN
 70
     0
  9
$DIMALTZ
 70
     0
  9
$DIMALTTZ
 70
     0
  9
$DIMFIT
 70
     3
  9
$DIMUPT
 70
     0
  9
$DIMUNIT
 70
     2
  9
$DIMDEC
 70
     3
  9
$DIMTDEC
 70
     3
  9
$DIMALTU
 70
     2
  9
$DIMALTTD
 70
     2
  9
$DIMTXSTY
  7
ASAMI
  9
$DIMAUNIT
 70
     0
  9
$LUNITS
 70
     2
  9
$LUPREC
 70
     2
  9
$SKETCHINC
 40
1.0
  9
$FILLETRAD
 40
2.5
  9
$AUNITS
 70
     0
  9
$AUPREC
 70
     0
  9
$MENU
  1
.
  9
$ELEVATION
 40
0.0
  9
$PELEVATION
 40
0.0
  9
$THICKNESS
 40
0.0
  9
$LIMCHECK
 70
     0
  9
$BLIPMODE
 70
     0
  9
$CHAMFERA
 40
1.0
  9
$CHAMFERB
 40
1.0
  9
$CHAMFERC
 40
20.0
  9
$CHAMFERD
 40
0.0
  9
$SKPOLY
 70
     0
  9
$TDCREATE
 40
2452838.430434386
  9
$TDUPDATE
 40
2453151.881976192
  9
$TDINDWG
 40
0.1561890856
  9
$TDUSRTIMER
 40
0.1561890856
  9
$USRTIMER
 70
     1
  9
$ANGBASE
 50
0.0
  9
$ANGDIR
 70
     0
  9
$PDMODE
 70
     0
  9
$PDSIZE
 40
0.0
  9
$PLINEWID
 40
0.0
  9
$COORDS
 70
     1
  9
$SPLFRAME
 70
     0
  9
$SPLINETYPE
 70
     6
  9
$SPLINESEGS
 70
     8
  9
$ATTDIA
 70
     1
  9
$ATTREQ
 70
     1
  9
$HANDLING
 70
 12289
  9
$HANDSEED
  5
46C5
  9
$SURFTAB1
 70
     6
  9
$SURFTAB2
 70
     6
  9
$SURFTYPE
 70
     6
  9
$SURFU
 70
     6
  9
$SURFV
 70
     6
  9
$UCSNAME
  2

  9
$UCSORG
 10
0.0
 20
0.0
 30
0.0
  9
$UCSXDIR
 10
1.0
 20
0.0
 30
0.0
  9
$UCSYDIR
 10
0.0
 20
1.0
 30
0.0
  9
$PUCSNAME
  2

  9
$PUCSORG
 10
0.0
 20
0.0
 30
0.0
  9
$PUCSXDIR
 10
1.0
 20
0.0
 30
0.0
  9
$PUCSYDIR
 10
0.0
 20
1.0
 30
0.0
  9
$USERI1
 70
     0
  9
$USERI2
 70
     0
  9
$USERI3
 70
     0
  9
$USERI4
 70
     0
  9
$USERI5
 70
     0
  9
$USERR1
 40
0.0
  9
$USERR2
 40
0.0
  9
$USERR3
 40
0.0
  9
$USERR4
 40
0.0
  9
$USERR5
 40
0.0
  9
$WORLDVIEW
 70
     1
  9
$SHADEDGE
 70
     3
  9
$SHADEDIF
 70
    70
  9
$TILEMODE
 70
     1
  9
$MAXACTVP
 70
    64
  9
$PINSBASE
 10
0.0
 20
0.0
 30
0.0
  9
$PLIMCHECK
 70
     0
  9
$PEXTMIN
 10
1.000000000000000E+20
 20
1.000000000000000E+20
 30
1.000000000000000E+20
  9
$PEXTMAX
 10
-1.000000000000000E+20
 20
-1.000000000000000E+20
 30
-1.000000000000000E+20
  9
$PLIMMIN
 10
0.0
 20
0.0
  9
$PLIMMAX
 10
841.0
 20
594.0
  9
$UNITMODE
 70
     0
  9
$VISRETAIN
 70
     1
  9
$PLINEGEN
 70
     0
  9
$PSLTSCALE
 70
     0
  9
$TREEDEPTH
 70
  3020
  9
$PICKSTYLE
 70
     0
  9
$CMLSTYLE
  2
STANDARD
  9
$CMLJUST
 70
     0
  9
$CMLSCALE
 40
20.0
  9
$PROXYGRAPHICS
 70
     1
  9
$MEASUREMENT
 70
     1
  0
ENDSEC
  0
SECTION
  2
CLASSES
  0
CLASS
  1
ACDBDICTIONARYWDFLT
  2
AcDbDictionaryWithDefault
  3
AutoCAD 2000
 90
        0
280
     0
281
     0
  0
CLASS
  1
ACDBPLACEHOLDER
  2
AcDbPlaceHolder
  3
AutoCAD 2000
 90
        0
280
     0
281
     0
  0
CLASS
  1
LAYOUT
  2
AcDbLayout
  3
AutoCAD 2000
 90
        0
280
     0
281
     0
  0
CLASS
  1
AMGSETTINGSOBJ
  2
AmgSettingsObj
  3
"AcadM|Product Description: AutoCAD Mechanical 2000|Company: Autodesk"
 90
        0
280
     0
281
     0
  0
CLASS
  1
ACME_DOCUMENT
  2
AcMeDbDoc
  3
AcMeServices
 90
        0
280
     0
281
     0
  0
CLASS
  1
ACMESCOPE
  2
AcMeScope
  3
AcMeServices
 90
        0
280
     0
281
     0
  0
CLASS
  1
ACMECOMMANDHISTORY
  2
AcMeCommandHistory
  3
AcMeServices
 90
        0
280
     0
281
     0
  0
CLASS
  1
DICTIONARYVAR
  2
AcDbDictionaryVar
  3
AutoCAD 2000
 90
        0
280
     0
281
     0
  0
CLASS
  1
ACIMSYSVARMAN
  2
AcImSysVarManager
  3
AcMeServices
 90
        0
280
     0
281
     0
  0
CLASS
  1
ACIMREALSYSVAR
  2
AcImRealSysVar
  3
AcMeServices
 90
        0
280
     0
281
     0
  0
CLASS
  1
ACIMINTSYSVAR
  2
AcImIntSysVar
  3
AcMeServices
 90
        0
280
     0
281
     0
  0
CLASS
  1
ACMEDRAWINGMAN
  2
AcMeDrawingMan
  3
AcMeServices
 90
        0
280
     0
281
     0
  0
CLASS
  1
ACMEVIEW
  2
AcMeView
  3
AcMeServices
 90
        0
280
     0
281
     0
  0
CLASS
  1
ACDBENTITYCACHE
  2
AcMeEntityCache
  3
AcMeServices
 90
        0
280
     0
281
     0
  0
CLASS
  1
GSMANAGER
  2
AcMeGSManager
  3
AcMeServices
 90
        0
280
     0
281
     0
  0
CLASS
  1
AmdtInternalReactor
  2
AmdtInternalReactor
  3
AcMeServices
 90
        0
280
     0
281
     0
  0
CLASS
  1
ACMESTATEMGR
  2
AcMeStateMgr
  3
AcMeServices
 90
        0
280
     0
281
     0
  0
CLASS
  1
ACME_DATABASE
  2
AcMeDbDatabase
  3
AcMeServices
 90
        0
280
     0
281
     0
  0
CLASS
  1
ACRFINSADJUSTERMGR
  2
AcRfInsAdjusterMgr
  3
AcMeServices
 90
        0
280
     0
281
     0
  0
CLASS
  1
ACMDATADICTIONARY
  2
AcmDataDictionary
  3
"AcmSymBB|Product Description: AutoCAD Mechanical 2000|Company: Autodesk"
 90
        0
280
     0
281
     0
  0
CLASS
  1
ACMDATAENTRYBLOCK
  2
AcmDataEntryBlock
  3
"AcmSymBB|Product Description: AutoCAD Mechanical 2000|Company: Autodesk"
 90
        0
280
     0
281
     0
  0
CLASS
  1
AMGOBJPROPCFG
  2
AmgObjPropCfg
  3
"AmgLay|Product Description: AutoCAD Mechanical 2000|Company: Autodesk"
 90
        1
280
     0
281
     0
  0
CLASS
  1
ACAMGFILTERDAT
  2
AcAmgFilterDat
  3
"AcadM|Product Description: AutoCAD Mechanical 2000|Company: Autodesk"
 90
        0
280
     0
281
     0
  0
CLASS
  1
LAYER_INDEX
  2
AcDbLayerIndex
  3
AutoCAD 2000
 90
        0
280
     0
281
     0
  0
CLASS
  1
IDBUFFER
  2
AcDbIdBuffer
  3
AutoCAD 2000
 90
        0
280
     0
281
     0
  0
CLASS
  1
ACIMSTRSYSVAR
  2
AcImStrSysVar
  3
AcMeServices
 90
        0
280
     0
281
     0
  0
CLASS
  1
ACMSTANDARDJIS
  2
AcmStandardJIS
  3
"AcmSymBB|Product Description: AutoCAD Mechanical 2000|Company: Autodesk"
 90
        0
280
     0
281
     0
  0
CLASS
  1
ACMSURFSTANDARDJIS
  2
AcmSurfTextStdJIS
  3
"AcmSymBB|Product Description: AutoCAD Mechanical 2000|Company: Autodesk"
 90
        0
280
     0
281
     0
  0
CLASS
  1
ACMFCFSTANDARDJIS
  2
AcmFCFStdJIS
  3
"AcmSymBB|Product Description: AutoCAD Mechanical 2000|Company: Autodesk"
 90
        0
280
     0
281
     0
  0
CLASS
  1
ACMWELDSTANDARDJIS
  2
AcmWeldingStdJIS
  3
"AcmSymBB|Product Description: AutoCAD Mechanical 2000|Company: Autodesk"
 90
        0
280
     0
281
     0
  0
CLASS
  1
ACMIDSTANDARDJIS
  2
AcmIdStdJIS
  3
"AcmSymBB|Product Description: AutoCAD Mechanical 2000|Company: Autodesk"
 90
        0
280
     0
281
     0
  0
CLASS
  1
ACMDATUMSTANDARDJIS
  2
AcmDatumStdJIS
  3
"AcmSymBB|Product Description: AutoCAD Mechanical 2000|Company: Autodesk"
 90
        0
280
     0
281
     0
  0
CLASS
  1
ACMBOMSTANDARDJIS
  2
AcmBOMStdJIS
  3
"AcmSymBB|Product Description: AutoCAD Mechanical 2000|Company: Autodesk"
 90
        0
280
     0
281
     0
  0
CLASS
  1
ACMSTANDARDANSI
  2
AcmStandardANSI
  3
"AcmSymBB|Product Description: AutoCAD Mechanical 2000|Company: Autodesk"
 90
        0
280
     0
281
     0
  0
CLASS
  1
ACMSURFSTANDARDANSI
  2
AcmSurfTextStdANSI
  3
"AcmSymBB|Product Description: AutoCAD Mechanical 2000|Company: Autodesk"
 90
        0
280
     0
281
     0
  0
CLASS
  1
ACMFCFSTANDARDANSI
  2
AcmFCFStdANSI
  3
"AcmSymBB|Product Description: AutoCAD Mechanical 2000|Company: Autodesk"
 90
        0
280
     0
281
     0
  0
CLASS
  1
ACMWELDSTANDARDANSI
  2
AcmWeldingStdANSI
  3
"AcmSymBB|Product Description: AutoCAD Mechanical 2000|Company: Autodesk"
 90
        0
280
     0
281
     0
  0
CLASS
  1
ACMIDSTANDARDANSI
  2
AcmIdStdANSI
  3
"AcmSymBB|Product Description: AutoCAD Mechanical 2000|Company: Autodesk"
 90
        0
280
     0
281
     0
  0
CLASS
  1
ACMDATUMSTANDARDANSI
  2
AcmDatumStdANSI
  3
"AcmSymBB|Product Description: AutoCAD Mechanical 2000|Company: Autodesk"
 90
        0
280
     0
281
     0
  0
CLASS
  1
ACMBOMSTANDARDANSI
  2
AcmBOMStdANSI
  3
"AcmSymBB|Product Description: AutoCAD Mechanical 2000|Company: Autodesk"
 90
        0
280
     0
281
     0
  0
CLASS
  1
ACMSTANDARDBSI
  2
AcmStandardBSI
  3
"AcmSymBB|Product Description: AutoCAD Mechanical 2000|Company: Autodesk"
 90
        0
280
     0
281
     0
  0
CLASS
  1
ACMSURFSTANDARDBSI
  2
AcmSurfTextStdBSI
  3
"AcmSymBB|Product Description: AutoCAD Mechanical 2000|Company: Autodesk"
 90
        0
280
     0
281
     0
  0
CLASS
  1
ACMFCFSTANDARDBSI
  2
AcmFCFStdBSI
  3
"AcmSymBB|Product Description: AutoCAD Mechanical 2000|Company: Autodesk"
 90
        0
280
     0
281
     0
  0
CLASS
  1
ACMWELDSTANDARDBSI
  2
AcmWeldingStdBSI
  3
"AcmSymBB|Product Description: AutoCAD Mechanical 2000|Company: Autodesk"
 90
        0
280
     0
281
     0
  0
CLASS
  1
ACMIDSTANDARDBSI
  2
AcmIdStdBSI
  3
"AcmSymBB|Product Description: AutoCAD Mechanical 2000|Company: Autodesk"
 90
        0
280
     0
281
     0
  0
CLASS
  1
ACMDATUMSTANDARDBSI
  2
AcmDatumStdBSI
  3
"AcmSymBB|Product Description: AutoCAD Mechanical 2000|Company: Autodesk"
 90
        0
280
     0
281
     0
  0
CLASS
  1
ACMBOMSTANDARDBSI
  2
AcmBOMStdBSI
  3
"AcmSymBB|Product Description: AutoCAD Mechanical 2000|Company: Autodesk"
 90
        0
280
     0
281
     0
  0
CLASS
  1
LONG_TRANSACTION
  2
AcDbLongTransaction
  3
AutoCAD 2000
 90
        0
280
     0
281
     0
  0
CLASS
  1
LWPOLYLINE
  2
AcDbPolyline
  3
AutoCAD 2000
 90
        0
280
     0
281
     1
  0
CLASS
  1
HATCH
  2
AcDbHatch
  3
AutoCAD 2000
 90
        0
280
     0
281
     1
  0
CLASS
  1
XRECORD
  2
AcDbXrecord
  3
AutoCAD 2000
 90
        0
280
     0
281
     0
  0
ENDSEC
  0
SECTION
  2
TABLES
  0
TABLE
  2
VPORT
  5
8
330
0
100
AcDbSymbolTable
 70
     3
  0
VPORT
  5
469A
330
8
100
AcDbSymbolTableRecord
100
AcDbViewportTableRecord
  2
*ACTIVE
 70
     0
 10
0.0
 20
0.0
 11
1.0
 21
1.0
 12
-32.26817728216748
 22
-11.04501921830244
 13
0.0
 23
0.0
 14
2.5
 24
2.5
 15
10.0
 25
10.0
 16
0.0
 26
0.0
 36
1.0
 17
0.0
 27
0.0
 37
0.0
 40
158.3213838807127
 41
1.56570841889117
 42
50.0
 43
0.0
 44
0.0
 50
0.0
 51
0.0
 71
     0
 72
   100
 73
     1
 74
     3
 75
     0
 76
     0
 77
     0
 78
     0
  0
ENDTAB
  0
TABLE
  2
LTYPE
  5
5
330
0
100
AcDbSymbolTable
 70
    10
  0
LTYPE
  5
14
330
5
100
AcDbSymbolTableRecord
100
AcDbLinetypeTableRecord
  2
BYBLOCK
 70
     0
  3

 72
    65
 73
     0
 40
0.0
  0
LTYPE
  5
15
330
5
100
AcDbSymbolTableRecord
100
AcDbLinetypeTableRecord
  2
BYLAYER
 70
     0
  3

 72
    65
 73
     0
 40
0.0
  0
LTYPE
  5
16
330
5
100
AcDbSymbolTableRecord
100
AcDbLinetypeTableRecord
  2
CONTINUOUS
 70
     0
  3
Solid line
 72
    65
 73
     0
 40
0.0
  0
LTYPE
  5
4B
330
5
100
AcDbSymbolTableRecord
100
AcDbLinetypeTableRecord
  2
AM_ISO02W050
 70
     0
  3
__ __ __ __ __ __ __ __ __ __ __ __ __ __ __
 72
    65
 73
     2
 40
7.5
 49
6.0
 74
     0
 49
-1.5
 74
     0
  0
LTYPE
  5
4C
330
5
100
AcDbSymbolTableRecord
100
AcDbLinetypeTableRecord
  2
AM_ISO08W050
 70
     0
  3
____ . ____ . ____ . ____ . ____ . ____ . ____
 72
    65
 73
     4
 40
18.0
 49
12.0
 74
     0
 49
-1.5
 74
     0
 49
3.0
 74
     0
 49
-1.5
 74
     0
  0
LTYPE
  5
4D
330
5
100
AcDbSymbolTableRecord
100
AcDbLinetypeTableRecord
  2
AM_ISO09W050
 70
     0
  3
_____ . . _____ . . _____ . . ____ .. ____
 72
    65
 73
     6
 40
22.5
 49
12.0
 74
     0
 49
-1.5
 74
     0
 49
3.0
 74
     0
 49
-1.5
 74
     0
 49
3.0
 74
     0
 49
-1.5
 74
     0
  0
LTYPE
  5
4E
330
5
100
AcDbSymbolTableRecord
100
AcDbLinetypeTableRecord
  2
AMCONSTR
 70
     0
  3
_______________________
 72
    65
 73
     2
 40
9999.0
 49
9999.0
 74
     0
 49
0.0
 74
     0
  0
LTYPE
  5
4F
330
5
100
AcDbSymbolTableRecord
100
AcDbLinetypeTableRecord
  2
AM_ISO02W050X2
 70
     0
  3
 _ _ _ _ _ _ _ _ _ _ _ _
 72
    65
 73
     2
 40
3.75
 49
3.0
 74
     0
 49
-0.75
 74
     0
  0
LTYPE
  5
50
330
5
100
AcDbSymbolTableRecord
100
AcDbLinetypeTableRecord
  2
AM_ISO08W050X2
 70
     0
  3
__ . __ . __ . __ . __ . __
 72
    65
 73
     4
 40
9.0
 49
6.0
 74
     0
 49
-0.75
 74
     0
 49
1.5
 74
     0
 49
-0.75
 74
     0
  0
LTYPE
  5
53
330
5
100
AcDbSymbolTableRecord
100
AcDbLinetypeTableRecord
  2
AMZIGZAG
 70
     0
  3
/\/-/\/-/\/-/\/-/\/-/\/
 72
    65
 73
     2
 40
11.00009999999999
 49
0.0001
 74
     4
 75
   135
340
52
 46
0.04
 50
0.0
 44
0.0
 45
0.0
 49
-11.0
 74
     0
  0
LTYPE
  5
166
330
5
100
AcDbSymbolTableRecord
100
AcDbLinetypeTableRecord
  2
ACJISTGL
 70
     0
  3
_ _ _ _ _
 72
    65
 73
     2
 40
3.0
 49
2.0
 74
     0
 49
-1.0
 74
     0
  0
LTYPE
  5
26A
330
5
100
AcDbSymbolTableRecord
100
AcDbLinetypeTableRecord
  2
ACJISTGB
 70
     0
  3
__ . . __ . .
 72
    65
 73
     6
 40
9.0
 49
4.0
 74
     0
 49
-1.0
 74
     0
 49
1.0
 74
     0
 49
-1.0
 74
     0
 49
1.0
 74
     0
 49
-1.0
 74
     0
  0
ENDTAB
  0
TABLE
  2
LAYER
  5
2
330
0
100
AcDbSymbolTable
 70
     7
  0
LAYER
  5
10
330
2
100
AcDbSymbolTableRecord
100
AcDbLayerTableRecord
  2
0
 70
     0
 62
     7
  6
CONTINUOUS
  0
LAYER
  5
3F9
330
2
100
AcDbSymbolTableRecord
100
AcDbLayerTableRecord
  2
AM_0
 70
     0
 62
     7
  6
CONTINUOUS
  0
LAYER
  5
BDD
330
2
100
AcDbSymbolTableRecord
100
AcDbLayerTableRecord
  2
AM_11
 70
     0
 62
     3
  6
AM_ISO09W050
  0
LAYER
  5
BDE
330
2
100
AcDbSymbolTableRecord
100
AcDbLayerTableRecord
  2
AM_7
 70
     0
 62
     4
  6
AM_ISO08W050
  0
LAYER
  5
BDF
330
2
100
AcDbSymbolTableRecord
100
AcDbLayerTableRecord
  2
AM_5
 70
     0
 62
     3
  6
CONTINUOUS
  0
LAYER
  5
BE0
330
2
100
AcDbSymbolTableRecord
100
AcDbLayerTableRecord
  2
DEFPOINTS
 70
     0
 62
     7
  6
CONTINUOUS
  0
LAYER
  5
14FF
330
2
100
AcDbSymbolTableRecord
100
AcDbLayerTableRecord
  2
AM_6
 70
     0
 62
     2
  6
CONTINUOUS
  0
ENDTAB
  0
TABLE
  2
STYLE
  5
3
330
0
100
AcDbSymbolTable
 70
     5
  0
STYLE
  5
11
330
3
100
AcDbSymbolTableRecord
100
AcDbTextStyleTableRecord
  2
STANDARD
 70
     0
 40
0.0
 41
1.0
 50
0.0
 71
     0
 42
2.5
  3
simplex.shx
  4
EXTFONT.SHX
  0
STYLE
  5
52
330
3
100
AcDbSymbolTableRecord
100
AcDbTextStyleTableRecord
  2

 70
     1
 40
0.0
 41
1.0
 50
0.0
 71
     0
 42
2.5
  3
ltypeshp.shx
  4

  0
STYLE
  5
6B
330
3
100
AcDbSymbolTableRecord
100
AcDbTextStyleTableRecord
  2
ASAMI
 70
     0
 40
0.0
 41
1.0
 50
0.0
 71
     0
 42
2.5
  3
simplex.shx
  4
EXTFONT.SHX
  0
STYLE
  5
262
330
3
100
AcDbSymbolTableRecord
100
AcDbTextStyleTableRecord
  2
ACJISTS
 70
     0
 40
1.0
 41
1.0
 50
0.0
 71
     0
 42
2.5
  3
simplex.shx
  4
bigfont.shx
  0
STYLE
  5
269
330
3
100
AcDbSymbolTableRecord
100
AcDbTextStyleTableRecord
  2
ACJISGDT
 70
     0
 40
0.0
 41
1.0
 50
0.0
 71
     0
 42
2.5
  3
amgdtans.shx
  4

  0
ENDTAB
  0
TABLE
  2
VIEW
  5
6
330
0
100
AcDbSymbolTable
 70
     0
  0
ENDTAB
  0
TABLE
  2
UCS
  5
7
330
0
100
AcDbSymbolTable
 70
     0
  0
ENDTAB
  0
TABLE
  2
APPID
  5
9
330
0
100
AcDbSymbolTable
 70
    14
  0
APPID
  5
12
330
9
100
AcDbSymbolTableRecord
100
AcDbRegAppTableRecord
  2
ACAD
 70
     0
  0
APPID
  5
30
330
9
100
AcDbSymbolTableRecord
100
AcDbRegAppTableRecord
  2
MCAD_NO_VIS
 70
     0
  0
APPID
  5
31
330
9
100
AcDbSymbolTableRecord
100
AcDbRegAppTableRecord
  2
ACAD_TEMP_GRAPHIC
 70
     0
  0
APPID
  5
2C2
330
9
100
AcDbSymbolTableRecord
100
AcDbRegAppTableRecord
  2
GENIUS_GENDTOL_13
 70
     0
  0
APPID
  5
339
330
9
100
AcDbSymbolTableRecord
100
AcDbRegAppTableRecord
  2
GENIUS_GENODEF_13
 70
     0
  0
APPID
  5
33A
330
9
100
AcDbSymbolTableRecord
100
AcDbRegAppTableRecord
  2
GENIUS_GENOBJ-N-RSBK_13
 70
     0
  0
APPID
  5
33B
330
9
100
AcDbSymbolTableRecord
100
AcDbRegAppTableRecord
  2
GENIUS_GENOBJ-N-LIB_13
 70
     0
  0
APPID
  5
33C
330
9
100
AcDbSymbolTableRecord
100
AcDbRegAppTableRecord
  2
GENIUS_GENSCALE_13
 70
     0
  0
APPID
  5
378
330
9
100
AcDbSymbolTableRecord
100
AcDbRegAppTableRecord
  2
GENIUS_GENDIMSH_14
 70
     0
  0
APPID
  5
BE1
330
9
100
AcDbSymbolTableRecord
100
AcDbRegAppTableRecord
  2
GENIUS_GENFIL_13
 70
     0
  0
APPID
  5
BE2
330
9
100
AcDbSymbolTableRecord
100
AcDbRegAppTableRecord
  2
GENIUS_GENOBJ-N-CHA_13
 70
     0
  0
APPID
  5
151B
330
9
100
AcDbSymbolTableRecord
100
AcDbRegAppTableRecord
  2
DCO15
 70
     0
  0
APPID
  5
1860
330
9
100
AcDbSymbolTableRecord
100
AcDbRegAppTableRecord
  2
GENIUS_GENOBJ-N-CEN_13
 70
     0
  0
APPID
  5
359C
330
9
100
AcDbSymbolTableRecord
100
AcDbRegAppTableRecord
  2
GENIUS_GENOBJ-N-FIL_13
 70
     0
  0
ENDTAB
  0
TABLE
  2
DIMSTYLE
  5
A
330
0
100
AcDbSymbolTable
 70
     8
  0
DIMSTYLE
105
58
102
{ACAD_REACTORS
330
40B9
330
4145
330
423E
330
4364
102
}
330
A
100
AcDbSymbolTableRecord
100
AcDbDimStyleTableRecord
  2
AM_JIS
 70
     0
  3

  4
"
  5
OPEN30
  6

  7

 40
1.0
 41
2.5
 42
1.0
 43
12.0
 44
1.0
 45
0.0
 46
0.0
 47
0.1
 48
0.1
140
3.2
141
0.0
142
0.0
143
0.0393701
144
1.0
145
0.0
146
0.71
147
1.5
 71
     0
 72
     0
 73
     0
 74
     0
 75
     0
 76
     0
 77
     3
 78
     8
170
     0
171
     2
172
     1
173
     0
174
     0
175
     0
176
   256
177
   256
178
     2
270
     2
271
     3
272
     3
273
     2
274
     2
340
6B
275
     0
280
     0
281
     0
282
     0
283
     0
284
     0
285
     0
286
     0
287
     3
288
     0
  0
DIMSTYLE
105
5F
330
A
100
AcDbSymbolTableRecord
100
AcDbDimStyleTableRecord
  2
AM_JIS$3
 70
     0
  3

  4
"
  5
OPEN30
  6

  7

 40
1.0
 41
2.5
 42
1.0
 43
10.0
 44
1.0
 45
0.0
 46
0.0
 47
0.1
 48
0.1
140
3.2
141
0.0
142
0.0
143
0.0393701
144
1.0
145
0.0
146
0.71
147
1.5
 71
     0
 72
     0
 73
     0
 74
     1
 75
     0
 76
     0
 77
     3
 78
     8
170
     0
171
     2
172
     0
173
     0
174
     0
175
     0
176
   256
177
   256
178
     2
270
     2
271
     2
272
     3
273
     2
274
     2
340
6B
275
     0
280
     0
281
     0
282
     0
283
     0
284
     0
285
     0
286
     0
287
     0
288
     1
  0
DIMSTYLE
105
60
330
A
100
AcDbSymbolTableRecord
100
AcDbDimStyleTableRecord
  2
AM_JIS$4
 70
     0
  3

  4
"
  5
OPEN30
  6

  7

 40
1.0
 41
2.5
 42
1.0
 43
10.0
 44
1.0
 45
0.0
 46
0.0
 47
0.1
 48
0.1
140
3.2
141
0.0
142
0.0
143
0.0393701
144
1.0
145
0.0
146
0.71
147
1.5
 71
     0
 72
     0
 73
     0
 74
     1
 75
     0
 76
     0
 77
     3
 78
     8
170
     0
171
     2
172
     0
173
     0
174
     0
175
     0
176
   256
177
   256
178
     2
270
     2
271
     2
272
     3
273
     2
274
     2
340
6B
275
     0
280
     0
281
     0
282
     0
283
     0
284
     0
285
     0
286
     0
287
     0
288
     1
  0
DIMSTYLE
105
61
330
A
100
AcDbSymbolTableRecord
100
AcDbDimStyleTableRecord
  2
AM_JIS$6
 70
     0
  3

  4
"
  5
OPEN30
  6

  7

 40
1.0
 41
2.5
 42
1.0
 43
10.0
 44
1.0
 45
0.0
 46
0.0
 47
0.1
 48
0.1
140
3.2
141
0.0
142
0.0
143
0.0393701
144
1.0
145
0.0
146
0.71
147
1.5
 71
     0
 72
     0
 73
     0
 74
     0
 75
     0
 76
     0
 77
     0
 78
     8
170
     0
171
     2
172
     1
173
     0
174
     0
175
     0
176
   256
177
   256
178
     2
270
     2
271
     2
272
     2
273
     2
274
     2
340
6B
275
     0
280
     0
281
     0
282
     0
283
     0
284
     0
285
     0
286
     0
287
     3
288
     0
  0
DIMSTYLE
105
62
330
A
100
AcDbSymbolTableRecord
100
AcDbDimStyleTableRecord
  2
AM_JIS$7
 70
     0
  3

  4
"
  5
OPEN30
  6

  7

 40
1.0
 41
2.5
 42
1.0
 43
10.0
 44
1.0
 45
0.0
 46
0.0
 47
0.1
 48
0.1
140
3.2
141
0.0
142
0.0
143
0.0393701
144
1.0
145
0.0
146
0.71
147
1.5
 71
     0
 72
     0
 73
     0
 74
     0
 75
     0
 76
     0
 77
     3
 78
     8
170
     0
171
     2
172
     1
173
     0
174
     0
175
     0
176
   256
177
   256
178
     2
270
     2
271
     2
272
     3
273
     2
274
     2
340
6B
275
     0
280
     0
281
     0
282
     0
283
     0
284
     0
285
     0
286
     0
287
     3
288
     0
  0
DIMSTYLE
105
63
330
A
100
AcDbSymbolTableRecord
100
AcDbDimStyleTableRecord
  2
AM_JIS$SF
 70
     0
  3

  4
"
  5
OPEN30
  6

  7

 40
1.0
 41
2.5
 42
1.0
 43
10.0
 44
1.0
 45
0.0
 46
0.0
 47
0.1
 48
0.1
140
3.2
141
0.0
142
0.0
143
0.0393701
144
1.0
145
0.0
146
0.71
147
1.5
 71
     0
 72
     0
 73
     0
 74
     0
 75
     1
 76
     1
 77
     3
 78
     8
170
     0
171
     2
172
     1
173
     0
174
     0
175
     0
176
   256
177
   256
178
     2
270
     2
271
     2
272
     2
273
     2
274
     2
340
6B
275
     0
280
     0
281
     0
282
     0
283
     0
284
     0
285
     0
286
     0
287
     3
288
     0
  0
DIMSTYLE
105
68
330
A
100
AcDbSymbolTableRecord
100
AcDbDimStyleTableRecord
  2
AM_JIS$SH
 70
     0
  3

  4
"
  5

  6
GENAXEH
  7
OPEN30
 40
1.0
 41
2.5
 42
1.0
 43
10.0
 44
1.0
 45
0.0
 46
0.0
 47
0.1
 48
0.1
140
3.2
141
0.0
142
0.0
143
0.0393701
144
2.0
145
0.0
146
0.71
147
1.5
 71
     0
 72
     0
 73
     0
 74
     0
 75
     1
 76
     1
 77
     3
 78
     8
170
     0
171
     2
172
     1
173
     1
174
     0
175
     0
176
   256
177
   256
178
     2
270
     2
271
     2
272
     2
273
     2
274
     2
340
6B
275
     0
280
     0
281
     0
282
     0
283
     0
284
     0
285
     0
286
     0
287
     3
288
     0
  0
DIMSTYLE
105
B34
330
A
100
AcDbSymbolTableRecord
100
AcDbDimStyleTableRecord
  2
AM_JIS$2
 70
     0
  3

  4
"
  5
OPEN30
  6

  7

 40
1.0
 41
2.5
 42
1.0
 43
12.0
 44
1.0
 45
0.0
 46
0.0
 47
0.1
 48
0.1
140
3.2
141
0.0
142
0.0
143
0.0393701
144
1.0
145
0.0
146
0.71
147
1.5
 71
     0
 72
     0
 73
     0
 74
     0
 75
     0
 76
     0
 77
     3
 78
     8
170
     0
171
     2
172
     1
173
     0
174
     0
175
     0
176
   256
177
   256
178
     2
270
     2
271
     3
272
     3
273
     2
274
     2
340
6B
275
     0
280
     0
281
     0
282
     0
283
     0
284
     0
285
     0
286
     0
287
     3
288
     0
  0
ENDTAB
  0
TABLE
  2
BLOCK_RECORD
  5
1
330
0
100
AcDbSymbolTable
 70
     9
  0
BLOCK_RECORD
  5
1F
102
{ACAD_XDICTIONARY
360
74
102
}
330
1
100
AcDbSymbolTableRecord
100
AcDbBlockTableRecord
  2
*MODEL_SPACE
  0
BLOCK_RECORD
  5
101
102
{ACAD_XDICTIONARY
360
46C3
102
}
330
1
100
AcDbSymbolTableRecord
100
AcDbBlockTableRecord
  2
*PAPER_SPACE
  0
BLOCK_RECORD
  5
59
330
1
100
AcDbSymbolTableRecord
100
AcDbBlockTableRecord
  2
_OPEN30
  0
BLOCK_RECORD
  5
64
330
1
100
AcDbSymbolTableRecord
100
AcDbBlockTableRecord
  2
GENAXEH
  0
BLOCK_RECORD
  5
40BA
330
1
100
AcDbSymbolTableRecord
100
AcDbBlockTableRecord
  2
*D5
  0
BLOCK_RECORD
  5
4146
330
1
100
AcDbSymbolTableRecord
100
AcDbBlockTableRecord
  2
*D6
  0
BLOCK_RECORD
  5
423F
330
1
100
AcDbSymbolTableRecord
100
AcDbBlockTableRecord
  2
*D7
  0
BLOCK_RECORD
  5
4365
330
1
100
AcDbSymbolTableRecord
100
AcDbBlockTableRecord
  2
*D8
  0
ENDTAB
  0
ENDSEC
  0
SECTION
  2
BLOCKS
  0
BLOCK
  5
20
330
1F
100
AcDbEntity
  8
0
100
AcDbBlockBegin
  2
*MODEL_SPACE
 70
     0
 10
0.0
 20
0.0
 30
0.0
  3
*MODEL_SPACE
  1

  0
ENDBLK
  5
21
330
1F
100
AcDbEntity
  8
0
100
AcDbBlockEnd
  0
BLOCK
  5
103
330
101
100
AcDbEntity
 67
     1
  8
0
100
AcDbBlockBegin
  2
*PAPER_SPACE
 70
     0
 10
0.0
 20
0.0
 30
0.0
  3
*PAPER_SPACE
  1

  0
ENDBLK
  5
104
330
101
100
AcDbEntity
 67
     1
  8
0
100
AcDbBlockEnd
  0
BLOCK
  5
5D
330
59
100
AcDbEntity
  8
0
100
AcDbBlockBegin
  2
_OPEN30
 70
     0
 10
0.0
 20
0.0
 30
0.0
  3
_OPEN30
  1

  0
LINE
  5
5A
330
59
100
AcDbEntity
  8
0
 62
     0
100
AcDbLine
 10
-1.0
 20
0.26794919
 30
0.0
 11
0.0
 21
0.0
 31
0.0
  0
LINE
  5
5B
330
59
100
AcDbEntity
  8
0
 62
     0
100
AcDbLine
 10
0.0
 20
0.0
 30
0.0
 11
-1.0
 21
-0.26794919
 31
0.0
  0
LINE
  5
5C
330
59
100
AcDbEntity
  8
0
 62
     0
100
AcDbLine
 10
0.0
 20
0.0
 30
0.0
 11
-1.0
 21
0.0
 31
0.0
  0
ENDBLK
  5
5E
330
59
100
AcDbEntity
  8
0
100
AcDbBlockEnd
  0
BLOCK
  5
66
330
64
100
AcDbEntity
  8
0
100
AcDbBlockBegin
  2
GENAXEH
 70
     0
 10
0.0
 20
0.0
 30
0.0
  3
GENAXEH
  1

  0
LINE
  5
65
330
64
100
AcDbEntity
  8
0
100
AcDbLine
 10
-1.0
 20
0.0
 30
0.0
 11
1.0
 21
0.0
 31
0.0
  0
ENDBLK
  5
67
330
64
100
AcDbEntity
  8
0
100
AcDbBlockEnd
  0
BLOCK
  5
40C4
330
40BA
100
AcDbEntity
  8
0
100
AcDbBlockBegin
  2
*D5
 70
     1
 10
0.0
 20
0.0
 30
0.0
  3
*D5
  1

  0
LINE
  5
4506
330
40BA
100
AcDbEntity
  8
AM_5
100
AcDbLine
 10
1.000000000000557
 20
7.000000000005301
 30
0.0
 11
19.55776903085654
 21
7.000000000005296
 31
0.0
  0
LINE
  5
4507
330
40BA
100
AcDbEntity
  8
AM_5
100
AcDbLine
 10
1.000000000000557
 20
-6.999999999994697
 30
0.0
 11
19.55776903085654
 21
-6.999999999994702
 31
0.0
  0
LINE
  5
4508
330
40BA
100
AcDbEntity
  8
AM_5
100
AcDbLine
 10
18.55776903085654
 20
4.500000000005296
 30
0.0
 11
18.55776903085654
 21
-4.499999999994702
 31
0.0
  0
INSERT
  5
4509
330
40BA
100
AcDbEntity
  8
AM_5
100
AcDbBlockReference
  2
_OPEN30
 10
18.55776903085654
 20
7.000000000005296
 30
0.0
 41
2.5
 42
2.5
 43
2.5
 50
90.0
  0
INSERT
  5
450A
330
40BA
100
AcDbEntity
  8
AM_5
100
AcDbBlockReference
  2
_OPEN30
 10
18.55776903085654
 20
-6.999999999994702
 30
0.0
 41
2.5
 42
2.5
 43
2.5
 50
270.0
  0
MTEXT
  5
450B
330
40BA
100
AcDbEntity
  8
AM_5
 62
     2
100
AcDbMText
 10
15.45776903085654
 20
0.0000000000053003
 30
0.0
 40
3.2
 41
0.0
 71
     5
 72
     1
  1
%%c14
  7
ASAMI
 11
0.0000000000000001
 21
1.0
 31
0.0
1001
ACAD
1000
MTEXTBEGIN
1070
    73
1070
     1
1070
    44
1040
1.0
1070
    74
1070
     0
1000
MTEXTEND
  0
POINT
  5
450C
330
40BA
100
AcDbEntity
  8
DEFPOINTS
 62
     0
100
AcDbPoint
 10
0.0000000000005571
 20
7.000000000005301
 30
0.0
  0
POINT
  5
450D
330
40BA
100
AcDbEntity
  8
DEFPOINTS
 62
     0
100
AcDbPoint
 10
0.0000000000005571
 20
-6.999999999994697
 30
0.0
  0
POINT
  5
450E
330
40BA
100
AcDbEntity
  8
DEFPOINTS
 62
     0
100
AcDbPoint
 10
18.55776903085654
 20
-6.999999999994702
 30
0.0
  0
ENDBLK
  5
40C5
330
40BA
100
AcDbEntity
  8
0
100
AcDbBlockEnd
  0
BLOCK
  5
4150
330
4146
100
AcDbEntity
  8
0
100
AcDbBlockBegin
  2
*D6
 70
     1
 10
0.0
 20
0.0
 30
0.0
  3
*D6
  1

  0
LINE
  5
450F
330
4146
100
AcDbEntity
  8
AM_5
100
AcDbLine
 10
-0.0000000000003966
 20
-7.999999999991868
 30
0.0
 11
-0.0000000000003982
 21
-35.00000100001317
 31
0.0
  0
LINE
  5
4510
330
4146
100
AcDbEntity
  8
AM_5
100
AcDbLine
 10
-94.99999999999998
 20
-8.000000000013097
 30
0.0
 11
-94.99999999999998
 21
-35.00000100001317
 31
0.0
  0
LINE
  5
4511
330
4146
100
AcDbEntity
  8
AM_5
100
AcDbLine
 10
-2.500000000000398
 20
-34.00000100001317
 30
0.0
 11
-92.49999999999998
 21
-34.00000100001317
 31
0.0
  0
INSERT
  5
4512
330
4146
100
AcDbEntity
  8
AM_5
100
AcDbBlockReference
  2
_OPEN30
 10
-0.0000000000003981
 20
-34.00000100001317
 30
0.0
 41
2.5
 42
2.5
 43
2.5
  0
INSERT
  5
4513
330
4146
100
AcDbEntity
  8
AM_5
100
AcDbBlockReference
  2
_OPEN30
 10
-94.99999999999998
 20
-34.00000100001317
 30
0.0
 41
2.5
 42
2.5
 43
2.5
 50
180.0
  0
MTEXT
  5
4514
330
4146
100
AcDbEntity
  8
AM_5
 62
     2
100
AcDbMText
 10
-47.50000000000018
 20
-30.90000100001317
 30
0.0
 40
3.2
 41
0.0
 71
     5
 72
     1
  1
95
  7
ASAMI
1001
ACAD
1000
MTEXTBEGIN
1070
    73
1070
     1
1070
    44
1040
1.0
1070
    74
1070
     0
1000
MTEXTEND
  0
POINT
  5
4515
330
4146
100
AcDbEntity
  8
DEFPOINTS
 62
     0
100
AcDbPoint
 10
-0.0000000000003965
 20
-6.999999999991868
 30
0.0
  0
POINT
  5
4516
330
4146
100
AcDbEntity
  8
DEFPOINTS
 62
     0
100
AcDbPoint
 10
-94.99999999999998
 20
-7.000000000013097
 30
0.0
  0
POINT
  5
4517
330
4146
100
AcDbEntity
  8
DEFPOINTS
 62
     0
100
AcDbPoint
 10
-94.99999999999998
 20
-34.00000100001317
 30
0.0
  0
ENDBLK
  5
4151
330
4146
100
AcDbEntity
  8
0
100
AcDbBlockEnd
  0
BLOCK
  5
4249
330
423F
100
AcDbEntity
  8
0
100
AcDbBlockBegin
  2
*D7
 70
     1
 10
0.0
 20
0.0
 30
0.0
  3
*D7
  1

  0
LINE
  5
4518
330
423F
100
AcDbEntity
  8
AM_5
100
AcDbLine
 10
-0.0000000000003966
 20
-7.999999999991868
 30
0.0
 11
-0.0000000000003975
 21
-23.00000100001304
 31
0.0
  0
LINE
  5
4519
330
423F
100
AcDbEntity
  8
AM_5
100
AcDbLine
 10
-40.00000000000055
 20
-7.999999999991514
 30
0.0
 11
-40.00000000000055
 21
-23.00000100001305
 31
0.0
  0
LINE
  5
451A
330
423F
100
AcDbEntity
  8
AM_5
100
AcDbLine
 10
-2.500000000000397
 20
-22.00000100001304
 30
0.0
 11
-37.50000000000055
 21
-22.00000100001304
 31
0.0
  0
INSERT
  5
451B
330
423F
100
AcDbEntity
  8
AM_5
100
AcDbBlockReference
  2
_OPEN30
 10
-0.0000000000003974
 20
-22.00000100001304
 30
0.0
 41
2.5
 42
2.5
 43
2.5
  0
INSERT
  5
451C
330
423F
100
AcDbEntity
  8
AM_5
100
AcDbBlockReference
  2
_OPEN30
 10
-40.00000000000055
 20
-22.00000100001304
 30
0.0
 41
2.5
 42
2.5
 43
2.5
 50
180.0
  0
MTEXT
  5
451D
330
423F
100
AcDbEntity
  8
AM_5
 62
     2
100
AcDbMText
 10
-20.00000000000047
 20
-18.90000100001304
 30
0.0
 40
3.2
 41
0.0
 71
     5
 72
     1
  1
40
  7
ASAMI
1001
ACAD
1000
MTEXTBEGIN
1070
    73
1070
     1
1070
    44
1040
1.0
1070
    74
1070
     0
1000
MTEXTEND
  0
POINT
  5
451E
330
423F
100
AcDbEntity
  8
DEFPOINTS
 62
     0
100
AcDbPoint
 10
-0.0000000000003965
 20
-6.999999999991868
 30
0.0
  0
POINT
  5
451F
330
423F
100
AcDbEntity
  8
DEFPOINTS
 62
     0
100
AcDbPoint
 10
-40.00000000000055
 20
-6.999999999991514
 30
0.0
  0
POINT
  5
4520
330
423F
100
AcDbEntity
  8
DEFPOINTS
 62
     0
100
AcDbPoint
 10
-40.00000000000055
 20
-22.00000100001304
 30
0.0
  0
ENDBLK
  5
424A
330
423F
100
AcDbEntity
  8
0
100
AcDbBlockEnd
  0
BLOCK
  5
436F
330
4365
100
AcDbEntity
  8
0
100
AcDbBlockBegin
  2
*D8
 70
     1
 10
0.0
 20
0.0
 30
0.0
  3
*D8
  1

  0
LINE
  5
43CE
330
4365
100
AcDbEntity
  8
AM_5
100
AcDbLine
 10
-94.99999999999998
 20
7.999999999986907
 30
0.0
 11
-112.7536996173885
 21
7.999999999986911
 31
0.0
  0
LINE
  5
43CF
330
4365
100
AcDbEntity
  8
AM_5
100
AcDbLine
 10
-94.99999999999998
 20
-8.000000000013097
 30
0.0
 11
-112.7536996173885
 21
-8.000000000013091
 31
0.0
  0
LINE
  5
43D0
330
4365
100
AcDbEntity
  8
AM_5
100
AcDbLine
 10
-111.7536996173885
 20
5.499999999986911
 30
0.0
 11
-111.7536996173885
 21
-5.500000000013091
 31
0.0
  0
INSERT
  5
43D1
330
4365
100
AcDbEntity
  8
AM_5
100
AcDbBlockReference
  2
_OPEN30
 10
-111.7536996173885
 20
7.999999999986911
 30
0.0
 41
2.5
 42
2.5
 43
2.5
 50
90.0
  0
INSERT
  5
43D2
330
4365
100
AcDbEntity
  8
AM_5
100
AcDbBlockReference
  2
_OPEN30
 10
-111.7536996173885
 20
-8.000000000013091
 30
0.0
 41
2.5
 42
2.5
 43
2.5
 50
270.0
  0
MTEXT
  5
43D3
330
4365
100
AcDbEntity
  8
AM_5
 62
     2
100
AcDbMText
 10
-114.8536996173885
 20
-0.0000000000131076
 30
0.0
 40
3.2
 41
0.0
 71
     5
 72
     1
  1
%%c16
  7
ASAMI
 11
0.0000000000000001
 21
1.0
 31
0.0
1001
ACAD
1000
MTEXTBEGIN
1070
    73
1070
     1
1070
    44
1040
1.0
1070
    74
1070
     0
1000
MTEXTEND
  0
POINT
  5
43D4
330
4365
100
AcDbEntity
  8
DEFPOINTS
 62
     0
100
AcDbPoint
 10
-93.99999999999998
 20
7.999999999986906
 30
0.0
  0
POINT
  5
43D5
330
4365
100
AcDbEntity
  8
DEFPOINTS
 62
     0
100
AcDbPoint
 10
-93.99999999999996
 20
-8.000000000013097
 30
0.0
  0
POINT
  5
43D6
330
4365
100
AcDbEntity
  8
DEFPOINTS
 62
     0
100
AcDbPoint
 10
-111.7536996173885
 20
-8.000000000013091
 30
0.0
  0
ENDBLK
  5
4370
330
4365
100
AcDbEntity
  8
0
100
AcDbBlockEnd
  0
ENDSEC
  0
SECTION
  2
ENTITIES
  0
TEXT
  5
1500
330
1F
100
AcDbEntity
  8
AM_6
100
AcDbText
 10
-63.57142857142874
 20
-56.50000100001317
 30
0.0
 40
5.0
  1
RSM4140
 72
     4
 11
-47.50000000000016
 21
-54.00000100001317
 31
0.0
100
AcDbText
  0
LINE
  5
3CF2
330
1F
100
AcDbEntity
  8
AM_7
  6
AM_ISO08W050X2
100
AcDbLine
 10
4.557768030856557
 20
-0.0000000000130669
 30
0.0
 11
-97.75369861738857
 21
-0.0000000000130562
 31
0.0
1001
GENIUS_GENODEF_13
1002
{
1000
HIER
1070
     0
1002
}
1002
{
1000
MANEDIT
1070
     0
1002
}
1002
{
1000
NOSEL
1070
     0
1002
}
1002
{
1000
BEHIND
1070
     0
1002
}
1002
{
1000
REACTOR
1002
}
1001
GENIUS_GENOBJ-N-CEN_13
1002
{
1000
OWNER
1000
GEN
1002
}
  0
SPLINE
  5
3F6E
330
1F
100
AcDbEntity
  8
AM_0
100
AcDbSpline
210
0.0
220
0.0
230
1.0
 70
     8
 71
     3
 72
     9
 73
     5
 74
     3
 42
0.0000000001
 43
0.0000000001
 44
0.0000000001
 12
-0.8798907302369265
 22
0.4751760756215832
 32
0.0
 13
-0.960668120577711
 23
-0.2776990495224798
 33
0.0
 40
0.0
 40
0.0
 40
0.0
 40
0.0
 40
1.598744753270447
 40
3.028809733351971
 40
3.028809733351971
 40
3.028809733351971
 40
3.028809733351971
 10
-21.17499999999944
 20
-6.885666685574956
 30
0.0
 10
-21.64390689613863
 20
-6.632438266315073
 30
0.0
 10
-22.46483825739271
 20
-5.792591861807803
 30
0.0
 10
-23.5170607210995
 20
-6.27298506558089
 30
0.0
 10
-23.9750000000058
 20
-6.405360960822231
 30
0.0
 11
-21.17499999999944
 21
-6.885666685574956
 31
0.0
 11
-22.57499999999944
 21
-6.113666176436659
 31
0.0
 11
-23.9750000000058
 21
-6.405360960822231
 31
0.0
  0
SPLINE
  5
3F6F
330
1F
100
AcDbEntity
  8
AM_0
100
AcDbSpline
210
0.0
220
0.0
230
1.0
 70
     8
 71
     3
 72
     8
 73
     4
 74
     0
 42
0.0000000001
 43
0.0000000001
 40
1.788970302442027
 40
1.788970302442027
 40
1.788970302442027
 40
1.788970302442027
 40
3.332324051699147
 40
3.332324051699147
 40
3.332324051699147
 40
3.332324051699147
 10
-37.71221079541136
 20
-6.640497585677378
 30
0.0
 10
-38.4178503993842
 20
-6.55614181007698
 30
0.0
 10
-39.117611325741
 20
-6.437801970675475
 30
0.0
 10
-39.81221079540308
 20
-6.289624251895777
 30
0.0
  0
SPLINE
  5
3F70
330
1F
100
AcDbEntity
  8
AM_0
100
AcDbSpline
210
0.0
220
0.0
230
1.0
 70
     8
 71
     3
 72
     8
 73
     4
 74
     0
 42
0.0000000001
 43
0.0000000001
 40
0.0
 40
0.0
 40
0.0
 40
0.0
 40
1.539536607901005
 40
1.539536607901005
 40
1.539536607901005
 40
1.539536607901005
 10
-37.67721079541123
 20
-6.999999999994617
 30
0.0
 10
-38.39566121243214
 20
-6.999999999994617
 30
0.0
 10
-39.10707880399303
 20
-6.960489591417928
 30
0.0
 10
-39.81221079541136
 20
-6.885666685575035
 30
0.0
  0
SPLINE
  5
3F71
330
1F
100
AcDbEntity
  8
AM_0
100
AcDbSpline
210
0.0
220
0.0
230
1.0
 70
     8
 71
     3
 72
     8
 73
     4
 74
     0
 42
0.0000000001
 43
0.0000000001
 40
0.2298684927509915
 40
0.2298684927509915
 40
0.2298684927509915
 40
0.2298684927509915
 40
2.764560748519282
 40
2.764560748519282
 40
2.764560748519282
 40
2.764560748519282
 10
-34.91221079541136
 20
-6.787829350221256
 30
0.0
 10
-33.73261096163604
 20
-6.769003538251292
 30
0.0
 10
-32.57082158542706
 20
-6.647217202537497
 30
0.0
 10
-31.42366555701845
 20
-6.440836905775126
 30
0.0
  0
SPLINE
  5
3F72
330
1F
100
AcDbEntity
  8
AM_0
100
AcDbSpline
210
0.0
220
0.0
230
1.0
 70
     8
 71
     3
 72
     8
 73
     4
 74
     0
 42
0.0000000001
 43
0.0000000001
 40
1.999245295235591
 40
1.999245295235591
 40
1.999245295235591
 40
1.999245295235591
 40
2.130230809022907
 40
2.130230809022907
 40
2.130230809022907
 40
2.130230809022907
 10
-34.91221079541136
 20
-6.809305927334646
 30
0.0
 10
-34.85253107677871
 20
-6.801177499930993
 30
0.0
 10
-34.79289524319736
 20
-6.792802526338375
 30
0.0
 10
-34.7333028344631
 20
-6.784183591988523
 30
0.0
  0
SPLINE
  5
3F73
330
1F
100
AcDbEntity
  8
AM_0
100
AcDbSpline
210
0.0
220
0.0
230
1.0
 70
     8
 71
     3
 72
     9
 73
     5
 74
     3
 42
0.0000000001
 43
0.0000000001
 44
0.0000000001
 12
0.8362726111173659
 22
0.5483138881105815
 32
0.0
 13
0.9001039467105636
 23
-0.4356752059918799
 33
0.0
 40
0.0
 40
0.0
 40
0.0
 40
0.0
 40
1.556533762314662
 40
3.039684744427583
 40
3.039684744427583
 40
3.039684744427583
 40
3.039684744427583
 10
-37.71221079541136
 20
-6.99996875209111
 30
0.0
 10
-37.27831527751028
 20
-6.715479059027728
 30
0.0
 10
-36.35305935434345
 20
-5.987201860945751
 30
0.0
 10
-35.35720747960052
 20
-6.593915224118277
 30
0.0
 10
-34.91221079541136
 20
-6.809305927334646
 30
0.0
 11
-37.71221079541136
 21
-6.99996875209111
 31
0.0
 11
-36.31221079541136
 21
-6.319676643342639
 31
0.0
 11
-34.91221079541136
 21
-6.809305927334646
 31
0.0
  0
SPLINE
  5
3F74
330
1F
100
AcDbEntity
  8
AM_0
100
AcDbSpline
210
0.0
220
0.0
230
1.0
 70
     8
 71
     3
 72
     8
 73
     4
 74
     2
 42
0.0000000001
 43
0.0000000001
 44
0.0000000001
 12
0.8857418982387386
 22
0.464178079732807
 32
0.0
 13
0.9626176208368654
 23
-0.2708640176442281
 33
0.0
 40
0.0
 40
0.0
 40
0.0
 40
0.0
 40
1.398528424201544
 40
1.398528424201544
 40
1.398528424201544
 40
1.398528424201544
 10
-37.71221079541136
 20
-6.640497585677378
 30
0.0
 10
-37.29929905501365
 20
-6.424108839544837
 30
0.0
 10
-36.79914683365961
 20
-6.195878051370098
 30
0.0
 10
-36.35039746553374
 20
-6.322148393959725
 30
0.0
 11
-37.71221079541136
 21
-6.640497585677378
 31
0.0
 11
-36.35039746553374
 21
-6.322148393959725
 31
0.0
  0
SPLINE
  5
3F75
330
1F
100
AcDbEntity
  8
AM_0
100
AcDbSpline
210
0.0
220
0.0
230
1.0
 70
     8
 71
     3
 72
     8
 73
     4
 74
     0
 42
0.0000000001
 43
0.0000000001
 40
0.0
 40
0.0
 40
0.0
 40
0.0
 40
0.1538189954801996
 40
0.1538189954801996
 40
0.1538189954801996
 40
0.1538189954801996
 10
-39.81221079541136
 20
-6.885666685575035
 30
0.0
 10
-39.87537128593147
 20
-6.851557502481811
 30
0.0
 10
-39.9378862056211
 20
-6.813999610241242
 30
0.0
 10
-39.9999999999811
 20
-6.774356507462607
 30
0.0
  0
SPLINE
  5
3F76
330
1F
100
AcDbEntity
  8
AM_0
100
AcDbSpline
210
0.0
220
0.0
230
1.0
 70
     8
 71
     3
 72
     8
 73
     4
 74
     2
 42
0.0000000001
 43
0.0000000001
 44
0.0000000001
 12
0.8857418982387386
 22
0.464178079732807
 32
0.0
 13
0.9626176208368654
 23
-0.2708640176442281
 33
0.0
 40
0.0
 40
0.0
 40
0.0
 40
0.0
 40
1.398528424201547
 40
1.398528424201547
 40
1.398528424201547
 40
1.398528424201547
 10
-19.07499999999945
 20
-6.640497585677219
 30
0.0
 10
-18.66208825960175
 20
-6.424108839544678
 30
0.0
 10
-18.1619360382477
 20
-6.195878051369938
 30
0.0
 10
-17.71318667012183
 20
-6.322148393959566
 30
0.0
 11
-19.07499999999945
 21
-6.640497585677219
 31
0.0
 11
-17.71318667012183
 21
-6.322148393959566
 31
0.0
  0
SPLINE
  5
3F77
330
1F
100
AcDbEntity
  8
AM_0
100
AcDbSpline
210
0.0
220
0.0
230
1.0
 70
     8
 71
     3
 72
     9
 73
     5
 74
     3
 42
0.0000000001
 43
0.0000000001
 44
0.0000000001
 12
0.8362726111173659
 22
0.5483138881105815
 32
0.0
 13
0.9001039467105636
 23
-0.4356752059918799
 33
0.0
 40
0.0
 40
0.0
 40
0.0
 40
0.0
 40
1.556533762314666
 40
3.039684744427587
 40
3.039684744427587
 40
3.039684744427587
 40
3.039684744427587
 10
-19.07499999999945
 20
-6.999968752090951
 30
0.0
 10
-18.64110448209837
 20
-6.715479059027568
 30
0.0
 10
-17.71584855893153
 20
-5.987201860945591
 30
0.0
 10
-16.71999668418861
 20
-6.593915224118118
 30
0.0
 10
-16.27499999999945
 20
-6.809305927334487
 30
0.0
 11
-19.07499999999945
 21
-6.999968752090951
 31
0.0
 11
-17.67499999999945
 21
-6.319676643342479
 31
0.0
 11
-16.27499999999945
 21
-6.809305927334487
 31
0.0
  0
SPLINE
  5
3F78
330
1F
100
AcDbEntity
  8
AM_0
100
AcDbSpline
210
0.0
220
0.0
230
1.0
 70
     8
 71
     3
 72
     9
 73
     5
 74
     3
 42
0.0000000001
 43
0.0000000001
 44
0.0000000001
 12
-0.6110826252653756
 22
0.7915668165725349
 32
0.0
 13
-0.9134460065687765
 23
-0.4069599403916245
 33
0.0
 40
0.0
 40
0.0
 40
0.0
 40
0.0
 40
1.611483407075892
 40
3.030796442444531
 40
3.030796442444531
 40
3.030796442444531
 40
3.030796442444531
 10
-2.799999999999442
 20
-6.80450995868934
 30
0.0
 10
-3.128249836988618
 20
-6.379311028523165
 30
0.0
 10
-4.122527776070486
 20
-5.819102759122354
 30
0.0
 10
-5.167844725256611
 20
-6.047272744860984
 30
0.0
 10
-5.599999999999442
 20
-6.23980726095121
 30
0.0
 11
-2.799999999999442
 21
-6.80450995868934
 31
0.0
 11
-4.199999999999442
 21
-6.006463110890963
 31
0.0
 11
-5.599999999999442
 21
-6.23980726095121
 31
0.0
  0
SPLINE
  5
3F79
330
1F
100
AcDbEntity
  8
AM_0
100
AcDbSpline
210
0.0
220
0.0
230
1.0
 70
     8
 71
     3
 72
     8
 73
     4
 74
     0
 42
0.0000000001
 43
0.0000000001
 40
1.999245295235591
 40
1.999245295235591
 40
1.999245295235591
 40
1.999245295235591
 40
2.130230809022907
 40
2.130230809022907
 40
2.130230809022907
 40
2.130230809022907
 10
-16.27499999999945
 20
-6.809305927334487
 30
0.0
 10
-16.2153202813668
 20
-6.801177499930833
 30
0.0
 10
-16.15568444778545
 20
-6.792802526338216
 30
0.0
 10
-16.09609203905119
 20
-6.784183591988364
 30
0.0
  0
SPLINE
  5
3F7A
330
1F
100
AcDbEntity
  8
AM_0
100
AcDbSpline
210
0.0
220
0.0
230
1.0
 70
     8
 71
     3
 72
     8
 73
     4
 74
     0
 42
0.0000000001
 43
0.0000000001
 40
0.2298684927509915
 40
0.2298684927509915
 40
0.2298684927509915
 40
0.2298684927509915
 40
2.764560748519282
 40
2.764560748519282
 40
2.764560748519282
 40
2.764560748519282
 10
-16.27499999999945
 20
-6.787829350221097
 30
0.0
 10
-15.09540016622413
 20
-6.769003538251133
 30
0.0
 10
-13.93361079001515
 20
-6.647217202537337
 30
0.0
 10
-12.78645476160653
 20
-6.440836905775046
 30
0.0
  0
SPLINE
  5
3F7B
330
1F
100
AcDbEntity
  8
AM_0
100
AcDbSpline
210
0.0
220
0.0
230
1.0
 70
     8
 71
     3
 72
     8
 73
     4
 74
     0
 42
0.0000000001
 43
0.0000000001
 40
1.870660592686466
 40
1.870660592686466
 40
1.870660592686466
 40
1.870660592686466
 40
3.826008700541491
 40
3.826008700541491
 40
3.826008700541491
 40
3.826008700541491
 10
-0.1469999999994684
 20
-6.626817620665015
 30
0.0
 10
-1.040222399321271
 20
-6.515400059441135
 30
0.0
 10
-1.924069540990865
 20
-6.349785045145126
 30
0.0
 10
-2.799999999996259
 20
-6.13840445799039
 30
0.0
  0
SPLINE
  5
3F7C
330
1F
100
AcDbEntity
  8
AM_0
100
AcDbSpline
210
0.0
220
0.0
230
1.0
 70
     8
 71
     3
 72
     8
 73
     4
 74
     0
 42
0.0000000001
 43
0.0000000001
 40
0.0
 40
0.0
 40
0.0
 40
0.0
 40
2.024855066027545
 40
2.024855066027545
 40
2.024855066027545
 40
2.024855066027545
 10
0.0000000000005571
 20
-6.999999999994697
 30
0.0
 10
-0.9449323641454498
 20
-6.999999999994697
 30
0.0
 10
-1.877699011991069
 20
-6.931653014214289
 30
0.0
 10
-2.799999999999442
 20
-6.80450995868934
 30
0.0
  0
SPLINE
  5
3F7D
330
1F
100
AcDbEntity
  8
AM_0
100
AcDbSpline
210
0.0
220
0.0
230
1.0
 70
     8
 71
     3
 72
     8
 73
     4
 74
     0
 42
0.0000000001
 43
0.0000000001
 40
1.788970302442027
 40
1.788970302442027
 40
1.788970302442027
 40
1.788970302442027
 40
3.332324051699147
 40
3.332324051699147
 40
3.332324051699147
 40
3.332324051699147
 10
-19.07499999999945
 20
-6.640497585677219
 30
0.0
 10
-19.7806396039723
 20
-6.556141810076821
 30
0.0
 10
-20.48040053032909
 20
-6.437801970675316
 30
0.0
 10
-21.17499999999116
 20
-6.289624251895697
 30
0.0
  0
SPLINE
  5
3F7E
330
1F
100
AcDbEntity
  8
AM_0
100
AcDbSpline
210
0.0
220
0.0
230
1.0
 70
     8
 71
     3
 72
     8
 73
     4
 74
     0
 42
0.0000000001
 43
0.0000000001
 40
0.0
 40
0.0
 40
0.0
 40
0.0
 40
1.539536607901005
 40
1.539536607901005
 40
1.539536607901005
 40
1.539536607901005
 10
-19.03999999999932
 20
-6.999999999994458
 30
0.0
 10
-19.75845041702022
 20
-6.999999999994458
 30
0.0
 10
-20.46986800858112
 20
-6.960489591417769
 30
0.0
 10
-21.17499999999944
 20
-6.885666685574956
 30
0.0
  0
SPLINE
  5
3F7F
330
1F
100
AcDbEntity
  8
AM_0
100
AcDbSpline
210
0.0
220
0.0
230
1.0
 70
     8
 71
     3
 72
     8
 73
     4
 74
     0
 42
0.0000000001
 43
0.0000000001
 40
14.25229543663493
 40
14.25229543663493
 40
14.25229543663493
 40
14.25229543663493
 40
14.43901837670146
 40
14.43901837670146
 40
14.43901837670146
 40
14.43901837670146
 10
-35.87499999999943
 20
0.13171105601064
 30
0.0
 10
-35.79545638831286
 20
0.08781226568954
 30
0.0
 10
-35.71591404675981
 20
0.0439061328475006
 30
0.0
 10
-35.63637170520741
 20
0.0000000000054612
 30
0.0
  0
SPLINE
  5
3F80
330
1F
100
AcDbEntity
  8
AM_0
100
AcDbSpline
210
0.0
220
0.0
230
1.0
 70
     8
 71
     3
 72
     8
 73
     4
 74
     0
 42
0.0000000001
 43
0.0000000001
 40
12.98298737538389
 40
12.98298737538389
 40
12.98298737538389
 40
12.98298737538389
 40
14.43901837670148
 40
14.43901837670148
 40
14.43901837670148
 40
14.43901837670148
 10
-33.77499999995805
 20
-1.023634263945946
 30
0.0
 10
-34.39585872724136
 20
-0.6847438300061142
 30
0.0
 10
-35.01611521622406
 20
-0.3423719150003265
 30
0.0
 10
-35.63637170520741
 20
0.0000000000054612
 30
0.0
  0
SPLINE
  5
3F81
330
1F
100
AcDbEntity
  8
AM_0
100
AcDbSpline
210
0.0
220
0.0
230
1.0
 70
     8
 71
     3
 72
     9
 73
     5
 74
     3
 42
0.0000000001
 43
0.0000000001
 44
0.0000000001
 12
-0.70922844039674
 22
0.7049787367945277
 32
0.0
 13
-0.9773066838349782
 23
-0.211829284404867
 33
0.0
 40
0.0
 40
0.0
 40
0.0
 40
0.0
 40
2.085150133801314
 40
3.485150133801313
 40
3.485150133801313
 40
3.485150133801313
 40
3.485150133801313
 10
-30.97499999999944
 20
-2.513410777805979
 30
0.0
 10
-31.46794925912909
 20
-2.023415275354583
 30
0.0
 10
-31.97656696251446
 20
-0.6874970476755421
 30
0.0
 10
-33.31892354754311
 20
-0.8692897949111031
 30
0.0
 10
-33.77499999999943
 20
-0.9681434609667077
 30
0.0
 11
-30.97499999999944
 21
-2.513410777805979
 31
0.0
 11
-32.37499999999943
 21
-0.9681434609667077
 31
0.0
 11
-33.77499999999943
 21
-0.9681434609667077
 31
0.0
  0
SPLINE
  5
3F82
330
1F
100
AcDbEntity
  8
AM_0
100
AcDbSpline
210
0.0
220
0.0
230
1.0
 70
     8
 71
     3
 72
     8
 73
     4
 74
     0
 42
0.0000000001
 43
0.0000000001
 40
9.170645305362121
 40
9.170645305362121
 40
9.170645305362121
 40
9.170645305362121
 40
10.79891126818747
 40
10.79891126818747
 40
10.79891126818747
 40
10.79891126818747
 10
-28.87499999999944
 20
-3.551501063523069
 30
0.0
 10
-29.57744436349847
 20
-3.219601595830358
 30
0.0
 10
-30.27716361901456
 20
-2.87194854380818
 30
0.0
 10
-30.9750000001013
 20
-2.513410777753456
 30
0.0
  0
SPLINE
  5
3F83
330
1F
100
AcDbEntity
  8
AM_0
100
AcDbSpline
210
0.0
220
0.0
230
1.0
 70
     8
 71
     3
 72
     9
 73
     5
 74
     3
 42
0.0000000001
 43
0.0000000001
 44
0.0000000001
 12
-0.5352929995799692
 22
0.8446664457646459
 32
0.0
 13
-0.9737293462750431
 23
-0.2277084983103998
 33
0.0
 40
0.0
 40
0.0
 40
0.0
 40
0.0
 40
1.985682877764191
 40
3.397361459182056
 40
3.397361459182056
 40
3.397361459182056
 40
3.397361459182056
 10
-26.07499999999944
 20
-4.778460626622786
 30
0.0
 10
-26.42930738128376
 20
-4.219380727030522
 30
0.0
 10
-27.1843314718903
 20
-3.016387182991761
 30
0.0
 10
-28.41680237928516
 20
-3.444350660218205
 30
0.0
 10
-28.87500000002999
 20
-3.551501063508744
 30
0.0
 11
-26.07499999999944
 21
-4.778460626622786
 31
0.0
 11
-27.47499999999944
 21
-3.37029284860559
 31
0.0
 11
-28.87500000002999
 21
-3.551501063508744
 31
0.0
  0
SPLINE
  5
3F84
330
1F
100
AcDbEntity
  8
AM_0
100
AcDbSpline
210
0.0
220
0.0
230
1.0
 70
     8
 71
     3
 72
     8
 73
     4
 74
     0
 42
0.0000000001
 43
0.0000000001
 40
5.425905956994038
 40
5.425905956994038
 40
5.425905956994038
 40
5.425905956994038
 40
7.019702002723574
 40
7.019702002723574
 40
7.019702002723574
 40
7.019702002723574
 10
-23.97499999999944
 20
-5.532241196251465
 30
0.0
 10
-24.6792035133736
 20
-5.30350258150865
 30
0.0
 10
-25.37894022390572
 20
-5.048941813780215
 30
0.0
 10
-26.07499999999944
 20
-4.773125045512138
 30
0.0
  0
SPLINE
  5
3F85
330
1F
100
AcDbEntity
  8
AM_0
100
AcDbSpline
210
0.0
220
0.0
230
1.0
 70
     8
 71
     3
 72
     8
 73
     4
 74
     0
 42
0.0000000001
 43
0.0000000001
 40
3.600603813281411
 40
3.600603813281411
 40
3.600603813281411
 40
3.600603813281411
 40
5.175009087017798
 40
5.175009087017798
 40
5.175009087017798
 40
5.175009087017798
 10
-23.97500000000007
 20
-6.405360960823504
 30
0.0
 10
-24.68026098127873
 20
-6.239846387650363
 30
0.0
 10
-25.37999459621568
 20
-6.043279074179594
 30
0.0
 10
-26.07499999999944
 20
-5.820148673716716
 30
0.0
  0
SPLINE
  5
3F86
330
1F
100
AcDbEntity
  8
AM_0
100
AcDbSpline
210
0.0
220
0.0
230
1.0
 70
     8
 71
     3
 72
     9
 73
     5
 74
     3
 42
0.0000000001
 43
0.0000000001
 44
0.0000000001
 12
-0.7007569881530875
 22
0.7134000585608428
 32
0.0
 13
-0.954040132710994
 23
-0.2996788700872805
 33
0.0
 40
0.0
 40
0.0
 40
0.0
 40
0.0
 40
1.729650497729521
 40
3.156219429729231
 40
3.156219429729231
 40
3.156219429729231
 40
3.156219429729231
 10
-21.17499999999944
 20
-6.273921212862791
 30
0.0
 10
-21.57902155778158
 20
-5.862610290739448
 30
0.0
 10
-22.41203560113993
 20
-4.929206773653838
 30
0.0
 10
-23.52133199559986
 20
-5.389737007702747
 30
0.0
 10
-23.97500000000198
 20
-5.53224119625051
 30
0.0
 11
-21.17499999999944
 21
-6.273921212862791
 31
0.0
 11
-22.57499999999944
 21
-5.258199378748754
 31
0.0
 11
-23.97500000000198
 21
-5.53224119625051
 31
0.0
  0
SPLINE
  5
3F87
330
1F
100
AcDbEntity
  8
AM_0
100
AcDbSpline
210
0.0
220
0.0
230
1.0
 70
     8
 71
     3
 72
     8
 73
     4
 74
     0
 42
0.0000000001
 43
0.0000000001
 40
5.307227569610006
 40
5.307227569610006
 40
5.307227569610006
 40
5.307227569610006
 40
5.635889483499305
 40
5.635889483499305
 40
5.635889483499305
 40
5.635889483499305
 10
-26.24999999999952
 20
5.76337387141721
 30
0.0
 10
-26.39491989802935
 20
5.715869969347526
 30
0.0
 10
-26.53963667547658
 20
5.667224935980861
 30
0.0
 10
-26.68415760226115
 20
5.617479613725121
 30
0.0
  0
SPLINE
  5
3F88
330
1F
100
AcDbEntity
  8
AM_0
100
AcDbSpline
210
0.0
220
0.0
230
1.0
 70
     8
 71
     3
 72
     9
 73
     5
 74
     3
 42
0.0000000001
 43
0.0000000001
 44
0.0000000001
 12
0.9763857352009798
 22
-0.216034478951954
 32
0.0
 13
0.7423022879960325
 23
0.6700651559631014
 33
0.0
 40
0.0
 40
0.0
 40
0.0
 40
0.0
 40
1.403209128251097
 40
3.04313317260214
 40
3.04313317260214
 40
3.04313317260214
 40
3.04313317260214
 10
-26.24999999999952
 20
5.763373871417847
 30
0.0
 10
-25.79330887455679
 20
5.66232668712373
 30
0.0
 10
-24.72413720662633
 20
5.463484260086143
 30
0.0
 10
-23.85577312342001
 20
6.15626247244517
 30
0.0
 10
-23.44999999999952
 20
6.522547792627078
 30
0.0
 11
-26.24999999999952
 21
5.763373871417847
 31
0.0
 11
-24.84999999999944
 21
5.668527376453725
 31
0.0
 11
-23.44999999999952
 21
6.522547792627078
 31
0.0
  0
SPLINE
  5
3F89
330
1F
100
AcDbEntity
  8
AM_0
100
AcDbSpline
210
0.0
220
0.0
230
1.0
 70
     8
 71
     3
 72
     8
 73
     4
 74
     0
 42
0.0000000001
 43
0.0000000001
 40
2.489821994174631
 40
2.489821994174631
 40
2.489821994174631
 40
2.489821994174631
 40
4.043019649814397
 40
4.043019649814397
 40
4.043019649814397
 40
4.043019649814397
 10
-32.19999999999952
 20
6.504941439026382
 30
0.0
 10
-31.49508398181039
 20
6.389846240303499
 30
0.0
 10
-30.79579200694077
 20
6.242238993894219
 30
0.0
 10
-30.10139304289148
 20
6.066345727610454
 30
0.0
  0
SPLINE
  5
3F8A
330
1F
100
AcDbEntity
  8
AM_0
100
AcDbSpline
210
0.0
220
0.0
230
1.0
 70
     8
 71
     3
 72
     8
 73
     4
 74
     0
 42
0.0000000001
 43
0.0000000001
 40
4.306226182506206
 40
4.306226182506206
 40
4.306226182506206
 40
4.306226182506206
 40
5.890739774064351
 40
5.890739774064351
 40
5.890739774064351
 40
5.890739774064351
 10
-32.19999999999952
 20
6.164509931991601
 30
0.0
 10
-31.49503576098966
 20
5.970826950434506
 30
0.0
 10
-30.79530730996463
 20
5.747729315588962
 30
0.0
 10
-30.09999999999944
 20
5.499793713323655
 30
0.0
  0
SPLINE
  5
3F8B
330
1F
100
AcDbEntity
  8
AM_0
100
AcDbSpline
210
0.0
220
0.0
230
1.0
 70
     8
 71
     3
 72
     9
 73
     5
 74
     3
 42
0.0000000001
 43
0.0000000001
 44
0.0000000001
 12
-0.998034956970028
 22
-0.0626595935658276
 32
0.0
 13
-0.9269020209125923
 23
0.375303402100424
 33
0.0
 40
0.0
 40
0.0
 40
0.0
 40
0.0
 40
1.401384401790934
 40
2.841534928391775
 40
2.841534928391775
 40
2.841534928391775
 40
2.841534928391775
 10
-32.19999999999952
 20
6.504941439026382
 30
0.0
 10
-32.66621020704615
 20
6.475671380011146
 30
0.0
 10
-33.61514416611185
 20
6.349064758091375
 30
0.0
 10
-34.55504052215796
 20
6.600189969442556
 30
0.0
 10
-34.99999999999952
 20
6.780354433499227
 30
0.0
 11
-32.19999999999952
 21
6.504941439026382
 31
0.0
 11
-33.59999999999951
 21
6.442665909458678
 31
0.0
 11
-34.99999999999952
 21
6.780354433499227
 31
0.0
  0
SPLINE
  5
3F8C
330
1F
100
AcDbEntity
  8
AM_0
100
AcDbSpline
210
0.0
220
0.0
230
1.0
 70
     8
 71
     3
 72
     9
 73
     5
 74
     3
 42
0.0000000001
 43
0.0000000001
 44
0.0000000001
 12
-0.9815548294604765
 22
-0.1911808483159737
 32
0.0
 13
-0.8368779624517481
 23
0.5473895102782029
 33
0.0
 40
0.0
 40
0.0
 40
0.0
 40
0.0
 40
1.415510121267623
 40
3.03220929574518
 40
3.03220929574518
 40
3.03220929574518
 40
3.03220929574518
 10
-32.19999999999952
 20
6.164509931991601
 30
0.0
 10
-32.66313359855966
 20
6.07430379006367
 30
0.0
 10
-33.71955837716832
 20
5.662900227015214
 30
0.0
 10
-34.54900669632145
 20
6.469078009083852
 30
0.0
 10
-34.99999999999952
 20
6.764066065545334
 30
0.0
 11
-32.19999999999952
 21
6.164509931991601
 31
0.0
 11
-33.59999999999951
 21
5.955538873203344
 31
0.0
 11
-34.99999999999952
 21
6.764066065545334
 31
0.0
  0
SPLINE
  5
3F8D
330
1F
100
AcDbEntity
  8
AM_0
100
AcDbSpline
210
0.0
220
0.0
230
1.0
 70
     8
 71
     3
 72
     8
 73
     4
 74
     0
 42
0.0000000001
 43
0.0000000001
 40
6.150480381241876
 40
6.150480381241876
 40
6.150480381241876
 40
6.150480381241876
 40
7.75241736749254
 40
7.75241736749254
 40
7.75241736749254
 40
7.75241736749254
 10
-27.29999999999944
 20
5.204690714958318
 30
0.0
 10
-26.59611756254733
 20
4.952133731515827
 30
0.0
 10
-25.89638490722162
 20
4.675587261022933
 30
0.0
 10
-25.19999999999944
 20
4.379687784197453
 30
0.0
  0
SPLINE
  5
3F8E
330
1F
100
AcDbEntity
  8
AM_0
100
AcDbSpline
210
0.0
220
0.0
230
1.0
 70
     8
 71
     3
 72
     8
 73
     4
 74
     0
 42
0.0000000001
 43
0.0000000001
 40
8.034594408064972
 40
8.034594408064972
 40
8.034594408064972
 40
8.034594408064972
 40
9.661611892530016
 40
9.661611892530016
 40
9.661611892530016
 40
9.661611892530016
 10
-27.29999999999944
 20
4.368348384972208
 30
0.0
 10
-26.59679462783341
 20
4.053350231558537
 30
0.0
 10
-25.89708862078722
 20
3.718692647313677
 30
0.0
 10
-25.20000000000008
 20
3.369330588876759
 30
0.0
  0
SPLINE
  5
3F8F
330
1F
100
AcDbEntity
  8
AM_0
100
AcDbSpline
210
0.0
220
0.0
230
1.0
 70
     8
 71
     3
 72
     9
 73
     5
 74
     3
 42
0.0000000001
 43
0.0000000001
 44
0.0000000001
 12
-0.8872020512481618
 22
0.4613811008928021
 32
0.0
 13
-0.9856395606727495
 23
0.1688628332014753
 33
0.0
 40
0.0
 40
0.0
 40
0.0
 40
0.0
 40
1.510565004596726
 40
2.941106504838058
 40
2.941106504838058
 40
2.941106504838058
 40
2.941106504838058
 10
-27.29999999999944
 20
5.204690714958637
 30
0.0
 10
-27.74672545687341
 20
5.43700609655563
 30
0.0
 10
-28.66037491553559
 20
5.817858858459181
 30
0.0
 10
-29.63000056805885
 20
5.985471062627857
 30
0.0
 10
-30.09999999999952
 20
6.06599282620887
 30
0.0
 11
-27.29999999999944
 21
5.204690714958637
 31
0.0
 11
-28.69999999999952
 21
5.771970745553839
 31
0.0
 11
-30.09999999999952
 21
6.06599282620887
 31
0.0
  0
SPLINE
  5
3F90
330
1F
100
AcDbEntity
  8
AM_0
100
AcDbSpline
210
0.0
220
0.0
230
1.0
 70
     8
 71
     3
 72
     9
 73
     5
 74
     3
 42
0.0000000001
 43
0.0000000001
 44
0.0000000001
 12
-0.9971207175624307
 22
0.075830565129001
 32
0.0
 13
-0.7822668508322157
 23
0.6229434758379354
 33
0.0
 40
0.0
 40
0.0
 40
0.0
 40
0.0
 40
1.41365841115498
 40
3.097401461221171
 40
3.097401461221171
 40
3.097401461221171
 40
3.097401461221171
 10
-27.29999999999944
 20
4.368348384972845
 30
0.0
 10
-27.76986269643911
 20
4.404081223711928
 30
0.0
 10
-28.85051650815719
 20
4.413939284292514
 30
0.0
 10
-29.66095454220413
 20
5.150168130648255
 30
0.0
 10
-30.09999999999944
 20
5.499793713323655
 30
0.0
 11
-27.29999999999944
 21
4.368348384972845
 31
0.0
 11
-28.69999999999944
 21
4.564384359807131
 31
0.0
 11
-30.09999999999944
 21
5.499793713323655
 31
0.0
  0
SPLINE
  5
3F91
330
1F
100
AcDbEntity
  8
AM_0
100
AcDbSpline
210
0.0
220
0.0
230
1.0
 70
     8
 71
     3
 72
     9
 73
     5
 74
     3
 42
0.0000000001
 43
0.0000000001
 44
0.0000000001
 12
-0.774417105688407
 22
0.6326753878705816
 32
0.0
 13
-0.997664332449759
 23
-0.0683072452787872
 33
0.0
 40
0.0
 40
0.0
 40
0.0
 40
0.0
 40
1.765403505096303
 40
3.181867118362531
 40
3.181867118362531
 40
3.181867118362531
 40
3.181867118362531
 10
-22.39999999999944
 20
3.08887634875737
 30
0.0
 10
-22.85571955759572
 20
3.461185464535666
 30
0.0
 10
-23.59992420678228
 20
4.292155089710598
 30
0.0
 10
-24.72894825827657
 20
4.411939360017404
 30
0.0
 10
-25.19999999999944
 20
4.379687784197453
 30
0.0
 11
-22.39999999999944
 21
3.08887634875737
 31
0.0
 11
-23.79999999999944
 21
4.164352771467933
 31
0.0
 11
-25.19999999999944
 21
4.379687784197453
 31
0.0
  0
SPLINE
  5
3F92
330
1F
100
AcDbEntity
  8
AM_0
100
AcDbSpline
210
0.0
220
0.0
230
1.0
 70
     8
 71
     3
 72
     9
 73
     5
 74
     3
 42
0.0000000001
 43
0.0000000001
 44
0.0000000001
 12
-0.9430790451623929
 22
0.3325686614454065
 32
0.0
 13
-0.7408851562591475
 23
0.6716317333441437
 33
0.0
 40
0.0
 40
0.0
 40
0.0
 40
0.0
 40
1.502052128587059
 40
3.184366105848877
 40
3.184366105848877
 40
3.184366105848877
 40
3.184366105848877
 10
-22.39999999999944
 20
1.892289636017953
 30
0.0
 10
-22.87218462907011
 20
2.05880145795976
 30
0.0
 10
-23.88006190442872
 20
2.399704452933007
 30
0.0
 10
-24.78453284868876
 20
2.992698771348719
 30
0.0
 10
-25.19999999999562
 20
3.369330588874531
 30
0.0
 11
-22.39999999999944
 21
1.892289636017953
 31
0.0
 11
-23.79999999999944
 21
2.43649602792539
 31
0.0
 11
-25.19999999999562
 21
3.369330588874531
 31
0.0
  0
SPLINE
  5
3F93
330
1F
100
AcDbEntity
  8
AM_0
100
AcDbSpline
210
0.0
220
0.0
230
1.0
 70
     8
 71
     3
 72
     8
 73
     4
 74
     0
 42
0.0000000001
 43
0.0000000001
 40
0.3581103616548037
 40
0.3581103616548037
 40
0.3581103616548037
 40
0.3581103616548037
 40
0.4557920900567158
 40
0.4557920900567158
 40
0.4557920900567158
 40
0.4557920900567158
 10
-35.1360920390505
 20
6.784183591999048
 30
0.0
 10
-35.09070187382219
 20
6.783058389223337
 30
0.0
 10
-35.04533792141944
 20
6.781781652651174
 30
0.0
 10
-34.99999999999952
 20
6.780354433499227
 30
0.0
  0
SPLINE
  5
3F94
330
1F
100
AcDbEntity
  8
AM_0
100
AcDbSpline
210
0.0
220
0.0
230
1.0
 70
     8
 71
     3
 72
     8
 73
     4
 74
     0
 42
0.0000000001
 43
0.0000000001
 40
1.666991338825053
 40
1.666991338825053
 40
1.666991338825053
 40
1.666991338825053
 40
3.21070440243455
 40
3.21070440243455
 40
3.21070440243455
 40
3.21070440243455
 10
-21.34999999999697
 20
6.86635973828011
 30
0.0
 10
-22.05600644470311
 20
6.785499958604035
 30
0.0
 10
-22.75575533702082
 20
6.66948525393241
 30
0.0
 10
-23.44999999999952
 20
6.522547792627078
 30
0.0
  0
SPLINE
  5
3F95
330
1F
100
AcDbEntity
  8
AM_0
100
AcDbSpline
210
0.0
220
0.0
230
1.0
 70
     8
 71
     3
 72
     8
 73
     4
 74
     0
 42
0.0000000001
 43
0.0000000001
 40
11.67451676923159
 40
11.67451676923159
 40
11.67451676923159
 40
11.67451676923159
 40
14.36247867694493
 40
14.36247867694493
 40
14.36247867694493
 40
14.36247867694493
 10
-39.99999999999975
 20
3.8503223691777
 30
0.0
 10
-35.13154227018901
 20
1.209827447128279
 30
0.0
 10
-33.97704945841172
 20
0.6049137235668706
 30
0.0
 10
-32.82255664663442
 20
0.0000000000054612
 30
0.0
  0
SPLINE
  5
3F96
330
1F
100
AcDbEntity
  8
AM_0
100
AcDbSpline
210
0.0
220
0.0
230
1.0
 70
     8
 71
     3
 72
     9
 73
     5
 74
     3
 42
0.0000000001
 43
0.0000000001
 44
0.0000000001
 12
-0.70922844039674
 22
0.7049787367945277
 32
0.0
 13
-0.9773066838349782
 23
-0.211829284404867
 33
0.0
 40
0.0
 40
0.0
 40
0.0
 40
0.0
 40
2.038919526304102
 40
3.439698394540449
 40
3.439698394540449
 40
3.439698394540449
 40
3.439698394540449
 10
-35.87499999999943
 20
0.1317110560104808
 30
0.0
 10
-36.35701990524447
 20
0.6108426933703349
 30
0.0
 10
-36.90355078897879
 20
1.852624810091544
 30
0.0
 10
-38.21866981660376
 20
1.759618678395624
 30
0.0
 10
-38.67500000010449
 20
1.660710016639636
 30
0.0
 11
-35.87499999999943
 21
0.1317110560104808
 31
0.0
 11
-37.27499999999944
 21
1.614004156157731
 31
0.0
 11
-38.67500000010449
 21
1.660710016639636
 31
0.0
  0
SPLINE
  5
3F97
330
1F
100
AcDbEntity
  8
AM_0
100
AcDbSpline
210
0.0
220
0.0
230
1.0
 70
     8
 71
     3
 72
     9
 73
     5
 74
     3
 42
0.0000000001
 43
0.0000000001
 44
0.0000000001
 12
-0.8041147091497457
 22
0.5944741664101308
 32
0.0
 13
-0.9870280271745951
 23
-0.1605480413204323
 33
0.0
 40
0.0
 40
0.0
 40
0.0
 40
0.0
 40
1.675331977305408
 40
3.079966407696655
 40
3.079966407696655
 40
3.079966407696655
 40
3.079966407696655
 10
-26.07499999999944
 20
-5.820148673720218
 30
0.0
 10
-26.52405302855284
 20
-5.488168146830595
 30
0.0
 10
-27.31434494647513
 20
-4.766202852459453
 30
0.0
 10
-28.41286214976228
 20
-4.710786718430074
 30
0.0
 10
-28.87500000000581
 20
-4.785957153953592
 30
0.0
 11
-26.07499999999944
 21
-5.820148673720218
 31
0.0
 11
-27.47499999999944
 21
-4.899965412525984
 31
0.0
 11
-28.87500000000581
 21
-4.785957153953592
 31
0.0
  0
SPLINE
  5
3F98
330
1F
100
AcDbEntity
  8
AM_0
100
AcDbSpline
210
0.0
220
0.0
230
1.0
 70
     8
 71
     3
 72
     8
 73
     4
 74
     0
 42
0.0000000001
 43
0.0000000001
 40
7.307451768075528
 40
7.307451768075528
 40
7.307451768075528
 40
7.307451768075528
 40
8.927702162744216
 40
8.927702162744216
 40
8.927702162744216
 40
8.927702162744216
 10
-28.87499999999944
 20
-4.78595715395614
 30
0.0
 10
-29.57857087643495
 20
-4.483257378655611
 30
0.0
 10
-30.27828053657029
 20
-4.16636182017623
 30
0.0
 10
-30.97499999999944
 20
-3.839455648339521
 30
0.0
  0
SPLINE
  5
3F99
330
1F
100
AcDbEntity
  8
AM_0
100
AcDbSpline
210
0.0
220
0.0
230
1.0
 70
     8
 71
     3
 72
     9
 73
     5
 74
     3
 42
0.0000000001
 43
0.0000000001
 44
0.0000000001
 12
-0.6468728043913145
 22
0.7625979117063699
 32
0.0
 13
-0.9968429144675985
 23
0.0793990168436886
 33
0.0
 40
0.0
 40
0.0
 40
0.0
 40
0.0
 40
1.692511266338591
 40
3.170828002966512
 40
3.170828002966512
 40
3.170828002966512
 40
3.170828002966512
 10
-30.97499999999944
 20
-3.839455648339521
 30
0.0
 10
-31.33994650310622
 20
-3.40922046258975
 30
0.0
 10
-32.3068025953035
 20
-2.910270627136048
 30
0.0
 10
-33.28378347858397
 20
-2.452695055025699
 30
0.0
 10
-33.77499999999943
 20
-2.413569423201757
 30
0.0
 11
-30.97499999999944
 21
-3.839455648339521
 31
0.0
 11
-32.37499999999943
 21
-2.888353978336222
 31
0.0
 11
-33.77499999999943
 21
-2.413569423201757
 31
0.0
  0
SPLINE
  5
3F9A
330
1F
100
AcDbEntity
  8
AM_0
100
AcDbSpline
210
0.0
220
0.0
230
1.0
 70
     8
 71
     3
 72
     9
 73
     5
 74
     3
 42
0.0000000001
 43
0.0000000001
 44
0.0000000001
 12
-0.6468728043913145
 22
0.7625979117063699
 32
0.0
 13
-0.9968429144675985
 23
0.0793990168436886
 33
0.0
 40
0.0
 40
0.0
 40
0.0
 40
0.0
 40
1.668350261086472
 40
3.278029321070909
 40
3.278029321070909
 40
3.278029321070909
 40
3.278029321070909
 10
-35.87499999999943
 20
-1.256229206583073
 30
0.0
 10
-36.23473680403143
 20
-0.8321357315499662
 30
0.0
 10
-37.08863743903948
 20
-0.1273755747794698
 30
0.0
 10
-38.14013427816199
 20
0.3011654903919187
 30
0.0
 10
-38.67499999999944
 20
0.3437678019907977
 30
0.0
 11
-35.87499999999943
 21
-1.256229206583073
 31
0.0
 11
-37.155104017057
 21
-0.1863103782692704
 31
0.0
 11
-38.67499999999944
 21
0.3437678019907977
 31
0.0
  0
SPLINE
  5
3F9B
330
1F
100
AcDbEntity
  8
AM_0
100
AcDbSpline
210
0.0
220
0.0
230
1.0
 70
     8
 71
     3
 72
     8
 73
     4
 74
     0
 42
0.0000000001
 43
0.0000000001
 40
12.93073884177286
 40
12.93073884177286
 40
12.93073884177286
 40
12.93073884177286
 40
13.14980328570818
 40
13.14980328570818
 40
13.14980328570818
 40
13.14980328570818
 10
-38.67499999999944
 20
0.3437678019908773
 30
0.0
 10
-39.07790746769227
 20
0.5727692999968046
 30
0.0
 10
-39.5180789966184
 20
0.8231070343259705
 30
0.0
 10
-39.99999999999984
 20
1.097324477765192
 30
0.0
  0
SPLINE
  5
3F9C
330
1F
100
AcDbEntity
  8
AM_0
100
AcDbSpline
210
0.0
220
0.0
230
1.0
 70
     8
 71
     3
 72
     8
 73
     4
 74
     0
 42
0.0000000001
 43
0.0000000001
 40
8.337842376104966
 40
8.337842376104966
 40
8.337842376104966
 40
8.337842376104966
 40
9.419743745067137
 40
9.419743745067137
 40
9.419743745067137
 40
9.419743745067137
 10
-33.77499999999943
 20
-2.413569423201757
 30
0.0
 10
-34.461574092652
 20
-2.04565949976514
 30
0.0
 10
-35.16079165561466
 20
-1.659401762120792
 30
0.0
 10
-35.87499999999936
 20
-1.256229206583073
 30
0.0
  0
SPLINE
  5
3F9D
330
1F
100
AcDbEntity
  8
AM_0
100
AcDbSpline
210
0.0
220
0.0
230
1.0
 70
     8
 71
     3
 72
     8
 73
     4
 74
     0
 42
0.0000000001
 43
0.0000000001
 40
0.0
 40
0.0
 40
0.0
 40
0.0
 40
4.451443990518192
 40
4.451443990518192
 40
4.451443990518192
 40
4.451443990518192
 10
-32.41976744204583
 20
-6.46442230531846
 30
0.0
 10
-30.34242691313792
 20
-6.46442230531838
 30
0.0
 10
-28.31635702860511
 20
-6.153935779940952
 30
0.0
 10
-26.32566718857796
 20
-5.629193568487558
 30
0.0
  0
SPLINE
  5
3F9E
330
1F
100
AcDbEntity
  8
AM_0
100
AcDbSpline
210
0.0
220
0.0
230
1.0
 70
     8
 71
     3
 72
     8
 73
     4
 74
     0
 42
0.0000000001
 43
0.0000000001
 40
0.0
 40
0.0
 40
0.0
 40
0.0
 40
7.074983227811165
 40
7.074983227811165
 40
7.074983227811165
 40
7.074983227811165
 10
-32.41976744204583
 20
-6.46442230531846
 30
0.0
 10
-35.72142628169102
 20
-6.46442230531846
 30
0.0
 10
-38.89357080469961
 20
-5.680105067866129
 30
0.0
 10
-40.00000000000042
 20
-5.280675932387143
 30
0.0
  0
SPLINE
  5
3F9F
330
1F
100
AcDbEntity
  8
AM_0
100
AcDbSpline
210
0.0
220
0.0
230
1.0
 70
     8
 71
     3
 72
     8
 73
     4
 74
     0
 42
0.0000000001
 43
0.0000000001
 40
0.0
 40
0.0
 40
0.0
 40
0.0
 40
0.1876053187785989
 40
0.1876053187785989
 40
0.1876053187785989
 40
0.1876053187785989
 10
-39.81221079541136
 20
-6.289624251933975
 30
0.0
 10
-39.87356147321412
 20
-6.211463645008144
 30
0.0
 10
-39.93612228691958
 20
-6.14669546840479
 30
0.0
 10
-40.00000000000111
 20
-6.081433329540415
 30
0.0
  0
SPLINE
  5
3FA2
330
1F
100
AcDbEntity
  8
AM_0
100
AcDbSpline
210
0.0
220
0.0
230
1.0
 70
     8
 71
     3
 72
     8
 73
     4
 74
     0
 42
0.0000000001
 43
0.0000000001
 40
11.00490302772803
 40
11.00490302772803
 40
11.00490302772803
 40
11.00490302772803
 40
12.06337302160172
 40
12.06337302160172
 40
12.06337302160172
 40
12.06337302160172
 10
-39.99999999999968
 20
2.367237304888305
 30
0.0
 10
-39.57964814185597
 20
2.142011714249863
 30
0.0
 10
-39.12706443479466
 20
1.902861796992498
 30
0.0
 10
-38.67500000010449
 20
1.660710016639636
 30
0.0
  0
SPLINE
  5
3FA3
330
1F
100
AcDbEntity
  8
AM_0
100
AcDbSpline
210
0.0
220
0.0
230
1.0
 70
     8
 71
     3
 72
     8
 73
     4
 74
     0
 42
0.0000000001
 43
0.0000000001
 40
0.3507760400854742
 40
0.3507760400854742
 40
0.3507760400854742
 40
0.3507760400854742
 40
1.871307041999678
 40
1.871307041999678
 40
1.871307041999678
 40
1.871307041999678
 10
-37.2360920390505
 20
6.945664008418194
 30
0.0
 10
-36.52963782063377
 20
6.928096997555727
 30
0.0
 10
-35.82987778463763
 20
6.87292207447355
 30
0.0
 10
-35.1360920390505
 20
6.784183591998968
 30
0.0
  0
SPLINE
  5
3FA4
330
1F
100
AcDbEntity
  8
AM_0
100
AcDbSpline
210
0.0
220
0.0
230
1.0
 70
     8
 71
     3
 72
     9
 73
     5
 74
     0
 42
0.0000000001
 43
0.0000000001
 40
0.1875797801541802
 40
0.1875797801541802
 40
0.1875797801541802
 40
0.1875797801541802
 40
1.745628622048741
 40
3.020784838146491
 40
3.020784838146491
 40
3.020784838146491
 40
3.020784838146491
 10
-39.99999999999086
 20
5.998195252596286
 30
0.0
 10
-39.35056682096915
 20
6.084928577044599
 30
0.0
 10
-38.48716754181771
 20
6.446291812392964
 30
0.0
 10
-37.61292804614214
 20
6.749032658683664
 30
0.0
 10
-37.2360920390505
 20
6.945664008418194
 30
0.0
  0
SPLINE
  5
3FA6
330
1F
100
AcDbEntity
  8
AM_0
100
AcDbSpline
210
0.0
220
0.0
230
1.0
 70
     8
 71
     3
 72
     8
 73
     4
 74
     0
 42
0.0000000001
 43
0.0000000001
 40
2.130606102564619
 40
2.130606102564619
 40
2.130606102564619
 40
2.130606102564619
 40
3.679329335050426
 40
3.679329335050426
 40
3.679329335050426
 40
3.679329335050426
 10
-13.64999999999952
 20
6.579528081888057
 30
0.0
 10
-12.94448179401558
 20
6.479984968056935
 30
0.0
 10
-12.24472337163314
 20
6.347145105170458
 30
0.0
 10
-11.55000000000262
 20
6.185198103364784
 30
0.0
  0
SPLINE
  5
3FA7
330
1F
100
AcDbEntity
  8
AM_0
100
AcDbSpline
210
0.0
220
0.0
230
1.0
 70
     8
 71
     3
 72
     8
 73
     4
 74
     0
 42
0.0000000001
 43
0.0000000001
 40
3.939746932601999
 40
3.939746932601999
 40
3.939746932601999
 40
3.939746932601999
 40
5.519086939037594
 40
5.519086939037594
 40
5.519086939037594
 40
5.519086939037594
 10
-13.64999999999944
 20
6.294122512416372
 30
0.0
 10
-12.94488005482343
 20
6.114878046892083
 30
0.0
 10
-12.24514895257597
 20
5.905359065518716
 30
0.0
 10
-11.54999999999944
 20
5.670097570455838
 30
0.0
  0
SPLINE
  5
3FA8
330
1F
100
AcDbEntity
  8
AM_0
100
AcDbSpline
210
0.0
220
0.0
230
1.0
 70
     8
 71
     3
 72
     9
 73
     5
 74
     0
 42
0.0000000001
 43
0.0000000001
 40
0.0
 40
0.0
 40
0.0
 40
0.0
 40
1.008936993267342
 40
1.777052715134862
 40
1.777052715134862
 40
1.777052715134862
 40
1.777052715134862
 10
-13.64999999999952
 20
6.579528081887739
 30
0.0
 10
-14.10646075433066
 20
6.464066796259604
 30
0.0
 10
-14.94700985738862
 20
6.28363986931544
 30
0.0
 10
-15.75368660637538
 20
6.515033732924204
 30
0.0
 10
-16.10078888601208
 20
6.615137199144957
 30
0.0
  0
SPLINE
  5
3FA9
330
1F
100
AcDbEntity
  8
AM_0
100
AcDbSpline
210
0.0
220
0.0
230
1.0
 70
     8
 71
     3
 72
     9
 73
     5
 74
     3
 42
0.0000000001
 43
0.0000000001
 44
0.0000000001
 12
-0.9326421945680822
 22
-0.3608026287476736
 32
0.0
 13
-0.8816144343688907
 23
0.4719703265168489
 33
0.0
 40
0.0
 40
0.0
 40
0.0
 40
0.0
 40
1.422446187316788
 40
3.029956792384264
 40
3.029956792384264
 40
3.029956792384264
 40
3.029956792384264
 10
-13.64999999999944
 20
6.294122512416372
 30
0.0
 10
-14.09221111126415
 20
6.123048404537704
 30
0.0
 10
-15.18079559209395
 20
5.75923299216766
 30
0.0
 10
-15.97759848239
 20
6.579516772138426
 30
0.0
 10
-16.44999999999952
 20
6.83241587385609
 30
0.0
 11
-13.64999999999944
 21
6.294122512416372
 31
0.0
 11
-15.04999999999944
 21
6.04242198438341
 31
0.0
 11
-16.44999999999952
 21
6.83241587385609
 31
0.0
  0
SPLINE
  5
3FAA
330
1F
100
AcDbEntity
  8
AM_0
100
AcDbSpline
210
0.0
220
0.0
230
1.0
 70
     8
 71
     3
 72
     8
 73
     4
 74
     0
 42
0.0000000001
 43
0.0000000001
 40
5.779271486987545
 40
5.779271486987545
 40
5.779271486987545
 40
5.779271486987545
 40
7.377122246071414
 40
7.377122246071414
 40
7.377122246071414
 40
7.377122246071414
 10
-8.749999999999442
 20
5.376339893157528
 30
0.0
 10
-8.045951761064396
 20
5.135765030239353
 30
0.0
 10
-7.346217065121151
 20
4.870253994628437
 30
0.0
 10
-6.649999999999442
 20
4.584407877208086
 30
0.0
  0
SPLINE
  5
3FAB
330
1F
100
AcDbEntity
  8
AM_0
100
AcDbSpline
210
0.0
220
0.0
230
1.0
 70
     8
 71
     3
 72
     8
 73
     4
 74
     0
 42
0.0000000001
 43
0.0000000001
 40
7.657131739025505
 40
7.657131739025505
 40
7.657131739025505
 40
7.657131739025505
 40
9.280732515295124
 40
9.280732515295124
 40
9.280732515295124
 40
9.280732515295124
 10
-8.749999999999442
 20
4.584347742967592
 30
0.0
 10
-8.046603703661356
 20
4.279379898085043
 30
0.0
 10
-7.346895848362225
 20
3.953690393992546
 30
0.0
 10
-6.650000000000079
 20
3.612203036870168
 30
0.0
  0
SPLINE
  5
3FAC
330
1F
100
AcDbEntity
  8
AM_0
100
AcDbSpline
210
0.0
220
0.0
230
1.0
 70
     8
 71
     3
 72
     9
 73
     5
 74
     3
 42
0.0000000001
 43
0.0000000001
 44
0.0000000001
 12
-0.8654492111584179
 22
0.5009966695550704
 32
0.0
 13
-0.9979873375911878
 23
0.0634135159698014
 33
0.0
 40
0.0
 40
0.0
 40
0.0
 40
0.0
 40
1.489836492101037
 40
2.92147964080278
 40
2.92147964080278
 40
2.92147964080278
 40
2.92147964080278
 10
-8.749999999999442
 20
5.376339893157528
 30
0.0
 10
-9.179792605614064
 20
5.625140933398937
 30
0.0
 10
-10.13550820771248
 20
5.871124825992931
 30
0.0
 10
-11.07374608854827
 20
6.154936261473698
 30
0.0
 10
-11.54999999999944
 20
6.185198103364784
 30
0.0
 11
-8.749999999999442
 21
5.376339893157528
 31
0.0
 11
-10.14999999999944
 21
5.885861995912573
 31
0.0
 11
-11.54999999999944
 21
6.185198103364784
 31
0.0
  0
SPLINE
  5
3FAD
330
1F
100
AcDbEntity
  8
AM_0
100
AcDbSpline
210
0.0
220
0.0
230
1.0
 70
     8
 71
     3
 72
     9
 73
     5
 74
     3
 42
0.0000000001
 43
0.0000000001
 44
0.0000000001
 12
-0.9981770100665453
 22
0.0603544246481742
 32
0.0
 13
-0.7796355206958437
 23
0.6262335465857137
 33
0.0
 40
0.0
 40
0.0
 40
0.0
 40
0.0
 40
1.40884666541717
 40
3.088547932723704
 40
3.088547932723704
 40
3.088547932723704
 40
3.088547932723704
 10
-8.749999999999442
 20
4.584347742967592
 30
0.0
 10
-9.218759450708887
 20
4.612691119603843
 30
0.0
 10
-10.30107767776133
 20
4.576874858244234
 30
0.0
 10
-11.11348174261611
 20
5.319469143179527
 30
0.0
 10
-11.54999999999944
 20
5.670097570456157
 30
0.0
 11
-8.749999999999442
 21
4.584347742967592
 31
0.0
 11
-10.14999999999944
 21
4.74198316619816
 31
0.0
 11
-11.54999999999944
 21
5.670097570456157
 31
0.0
  0
SPLINE
  5
3FAE
330
1F
100
AcDbEntity
  8
AM_0
100
AcDbSpline
210
0.0
220
0.0
230
1.0
 70
     8
 71
     3
 72
     8
 73
     4
 74
     0
 42
0.0000000001
 43
0.0000000001
 40
9.532359626456116
 40
9.532359626456116
 40
9.532359626456116
 40
9.532359626456116
 40
12.40023413887867
 40
12.40023413887867
 40
12.40023413887867
 40
12.40023413887867
 10
-3.850000000011538
 20
3.328030790747133
 30
0.0
 10
-2.614839862912128
 20
2.731549714500969
 30
0.0
 10
-1.387553131850006
 20
2.089553243366598
 30
0.0
 10
-0.1635379093533515
 20
1.428644499257852
 30
0.0
  0
SPLINE
  5
3FAF
330
1F
100
AcDbEntity
  8
AM_0
100
AcDbSpline
210
0.0
220
0.0
230
1.0
 70
     8
 71
     3
 72
     8
 73
     4
 74
     0
 42
0.0000000001
 43
0.0000000001
 40
11.46537929237052
 40
11.46537929237052
 40
11.46537929237052
 40
11.46537929237052
 40
14.48999654934396
 40
14.48999654934396
 40
14.48999654934396
 40
14.48999654934396
 10
-3.850000000000079
 20
2.159919384218964
 30
0.0
 10
-2.56288919222369
 20
1.461168104960988
 30
0.0
 10
-1.281444596111566
 20
0.7305840524831453
 30
0.0
 10
0.0000000000005571
 20
0.0000000000056204
 30
0.0
  0
SPLINE
  5
3FB0
330
1F
100
AcDbEntity
  8
AM_0
100
AcDbSpline
210
0.0
220
0.0
230
1.0
 70
     8
 71
     3
 72
     9
 73
     5
 74
     3
 42
0.0000000001
 43
0.0000000001
 44
0.0000000001
 12
-0.8176346168783101
 22
0.5757374690622967
 32
0.0
 13
-0.9964633055848633
 23
-0.0840290463047592
 33
0.0
 40
0.0
 40
0.0
 40
0.0
 40
0.0
 40
1.738791413895962
 40
3.156782910909153
 40
3.156782910909153
 40
3.156782910909153
 40
3.156782910909153
 10
-3.849999999999442
 20
3.328030790741085
 30
0.0
 10
-4.323898683843482
 20
3.661726580028989
 30
0.0
 10
-5.05802854076117
 20
4.48124969342504
 30
0.0
 10
-6.179007835197777
 20
4.624125368262178
 30
0.0
 10
-6.649999999999442
 20
4.584407877208086
 30
0.0
 11
-3.849999999999442
 21
3.328030790741085
 31
0.0
 11
-5.249999999999442
 21
4.359241526254599
 31
0.0
 11
-6.649999999999442
 21
4.584407877208086
 31
0.0
  0
SPLINE
  5
3FB1
330
1F
100
AcDbEntity
  8
AM_0
100
AcDbSpline
210
0.0
220
0.0
230
1.0
 70
     8
 71
     3
 72
     9
 73
     5
 74
     3
 42
0.0000000001
 43
0.0000000001
 44
0.0000000001
 12
-0.9681805968441553
 22
0.2502525362398859
 32
0.0
 13
-0.8208259885173385
 23
0.5711783404283938
 33
0.0
 40
0.0
 40
0.0
 40
0.0
 40
0.0
 40
1.490972927857821
 40
3.176963079683361
 40
3.176963079683361
 40
3.176963079683361
 40
3.176963079683361
 10
-3.849999999999442
 20
2.159919384218646
 30
0.0
 10
-4.331177019723397
 20
2.284292636439122
 30
0.0
 10
-5.354441918722012
 20
2.618935014014393
 30
0.0
 10
-6.188698488998543
 20
3.291202684570407
 30
0.0
 10
-6.649999999999442
 20
3.612203036869849
 30
0.0
 11
-3.849999999999442
 21
2.159919384218646
 31
0.0
 11
-5.249999999999442
 21
2.672754905224091
 31
0.0
 11
-6.649999999999442
 21
3.612203036869849
 31
0.0
  0
SPLINE
  5
3FB2
330
1F
100
AcDbEntity
  8
AM_0
100
AcDbSpline
210
0.0
220
0.0
230
1.0
 70
     8
 71
     3
 72
     9
 73
     5
 74
     0
 42
0.0000000001
 43
0.0000000001
 40
0.0
 40
0.0
 40
0.0
 40
0.0
 40
1.173671883824386
 40
1.360226551015519
 40
1.360226551015519
 40
1.360226551015519
 40
1.360226551015519
 10
-5.249999999999442
 20
6.329294333481565
 30
0.0
 10
-5.59127577266571
 20
5.900900851707209
 30
0.0
 10
-6.186296110656428
 20
5.564068750753976
 30
0.0
 10
-6.824159726966251
 20
5.428018138964743
 30
0.0
 10
-6.912037267819493
 20
5.413364355791536
 30
0.0
  0
SPLINE
  5
3FB3
330
1F
100
AcDbEntity
  8
AM_0
100
AcDbSpline
210
0.0
220
0.0
230
1.0
 70
     8
 71
     3
 72
     8
 73
     4
 74
     0
 42
0.0000000001
 43
0.0000000001
 40
13.73199344169106
 40
13.73199344169106
 40
13.73199344169106
 40
13.73199344169106
 40
14.43901837670146
 40
14.43901837670146
 40
14.43901837670146
 40
14.43901837670146
 10
-17.49999999999945
 20
0.4983520562265241
 30
0.0
 10
-17.19874459893798
 20
0.3325004491543424
 30
0.0
 10
-16.89755815207244
 20
0.1662502245797824
 30
0.0
 10
-16.5963717052069
 20
0.0000000000055408
 30
0.0
  0
SPLINE
  5
3FB4
330
1F
100
AcDbEntity
  8
AM_0
100
AcDbSpline
210
0.0
220
0.0
230
1.0
 70
     8
 71
     3
 72
     9
 73
     5
 74
     3
 42
0.0000000001
 43
0.0000000001
 44
0.0000000001
 12
-0.5307113561502299
 22
0.8475526275419031
 32
0.0
 13
-0.9709540402127611
 23
-0.2392660690413831
 33
0.0
 40
0.0
 40
0.0
 40
0.0
 40
0.0
 40
1.992404028619936
 40
3.395858220230644
 40
3.395858220230644
 40
3.395858220230644
 40
3.395858220230644
 10
-17.49999999999945
 20
0.4983520562265241
 30
0.0
 10
-17.85246381467547
 20
1.061241146087157
 30
0.0
 10
-18.59761547353942
 20
2.067719472252222
 30
0.0
 10
-19.84577016080013
 20
2.126320321074949
 30
0.0
 10
-20.29999999999945
 20
2.014387331906168
 30
0.0
 11
-17.49999999999945
 21
0.4983520562265241
 31
0.0
 11
-18.89999999999945
 21
1.915981702241644
 31
0.0
 11
-20.29999999999945
 21
2.014387331906168
 31
0.0
  0
SPLINE
  5
3FB5
330
1F
100
AcDbEntity
  8
AM_0
100
AcDbSpline
210
0.0
220
0.0
230
1.0
 70
     8
 71
     3
 72
     8
 73
     4
 74
     0
 42
0.0000000001
 43
0.0000000001
 40
13.50299628442394
 40
13.50299628442394
 40
13.50299628442394
 40
13.50299628442394
 40
14.43901837670146
 40
14.43901837670146
 40
14.43901837670146
 40
14.43901837670146
 10
-15.39999999999945
 20
-0.6593652855324833
 30
0.0
 10
-15.79889723379637
 20
-0.4401934792963928
 30
0.0
 10
-16.19763446950164
 20
-0.2200967396455852
 30
0.0
 10
-16.5963717052069
 20
0.0000000000055408
 30
0.0
  0
SPLINE
  5
3FB6
330
1F
100
AcDbEntity
  8
AM_0
100
AcDbSpline
210
0.0
220
0.0
230
1.0
 70
     8
 71
     3
 72
     8
 73
     4
 74
     0
 42
0.0000000001
 43
0.0000000001
 40
11.62991291415682
 40
11.62991291415682
 40
11.62991291415682
 40
11.62991291415682
 40
14.48999654934396
 40
14.48999654934396
 40
14.48999654934396
 40
14.48999654934396
 10
-15.39999999999945
 20
-2.045609556180495
 30
0.0
 10
-16.61652727115142
 20
-1.381683244578751
 30
0.0
 10
-17.82826363557505
 20
-0.6908416222866052
 30
0.0
 10
-19.03999999999932
 20
0.0000000000052225
 30
0.0
  0
SPLINE
  5
3FB7
330
1F
100
AcDbEntity
  8
AM_0
100
AcDbSpline
210
0.0
220
0.0
230
1.0
 70
     8
 71
     3
 72
     9
 73
     5
 74
     3
 42
0.0000000001
 43
0.0000000001
 44
0.0000000001
 12
-0.4936303795221301
 22
0.8696718050005058
 32
0.0
 13
-0.8861177952488986
 23
-0.4634600877564662
 33
0.0
 40
0.0
 40
0.0
 40
0.0
 40
0.0
 40
2.085704519383174
 40
3.485704519383173
 40
3.485704519383173
 40
3.485704519383173
 40
3.485704519383173
 10
-12.59999999999944
 20
-2.168320662739786
 30
0.0
 10
-12.94318903782415
 20
-1.56369452471656
 30
0.0
 10
-13.61986251396541
 20
-0.4674649907687716
 30
0.0
 10
-14.98647836221663
 20
-0.4060239773470512
 30
0.0
 10
-15.39999999999945
 20
-0.6223053516334019
 30
0.0
 11
-12.59999999999944
 21
-2.168320662739786
 31
0.0
 11
-13.99999999999945
 21
-0.6223053516334019
 31
0.0
 11
-15.39999999999945
 21
-0.6223053516334019
 31
0.0
  0
SPLINE
  5
3FB8
330
1F
100
AcDbEntity
  8
AM_0
100
AcDbSpline
210
0.0
220
0.0
230
1.0
 70
     8
 71
     3
 72
     9
 73
     5
 74
     3
 42
0.0000000001
 43
0.0000000001
 44
0.0000000001
 12
-0.7690286934869394
 22
0.639214258753488
 32
0.0
 13
-0.9823098605277891
 23
0.1872627509940925
 33
0.0
 40
0.0
 40
0.0
 40
0.0
 40
0.0
 40
1.684509397652167
 40
3.180197980750008
 40
3.180197980750008
 40
3.180197980750008
 40
3.180197980750008
 10
-12.59999999999944
 20
-3.508785648798409
 30
0.0
 10
-13.03181202041374
 20
-3.149864840137237
 30
0.0
 10
-13.91724535082554
 20
-2.559297415319579
 30
0.0
 10
-14.91025678551417
 20
-2.138971809080948
 30
0.0
 10
-15.39999999999945
 20
-2.045609556180495
 30
0.0
 11
-12.59999999999944
 21
-3.508785648798409
 31
0.0
 11
-13.99999999999945
 21
-2.571997566691022
 31
0.0
 11
-15.39999999999945
 21
-2.045609556180495
 31
0.0
  0
SPLINE
  5
3FB9
330
1F
100
AcDbEntity
  8
AM_0
100
AcDbSpline
210
0.0
220
0.0
230
1.0
 70
     8
 71
     3
 72
     8
 73
     4
 74
     0
 42
0.0000000001
 43
0.0000000001
 40
9.685078621624523
 40
9.685078621624523
 40
9.685078621624523
 40
9.685078621624523
 40
11.31655044551473
 40
11.31655044551473
 40
11.31655044551473
 40
11.31655044551473
 10
-10.49999999999944
 20
-3.232356828613644
 30
0.0
 10
-11.20218629974941
 20
-2.890316892934841
 30
0.0
 10
-11.9019038937129
 20
-2.534005609098092
 30
0.0
 10
-12.60000000001663
 20
-2.168320662730873
 30
0.0
  0
SPLINE
  5
3FBA
330
1F
100
AcDbEntity
  8
AM_0
100
AcDbSpline
210
0.0
220
0.0
230
1.0
 70
     8
 71
     3
 72
     8
 73
     4
 74
     0
 42
0.0000000001
 43
0.0000000001
 40
7.818791612490512
 40
7.818791612490512
 40
7.818791612490512
 40
7.818791612490512
 40
9.443881246512125
 40
9.443881246512125
 40
9.443881246512125
 40
9.443881246512125
 10
-10.49999999999944
 20
-4.492640517445449
 30
0.0
 10
-11.20331483412254
 20
-4.183311630378427
 30
0.0
 10
-11.90302188498598
 20
-3.853714219449427
 30
0.0
 10
-12.59999999999944
 20
-3.508785648798409
 30
0.0
  0
SPLINE
  5
3FBB
330
1F
100
AcDbEntity
  8
AM_0
100
AcDbSpline
210
0.0
220
0.0
230
1.0
 70
     8
 71
     3
 72
     9
 73
     5
 74
     3
 42
0.0000000001
 43
0.0000000001
 44
0.0000000001
 12
-0.6311748102206569
 22
0.7756406119736884
 32
0.0
 13
-0.993948350019866
 23
-0.1098484296327715
 33
0.0
 40
0.0
 40
0.0
 40
0.0
 40
0.0
 40
1.998322054141331
 40
3.408088135543096
 40
3.408088135543096
 40
3.408088135543096
 40
3.408088135543096
 10
-7.699999999999442
 20
-4.492640517445688
 30
0.0
 10
-8.120430181093578
 20
-3.975980603780788
 30
0.0
 10
-8.784329727928323
 20
-2.665151152251433
 30
0.0
 10
-10.03292177649169
 20
-3.180736631883134
 30
0.0
 10
-10.49999999999944
 20
-3.232356828613644
 30
0.0
 11
-7.699999999999442
 21
-4.492640517445688
 31
0.0
 11
-9.099999999999441
 21
-3.066705374436851
 31
0.0
 11
-10.49999999999944
 21
-3.232356828613644
 31
0.0
  0
SPLINE
  5
3FBC
330
1F
100
AcDbEntity
  8
AM_0
100
AcDbSpline
210
0.0
220
0.0
230
1.0
 70
     8
 71
     3
 72
     9
 73
     5
 74
     3
 42
0.0000000001
 43
0.0000000001
 44
0.0000000001
 12
-0.6160346874185745
 22
0.7877190259839477
 32
0.0
 13
-0.9511353387127352
 23
-0.3087742985609561
 33
0.0
 40
0.0
 40
0.0
 40
0.0
 40
0.0
 40
1.681519299161967
 40
3.092310337480273
 40
3.092310337480273
 40
3.092310337480273
 40
3.092310337480273
 10
-7.699999999999442
 20
-5.598200148127189
 30
0.0
 10
-8.045291405281956
 20
-5.156678566624163
 30
0.0
 10
-8.974679107644639
 20
-4.651620658044831
 30
0.0
 10
-10.05271559597151
 20
-4.347435179688162
 30
0.0
 10
-10.49999999999944
 20
-4.492640517445767
 30
0.0
 11
-7.699999999999442
 21
-5.598200148127189
 31
0.0
 11
-9.099999999999441
 21
-4.66679950744985
 31
0.0
 11
-10.49999999999944
 21
-4.492640517445767
 31
0.0
  0
SPLINE
  5
3FBD
330
1F
100
AcDbEntity
  8
AM_0
100
AcDbSpline
210
0.0
220
0.0
230
1.0
 70
     8
 71
     3
 72
     8
 73
     4
 74
     0
 42
0.0000000001
 43
0.0000000001
 40
5.928582328726523
 40
5.928582328726523
 40
5.928582328726523
 40
5.928582328726523
 40
7.528098176779675
 40
7.528098176779675
 40
7.528098176779675
 40
7.528098176779675
 10
-5.600000000005809
 20
-5.308249016102781
 30
0.0
 10
-6.303981874519546
 20
-5.062798505435848
 30
0.0
 10
-7.003715740179893
 20
-4.792790668560446
 30
0.0
 10
-7.699999999965063
 20
-4.502840995473725
 30
0.0
  0
SPLINE
  5
3FBE
330
1F
100
AcDbEntity
  8
AM_0
100
AcDbSpline
210
0.0
220
0.0
230
1.0
 70
     8
 71
     3
 72
     8
 73
     4
 74
     0
 42
0.0000000001
 43
0.0000000001
 40
4.096652702081863
 40
4.096652702081863
 40
4.096652702081863
 40
4.096652702081863
 40
5.678228147290397
 40
5.678228147290397
 40
5.678228147290397
 40
5.678228147290397
 10
-5.599999999996896
 20
-6.239807260949937
 30
0.0
 10
-6.30505369639012
 20
-6.054329886186196
 30
0.0
 10
-7.004783655206835
 20
-5.838943757394617
 30
0.0
 10
-7.699999999999442
 20
-5.598200148127189
 30
0.0
  0
SPLINE
  5
3FBF
330
1F
100
AcDbEntity
  8
AM_0
100
AcDbSpline
210
0.0
220
0.0
230
1.0
 70
     8
 71
     3
 72
     9
 73
     5
 74
     3
 42
0.0000000001
 43
0.0000000001
 44
0.0000000001
 12
-0.6494269884643477
 22
0.7604239519203273
 32
0.0
 13
-0.9604248968033772
 23
-0.2785390773306727
 33
0.0
 40
0.0
 40
0.0
 40
0.0
 40
0.0
 40
1.776826421649504
 40
3.201495000306569
 40
3.201495000306569
 40
3.201495000306569
 40
3.201495000306569
 10
-2.799999999999442
 20
-6.138404458004078
 30
0.0
 10
-3.184639677344683
 20
-5.688024001528355
 30
0.0
 10
-4.018448563918894
 20
-4.704074580799335
 30
0.0
 10
-5.1439042757939
 20
-5.175973725635734
 30
0.0
 10
-5.600000000005809
 20
-5.308249016102781
 30
0.0
 11
-2.799999999999442
 21
-6.138404458004078
 31
0.0
 11
-4.199999999999442
 21
-5.044278262050529
 31
0.0
 11
-5.600000000005809
 21
-5.308249016102781
 31
0.0
  0
SPLINE
  5
3FC0
330
1F
100
AcDbEntity
  8
AM_0
100
AcDbSpline
210
0.0
220
0.0
230
1.0
 70
     8
 71
     3
 72
     8
 73
     4
 74
     2
 42
0.0000000001
 43
0.0000000001
 44
0.0000000001
 12
0.6880548427449761
 22
-0.7256586893128109
 32
0.0
 13
-0.9854444993171648
 23
-0.1699974669386056
 33
0.0
 40
0.0
 40
0.0
 40
0.0
 40
0.0
 40
4.007950141760133
 40
4.007950141760133
 40
4.007950141760133
 40
4.007950141760133
 10
-0.4199999999991406
 20
7.000000000005301
 30
0.0
 10
0.4992298348403505
 20
6.03053205110505
 30
0.0
 10
-1.982663649851638
 20
4.438948582116585
 30
0.0
 10
-3.299201123429963
 20
4.211834791544769
 30
0.0
 11
-0.4199999999991406
 21
7.000000000005301
 31
0.0
 11
-3.299201123429963
 21
4.211834791544769
 31
0.0
  0
SPLINE
  5
3FC1
330
1F
100
AcDbEntity
  8
AM_0
100
AcDbSpline
210
0.0
220
0.0
230
1.0
 70
     8
 71
     3
 72
     8
 73
     4
 74
     0
 42
0.0000000001
 43
0.0000000001
 40
0.0
 40
0.0
 40
0.0
 40
0.0
 40
4.451443990518192
 40
4.451443990518192
 40
4.451443990518192
 40
4.451443990518192
 10
-13.78255664663392
 20
-6.464422305318301
 30
0.0
 10
-11.705216117726
 20
-6.464422305318301
 30
0.0
 10
-9.679146233193193
 20
-6.153935779940793
 30
0.0
 10
-7.68845639316604
 20
-5.629193568487398
 30
0.0
  0
SPLINE
  5
3FC2
330
1F
100
AcDbEntity
  8
AM_0
100
AcDbSpline
210
0.0
220
0.0
230
1.0
 70
     8
 71
     3
 72
     8
 73
     4
 74
     0
 42
0.0000000001
 43
0.0000000001
 40
4.542668862435135
 40
4.542668862435135
 40
4.542668862435135
 40
4.542668862435135
 40
14.36247867694493
 40
14.36247867694493
 40
14.36247867694493
 40
14.36247867694493
 10
-0.9589999999974565
 20
-5.596663317633892
 30
0.0
 10
-5.347243771597083
 20
-4.41980796119662
 30
0.0
 10
-9.564900209115499
 20
-2.2099039805955
 30
0.0
 10
-13.78255664663392
 20
0.0000000000055408
 30
0.0
  0
SPLINE
  5
3FC3
330
1F
100
AcDbEntity
  8
AM_0
100
AcDbSpline
210
0.0
220
0.0
230
1.0
 70
     8
 71
     3
 72
     8
 73
     4
 74
     0
 42
0.0000000001
 43
0.0000000001
 40
0.0
 40
0.0
 40
0.0
 40
0.0
 40
3.835275104118792
 40
3.835275104118792
 40
3.835275104118792
 40
3.835275104118792
 10
0.0000000000005571
 20
7.000000000005301
 30
0.0
 10
-1.789795048588325
 20
7.000000000005301
 30
0.0
 10
-3.535944258671122
 20
6.754797709402854
 30
0.0
 10
-5.249999999999442
 20
6.329294333481565
 30
0.0
  0
SPLINE
  5
3FC4
330
1F
100
AcDbEntity
  8
AM_0
100
AcDbSpline
210
0.0
220
0.0
230
1.0
 70
     8
 71
     3
 72
     8
 73
     4
 74
     0
 42
0.0000000001
 43
0.0000000001
 40
0.3507760400854742
 40
0.3507760400854742
 40
0.3507760400854742
 40
0.3507760400854742
 40
1.871307041999678
 40
1.871307041999678
 40
1.871307041999678
 40
1.871307041999678
 10
-18.54999999999952
 20
6.993896290275317
 30
0.0
 10
-17.84354578158279
 20
6.976329279412849
 30
0.0
 10
-17.14378574558665
 20
6.921154356330672
 30
0.0
 10
-16.44999999999952
 20
6.83241587385609
 30
0.0
  0
SPLINE
  5
3FC5
330
1F
100
AcDbEntity
  8
AM_0
100
AcDbSpline
210
0.0
220
0.0
230
1.0
 70
     8
 71
     3
 72
     8
 73
     4
 74
     0
 42
0.0000000001
 43
0.0000000001
 40
0.7142832446738512
 40
0.7142832446738512
 40
0.7142832446738512
 40
0.7142832446738512
 40
9.361146747480315
 40
9.361146747480315
 40
9.361146747480315
 40
9.361146747480315
 10
-12.78645476145891
 20
6.44083690575939
 30
0.0
 10
-8.782418447440056
 20
6.252096814565838
 30
0.0
 10
-4.962217892026444
 20
4.950077835924939
 30
0.0
 10
-1.209383286481158
 20
3.240101829278709
 30
0.0
  0
SPLINE
  5
3FC6
330
1F
100
AcDbEntity
  8
AM_0
100
AcDbSpline
210
0.0
220
0.0
230
1.0
 70
     8
 71
     3
 72
     9
 73
     5
 74
     3
 42
0.0000000001
 43
0.0000000001
 44
0.0000000001
 12
0.9127464726416866
 22
-0.4085264699871464
 32
0.0
 13
0.886564333846492
 23
0.4626053198476276
 33
0.0
 40
0.0
 40
0.0
 40
0.0
 40
0.0
 40
1.496336171815103
 40
3.042306278634418
 40
3.042306278634418
 40
3.042306278634418
 40
3.042306278634418
 10
-21.34999999999952
 20
6.866359738279474
 30
0.0
 10
-20.89474147909605
 20
6.662595426884239
 30
0.0
 10
-19.91838710721962
 20
5.968537418544514
 30
0.0
 10
-19.00686731929914
 20
6.755504958361976
 30
0.0
 10
-18.54999999999952
 20
6.993896290275317
 30
0.0
 11
-21.34999999999952
 21
6.866359738279474
 31
0.0
 11
-19.94999999999944
 21
6.338134465235809
 31
0.0
 11
-18.54999999999952
 21
6.993896290275317
 31
0.0
  0
SPLINE
  5
3FC7
330
1F
100
AcDbEntity
  8
AM_0
100
AcDbSpline
210
0.0
220
0.0
230
1.0
 70
     8
 71
     3
 72
     8
 73
     4
 74
     0
 42
0.0000000001
 43
0.0000000001
 40
9.911909440357588
 40
9.911909440357588
 40
9.911909440357588
 40
9.911909440357588
 40
11.54467281373877
 40
11.54467281373877
 40
11.54467281373877
 40
11.54467281373877
 10
-22.39999999999944
 20
3.088876348757052
 30
0.0
 10
-21.69792844034617
 20
2.742688828107024
 30
0.0
 10
-20.99821151761734
 20
2.382889380306873
 30
0.0
 10
-20.29999999999945
 20
2.014387331906168
 30
0.0
  0
SPLINE
  5
3FC8
330
1F
100
AcDbEntity
  8
AM_0
100
AcDbSpline
210
0.0
220
0.0
230
1.0
 70
     8
 71
     3
 72
     8
 73
     4
 74
     0
 42
0.0000000001
 43
0.0000000001
 40
11.84940637128532
 40
11.84940637128532
 40
11.84940637128532
 40
11.84940637128532
 40
14.48999654934396
 40
14.48999654934396
 40
14.48999654934396
 40
14.48999654934396
 10
-22.39999999999944
 20
1.892289636017953
 30
0.0
 10
-21.2774864167807
 20
1.275647732802603
 30
0.0
 10
-20.15874320839002
 20
0.6378238664042712
 30
0.0
 10
-19.03999999999932
 20
0.0000000000055408
 30
0.0
  0
SPLINE
  5
3FC9
330
1F
100
AcDbEntity
  8
AM_0
100
AcDbSpline
210
0.0
220
0.0
230
1.0
 70
     8
 71
     3
 72
     8
 73
     4
 74
     0
 42
0.0000000001
 43
0.0000000001
 40
0.7142832446738512
 40
0.7142832446738512
 40
0.7142832446738512
 40
0.7142832446738512
 40
14.36247867694493
 40
14.36247867694493
 40
14.36247867694493
 40
14.36247867694493
 10
-31.82645476145878
 20
6.44083690575931
 30
0.0
 10
-25.50649028949772
 20
6.142929849670967
 30
0.0
 10
-19.64452346806609
 20
3.071464924838293
 30
0.0
 10
-13.78255664663392
 20
0.0000000000055408
 30
0.0
  0
SPLINE
  5
3FCA
330
1F
100
AcDbEntity
  8
AM_0
100
AcDbSpline
210
0.0
220
0.0
230
1.0
 70
     8
 71
     3
 72
     8
 73
     4
 74
     2
 42
0.0000000001
 43
0.0000000001
 44
0.0000000001
 12
-1.0
 22
-0.0000000000000038
 32
0.0
 40
0.0
 40
0.0
 40
0.0
 40
0.0
 40
20.10747014772336
 40
20.10747014772336
 40
20.10747014772336
 40
20.10747014772336
 10
-13.78255664663392
 20
-6.464422305318301
 30
0.0
 10
-20.48504669587504
 20
-6.464422305318326
 30
0.0
 10
-26.65380167125474
 20
-3.232211152656432
 30
0.0
 10
-32.82255664663442
 20
0.0000000000054612
 30
0.0
 11
-13.78255664663392
 21
-6.464422305318301
 31
0.0
 11
-32.82255664663442
 21
0.0000000000054612
 31
0.0
  0
LINE
  5
3FCC
330
1F
100
AcDbEntity
  8
AM_11
100
AcDbLine
 10
-40.00000000000055
 20
-6.999999999994849
 30
0.0
 11
0.0000000000005571
 21
-6.999999999994697
 31
0.0
  0
LINE
  5
3FCD
330
1F
100
AcDbEntity
  8
AM_11
100
AcDbLine
 10
-0.0000000000007162
 20
7.000000000005301
 30
0.0
 11
-39.99999999999952
 21
7.000000000005149
 31
0.0
  0
LINE
  5
3FCE
330
1F
100
AcDbEntity
  8
AM_0
100
AcDbLine
 10
-5.599999999999442
 20
-6.23980726095121
 30
0.0
 11
-5.599999999999442
 21
-5.308249016105009
 31
0.0
  0
LINE
  5
3FCF
330
1F
100
AcDbEntity
  8
AM_0
100
AcDbLine
 10
-0.1469999999994684
 20
-6.626817620665015
 30
0.0
 11
-0.9589999999993665
 21
-5.596663317641214
 31
0.0
  0
LINE
  5
3FD0
330
1F
100
AcDbEntity
  8
AM_0
100
AcDbLine
 10
-0.1469999999994684
 20
-6.626817620665015
 30
0.0
 11
-0.1469999999994684
 21
-1.857656996382838
 31
0.0
  0
LINE
  5
3FD1
330
1F
100
AcDbEntity
  8
AM_0
100
AcDbLine
 10
0.0000000000005571
 20
-6.999999999994697
 30
0.0
 11
0.0000000000005571
 21
-1.399999999994697
 31
0.0
  0
LINE
  5
3FD2
330
1F
100
AcDbEntity
  8
AM_11
100
AcDbLine
 10
-0.0000000000005571
 20
-6.999999999994697
 30
0.0
 11
0.0000000000005571
 21
7.000000000005301
 31
0.0
  0
LINE
  5
3FD3
330
1F
100
AcDbEntity
  8
AM_0
100
AcDbLine
 10
-7.699999999999442
 20
-5.598200148127189
 30
0.0
 11
-7.699999999999442
 21
-4.502840995459401
 31
0.0
  0
LINE
  5
3FD4
330
1F
100
AcDbEntity
  8
AM_0
100
AcDbLine
 10
-1.204641179966881
 20
-2.063116671227699
 30
0.0
 11
-0.1469999999994684
 21
-1.857656996382838
 31
0.0
  0
LINE
  5
3FD5
330
1F
100
AcDbEntity
  8
AM_0
100
AcDbLine
 10
-0.1469999999994684
 20
-1.857656996382838
 30
0.0
 11
0.0000000000005571
 21
-1.399999999994697
 31
0.0
  0
ARC
  5
3FD6
330
1F
100
AcDbEntity
  8
AM_0
100
AcDbCircle
 10
2.779942454838784
 20
-3.561432230599694
 30
0.0
 40
4.25697736172247
100
AcDbArc
 50
159.3923269732575
 51
208.5609268810316
  0
LINE
  5
3FD7
330
1F
100
AcDbEntity
  8
AM_0
100
AcDbLine
 10
-3.849999999999442
 20
2.159919384218646
 30
0.0
 11
-3.849999999999442
 21
3.328030790741085
 31
0.0
  0
LINE
  5
3FD8
330
1F
100
AcDbEntity
  8
AM_0
100
AcDbLine
 10
-3.299201123429963
 20
0.0000000000053021
 30
0.0
 11
-3.299201123429963
 21
-1.119999999994634
 31
0.0
  0
LINE
  5
3FD9
330
1F
100
AcDbEntity
  8
AM_0
100
AcDbLine
 10
-6.649999999999442
 20
3.612203036869849
 30
0.0
 11
-6.649999999999442
 21
4.584407877208086
 31
0.0
  0
LINE
  5
3FDA
330
1F
100
AcDbEntity
  8
AM_0
100
AcDbLine
 10
-8.749999999999442
 20
4.584347742967592
 30
0.0
 11
-8.749999999999442
 21
5.376339893157528
 31
0.0
  0
LINE
  5
3FDB
330
1F
100
AcDbEntity
  8
AM_0
100
AcDbLine
 10
0.0000000000005571
 20
0.0000000000053021
 30
0.0
 11
-0.1469999999994684
 21
1.40000000000562
 31
0.0
  0
LINE
  5
3FDC
330
1F
100
AcDbEntity
  8
AM_0
100
AcDbLine
 10
-0.1469999999994684
 20
1.40000000000562
 30
0.0
 11
-1.494533876843877
 21
3.733997139620013
 31
0.0
  0
LINE
  5
3FDD
330
1F
100
AcDbEntity
  8
AM_0
100
AcDbLine
 10
0.0000000000005571
 20
0.0000000000053021
 30
0.0
 11
-0.1243796528006783
 21
-1.18456812191459
 31
0.0
  0
LINE
  5
3FDE
330
1F
100
AcDbEntity
  8
AM_0
100
AcDbLine
 10
-1.494533876843877
 20
3.733997139620013
 30
0.0
 11
-3.299201123429963
 21
4.211834791544769
 31
0.0
  0
LINE
  5
3FDF
330
1F
100
AcDbEntity
  8
AM_0
100
AcDbLine
 10
0.0000000000005571
 20
0.0000000000053021
 30
0.0
 11
-3.299201123429963
 21
0.0000000000053021
 31
0.0
  0
LINE
  5
3FE0
330
1F
100
AcDbEntity
  8
AM_0
100
AcDbLine
 10
-3.299201123429963
 20
-1.119999999994634
 30
0.0
 11
-0.1616580753722587
 21
-1.119999999994634
 31
0.0
  0
LINE
  5
3FE1
330
1F
100
AcDbEntity
  8
AM_0
100
AcDbLine
 10
-3.299201123429963
 20
-1.119999999994634
 30
0.0
 11
-1.204641179966881
 21
-2.063116671227699
 31
0.0
  0
LINE
  5
3FE2
330
1F
100
AcDbEntity
  8
AM_0
100
AcDbLine
 10
0.0000000000005571
 20
-1.399999999994697
 30
0.0
 11
-0.8082903768647952
 21
0.0000000000056204
 31
0.0
  0
LINE
  5
3FE3
330
1F
100
AcDbEntity
  8
AM_0
100
AcDbLine
 10
0.0000000000005571
 20
0.0000000000053021
 30
0.0
 11
0.0000000000005571
 21
7.000000000005301
 31
0.0
  0
LINE
  5
3FE4
330
1F
100
AcDbEntity
  8
AM_0
100
AcDbLine
 10
-2.799999999999442
 20
-6.80450995868934
 30
0.0
 11
-2.799999999999442
 21
-6.138404458004078
 31
0.0
  0
LINE
  5
3FE5
330
1F
100
AcDbEntity
  8
AM_0
100
AcDbLine
 10
0.0000000000005571
 20
-6.999999999994697
 30
0.0
 11
-0.1469999999994684
 21
-6.626817620665015
 31
0.0
  0
LINE
  5
3FE6
330
1F
100
AcDbEntity
  8
AM_0
100
AcDbLine
 10
-40.0000000000011
 20
-5.280675932386986
 30
0.0
 11
-40.0000000000011
 21
-6.774356507493945
 31
0.0
  0
LINE
  5
3FE7
330
1F
100
AcDbEntity
  8
AM_0
100
AcDbLine
 10
-23.97499999999944
 20
-6.405360960831462
 30
0.0
 11
-23.97499999999944
 21
-5.532241196251784
 31
0.0
  0
ARC
  5
3FE9
330
1F
100
AcDbEntity
  8
AM_0
100
AcDbCircle
 10
-40.08396250199539
 20
-12.86572691953479
 30
0.0
 40
6.091949047589601
100
AcDbArc
 50
89.21029390062932
 51
105.6631905523141
  0
LINE
  5
3FEB
330
1F
100
AcDbEntity
  8
AM_0
100
AcDbLine
 10
-12.59999999999625
 20
-3.508785648800001
 30
0.0
 11
-12.59999999999944
 21
-2.168320662698404
 31
0.0
  0
LINE
  5
3FEC
330
1F
100
AcDbEntity
  8
AM_0
100
AcDbLine
 10
-10.49999999999944
 20
-4.492640517445767
 30
0.0
 11
-10.49999999999944
 21
-3.232356828613644
 31
0.0
  0
LINE
  5
3FED
330
1F
100
AcDbEntity
  8
AM_0
100
AcDbLine
 10
-17.49999999999945
 20
-0.8757406576168776
 30
0.0
 11
-17.49999999999945
 21
0.4983520562265241
 31
0.0
  0
LINE
  5
3FEE
330
1F
100
AcDbEntity
  8
AM_0
100
AcDbLine
 10
-13.64999999999944
 20
6.294122512416372
 30
0.0
 11
-13.64999999999952
 21
6.579528081887739
 31
0.0
  0
LINE
  5
3FEF
330
1F
100
AcDbEntity
  8
AM_0
100
AcDbLine
 10
-11.54999999999944
 20
5.670097570456157
 30
0.0
 11
-11.54999999999944
 21
6.185198103364784
 31
0.0
  0
LINE
  5
3FF0
330
1F
100
AcDbEntity
  8
AM_0
100
AcDbLine
 10
-15.39999999999945
 20
-2.045609556180495
 30
0.0
 11
-15.39999999999945
 21
-0.6593652855324833
 31
0.0
  0
LINE
  5
3FF1
330
1F
100
AcDbEntity
  8
AM_0
100
AcDbLine
 10
-28.87499999999944
 20
-4.78595715395614
 30
0.0
 11
-28.87499999999944
 21
-3.551501063523069
 31
0.0
  0
LINE
  5
3FF2
330
1F
100
AcDbEntity
  8
AM_0
100
AcDbLine
 10
-26.07499999999944
 20
-5.820148673716716
 30
0.0
 11
-26.07499999999944
 21
-4.773125045512138
 31
0.0
  0
LINE
  5
3FF3
330
1F
100
AcDbEntity
  8
AM_0
100
AcDbLine
 10
-27.29999999999944
 20
4.368348384972845
 30
0.0
 11
-27.2999999999988
 21
5.204690714958318
 31
0.0
  0
LINE
  5
3FF4
330
1F
100
AcDbEntity
  8
AM_0
100
AcDbLine
 10
-22.39999999999944
 20
1.892289636018271
 30
0.0
 11
-22.40000000001599
 21
3.088876348765329
 31
0.0
  0
LINE
  5
3FF5
330
1F
100
AcDbEntity
  8
AM_0
100
AcDbLine
 10
-25.19999999999944
 20
3.369330588877714
 30
0.0
 11
-25.19999999999944
 21
4.379687784197453
 31
0.0
  0
LINE
  5
3FF6
330
1F
100
AcDbEntity
  8
AM_0
100
AcDbLine
 10
-20.29999999999945
 20
0.7171240046526166
 30
0.0
 11
-20.29999999999945
 21
2.014387331906168
 31
0.0
  0
LINE
  5
3FF7
330
1F
100
AcDbEntity
  8
AM_0
100
AcDbLine
 10
-38.67499999999944
 20
0.3437678019907977
 30
0.0
 11
-38.67500000010449
 21
1.660710016639636
 31
0.0
  0
LINE
  5
3FF8
330
1F
100
AcDbEntity
  8
AM_0
100
AcDbLine
 10
-32.19999999999952
 20
6.164509931991601
 30
0.0
 11
-32.19999999999952
 21
6.504941439026382
 31
0.0
  0
LINE
  5
3FF9
330
1F
100
AcDbEntity
  8
AM_0
100
AcDbLine
 10
-33.77499999999943
 20
-2.413569423201757
 30
0.0
 11
-33.77499999999943
 21
-1.023634263923345
 31
0.0
  0
LINE
  5
3FFA
330
1F
100
AcDbEntity
  8
AM_0
100
AcDbLine
 10
-35.87499999999943
 20
-1.256229206583073
 30
0.0
 11
-35.87499999999943
 21
0.13171105601064
 31
0.0
  0
LINE
  5
3FFB
330
1F
100
AcDbEntity
  8
AM_0
100
AcDbLine
 10
-35.87499999999943
 20
-1.256229206583073
 30
0.0
 11
-35.87499999999943
 21
0.0687368393184599
 31
0.0
  0
LINE
  5
3FFC
330
1F
100
AcDbEntity
  8
AM_0
100
AcDbLine
 10
-30.97499999999944
 20
-3.839455648339521
 30
0.0
 11
-30.97499999999944
 21
-2.513410777805979
 31
0.0
  0
LINE
  5
3FFD
330
1F
100
AcDbEntity
  8
AM_0
100
AcDbLine
 10
-30.09999999999944
 20
5.499793713323655
 30
0.0
 11
-30.09999999999952
 21
6.06599282620887
 31
0.0
  0
LINE
  5
3FFE
330
1F
100
AcDbEntity
  8
AM_0
100
AcDbLine
 10
-39.99999999999964
 20
3.850322369177642
 30
0.0
 11
-39.99999999999987
 21
1.09732447776502
 31
0.0
  0
ARC
  5
401D
330
1F
100
AcDbEntity
  8
AM_0
100
AcDbCircle
 10
-40.70386380256152
 20
14.00393176541852
 30
0.0
 40
8.03661877690515
100
AcDbArc
 50
240.6336887765414
 51
275.0245211930177
  0
LINE
  5
401F
330
1F
100
AcDbEntity
  8
AM_0
100
AcDbLine
 10
-19.07499999999817
 20
-6.999968752089996
 30
0.0
 11
-19.07500000003192
 21
-6.640497585673399
 31
0.0
  0
LINE
  5
4020
330
1F
100
AcDbEntity
  8
AM_0
100
AcDbLine
 10
-21.17499999999944
 20
-6.885666685574956
 30
0.0
 11
-21.17499999999944
 21
-6.289624251933896
 31
0.0
  0
LINE
  5
4021
330
1F
100
AcDbEntity
  8
AM_0
100
AcDbLine
 10
-37.71221079541009
 20
-6.999968752090155
 30
0.0
 11
-37.71221079544383
 21
-6.640497585673558
 31
0.0
  0
LINE
  5
4022
330
1F
100
AcDbEntity
  8
AM_0
100
AcDbLine
 10
-39.81221079541136
 20
-6.885666685575035
 30
0.0
 11
-39.81221079541136
 21
-6.289624251933975
 31
0.0
  0
DIMENSION
  5
40B9
330
1F
100
AcDbEntity
  8
AM_5
100
AcDbDimension
  2
*D5
 10
18.55776903085654
 20
-6.999999999994702
 30
0.0
 11
15.45776903085654
 21
0.0000000000053003
 31
0.0
 70
    32
  1
%%c<>
  3
AM_JIS
100
AcDbAlignedDimension
 13
0.0000000000005571
 23
7.000000000005301
 33
0.0
 14
0.0000000000005571
 24
-6.999999999994697
 34
0.0
 50
90.0
100
AcDbRotatedDimension
1001
GENIUS_GENDTOL_13
1000

1000
h7
1000

1040
0.0
  0
DIMENSION
  5
4145
330
1F
100
AcDbEntity
  8
AM_5
100
AcDbDimension
  2
*D6
 10
-94.99999999999998
 20
-34.00000100001317
 30
0.0
 11
-47.50000000000018
 21
-30.90000100001317
 31
0.0
 70
    32
  1
<>
  3
AM_JIS
100
AcDbAlignedDimension
 13
-0.0000000000003965
 23
-6.999999999991868
 33
0.0
 14
-94.99999999999998
 24
-7.000000000013097
 34
0.0
 50
0.0000000000001132
100
AcDbRotatedDimension
1001
GENIUS_GENDTOL_13
1000

1000
h7
1000

1040
0.0
  0
DIMENSION
  5
423E
330
1F
100
AcDbEntity
  8
AM_5
100
AcDbDimension
  2
*D7
 10
-40.00000000000055
 20
-22.00000100001304
 30
0.0
 11
-20.00000000000047
 21
-18.90000100001304
 31
0.0
 70
    32
  1
<>
  3
AM_JIS
100
AcDbAlignedDimension
 13
-0.0000000000003965
 23
-6.999999999991868
 33
0.0
 14
-40.00000000000055
 24
-6.999999999991514
 34
0.0
 50
0.0000000000001132
100
AcDbRotatedDimension
1001
GENIUS_GENDTOL_13
1000

1000
h7
1000

1040
0.0
  0
LINE
  5
435F
330
1F
100
AcDbEntity
  8
AM_0
100
AcDbLine
 10
-51.99999999999999
 20
-8.000000000013065
 30
0.0
 11
-93.99999999999996
 21
-8.000000000013097
 31
0.0
  0
LINE
  5
4362
330
1F
100
AcDbEntity
  8
AM_0
100
AcDbLine
 10
-93.99999999999998
 20
7.999999999986906
 30
0.0
 11
-93.99999999999996
 21
-8.000000000013121
 31
0.0
  0
LINE
  5
4363
330
1F
100
AcDbEntity
  8
AM_0
100
AcDbLine
 10
-94.99999999999998
 20
-7.000000000013097
 30
0.0
 11
-94.99999999999998
 21
6.999999999986905
 31
0.0
  0
DIMENSION
  5
4364
330
1F
100
AcDbEntity
  8
AM_5
100
AcDbDimension
  2
*D8
 10
-111.7536996173885
 20
-8.000000000013091
 30
0.0
 11
-114.8536996173885
 21
-0.0000000000131076
 31
0.0
 70
    32
  1
%%c<>
  3
AM_JIS
100
AcDbAlignedDimension
 13
-93.99999999999998
 23
7.999999999986906
 33
0.0
 14
-93.99999999999996
 24
-8.000000000013097
 34
0.0
 50
270.0
100
AcDbRotatedDimension
1001
GENIUS_GENDTOL_13
1000

1000
h7
1000

1040
0.0
  0
LINE
  5
4371
330
1F
100
AcDbEntity
  8
AM_0
100
AcDbLine
 10
-52.0
 20
7.999999999986936
 30
0.0
 11
-93.99999999999998
 21
7.999999999986906
 31
0.0
  0
LINE
  5
437D
330
1F
100
AcDbEntity
  8
AM_0
100
AcDbLine
 10
-93.99999999999998
 20
7.999999999986906
 30
0.0
 11
-94.99999999999998
 21
6.999999999986905
 31
0.0
1001
GENIUS_GENFIL_13
1070
     0
1040
1.0
1040
1.0
1040
20.0
1040
0.0
1002
{
1002
}
1001
GENIUS_GENODEF_13
1002
{
1000
HIER
1070
     0
1002
}
1002
{
1000
MANEDIT
1070
     0
1002
}
1002
{
1000
NOSEL
1070
     0
1002
}
1002
{
1000
BEHIND
1070
     0
1002
}
1002
{
1000
REACTOR
1002
}
1001
GENIUS_GENOBJ-N-CHA_13
1002
{
1000
OWNER
1000
GEN
1002
}
  0
LINE
  5
4380
330
1F
100
AcDbEntity
  8
AM_0
100
AcDbLine
 10
-94.99999999999998
 20
-7.000000000013097
 30
0.0
 11
-93.99999999999996
 21
-8.000000000013097
 31
0.0
1001
GENIUS_GENFIL_13
1070
     0
1040
1.0
1040
1.0
1040
20.0
1040
0.0
1002
{
1002
}
1001
GENIUS_GENODEF_13
1002
{
1000
HIER
1070
     0
1002
}
1002
{
1000
MANEDIT
1070
     0
1002
}
1002
{
1000
NOSEL
1070
     0
1002
}
1002
{
1000
BEHIND
1070
     0
1002
}
1002
{
1000
REACTOR
1002
}
1001
GENIUS_GENOBJ-N-CHA_13
1002
{
1000
OWNER
1000
GEN
1002
}
  0
LINE
  5
43F3
330
1F
100
AcDbEntity
  8
AM_11
100
AcDbLine
 10
-40.00000000000055
 20
-6.999999999991514
 30
0.0
 11
-39.99999999999952
 21
7.000000000008483
 31
0.0
  0
POLYLINE
  5
44B5
330
1F
100
AcDbEntity
  8
AM_0
100
AcDb2dPolyline
 66
     1
 10
0.0
 20
0.0
 30
0.0
 70
     2
  0
VERTEX
  5
44B6
330
44B5
100
AcDbEntity
  8
AM_0
100
AcDbVertex
100
AcDb2dVertex
 10
-44.64495263569573
 20
6.999999999999238
 30
0.0
 42
0.0320174430186975
  0
VERTEX
  5
44BC
330
44B5
100
AcDbEntity
  8
AM_0
100
AcDbVertex
100
AcDb2dVertex
 10
-44.18787027670876
 20
6.386863160031808
 30
0.0
 42
0.0631540163958616
 70
     1
  0
VERTEX
  5
44B7
330
44B5
100
AcDbEntity
  8
AM_0
100
AcDbVertex
100
AcDb2dVertex
 10
-43.90071813435236
 20
6.124646686408738
 30
0.0
 42
0.00494382842799
  0
VERTEX
  5
44BD
330
44B5
100
AcDbEntity
  8
AM_0
100
AcDbVertex
100
AcDb2dVertex
 10
-43.13327045845267
 20
5.595075451817592
 30
0.0
 42
0.0128282769778714
 70
     1
  0
VERTEX
  5
44B8
330
44B5
100
AcDbEntity
  8
AM_0
100
AcDbVertex
100
AcDb2dVertex
 10
-42.8303994775211
 20
5.40159832223432
 30
0.0
 42
0.0048037566482643
  0
VERTEX
  5
44BF
330
44B5
100
AcDbEntity
  8
AM_0
100
AcDbVertex
100
AcDb2dVertex
 10
-42.62961410849811
 20
5.283088364661921
 30
0.0
 42
0.0012218575072868
 70
     1
  0
VERTEX
  5
44B9
330
44B5
100
AcDbEntity
  8
AM_0
100
AcDbVertex
100
AcDb2dVertex
 10
-41.83468219963319
 20
4.826720683808978
 30
0.0
 42
0.0271180953110918
  0
VERTEX
  5
44BE
330
44B5
100
AcDbEntity
  8
AM_0
100
AcDbVertex
100
AcDb2dVertex
 10
-41.20976245755868
 20
4.513603716456223
 30
0.0
 42
0.017272696571119
 70
     1
  0
VERTEX
  5
44BA
330
44B5
100
AcDbEntity
  8
AM_0
100
AcDbVertex
100
AcDb2dVertex
 10
-39.99999999999973
 20
3.850322369177689
 30
0.0
  0
SEQEND
  5
44BB
330
44B5
100
AcDbEntity
  8
AM_0
  0
LINE
  5
4528
330
1F
100
AcDbEntity
  8
AM_0
100
AcDbLine
 10
-51.99999999999998
 20
-8.000000000013065
 30
0.0
 11
-52.0
 21
7.999999999986936
 31
0.0
  0
LINE
  5
453F
330
1F
100
AcDbEntity
  8
AM_0
100
AcDbLine
 10
-44.64495263570622
 20
7.000000000005146
 30
0.0
 11
-49.2525225805954
 21
7.000000000005142
 31
0.0
  0
LINE
  5
4540
330
1F
100
AcDbEntity
  8
AM_0
100
AcDbLine
 10
-49.2525225805954
 20
7.000000000005142
 30
0.0
 11
-52.0
 21
7.999999999986936
 31
0.0
  0
LINE
  5
4541
330
1F
100
AcDbEntity
  8
AM_0
100
AcDbLine
 10
-41.72867855767559
 20
-6.999999999994852
 30
0.0
 11
-49.25252258049535
 21
-6.999999999994857
 31
0.0
  0
LINE
  5
4542
330
1F
100
AcDbEntity
  8
AM_0
100
AcDbLine
 10
-49.25252258049535
 20
-6.999999999994857
 30
0.0
 11
-51.99999999999999
 21
-8.000000000013065
 31
0.0
  0
LINE
  5
4543
330
1F
100
AcDbEntity
  8
AM_0
100
AcDbLine
 10
-49.25252258049535
 20
-6.999999999994857
 30
0.0
 11
-49.25252258049535
 21
6.999999999968726
 31
0.0
  0
SPLINE
  5
4660
330
1F
100
AcDbEntity
  8
AM_0
100
AcDbSpline
210
0.0
220
0.0
230
1.0
 70
     8
 71
     3
 72
    14
 73
    10
 74
     8
 42
0.0000000001
 43
0.0000000001
 44
0.0000000001
 40
0.0
 40
0.0
 40
0.0
 40
0.0
 40
0.8121126820589273
 40
1.411537553339591
 40
1.888620072559951
 40
2.794495956437836
 40
3.645407290002023
 40
5.386999031637121
 40
6.529397132699635
 40
6.529397132699635
 40
6.529397132699635
 40
6.529397132699635
 10
-39.99999999999976
 20
1.097324477765014
 30
0.0
 10
-40.27052771194588
 20
1.113061285647422
 30
0.0
 10
-40.74073342731884
 20
1.140413518639761
 30
0.0
 10
-41.37023955857768
 20
1.093779124805525
 30
0.0
 10
-42.02272821831502
 20
0.9922860185653224
 30
0.0
 10
-42.76517016634032
 20
0.9007698516630961
 30
0.0
 10
-43.88860466566003
 20
0.6412627804291899
 30
0.0
 10
-45.12747843684347
 20
0.05362101730658
 30
0.0
 10
-45.45556136714807
 20
-0.8785551325413774
 30
0.0
 10
-45.5855206724903
 20
-1.247806177630348
 30
0.0
 11
-39.99999999999976
 21
1.097324477765014
 31
0.0
 11
-40.81167630701524
 21
1.123943662400634
 31
0.0
 11
-41.40962569472888
 21
1.081911459951523
 31
0.0
 11
-41.88212249944859
 21
1.015922827026539
 31
0.0
 11
-42.77819384985759
 21
0.8830046116919692
 31
0.0
 11
-43.60553302618205
 21
0.6841076913871267
 31
0.0
 11
-45.09701895071652
 21
-0.2151206063477389
 31
0.0
 11
-45.5855206724903
 21
-1.247806177630348
 31
0.0
  0
POLYLINE
  5
4661
330
1F
100
AcDbEntity
  8
AM_0
100
AcDb2dPolyline
 66
     1
 10
0.0
 20
0.0
 30
0.0
  0
VERTEX
  5
4662
330
4661
100
AcDbEntity
  8
AM_0
100
AcDbVertex
100
AcDb2dVertex
 10
-40.00000000000042
 20
-5.280675932387143
 30
0.0
 42
-0.033900999415108
  0
VERTEX
  5
4663
330
4661
100
AcDbEntity
  8
AM_0
100
AcDbVertex
100
AcDb2dVertex
 10
-41.2027324326131
 20
-4.91543634200296
 30
0.0
 42
-0.0294631967110723
  0
VERTEX
  5
4664
330
4661
100
AcDbEntity
  8
AM_0
100
AcDbVertex
100
AcDb2dVertex
 10
-42.14185979477538
 20
-4.471760606098174
 30
0.0
 42
-0.0043593107625151
  0
VERTEX
  5
4665
330
4661
100
AcDbEntity
  8
AM_0
100
AcDbVertex
100
AcDb2dVertex
 10
-43.23199647136917
 20
-3.892527394951974
 30
0.0
 42
-0.0089373304116218
  0
VERTEX
  5
4666
330
4661
100
AcDbEntity
  8
AM_0
100
AcDbVertex
100
AcDb2dVertex
 10
-43.77060838525648
 20
-3.623255433235545
 30
0.0
 42
-0.0405775677820453
  0
VERTEX
  5
4667
330
4661
100
AcDbEntity
  8
AM_0
100
AcDbVertex
100
AcDb2dVertex
 10
-44.75274139930143
 20
-3.081668798718419
 30
0.0
 42
-0.0715876605938169
  0
VERTEX
  5
4668
330
4661
100
AcDbEntity
  8
AM_0
100
AcDbVertex
100
AcDb2dVertex
 10
-45.24826914802285
 20
-2.68229022178532
 30
0.0
 42
-0.1150733801648728
  0
VERTEX
  5
4669
330
4661
100
AcDbEntity
  8
AM_0
100
AcDbVertex
100
AcDb2dVertex
 10
-45.56765267697334
 20
-2.21987636518626
 30
0.0
 42
-0.0746999284091838
  0
VERTEX
  5
466A
330
4661
100
AcDbEntity
  8
AM_0
100
AcDbVertex
100
AcDb2dVertex
 10
-45.60000000000017
 20
-1.360057671002702
 30
0.0
 42
-0.0083812932391293
  0
VERTEX
  5
466B
330
4661
100
AcDbEntity
  8
AM_0
100
AcDbVertex
100
AcDb2dVertex
 10
-45.5855206724903
 20
-1.247806177630348
 30
0.0
 42
-0.0519299244436891
  0
SEQEND
  5
466C
330
4661
100
AcDbEntity
  8
AM_0
  0
VIEWPORT
  5
110
330
101
100
AcDbEntity
 67
     1
  8
0
100
AcDbViewport
 10
420.5
 20
297.0
 30
0.0
 40
948.9782706766916
 41
628.452
 68
     1
 69
     1
1001
ACAD
1000
MVIEW
1002
{
1070
    16
1010
0.0
1020
0.0
1030
0.0
1010
0.0
1020
0.0
1030
1.0
1040
0.0
1040
628.452
1040
420.5
1040
297.0
1040
50.0
1040
0.0
1040
0.0
1070
     0
1070
   100
1070
     1
1070
     1
1070
     0
1070
     0
1070
     0
1070
     0
1040
0.0
1040
0.0
1040
0.0
1040
10.0
1040
10.0
1040
10.0
1040
10.0
1070
     0
1002
{
1002
}
1002
}
  0
ENDSEC
  0
SECTION
  2
OBJECTS
  0
DICTIONARY
  5
C
330
0
100
AcDbDictionary
  3
ACAD_GROUP
350
D
  3
ACAD_LAYOUT
350
1A
  3
ACAD_MLINESTYLE
350
17
  3
ACAD_PLOTSETTINGS
350
19
  3
ACAD_PLOTSTYLENAME
350
E
  3
ACDBVARIABLEDICTIONARY
350
34
  3
ACMDICTIONARY
350
43
  3
AMG
350
2B
  3
AMGSNAPSETTINGS
350
6E
  3
ASE_INDEX_DICTIONARY
350
151A
  3
DWGPROPS
350
468F
  3
ACDBHEADERROUNDTRIPXREC
350
469B
  0
DICTIONARY
  5
74
330
1F
100
AcDbDictionary
280
     1
  3
ACAD_INDEX
360
4691
  3
ACAD_LAYOUTSELFREF
360
46BE
  0
DICTIONARY
  5
46C3
330
101
100
AcDbDictionary
280
     1
  3
ACAD_LAYOUTSELFREF
360
46C4
  0
DICTIONARY
  5
D
102
{ACAD_REACTORS
330
C
102
}
330
C
100
AcDbDictionary
  0
DICTIONARY
  5
1A
102
{ACAD_REACTORS
330
C
102
}
330
C
100
AcDbDictionary
  0
DICTIONARY
  5
17
102
{ACAD_REACTORS
330
C
102
}
330
C
100
AcDbDictionary
  3
STANDARD
350
18
  0
DICTIONARY
  5
19
102
{ACAD_REACTORS
330
C
102
}
330
C
100
AcDbDictionary
  0
ACDBDICTIONARYWDFLT
  5
E
102
{ACAD_REACTORS
330
C
102
}
330
C
100
AcDbDictionary
281
     1
  3
Normal
350
F
100
AcDbDictionaryWithDefault
340
F
  0
DICTIONARY
  5
34
102
{ACAD_REACTORS
330
C
102
}
330
C
100
AcDbDictionary
  3
INDEXCTL
350
35
  3
SORTENTS
350
B5E
  0
DICTIONARY
  5
43
102
{ACAD_REACTORS
330
C
102
}
330
C
100
AcDbDictionary
  3
ACMSTDDICTIONARY
350
260
  0
DICTIONARY
  5
2B
102
{ACAD_REACTORS
330
C
102
}
330
C
100
AcDbDictionary
  3
ACMGSETTINGS
350
2C
  0
DICTIONARY
  5
6E
102
{ACAD_REACTORS
330
C
102
}
330
C
100
AcDbDictionary
  0
DICTIONARY
  5
151A
102
{ACAD_REACTORS
330
C
102
}
330
C
100
AcDbDictionary
  3
ASEBLOCKHIERARCHYINDEXRECORD
350
151C
1001
DCO15
1040
1471862535.906
  0
XRECORD
  5
468F
102
{ACAD_REACTORS
330
C
102
}
330
C
100
AcDbXrecord
  1
DWGPROPS COOKIE
  2

  3

  4

  6

  7

  8

  9

300
AmdtFileType=82
301
=
302
=
303
=
304
=
305
=
306
=
307
=
308
=
309
=
 40
0.1559467476851852
 41
2452838.430434386
 42
2453045.550469583
  1

 90
        1
  0
DICTIONARY
  5
469B
102
{ACAD_REACTORS
330
C
102
}
330
C
100
AcDbDictionary
  3
TSTACKALIGN
350
469C
  3
TSTACKSIZE
350
469D
  3
HYPERLINKBASE
350
469E
  3
STYLESHEET
350
469F
  3
LAYOUTDICT
350
46A0
  3
PLOTSETDICT
350
46A1
  3
PLOTSTYLNAMDICT
350
46A2
  3
LWETCUNION
350
46A3
  3
INSUNITS
350
46A4
  3
CEPSNTYPE
350
46A5
  3
FINGERPRINTGUID
350
46A6
  3
VERSIONGUID
350
46A7
  3
PSVPSCALE
350
46A8
  3
DIMSTYLEDATA
350
46A9
  3
PUCSORTHOREF
350
46AA
  3
PUCSORTHOVIEW
350
46AB
  3
PUCSBASE
350
46AC
  3
PUCSORGTOP
350
46AD
  3
PUCSORGBOTTOM
350
46AE
  3
PUCSORGLEFT
350
46AF
  3
PUCSORGRIGHT
350
46B0
  3
PUCSORGFRONT
350
46B1
  3
PUCSORGBACK
350
46B2
  3
UCSORTHOREF
350
46B3
  3
UCSORTHOVIEW
350
46B4
  3
UCSBASE
350
46B5
  3
UCSORGTOP
350
46B6
  3
UCSORGBOTTOM
350
46B7
  3
UCSORGLEFT
350
46B8
  3
UCSORGRIGHT
350
46B9
  3
UCSORGFRONT
350
46BA
  3
UCSORGBACK
350
46BB
  0
DICTIONARY
  5
4691
102
{ACAD_REACTORS
330
74
102
}
330
74
100
AcDbDictionary
  3
*A1
350
4692
  0
XRECORD
  5
46BE
102
{ACAD_REACTORS
330
74
102
}
330
74
100
AcDbXrecord
340
1F
  0
XRECORD
  5
46C4
102
{ACAD_REACTORS
330
46C3
102
}
330
46C3
100
AcDbXrecord
340
101
  0
MLINESTYLE
  5
18
102
{ACAD_REACTORS
330
17
102
}
330
17
100
AcDbMlineStyle
  2
STANDARD
 70
     0
  3

 62
   256
 51
90.0
 52
90.0
 71
     2
 49
0.5
 62
   256
  6
BYLAYER
 49
-0.5
 62
   256
  6
BYLAYER
  0
ACDBPLACEHOLDER
  5
F
102
{ACAD_REACTORS
330
E
102
}
330
E
100
AcDbPlaceHolder
280
     0
  0
DICTIONARYVAR
  5
35
102
{ACAD_REACTORS
330
34
102
}
330
34
100
DictionaryVariables
280
     0
  1
1
  0
DICTIONARYVAR
  5
B5E
102
{ACAD_REACTORS
330
34
102
}
330
34
100
DictionaryVariables
280
     0
  1
96
  0
DICTIONARY
  5
260
102
{ACAD_REACTORS
330
43
102
}
330
43
100
AcDbDictionary
  0
DICTIONARY
  5
2C
102
{ACAD_REACTORS
330
2B
102
}
330
2B
100
AcDbDictionary
  3
DWGSETTINGS
350
2D
  0
XRECORD
  5
151C
102
{ACAD_REACTORS
330
151A
102
}
330
151A
100
AcDbXrecord
330
0
330
0
330
0
330
0
330
0
330
0
330
0
330
0
  0
XRECORD
  5
469C
102
{ACAD_REACTORS
330
469B
102
}
330
469B
100
AcDbXrecord
 90
        1
  0
XRECORD
  5
469D
102
{ACAD_REACTORS
330
469B
102
}
330
469B
100
AcDbXrecord
 90
       70
  0
XRECORD
  5
469E
102
{ACAD_REACTORS
330
469B
102
}
330
469B
100
AcDbXrecord
  1

  0
XRECORD
  5
469F
102
{ACAD_REACTORS
330
469B
102
}
330
469B
100
AcDbXrecord
  1
ASAMI.ctb
  0
XRECORD
  5
46A0
102
{ACAD_REACTORS
330
469B
102
}
330
469B
100
AcDbXrecord
340
1A
  0
XRECORD
  5
46A1
102
{ACAD_REACTORS
330
469B
102
}
330
469B
100
AcDbXrecord
340
19
  0
XRECORD
  5
46A2
102
{ACAD_REACTORS
330
469B
102
}
330
469B
100
AcDbXrecord
340
E
  0
XRECORD
  5
46A3
102
{ACAD_REACTORS
330
469B
102
}
330
469B
100
AcDbXrecord
 90
    10781
  0
XRECORD
  5
46A4
102
{ACAD_REACTORS
330
469B
102
}
330
469B
100
AcDbXrecord
 90
        4
  0
XRECORD
  5
46A5
102
{ACAD_REACTORS
330
469B
102
}
330
469B
100
AcDbXrecord
 90
        0
  0
XRECORD
  5
46A6
102
{ACAD_REACTORS
330
469B
102
}
330
469B
100
AcDbXrecord
  1
{AFB28963-8C59-40AE-9337-C84526B81ACE}
  0
XRECORD
  5
46A7
102
{ACAD_REACTORS
330
469B
102
}
330
469B
100
AcDbXrecord
  1
{30C449CE-8787-4FDA-8C4A-34766899BFBD}
  0
XRECORD
  5
46A8
102
{ACAD_REACTORS
330
469B
102
}
330
469B
100
AcDbXrecord
 40
0.0
  0
XRECORD
  5
46A9
102
{ACAD_REACTORS
330
469B
102
}
330
469B
100
AcDbXrecord
1000
DSTYLE
1002
{
1070
    79
 70
     2
1070
   341
340
59
1070
   342
340
59
1070
   371
 70
    -1
1070
   372
 70
    -1
1002
}
  0
XRECORD
  5
46AA
102
{ACAD_REACTORS
330
469B
102
}
330
469B
100
AcDbXrecord
340
0
  0
XRECORD
  5
46AB
102
{ACAD_REACTORS
330
469B
102
}
330
469B
100
AcDbXrecord
 70
     0
  0
XRECORD
  5
46AC
102
{ACAD_REACTORS
330
469B
102
}
330
469B
100
AcDbXrecord
340
0
  0
XRECORD
  5
46AD
102
{ACAD_REACTORS
330
469B
102
}
330
469B
100
AcDbXrecord
 10
0.0
 20
0.0
 30
0.0
  0
XRECORD
  5
46AE
102
{ACAD_REACTORS
330
469B
102
}
330
469B
100
AcDbXrecord
 10
0.0
 20
0.0
 30
0.0
  0
XRECORD
  5
46AF
102
{ACAD_REACTORS
330
469B
102
}
330
469B
100
AcDbXrecord
 10
0.0
 20
0.0
 30
0.0
  0
XRECORD
  5
46B0
102
{ACAD_REACTORS
330
469B
102
}
330
469B
100
AcDbXrecord
 10
0.0
 20
0.0
 30
0.0
  0
XRECORD
  5
46B1
102
{ACAD_REACTORS
330
469B
102
}
330
469B
100
AcDbXrecord
 10
0.0
 20
0.0
 30
0.0
  0
XRECORD
  5
46B2
102
{ACAD_REACTORS
330
469B
102
}
330
469B
100
AcDbXrecord
 10
0.0
 20
0.0
 30
0.0
  0
XRECORD
  5
46B3
102
{ACAD_REACTORS
330
469B
102
}
330
469B
100
AcDbXrecord
340
0
  0
XRECORD
  5
46B4
102
{ACAD_REACTORS
330
469B
102
}
330
469B
100
AcDbXrecord
 70
     0
  0
XRECORD
  5
46B5
102
{ACAD_REACTORS
330
469B
102
}
330
469B
100
AcDbXrecord
340
0
  0
XRECORD
  5
46B6
102
{ACAD_REACTORS
330
469B
102
}
330
469B
100
AcDbXrecord
 10
0.0
 20
0.0
 30
0.0
  0
XRECORD
  5
46B7
102
{ACAD_REACTORS
330
469B
102
}
330
469B
100
AcDbXrecord
 10
0.0
 20
0.0
 30
0.0
  0
XRECORD
  5
46B8
102
{ACAD_REACTORS
330
469B
102
}
330
469B
100
AcDbXrecord
 10
0.0
 20
0.0
 30
0.0
  0
XRECORD
  5
46B9
102
{ACAD_REACTORS
330
469B
102
}
330
469B
100
AcDbXrecord
 10
0.0
 20
0.0
 30
0.0
  0
XRECORD
  5
46BA
102
{ACAD_REACTORS
330
469B
102
}
330
469B
100
AcDbXrecord
 10
0.0
 20
0.0
 30
0.0
  0
XRECORD
  5
46BB
102
{ACAD_REACTORS
330
469B
102
}
330
469B
100
AcDbXrecord
 10
0.0
 20
0.0
 30
0.0
  0
LAYER_INDEX
  5
4692
102
{ACAD_REACTORS
330
4691
102
}
330
4691
100
AcDbIndex
 40
2453151.881976192
100
AcDbLayerIndex
  8
0
360
4693
 90
        0
  8
AM_0
360
4694
 90
      156
  8
AM_11
360
4695
 90
        4
  8
AM_7
360
4696
 90
        1
  8
AM_5
360
4697
 90
        4
  8
Defpoints
360
4698
 90
        0
  8
AM_6
360
4699
 90
        1
  0
XRECORD
  5
2D
102
{ACAD_REACTORS
330
2C
102
}
330
2C
100
AcDbXrecord
  1
VERSION
140
15.0
  1
PRODUCT
  2
AutoCAD Mechanical 2000
  0
IDBUFFER
  5
4693
330
0
100
AcDbIdBuffer
  0
IDBUFFER
  5
4694
330
0
100
AcDbIdBuffer
330
3FE5
330
3FE6
330
3FE7
330
3FE9
330
3FEB
330
3FEC
330
3FED
330
3FEE
330
3FEF
330
3FF0
330
3FF1
330
3FF2
330
3FF3
330
3FF4
330
3FF5
330
3FF6
330
3FF7
330
3FF8
330
3FF9
330
3FFA
330
3FFB
330
3FFC
330
3FFD
330
3FFE
330
401D
330
401F
330
4020
330
4021
330
4022
330
435F
330
4362
330
4363
330
4371
330
437D
330
4380
330
44B5
330
4528
330
453F
330
4540
330
4541
330
4542
330
4543
330
4660
330
4661
330
3F6E
330
3F6F
330
3F70
330
3F71
330
3F72
330
3F73
330
3F74
330
3F75
330
3F76
330
3F77
330
3F78
330
3F79
330
3F7A
330
3F7B
330
3F7C
330
3F7D
330
3F7E
330
3F7F
330
3F80
330
3F81
330
3F82
330
3F83
330
3F84
330
3F85
330
3F86
330
3F87
330
3F88
330
3F89
330
3F8A
330
3F8B
330
3F8C
330
3F8D
330
3F8E
330
3F8F
330
3F90
330
3F91
330
3F92
330
3F93
330
3F94
330
3F95
330
3F96
330
3F97
330
3F98
330
3F99
330
3F9A
330
3F9B
330
3F9C
330
3F9D
330
3F9E
330
3F9F
330
3FA2
330
3FA3
330
3FA4
330
3FA6
330
3FA7
330
3FA8
330
3FA9
330
3FAA
330
3FAB
330
3FAC
330
3FAD
330
3FAE
330
3FAF
330
3FB0
330
3FB1
330
3FB2
330
3FB3
330
3FB4
330
3FB5
330
3FB6
330
3FB7
330
3FB8
330
3FB9
330
3FBA
330
3FBB
330
3FBC
330
3FBD
330
3FBE
330
3FBF
330
3FC0
330
3FC1
330
3FC2
330
3FC3
330
3FC4
330
3FC5
330
3FC6
330
3FC7
330
3FC8
330
3FC9
330
3FCA
330
3FCE
330
3FCF
330
3FD0
330
3FD1
330
3FD3
330
3FD4
330
3FD5
330
3FD6
330
3FD7
330
3FD8
330
3FD9
330
3FDA
330
3FDB
330
3FDC
330
3FDD
330
3FDE
330
3FDF
330
3FE0
330
3FE1
330
3FE2
330
3FE3
330
3FE4
  0
IDBUFFER
  5
4695
330
0
100
AcDbIdBuffer
330
3FCC
330
3FCD
330
3FD2
330
43F3
  0
IDBUFFER
  5
4696
330
0
100
AcDbIdBuffer
330
3CF2
  0
IDBUFFER
  5
4697
330
0
100
AcDbIdBuffer
330
40B9
330
4145
330
423E
330
4364
  0
IDBUFFER
  5
4698
330
0
100
AcDbIdBuffer
  0
IDBUFFER
  5
4699
330
0
100
AcDbIdBuffer
330
1500
  0
ENDSEC
  0
EOF
