  0
SECTION
  2
HEADER
  9
$ACADVER
  1
AC1014
  9
$ACADMAINTVER
 70
     9
  9
$DWGCODEPAGE
  3
ANSI_932
  9
$INSBASE
 10
0.0
 20
0.0
 30
0.0
  9
$EXTMIN
 10
-126.4536996173885
 20
-56.50000100999053
 30
-0.00000001
  9
$EXTMAX
 10
19.55776903085654
 20
8.712366350778303
 30
0.00000001
  9
$LIMMIN
 10
-136.3029924237104
 20
-72.1110903661011
  9
$LIMMAX
 10
32.83151574804236
 20
32.0564213795817
  9
$ORTHOMODE
 70
     0
  9
$REGENMODE
 70
     1
  9
$FILLMODE
 70
     1
  9
$QTEXTMODE
 70
     0
  9
$MIRRTEXT
 70
     0
  9
$DRAGMODE
 70
     2
  9
$LTSCALE
 40
1.0
  9
$OSMODE
 70
    55
  9
$ATTMODE
 70
     1
  9
$TEXTSIZE
 40
2.5
  9
$TRACEWID
 40
1.0
  9
$TEXTSTYLE
  7
STANDARD
  9
$CLAYER
  8
AM_0
  9
$CELTYPE
  6
BYLAYER
  9
$CECOLOR
 62
   256
  9
$CELTSCALE
 40
1.0
  9
$DELOBJ
 70
     1
  9
$DISPSILH
 70
     0
  9
$DIMSCALE
 40
0.5
  9
$DIMASZ
 40
2.5
  9
$DIMEXO
 40
1.0
  9
$DIMDLI
 40
12.0
  9
$DIMRND
 40
0.0
  9
$DIMDLE
 40
0.0
  9
$DIMEXE
 40
1.0
  9
$DIMTP
 40
0.1
  9
$DIMTM
 40
0.1
  9
$DIMTXT
 40
3.2
  9
$DIMCEN
 40
0.0
  9
$DIMTSZ
 40
0.0
  9
$DIMTOL
 70
     0
  9
$DIMLIM
 70
     0
  9
$DIMTIH
 70
     0
  9
$DIMTOH
 70
     0
  9
$DIMSE1
 70
     0
  9
$DIMSE2
 70
     0
  9
$DIMTAD
 70
     3
  9
$DIMZIN
 70
     8
  9
$DIMBLK
  1
OPEN30
  9
$DIMASO
 70
     1
  9
$DIMSHO
 70
     1
  9
$DIMPOST
  1

  9
$DIMAPOST
  1
"
  9
$DIMALT
 70
     0
  9
$DIMALTD
 70
     2
  9
$DIMALTF
 40
0.0393701
  9
$DIMLFAC
 40
1.0
  9
$DIMTOFL
 70
     1
  9
$DIMTVP
 40
0.0
  9
$DIMTIX
 70
     0
  9
$DIMSOXD
 70
     0
  9
$DIMSAH
 70
     0
  9
$DIMBLK1
  1

  9
$DIMBLK2
  1

  9
$DIMSTYLE
  2
AM_JIS
  9
$DIMCLRD
 70
   256
  9
$DIMCLRE
 70
   256
  9
$DIMCLRT
 70
     2
  9
$DIMTFAC
 40
0.71
  9
$DIMGAP
 40
1.5
  9
$DIMJUST
 70
     0
  9
$DIMSD1
 70
     0
  9
$DIMSD2
 70
     0
  9
$DIMTOLJ
 70
     0
  9
$DIMTZIN
 70
     0
  9
$DIMALTZ
 70
     0
  9
$DIMALTTZ
 70
     0
  9
$DIMFIT
 70
     3
  9
$DIMUPT
 70
     0
  9
$DIMUNIT
 70
     2
  9
$DIMDEC
 70
     3
  9
$DIMTDEC
 70
     3
  9
$DIMALTU
 70
     2
  9
$DIMALTTD
 70
     2
  9
$DIMTXSTY
  7
ASAMI
  9
$DIMAUNIT
 70
     0
  9
$LUNITS
 70
     2
  9
$LUPREC
 70
     2
  9
$SKETCHINC
 40
1.0
  9
$FILLETRAD
 40
2.5
  9
$AUNITS
 70
     0
  9
$AUPREC
 70
     0
  9
$MENU
  1
.
  9
$ELEVATION
 40
0.0
  9
$PELEVATION
 40
0.0
  9
$THICKNESS
 40
0.0
  9
$LIMCHECK
 70
     0
  9
$BLIPMODE
 70
     0
  9
$CHAMFERA
 40
1.0
  9
$CHAMFERB
 40
1.0
  9
$CHAMFERC
 40
20.0
  9
$CHAMFERD
 40
0.0
  9
$SKPOLY
 70
     0
  9
$TDCREATE
 40
2452838.430434386
  9
$TDUPDATE
 40
2453151.882536643
  9
$TDINDWG
 40
0.1417079514
  9
$TDUSRTIMER
 40
0.1417079514
  9
$USRTIMER
 70
     1
  9
$ANGBASE
 50
0.0
  9
$ANGDIR
 70
     0
  9
$PDMODE
 70
     0
  9
$PDSIZE
 40
0.0
  9
$PLINEWID
 40
0.0
  9
$COORDS
 70
     1
  9
$SPLFRAME
 70
     0
  9
$SPLINETYPE
 70
     6
  9
$SPLINESEGS
 70
     8
  9
$ATTDIA
 70
     1
  9
$ATTREQ
 70
     1
  9
$HANDLING
 70
 12289
  9
$HANDSEED
  5
45C0
  9
$SURFTAB1
 70
     6
  9
$SURFTAB2
 70
     6
  9
$SURFTYPE
 70
     6
  9
$SURFU
 70
     6
  9
$SURFV
 70
     6
  9
$UCSNAME
  2

  9
$UCSORG
 10
0.0
 20
0.0
 30
0.0
  9
$UCSXDIR
 10
1.0
 20
0.0
 30
0.0
  9
$UCSYDIR
 10
0.0
 20
1.0
 30
0.0
  9
$PUCSNAME
  2

  9
$PUCSORG
 10
0.0
 20
0.0
 30
0.0
  9
$PUCSXDIR
 10
1.0
 20
0.0
 30
0.0
  9
$PUCSYDIR
 10
0.0
 20
1.0
 30
0.0
  9
$USERI1
 70
     0
  9
$USERI2
 70
     0
  9
$USERI3
 70
     0
  9
$USERI4
 70
     0
  9
$USERI5
 70
     0
  9
$USERR1
 40
0.0
  9
$USERR2
 40
0.0
  9
$USERR3
 40
0.0
  9
$USERR4
 40
0.0
  9
$USERR5
 40
0.0
  9
$WORLDVIEW
 70
     1
  9
$SHADEDGE
 70
     3
  9
$SHADEDIF
 70
    70
  9
$TILEMODE
 70
     1
  9
$MAXACTVP
 70
    64
  9
$PINSBASE
 10
0.0
 20
0.0
 30
0.0
  9
$PLIMCHECK
 70
     0
  9
$PEXTMIN
 10
1.000000000000000E+20
 20
1.000000000000000E+20
 30
1.000000000000000E+20
  9
$PEXTMAX
 10
-1.000000000000000E+20
 20
-1.000000000000000E+20
 30
-1.000000000000000E+20
  9
$PLIMMIN
 10
0.0
 20
0.0
  9
$PLIMMAX
 10
841.0
 20
594.0
  9
$UNITMODE
 70
     0
  9
$VISRETAIN
 70
     1
  9
$PLINEGEN
 70
     0
  9
$PSLTSCALE
 70
     0
  9
$TREEDEPTH
 70
  3020
  9
$PICKSTYLE
 70
     0
  9
$CMLSTYLE
  2
STANDARD
  9
$CMLJUST
 70
     0
  9
$CMLSCALE
 40
20.0
  9
$PROXYGRAPHICS
 70
     1
  9
$MEASUREMENT
 70
     1
  0
ENDSEC
  0
SECTION
  2
CLASSES
  0
CLASS
  1
ACDBDICTIONARYWDFLT
  2
AcDbDictionaryWithDefault
  3
AutoCAD 2000
 90
        0
280
     0
281
     0
  0
CLASS
  1
ACDBPLACEHOLDER
  2
AcDbPlaceHolder
  3
AutoCAD 2000
 90
        0
280
     0
281
     0
  0
CLASS
  1
LAYOUT
  2
AcDbLayout
  3
AutoCAD 2000
 90
        0
280
     0
281
     0
  0
CLASS
  1
AMGSETTINGSOBJ
  2
AmgSettingsObj
  3
"AcadM|Product Description: AutoCAD Mechanical 2000|Company: Autodesk"
 90
        0
280
     0
281
     0
  0
CLASS
  1
ACME_DOCUMENT
  2
AcMeDbDoc
  3
AcMeServices
 90
        0
280
     0
281
     0
  0
CLASS
  1
ACMESCOPE
  2
AcMeScope
  3
AcMeServices
 90
        0
280
     0
281
     0
  0
CLASS
  1
ACMECOMMANDHISTORY
  2
AcMeCommandHistory
  3
AcMeServices
 90
        0
280
     0
281
     0
  0
CLASS
  1
DICTIONARYVAR
  2
AcDbDictionaryVar
  3
AutoCAD 2000
 90
        0
280
     0
281
     0
  0
CLASS
  1
ACIMSYSVARMAN
  2
AcImSysVarManager
  3
AcMeServices
 90
        0
280
     0
281
     0
  0
CLASS
  1
ACIMREALSYSVAR
  2
AcImRealSysVar
  3
AcMeServices
 90
        0
280
     0
281
     0
  0
CLASS
  1
ACIMINTSYSVAR
  2
AcImIntSysVar
  3
AcMeServices
 90
        0
280
     0
281
     0
  0
CLASS
  1
ACMEDRAWINGMAN
  2
AcMeDrawingMan
  3
AcMeServices
 90
        0
280
     0
281
     0
  0
CLASS
  1
ACMEVIEW
  2
AcMeView
  3
AcMeServices
 90
        0
280
     0
281
     0
  0
CLASS
  1
ACDBENTITYCACHE
  2
AcMeEntityCache
  3
AcMeServices
 90
        0
280
     0
281
     0
  0
CLASS
  1
GSMANAGER
  2
AcMeGSManager
  3
AcMeServices
 90
        0
280
     0
281
     0
  0
CLASS
  1
AmdtInternalReactor
  2
AmdtInternalReactor
  3
AcMeServices
 90
        0
280
     0
281
     0
  0
CLASS
  1
ACMESTATEMGR
  2
AcMeStateMgr
  3
AcMeServices
 90
        0
280
     0
281
     0
  0
CLASS
  1
ACME_DATABASE
  2
AcMeDbDatabase
  3
AcMeServices
 90
        0
280
     0
281
     0
  0
CLASS
  1
ACRFINSADJUSTERMGR
  2
AcRfInsAdjusterMgr
  3
AcMeServices
 90
        0
280
     0
281
     0
  0
CLASS
  1
ACMDATADICTIONARY
  2
AcmDataDictionary
  3
"AcmSymBB|Product Description: AutoCAD Mechanical 2000|Company: Autodesk"
 90
        0
280
     0
281
     0
  0
CLASS
  1
ACMDATAENTRYBLOCK
  2
AcmDataEntryBlock
  3
"AcmSymBB|Product Description: AutoCAD Mechanical 2000|Company: Autodesk"
 90
        0
280
     0
281
     0
  0
CLASS
  1
AMGOBJPROPCFG
  2
AmgObjPropCfg
  3
"AmgLay|Product Description: AutoCAD Mechanical 2000|Company: Autodesk"
 90
        1
280
     0
281
     0
  0
CLASS
  1
ACAMGFILTERDAT
  2
AcAmgFilterDat
  3
"AcadM|Product Description: AutoCAD Mechanical 2000|Company: Autodesk"
 90
        0
280
     0
281
     0
  0
CLASS
  1
LAYER_INDEX
  2
AcDbLayerIndex
  3
AutoCAD 2000
 90
        0
280
     0
281
     0
  0
CLASS
  1
IDBUFFER
  2
AcDbIdBuffer
  3
AutoCAD 2000
 90
        0
280
     0
281
     0
  0
CLASS
  1
ACIMSTRSYSVAR
  2
AcImStrSysVar
  3
AcMeServices
 90
        0
280
     0
281
     0
  0
CLASS
  1
ACMSTANDARDJIS
  2
AcmStandardJIS
  3
"AcmSymBB|Product Description: AutoCAD Mechanical 2000|Company: Autodesk"
 90
        0
280
     0
281
     0
  0
CLASS
  1
ACMSURFSTANDARDJIS
  2
AcmSurfTextStdJIS
  3
"AcmSymBB|Product Description: AutoCAD Mechanical 2000|Company: Autodesk"
 90
        0
280
     0
281
     0
  0
CLASS
  1
ACMFCFSTANDARDJIS
  2
AcmFCFStdJIS
  3
"AcmSymBB|Product Description: AutoCAD Mechanical 2000|Company: Autodesk"
 90
        0
280
     0
281
     0
  0
CLASS
  1
ACMWELDSTANDARDJIS
  2
AcmWeldingStdJIS
  3
"AcmSymBB|Product Description: AutoCAD Mechanical 2000|Company: Autodesk"
 90
        0
280
     0
281
     0
  0
CLASS
  1
ACMIDSTANDARDJIS
  2
AcmIdStdJIS
  3
"AcmSymBB|Product Description: AutoCAD Mechanical 2000|Company: Autodesk"
 90
        0
280
     0
281
     0
  0
CLASS
  1
ACMDATUMSTANDARDJIS
  2
AcmDatumStdJIS
  3
"AcmSymBB|Product Description: AutoCAD Mechanical 2000|Company: Autodesk"
 90
        0
280
     0
281
     0
  0
CLASS
  1
ACMBOMSTANDARDJIS
  2
AcmBOMStdJIS
  3
"AcmSymBB|Product Description: AutoCAD Mechanical 2000|Company: Autodesk"
 90
        0
280
     0
281
     0
  0
CLASS
  1
ACMSTANDARDANSI
  2
AcmStandardANSI
  3
"AcmSymBB|Product Description: AutoCAD Mechanical 2000|Company: Autodesk"
 90
        0
280
     0
281
     0
  0
CLASS
  1
ACMSURFSTANDARDANSI
  2
AcmSurfTextStdANSI
  3
"AcmSymBB|Product Description: AutoCAD Mechanical 2000|Company: Autodesk"
 90
        0
280
     0
281
     0
  0
CLASS
  1
ACMFCFSTANDARDANSI
  2
AcmFCFStdANSI
  3
"AcmSymBB|Product Description: AutoCAD Mechanical 2000|Company: Autodesk"
 90
        0
280
     0
281
     0
  0
CLASS
  1
ACMWELDSTANDARDANSI
  2
AcmWeldingStdANSI
  3
"AcmSymBB|Product Description: AutoCAD Mechanical 2000|Company: Autodesk"
 90
        0
280
     0
281
     0
  0
CLASS
  1
ACMIDSTANDARDANSI
  2
AcmIdStdANSI
  3
"AcmSymBB|Product Description: AutoCAD Mechanical 2000|Company: Autodesk"
 90
        0
280
     0
281
     0
  0
CLASS
  1
ACMDATUMSTANDARDANSI
  2
AcmDatumStdANSI
  3
"AcmSymBB|Product Description: AutoCAD Mechanical 2000|Company: Autodesk"
 90
        0
280
     0
281
     0
  0
CLASS
  1
ACMBOMSTANDARDANSI
  2
AcmBOMStdANSI
  3
"AcmSymBB|Product Description: AutoCAD Mechanical 2000|Company: Autodesk"
 90
        0
280
     0
281
     0
  0
CLASS
  1
ACMSTANDARDBSI
  2
AcmStandardBSI
  3
"AcmSymBB|Product Description: AutoCAD Mechanical 2000|Company: Autodesk"
 90
        0
280
     0
281
     0
  0
CLASS
  1
ACMSURFSTANDARDBSI
  2
AcmSurfTextStdBSI
  3
"AcmSymBB|Product Description: AutoCAD Mechanical 2000|Company: Autodesk"
 90
        0
280
     0
281
     0
  0
CLASS
  1
ACMFCFSTANDARDBSI
  2
AcmFCFStdBSI
  3
"AcmSymBB|Product Description: AutoCAD Mechanical 2000|Company: Autodesk"
 90
        0
280
     0
281
     0
  0
CLASS
  1
ACMWELDSTANDARDBSI
  2
AcmWeldingStdBSI
  3
"AcmSymBB|Product Description: AutoCAD Mechanical 2000|Company: Autodesk"
 90
        0
280
     0
281
     0
  0
CLASS
  1
ACMIDSTANDARDBSI
  2
AcmIdStdBSI
  3
"AcmSymBB|Product Description: AutoCAD Mechanical 2000|Company: Autodesk"
 90
        0
280
     0
281
     0
  0
CLASS
  1
ACMDATUMSTANDARDBSI
  2
AcmDatumStdBSI
  3
"AcmSymBB|Product Description: AutoCAD Mechanical 2000|Company: Autodesk"
 90
        0
280
     0
281
     0
  0
CLASS
  1
ACMBOMSTANDARDBSI
  2
AcmBOMStdBSI
  3
"AcmSymBB|Product Description: AutoCAD Mechanical 2000|Company: Autodesk"
 90
        0
280
     0
281
     0
  0
CLASS
  1
LONG_TRANSACTION
  2
AcDbLongTransaction
  3
AutoCAD 2000
 90
        0
280
     0
281
     0
  0
CLASS
  1
LWPOLYLINE
  2
AcDbPolyline
  3
AutoCAD 2000
 90
        0
280
     0
281
     1
  0
CLASS
  1
HATCH
  2
AcDbHatch
  3
AutoCAD 2000
 90
        0
280
     0
281
     1
  0
CLASS
  1
XRECORD
  2
AcDbXrecord
  3
AutoCAD 2000
 90
        0
280
     0
281
     0
  0
ENDSEC
  0
SECTION
  2
TABLES
  0
TABLE
  2
VPORT
  5
8
330
0
100
AcDbSymbolTable
 70
     3
  0
VPORT
  5
4595
330
8
100
AcDbSymbolTableRecord
100
AcDbViewportTableRecord
  2
*ACTIVE
 70
     0
 10
0.0
 20
0.0
 11
1.0
 21
1.0
 12
-44.68530857764896
 22
-14.83272639095301
 13
0.0
 23
0.0
 14
2.5
 24
2.5
 15
10.0
 25
10.0
 16
0.0
 26
0.0
 36
1.0
 17
0.0
 27
0.0
 37
0.0
 40
161.9060709106414
 41
1.56570841889117
 42
50.0
 43
0.0
 44
0.0
 50
0.0
 51
0.0
 71
     0
 72
   100
 73
     1
 74
     3
 75
     0
 76
     0
 77
     0
 78
     0
  0
ENDTAB
  0
TABLE
  2
LTYPE
  5
5
330
0
100
AcDbSymbolTable
 70
    10
  0
LTYPE
  5
14
330
5
100
AcDbSymbolTableRecord
100
AcDbLinetypeTableRecord
  2
BYBLOCK
 70
     0
  3

 72
    65
 73
     0
 40
0.0
  0
LTYPE
  5
15
330
5
100
AcDbSymbolTableRecord
100
AcDbLinetypeTableRecord
  2
BYLAYER
 70
     0
  3

 72
    65
 73
     0
 40
0.0
  0
LTYPE
  5
16
330
5
100
AcDbSymbolTableRecord
100
AcDbLinetypeTableRecord
  2
CONTINUOUS
 70
     0
  3
Solid line
 72
    65
 73
     0
 40
0.0
  0
LTYPE
  5
4B
330
5
100
AcDbSymbolTableRecord
100
AcDbLinetypeTableRecord
  2
AM_ISO02W050
 70
     0
  3
__ __ __ __ __ __ __ __ __ __ __ __ __ __ __
 72
    65
 73
     2
 40
7.5
 49
6.0
 74
     0
 49
-1.5
 74
     0
  0
LTYPE
  5
4C
330
5
100
AcDbSymbolTableRecord
100
AcDbLinetypeTableRecord
  2
AM_ISO08W050
 70
     0
  3
____ . ____ . ____ . ____ . ____ . ____ . ____
 72
    65
 73
     4
 40
18.0
 49
12.0
 74
     0
 49
-1.5
 74
     0
 49
3.0
 74
     0
 49
-1.5
 74
     0
  0
LTYPE
  5
4D
330
5
100
AcDbSymbolTableRecord
100
AcDbLinetypeTableRecord
  2
AM_ISO09W050
 70
     0
  3
_____ . . _____ . . _____ . . ____ .. ____
 72
    65
 73
     6
 40
22.5
 49
12.0
 74
     0
 49
-1.5
 74
     0
 49
3.0
 74
     0
 49
-1.5
 74
     0
 49
3.0
 74
     0
 49
-1.5
 74
     0
  0
LTYPE
  5
4E
330
5
100
AcDbSymbolTableRecord
100
AcDbLinetypeTableRecord
  2
AMCONSTR
 70
     0
  3
_______________________
 72
    65
 73
     2
 40
9999.0
 49
9999.0
 74
     0
 49
0.0
 74
     0
  0
LTYPE
  5
4F
330
5
100
AcDbSymbolTableRecord
100
AcDbLinetypeTableRecord
  2
AM_ISO02W050X2
 70
     0
  3
 _ _ _ _ _ _ _ _ _ _ _ _
 72
    65
 73
     2
 40
3.75
 49
3.0
 74
     0
 49
-0.75
 74
     0
  0
LTYPE
  5
50
330
5
100
AcDbSymbolTableRecord
100
AcDbLinetypeTableRecord
  2
AM_ISO08W050X2
 70
     0
  3
__ . __ . __ . __ . __ . __
 72
    65
 73
     4
 40
9.0
 49
6.0
 74
     0
 49
-0.75
 74
     0
 49
1.5
 74
     0
 49
-0.75
 74
     0
  0
LTYPE
  5
53
330
5
100
AcDbSymbolTableRecord
100
AcDbLinetypeTableRecord
  2
AMZIGZAG
 70
     0
  3
/\/-/\/-/\/-/\/-/\/-/\/
 72
    65
 73
     2
 40
11.00009999999999
 49
0.0001
 74
     4
 75
   135
340
52
 46
0.04
 50
0.0
 44
0.0
 45
0.0
 49
-11.0
 74
     0
  0
LTYPE
  5
166
330
5
100
AcDbSymbolTableRecord
100
AcDbLinetypeTableRecord
  2
ACJISTGL
 70
     0
  3
_ _ _ _ _
 72
    65
 73
     2
 40
3.0
 49
2.0
 74
     0
 49
-1.0
 74
     0
  0
LTYPE
  5
26A
330
5
100
AcDbSymbolTableRecord
100
AcDbLinetypeTableRecord
  2
ACJISTGB
 70
     0
  3
__ . . __ . .
 72
    65
 73
     6
 40
9.0
 49
4.0
 74
     0
 49
-1.0
 74
     0
 49
1.0
 74
     0
 49
-1.0
 74
     0
 49
1.0
 74
     0
 49
-1.0
 74
     0
  0
ENDTAB
  0
TABLE
  2
LAYER
  5
2
330
0
100
AcDbSymbolTable
 70
     7
  0
LAYER
  5
10
330
2
100
AcDbSymbolTableRecord
100
AcDbLayerTableRecord
  2
0
 70
     0
 62
     7
  6
CONTINUOUS
  0
LAYER
  5
3F9
330
2
100
AcDbSymbolTableRecord
100
AcDbLayerTableRecord
  2
AM_0
 70
     0
 62
     7
  6
CONTINUOUS
  0
LAYER
  5
BDD
330
2
100
AcDbSymbolTableRecord
100
AcDbLayerTableRecord
  2
AM_11
 70
     0
 62
     3
  6
AM_ISO09W050
  0
LAYER
  5
BDE
330
2
100
AcDbSymbolTableRecord
100
AcDbLayerTableRecord
  2
AM_7
 70
     0
 62
     4
  6
AM_ISO08W050
  0
LAYER
  5
BDF
330
2
100
AcDbSymbolTableRecord
100
AcDbLayerTableRecord
  2
AM_5
 70
     0
 62
     3
  6
CONTINUOUS
  0
LAYER
  5
BE0
330
2
100
AcDbSymbolTableRecord
100
AcDbLayerTableRecord
  2
DEFPOINTS
 70
     0
 62
     7
  6
CONTINUOUS
  0
LAYER
  5
14FF
330
2
100
AcDbSymbolTableRecord
100
AcDbLayerTableRecord
  2
AM_6
 70
     0
 62
     2
  6
CONTINUOUS
  0
ENDTAB
  0
TABLE
  2
STYLE
  5
3
330
0
100
AcDbSymbolTable
 70
     5
  0
STYLE
  5
11
330
3
100
AcDbSymbolTableRecord
100
AcDbTextStyleTableRecord
  2
STANDARD
 70
     0
 40
0.0
 41
1.0
 50
0.0
 71
     0
 42
2.5
  3
simplex.shx
  4
EXTFONT.SHX
  0
STYLE
  5
52
330
3
100
AcDbSymbolTableRecord
100
AcDbTextStyleTableRecord
  2

 70
     1
 40
0.0
 41
1.0
 50
0.0
 71
     0
 42
2.5
  3
ltypeshp.shx
  4

  0
STYLE
  5
6B
330
3
100
AcDbSymbolTableRecord
100
AcDbTextStyleTableRecord
  2
ASAMI
 70
     0
 40
0.0
 41
1.0
 50
0.0
 71
     0
 42
2.5
  3
simplex.shx
  4
EXTFONT.SHX
  0
STYLE
  5
262
330
3
100
AcDbSymbolTableRecord
100
AcDbTextStyleTableRecord
  2
ACJISTS
 70
     0
 40
1.0
 41
1.0
 50
0.0
 71
     0
 42
2.5
  3
simplex.shx
  4
bigfont.shx
  0
STYLE
  5
269
330
3
100
AcDbSymbolTableRecord
100
AcDbTextStyleTableRecord
  2
ACJISGDT
 70
     0
 40
0.0
 41
1.0
 50
0.0
 71
     0
 42
2.5
  3
amgdtans.shx
  4

  0
ENDTAB
  0
TABLE
  2
VIEW
  5
6
330
0
100
AcDbSymbolTable
 70
     0
  0
ENDTAB
  0
TABLE
  2
UCS
  5
7
330
0
100
AcDbSymbolTable
 70
     0
  0
ENDTAB
  0
TABLE
  2
APPID
  5
9
330
0
100
AcDbSymbolTable
 70
    14
  0
APPID
  5
12
330
9
100
AcDbSymbolTableRecord
100
AcDbRegAppTableRecord
  2
ACAD
 70
     0
  0
APPID
  5
30
330
9
100
AcDbSymbolTableRecord
100
AcDbRegAppTableRecord
  2
MCAD_NO_VIS
 70
     0
  0
APPID
  5
31
330
9
100
AcDbSymbolTableRecord
100
AcDbRegAppTableRecord
  2
ACAD_TEMP_GRAPHIC
 70
     0
  0
APPID
  5
2C2
330
9
100
AcDbSymbolTableRecord
100
AcDbRegAppTableRecord
  2
GENIUS_GENDTOL_13
 70
     0
  0
APPID
  5
339
330
9
100
AcDbSymbolTableRecord
100
AcDbRegAppTableRecord
  2
GENIUS_GENODEF_13
 70
     0
  0
APPID
  5
33A
330
9
100
AcDbSymbolTableRecord
100
AcDbRegAppTableRecord
  2
GENIUS_GENOBJ-N-RSBK_13
 70
     0
  0
APPID
  5
33B
330
9
100
AcDbSymbolTableRecord
100
AcDbRegAppTableRecord
  2
GENIUS_GENOBJ-N-LIB_13
 70
     0
  0
APPID
  5
33C
330
9
100
AcDbSymbolTableRecord
100
AcDbRegAppTableRecord
  2
GENIUS_GENSCALE_13
 70
     0
  0
APPID
  5
378
330
9
100
AcDbSymbolTableRecord
100
AcDbRegAppTableRecord
  2
GENIUS_GENDIMSH_14
 70
     0
  0
APPID
  5
BE1
330
9
100
AcDbSymbolTableRecord
100
AcDbRegAppTableRecord
  2
GENIUS_GENFIL_13
 70
     0
  0
APPID
  5
BE2
330
9
100
AcDbSymbolTableRecord
100
AcDbRegAppTableRecord
  2
GENIUS_GENOBJ-N-CHA_13
 70
     0
  0
APPID
  5
151B
330
9
100
AcDbSymbolTableRecord
100
AcDbRegAppTableRecord
  2
DCO15
 70
     0
  0
APPID
  5
1860
330
9
100
AcDbSymbolTableRecord
100
AcDbRegAppTableRecord
  2
GENIUS_GENOBJ-N-CEN_13
 70
     0
  0
APPID
  5
359C
330
9
100
AcDbSymbolTableRecord
100
AcDbRegAppTableRecord
  2
GENIUS_GENOBJ-N-FIL_13
 70
     0
  0
ENDTAB
  0
TABLE
  2
DIMSTYLE
  5
A
330
0
100
AcDbSymbolTable
 70
     8
  0
DIMSTYLE
105
58
102
{ACAD_REACTORS
330
40B9
330
4145
330
423E
330
434C
102
}
330
A
100
AcDbSymbolTableRecord
100
AcDbDimStyleTableRecord
  2
AM_JIS
 70
     0
  3

  4
"
  5
OPEN30
  6

  7

 40
1.0
 41
2.5
 42
1.0
 43
12.0
 44
1.0
 45
0.0
 46
0.0
 47
0.1
 48
0.1
140
3.2
141
0.0
142
0.0
143
0.0393701
144
1.0
145
0.0
146
0.71
147
1.5
 71
     0
 72
     0
 73
     0
 74
     0
 75
     0
 76
     0
 77
     3
 78
     8
170
     0
171
     2
172
     1
173
     0
174
     0
175
     0
176
   256
177
   256
178
     2
270
     2
271
     3
272
     3
273
     2
274
     2
340
6B
275
     0
280
     0
281
     0
282
     0
283
     0
284
     0
285
     0
286
     0
287
     3
288
     0
  0
DIMSTYLE
105
5F
330
A
100
AcDbSymbolTableRecord
100
AcDbDimStyleTableRecord
  2
AM_JIS$3
 70
     0
  3

  4
"
  5
OPEN30
  6

  7

 40
1.0
 41
2.5
 42
1.0
 43
10.0
 44
1.0
 45
0.0
 46
0.0
 47
0.1
 48
0.1
140
3.2
141
0.0
142
0.0
143
0.0393701
144
1.0
145
0.0
146
0.71
147
1.5
 71
     0
 72
     0
 73
     0
 74
     1
 75
     0
 76
     0
 77
     3
 78
     8
170
     0
171
     2
172
     0
173
     0
174
     0
175
     0
176
   256
177
   256
178
     2
270
     2
271
     2
272
     3
273
     2
274
     2
340
6B
275
     0
280
     0
281
     0
282
     0
283
     0
284
     0
285
     0
286
     0
287
     0
288
     1
  0
DIMSTYLE
105
60
330
A
100
AcDbSymbolTableRecord
100
AcDbDimStyleTableRecord
  2
AM_JIS$4
 70
     0
  3

  4
"
  5
OPEN30
  6

  7

 40
1.0
 41
2.5
 42
1.0
 43
10.0
 44
1.0
 45
0.0
 46
0.0
 47
0.1
 48
0.1
140
3.2
141
0.0
142
0.0
143
0.0393701
144
1.0
145
0.0
146
0.71
147
1.5
 71
     0
 72
     0
 73
     0
 74
     1
 75
     0
 76
     0
 77
     3
 78
     8
170
     0
171
     2
172
     0
173
     0
174
     0
175
     0
176
   256
177
   256
178
     2
270
     2
271
     2
272
     3
273
     2
274
     2
340
6B
275
     0
280
     0
281
     0
282
     0
283
     0
284
     0
285
     0
286
     0
287
     0
288
     1
  0
DIMSTYLE
105
61
330
A
100
AcDbSymbolTableRecord
100
AcDbDimStyleTableRecord
  2
AM_JIS$6
 70
     0
  3

  4
"
  5
OPEN30
  6

  7

 40
1.0
 41
2.5
 42
1.0
 43
10.0
 44
1.0
 45
0.0
 46
0.0
 47
0.1
 48
0.1
140
3.2
141
0.0
142
0.0
143
0.0393701
144
1.0
145
0.0
146
0.71
147
1.5
 71
     0
 72
     0
 73
     0
 74
     0
 75
     0
 76
     0
 77
     0
 78
     8
170
     0
171
     2
172
     1
173
     0
174
     0
175
     0
176
   256
177
   256
178
     2
270
     2
271
     2
272
     2
273
     2
274
     2
340
6B
275
     0
280
     0
281
     0
282
     0
283
     0
284
     0
285
     0
286
     0
287
     3
288
     0
  0
DIMSTYLE
105
62
330
A
100
AcDbSymbolTableRecord
100
AcDbDimStyleTableRecord
  2
AM_JIS$7
 70
     0
  3

  4
"
  5
OPEN30
  6

  7

 40
1.0
 41
2.5
 42
1.0
 43
10.0
 44
1.0
 45
0.0
 46
0.0
 47
0.1
 48
0.1
140
3.2
141
0.0
142
0.0
143
0.0393701
144
1.0
145
0.0
146
0.71
147
1.5
 71
     0
 72
     0
 73
     0
 74
     0
 75
     0
 76
     0
 77
     3
 78
     8
170
     0
171
     2
172
     1
173
     0
174
     0
175
     0
176
   256
177
   256
178
     2
270
     2
271
     2
272
     3
273
     2
274
     2
340
6B
275
     0
280
     0
281
     0
282
     0
283
     0
284
     0
285
     0
286
     0
287
     3
288
     0
  0
DIMSTYLE
105
63
330
A
100
AcDbSymbolTableRecord
100
AcDbDimStyleTableRecord
  2
AM_JIS$SF
 70
     0
  3

  4
"
  5
OPEN30
  6

  7

 40
1.0
 41
2.5
 42
1.0
 43
10.0
 44
1.0
 45
0.0
 46
0.0
 47
0.1
 48
0.1
140
3.2
141
0.0
142
0.0
143
0.0393701
144
1.0
145
0.0
146
0.71
147
1.5
 71
     0
 72
     0
 73
     0
 74
     0
 75
     1
 76
     1
 77
     3
 78
     8
170
     0
171
     2
172
     1
173
     0
174
     0
175
     0
176
   256
177
   256
178
     2
270
     2
271
     2
272
     2
273
     2
274
     2
340
6B
275
     0
280
     0
281
     0
282
     0
283
     0
284
     0
285
     0
286
     0
287
     3
288
     0
  0
DIMSTYLE
105
68
330
A
100
AcDbSymbolTableRecord
100
AcDbDimStyleTableRecord
  2
AM_JIS$SH
 70
     0
  3

  4
"
  5

  6
GENAXEH
  7
OPEN30
 40
1.0
 41
2.5
 42
1.0
 43
10.0
 44
1.0
 45
0.0
 46
0.0
 47
0.1
 48
0.1
140
3.2
141
0.0
142
0.0
143
0.0393701
144
2.0
145
0.0
146
0.71
147
1.5
 71
     0
 72
     0
 73
     0
 74
     0
 75
     1
 76
     1
 77
     3
 78
     8
170
     0
171
     2
172
     1
173
     1
174
     0
175
     0
176
   256
177
   256
178
     2
270
     2
271
     2
272
     2
273
     2
274
     2
340
6B
275
     0
280
     0
281
     0
282
     0
283
     0
284
     0
285
     0
286
     0
287
     3
288
     0
  0
DIMSTYLE
105
B34
330
A
100
AcDbSymbolTableRecord
100
AcDbDimStyleTableRecord
  2
AM_JIS$2
 70
     0
  3

  4
"
  5
OPEN30
  6

  7

 40
1.0
 41
2.5
 42
1.0
 43
12.0
 44
1.0
 45
0.0
 46
0.0
 47
0.1
 48
0.1
140
3.2
141
0.0
142
0.0
143
0.0393701
144
1.0
145
0.0
146
0.71
147
1.5
 71
     0
 72
     0
 73
     0
 74
     0
 75
     0
 76
     0
 77
     3
 78
     8
170
     0
171
     2
172
     1
173
     0
174
     0
175
     0
176
   256
177
   256
178
     2
270
     2
271
     3
272
     3
273
     2
274
     2
340
6B
275
     0
280
     0
281
     0
282
     0
283
     0
284
     0
285
     0
286
     0
287
     3
288
     0
  0
ENDTAB
  0
TABLE
  2
BLOCK_RECORD
  5
1
330
0
100
AcDbSymbolTable
 70
     9
  0
BLOCK_RECORD
  5
1F
102
{ACAD_XDICTIONARY
360
74
102
}
330
1
100
AcDbSymbolTableRecord
100
AcDbBlockTableRecord
  2
*MODEL_SPACE
  0
BLOCK_RECORD
  5
101
102
{ACAD_XDICTIONARY
360
45BE
102
}
330
1
100
AcDbSymbolTableRecord
100
AcDbBlockTableRecord
  2
*PAPER_SPACE
  0
BLOCK_RECORD
  5
59
330
1
100
AcDbSymbolTableRecord
100
AcDbBlockTableRecord
  2
_OPEN30
  0
BLOCK_RECORD
  5
64
330
1
100
AcDbSymbolTableRecord
100
AcDbBlockTableRecord
  2
GENAXEH
  0
BLOCK_RECORD
  5
40BA
330
1
100
AcDbSymbolTableRecord
100
AcDbBlockTableRecord
  2
*D5
  0
BLOCK_RECORD
  5
4146
330
1
100
AcDbSymbolTableRecord
100
AcDbBlockTableRecord
  2
*D6
  0
BLOCK_RECORD
  5
423F
330
1
100
AcDbSymbolTableRecord
100
AcDbBlockTableRecord
  2
*D7
  0
BLOCK_RECORD
  5
434D
330
1
100
AcDbSymbolTableRecord
100
AcDbBlockTableRecord
  2
*D8
  0
ENDTAB
  0
ENDSEC
  0
SECTION
  2
BLOCKS
  0
BLOCK
  5
20
330
1F
100
AcDbEntity
  8
0
100
AcDbBlockBegin
  2
*MODEL_SPACE
 70
     0
 10
0.0
 20
0.0
 30
0.0
  3
*MODEL_SPACE
  1

  0
ENDBLK
  5
21
330
1F
100
AcDbEntity
  8
0
100
AcDbBlockEnd
  0
BLOCK
  5
103
330
101
100
AcDbEntity
 67
     1
  8
0
100
AcDbBlockBegin
  2
*PAPER_SPACE
 70
     0
 10
0.0
 20
0.0
 30
0.0
  3
*PAPER_SPACE
  1

  0
ENDBLK
  5
104
330
101
100
AcDbEntity
 67
     1
  8
0
100
AcDbBlockEnd
  0
BLOCK
  5
5D
330
59
100
AcDbEntity
  8
0
100
AcDbBlockBegin
  2
_OPEN30
 70
     0
 10
0.0
 20
0.0
 30
0.0
  3
_OPEN30
  1

  0
LINE
  5
5A
330
59
100
AcDbEntity
  8
0
 62
     0
100
AcDbLine
 10
-1.0
 20
0.26794919
 30
0.0
 11
0.0
 21
0.0
 31
0.0
  0
LINE
  5
5B
330
59
100
AcDbEntity
  8
0
 62
     0
100
AcDbLine
 10
0.0
 20
0.0
 30
0.0
 11
-1.0
 21
-0.26794919
 31
0.0
  0
LINE
  5
5C
330
59
100
AcDbEntity
  8
0
 62
     0
100
AcDbLine
 10
0.0
 20
0.0
 30
0.0
 11
-1.0
 21
0.0
 31
0.0
  0
ENDBLK
  5
5E
330
59
100
AcDbEntity
  8
0
100
AcDbBlockEnd
  0
BLOCK
  5
66
330
64
100
AcDbEntity
  8
0
100
AcDbBlockBegin
  2
GENAXEH
 70
     0
 10
0.0
 20
0.0
 30
0.0
  3
GENAXEH
  1

  0
LINE
  5
65
330
64
100
AcDbEntity
  8
0
100
AcDbLine
 10
-1.0
 20
0.0
 30
0.0
 11
1.0
 21
0.0
 31
0.0
  0
ENDBLK
  5
67
330
64
100
AcDbEntity
  8
0
100
AcDbBlockEnd
  0
BLOCK
  5
40C4
330
40BA
100
AcDbEntity
  8
0
100
AcDbBlockBegin
  2
*D5
 70
     1
 10
0.0
 20
0.0
 30
0.0
  3
*D5
  1

  0
LINE
  5
43E5
330
40BA
100
AcDbEntity
  8
AM_5
100
AcDbLine
 10
1.000000000000636
 20
8.000000000006059
 30
0.0
 11
19.55776903085654
 21
8.000000000006053
 31
0.0
  0
LINE
  5
43E6
330
40BA
100
AcDbEntity
  8
AM_5
100
AcDbLine
 10
1.000000000000647
 20
-7.99999999999394
 30
0.0
 11
19.55776903085654
 21
-7.999999999993946
 31
0.0
  0
LINE
  5
43E7
330
40BA
100
AcDbEntity
  8
AM_5
100
AcDbLine
 10
18.55776903085654
 20
5.500000000006052
 30
0.0
 11
18.55776903085654
 21
-5.499999999993946
 31
0.0
  0
INSERT
  5
43E8
330
40BA
100
AcDbEntity
  8
AM_5
100
AcDbBlockReference
  2
_OPEN30
 10
18.55776903085654
 20
8.000000000006053
 30
0.0
 41
2.5
 42
2.5
 43
2.5
 50
90.0
  0
INSERT
  5
43E9
330
40BA
100
AcDbEntity
  8
AM_5
100
AcDbBlockReference
  2
_OPEN30
 10
18.55776903085654
 20
-7.999999999993946
 30
0.0
 41
2.5
 42
2.5
 43
2.5
 50
270.0
  0
MTEXT
  5
43EA
330
40BA
100
AcDbEntity
  8
AM_5
 62
     2
100
AcDbMText
 10
15.45776903085654
 20
0.0000000000060571
 30
0.0
 40
3.2
 41
0.0
 71
     5
 72
     1
  1
%%c16
  7
ASAMI
 11
0.0000000000000001
 21
1.0
 31
0.0
1001
ACAD
1000
MTEXTBEGIN
1070
    73
1070
     1
1070
    44
1040
1.0
1070
    74
1070
     0
1000
MTEXTEND
  0
POINT
  5
43EB
330
40BA
100
AcDbEntity
  8
DEFPOINTS
 62
     0
100
AcDbPoint
 10
0.0000000000006366
 20
8.000000000006059
 30
0.0
  0
POINT
  5
43EC
330
40BA
100
AcDbEntity
  8
DEFPOINTS
 62
     0
100
AcDbPoint
 10
0.0000000000006479
 20
-7.99999999999394
 30
0.0
  0
POINT
  5
43ED
330
40BA
100
AcDbEntity
  8
DEFPOINTS
 62
     0
100
AcDbPoint
 10
18.55776903085654
 20
-7.999999999993946
 30
0.0
  0
ENDBLK
  5
40C5
330
40BA
100
AcDbEntity
  8
0
100
AcDbBlockEnd
  0
BLOCK
  5
4150
330
4146
100
AcDbEntity
  8
0
100
AcDbBlockBegin
  2
*D6
 70
     1
 10
0.0
 20
0.0
 30
0.0
  3
*D6
  1

  0
LINE
  5
43D3
330
4146
100
AcDbEntity
  8
AM_5
100
AcDbLine
 10
-0.000000000000398
 20
-5.999999999996212
 30
0.0
 11
-0.0000000000003997
 21
-35.00000100999052
 31
0.0
  0
LINE
  5
43D4
330
4146
100
AcDbEntity
  8
AM_5
100
AcDbLine
 10
-104.9999999999999
 20
-8.000000000013095
 30
0.0
 11
-104.9999999999999
 21
-35.00000100999052
 31
0.0
  0
LINE
  5
43D5
330
4146
100
AcDbEntity
  8
AM_5
100
AcDbLine
 10
-2.500000000000399
 20
-34.00000100999052
 30
0.0
 11
-102.4999999999999
 21
-34.00000100999052
 31
0.0
  0
INSERT
  5
43D6
330
4146
100
AcDbEntity
  8
AM_5
100
AcDbBlockReference
  2
_OPEN30
 10
-0.0000000000003997
 20
-34.00000100999052
 30
0.0
 41
2.5
 42
2.5
 43
2.5
  0
INSERT
  5
43D7
330
4146
100
AcDbEntity
  8
AM_5
100
AcDbBlockReference
  2
_OPEN30
 10
-104.9999999999999
 20
-34.00000100999052
 30
0.0
 41
2.5
 42
2.5
 43
2.5
 50
180.0
  0
MTEXT
  5
43D8
330
4146
100
AcDbEntity
  8
AM_5
 62
     2
100
AcDbMText
 10
-52.50000000000019
 20
-30.90000100999052
 30
0.0
 40
3.2
 41
0.0
 71
     5
 72
     1
  1
105
  7
ASAMI
1001
ACAD
1000
MTEXTBEGIN
1070
    73
1070
     1
1070
    44
1040
1.0
1070
    74
1070
     0
1000
MTEXTEND
  0
POINT
  5
43D9
330
4146
100
AcDbEntity
  8
DEFPOINTS
 62
     0
100
AcDbPoint
 10
-0.0000000000003979
 20
-4.999999999996212
 30
0.0
  0
POINT
  5
43DA
330
4146
100
AcDbEntity
  8
DEFPOINTS
 62
     0
100
AcDbPoint
 10
-104.9999999999999
 20
-7.000000000013095
 30
0.0
  0
POINT
  5
43DB
330
4146
100
AcDbEntity
  8
DEFPOINTS
 62
     0
100
AcDbPoint
 10
-104.9999999999999
 20
-34.00000100999052
 30
0.0
  0
ENDBLK
  5
4151
330
4146
100
AcDbEntity
  8
0
100
AcDbBlockEnd
  0
BLOCK
  5
4249
330
423F
100
AcDbEntity
  8
0
100
AcDbBlockBegin
  2
*D7
 70
     1
 10
0.0
 20
0.0
 30
0.0
  3
*D7
  1

  0
LINE
  5
4519
330
423F
100
AcDbEntity
  8
AM_5
100
AcDbLine
 10
-0.0000000000006367
 20
-8.999999999990709
 30
0.0
 11
-0.0000000000006376
 21
-23.0000010099904
 31
0.0
  0
LINE
  5
451A
330
423F
100
AcDbEntity
  8
AM_5
100
AcDbLine
 10
-50.00000000000063
 20
-9.000000000013061
 30
0.0
 11
-50.00000000000063
 21
-23.0000010099904
 31
0.0
  0
LINE
  5
451B
330
423F
100
AcDbEntity
  8
AM_5
100
AcDbLine
 10
-2.500000000000637
 20
-22.0000010099904
 30
0.0
 11
-47.50000000000063
 21
-22.0000010099904
 31
0.0
  0
INSERT
  5
451C
330
423F
100
AcDbEntity
  8
AM_5
100
AcDbBlockReference
  2
_OPEN30
 10
-0.0000000000006375
 20
-22.0000010099904
 30
0.0
 41
2.5
 42
2.5
 43
2.5
  0
INSERT
  5
451D
330
423F
100
AcDbEntity
  8
AM_5
100
AcDbBlockReference
  2
_OPEN30
 10
-50.00000000000063
 20
-22.0000010099904
 30
0.0
 41
2.5
 42
2.5
 43
2.5
 50
180.0
  0
MTEXT
  5
451E
330
423F
100
AcDbEntity
  8
AM_5
 62
     2
100
AcDbMText
 10
-25.00000000000063
 20
-18.9000010099904
 30
0.0
 40
3.2
 41
0.0
 71
     5
 72
     1
  1
50
  7
ASAMI
1001
ACAD
1000
MTEXTBEGIN
1070
    73
1070
     1
1070
    44
1040
1.0
1070
    74
1070
     0
1000
MTEXTEND
  0
POINT
  5
451F
330
423F
100
AcDbEntity
  8
DEFPOINTS
 62
     0
100
AcDbPoint
 10
-0.0000000000006366
 20
-7.999999999990708
 30
0.0
  0
POINT
  5
4520
330
423F
100
AcDbEntity
  8
DEFPOINTS
 62
     0
100
AcDbPoint
 10
-50.00000000000063
 20
-8.000000000013061
 30
0.0
  0
POINT
  5
4521
330
423F
100
AcDbEntity
  8
DEFPOINTS
 62
     0
100
AcDbPoint
 10
-50.00000000000063
 20
-22.0000010099904
 30
0.0
  0
ENDBLK
  5
424A
330
423F
100
AcDbEntity
  8
0
100
AcDbBlockEnd
  0
BLOCK
  5
4357
330
434D
100
AcDbEntity
  8
0
100
AcDbBlockBegin
  2
*D8
 70
     1
 10
0.0
 20
0.0
 30
0.0
  3
*D8
  1

  0
LINE
  5
43DC
330
434D
100
AcDbEntity
  8
AM_5
100
AcDbLine
 10
-104.9999999999999
 20
7.999999999986906
 30
0.0
 11
-122.7536996173885
 21
7.999999999986911
 31
0.0
  0
LINE
  5
43DD
330
434D
100
AcDbEntity
  8
AM_5
100
AcDbLine
 10
-104.9999999999999
 20
-8.000000000013095
 30
0.0
 11
-122.7536996173885
 21
-8.000000000013089
 31
0.0
  0
LINE
  5
43DE
330
434D
100
AcDbEntity
  8
AM_5
100
AcDbLine
 10
-121.7536996173885
 20
5.49999999998691
 30
0.0
 11
-121.7536996173885
 21
-5.500000000013089
 31
0.0
  0
INSERT
  5
43DF
330
434D
100
AcDbEntity
  8
AM_5
100
AcDbBlockReference
  2
_OPEN30
 10
-121.7536996173885
 20
7.99999999998691
 30
0.0
 41
2.5
 42
2.5
 43
2.5
 50
90.0
  0
INSERT
  5
43E0
330
434D
100
AcDbEntity
  8
AM_5
100
AcDbBlockReference
  2
_OPEN30
 10
-121.7536996173885
 20
-8.000000000013089
 30
0.0
 41
2.5
 42
2.5
 43
2.5
 50
270.0
  0
MTEXT
  5
43E1
330
434D
100
AcDbEntity
  8
AM_5
 62
     2
100
AcDbMText
 10
-124.8536996173885
 20
-0.0000000000131083
 30
0.0
 40
3.2
 41
0.0
 71
     5
 72
     1
  1
%%c16
  7
ASAMI
 11
0.0000000000000001
 21
1.0
 31
0.0
1001
ACAD
1000
MTEXTBEGIN
1070
    73
1070
     1
1070
    44
1040
1.0
1070
    74
1070
     0
1000
MTEXTEND
  0
POINT
  5
43E2
330
434D
100
AcDbEntity
  8
DEFPOINTS
 62
     0
100
AcDbPoint
 10
-103.9999999999999
 20
7.999999999986906
 30
0.0
  0
POINT
  5
43E3
330
434D
100
AcDbEntity
  8
DEFPOINTS
 62
     0
100
AcDbPoint
 10
-103.9999999999999
 20
-8.000000000013095
 30
0.0
  0
POINT
  5
43E4
330
434D
100
AcDbEntity
  8
DEFPOINTS
 62
     0
100
AcDbPoint
 10
-121.7536996173885
 20
-8.000000000013089
 30
0.0
  0
ENDBLK
  5
4358
330
434D
100
AcDbEntity
  8
0
100
AcDbBlockEnd
  0
ENDSEC
  0
SECTION
  2
ENTITIES
  0
TEXT
  5
1500
330
1F
100
AcDbEntity
  8
AM_6
100
AcDbText
 10
-68.57142857142875
 20
-56.50000100999052
 30
0.0
 40
5.0
  1
RSM4160
 72
     4
 11
-52.50000000000017
 21
-54.00000100999052
 31
0.0
100
AcDbText
  0
LINE
  5
3CF2
330
1F
100
AcDbEntity
  8
AM_7
  6
AM_ISO08W050X2
100
AcDbLine
 10
4.557768030856557
 20
-0.0000000000130669
 30
0.0
 11
-107.7536986173885
 21
-0.0000000000130562
 31
0.0
1001
GENIUS_GENODEF_13
1002
{
1000
HIER
1070
     0
1002
}
1002
{
1000
MANEDIT
1070
     0
1002
}
1002
{
1000
NOSEL
1070
     0
1002
}
1002
{
1000
BEHIND
1070
     0
1002
}
1002
{
1000
REACTOR
1002
}
1001
GENIUS_GENOBJ-N-CEN_13
1002
{
1000
OWNER
1000
GEN
1002
}
  0
SPLINE
  5
3F6E
330
1F
100
AcDbEntity
  8
AM_0
100
AcDbSpline
210
0.0
220
0.0
230
1.0
 70
     8
 71
     3
 72
     9
 73
     5
 74
     3
 42
0.0000000001
 43
0.0000000001
 44
0.0000000001
 12
-0.8798907302369263
 22
0.475176075621583
 32
0.0
 13
-0.9606681205777109
 23
-0.2776990495224796
 33
0.0
 40
0.0
 40
0.0
 40
0.0
 40
0.0
 40
1.827136860880514
 40
3.461496838116544
 40
3.461496838116544
 40
3.461496838116544
 40
3.461496838116544
 10
-24.19999999999936
 20
-7.869333354942807
 30
0.0
 10
-24.73589359558701
 20
-7.579929447217227
 30
0.0
 10
-25.67410086559166
 20
-6.620104984923202
 30
0.0
 10
-26.87664082411372
 20
-7.169125789235303
 30
0.0
 10
-27.40000000000664
 20
-7.320412526653979
 30
0.0
 11
-24.19999999999936
 21
-7.869333354942807
 31
0.0
 11
-25.79999999999936
 21
-6.987047058784753
 31
0.0
 11
-27.40000000000664
 21
-7.320412526653979
 31
0.0
  0
SPLINE
  5
3F6F
330
1F
100
AcDbEntity
  8
AM_0
100
AcDbSpline
210
0.0
220
0.0
230
1.0
 70
     8
 71
     3
 72
     8
 73
     4
 74
     0
 42
0.0000000001
 43
0.0000000001
 40
1.788970302442027
 40
1.788970302442027
 40
1.788970302442027
 40
1.788970302442027
 40
3.332324051699147
 40
3.332324051699147
 40
3.332324051699147
 40
3.332324051699147
 10
-43.09966948047013
 20
-7.589140097917004
 30
0.0
 10
-43.90611474215339
 20
-7.492733497230836
 30
0.0
 10
-44.70584151513258
 20
-7.357487966486258
 30
0.0
 10
-45.49966948046067
 20
-7.188142002166603
 30
0.0
  0
SPLINE
  5
3F70
330
1F
100
AcDbEntity
  8
AM_0
100
AcDbSpline
210
0.0
220
0.0
230
1.0
 70
     8
 71
     3
 72
     8
 73
     4
 74
     0
 42
0.0000000001
 43
0.0000000001
 40
0.0
 40
0.0
 40
0.0
 40
0.0
 40
1.539536607901005
 40
1.539536607901005
 40
1.539536607901005
 40
1.539536607901005
 10
-43.05966948046998
 20
-7.99999999999385
 30
0.0
 10
-43.88075567135102
 20
-7.99999999999385
 30
0.0
 10
-44.69380434742061
 20
-7.954845247334777
 30
0.0
 10
-45.49966948047013
 20
-7.869333354942899
 30
0.0
  0
SPLINE
  5
3F71
330
1F
100
AcDbEntity
  8
AM_0
100
AcDbSpline
210
0.0
220
0.0
230
1.0
 70
     8
 71
     3
 72
     8
 73
     4
 74
     0
 42
0.0000000001
 43
0.0000000001
 40
0.2298684927509915
 40
0.2298684927509915
 40
0.2298684927509915
 40
0.2298684927509915
 40
2.764560748519282
 40
2.764560748519282
 40
2.764560748519282
 40
2.764560748519282
 10
-39.89966948047013
 20
-7.757519257395722
 30
0.0
 10
-38.55155538472691
 20
-7.736004043715763
 30
0.0
 10
-37.22379609763093
 20
-7.596819660042854
 30
0.0
 10
-35.91276063659252
 20
-7.360956463743002
 30
0.0
  0
SPLINE
  5
3F72
330
1F
100
AcDbEntity
  8
AM_0
100
AcDbSpline
210
0.0
220
0.0
230
1.0
 70
     8
 71
     3
 72
     8
 73
     4
 74
     0
 42
0.0000000001
 43
0.0000000001
 40
1.999245295235591
 40
1.999245295235591
 40
1.999245295235591
 40
1.999245295235591
 40
2.130230809022907
 40
2.130230809022907
 40
2.130230809022907
 40
2.130230809022907
 10
-39.89966948047013
 20
-7.782063916953882
 30
0.0
 10
-39.8314640877471
 20
-7.772774285635421
 30
0.0
 10
-39.76330884936842
 20
-7.763202887243858
 30
0.0
 10
-39.69520323938641
 20
-7.753352676558313
 30
0.0
  0
SPLINE
  5
3F73
330
1F
100
AcDbEntity
  8
AM_0
100
AcDbSpline
210
0.0
220
0.0
230
1.0
 70
     8
 71
     3
 72
     9
 73
     5
 74
     3
 42
0.0000000001
 43
0.0000000001
 44
0.0000000001
 12
0.8362726111173659
 22
0.5483138881105814
 32
0.0
 13
0.9001039467105636
 23
-0.4356752059918798
 33
0.0
 40
0.0
 40
0.0
 40
0.0
 40
0.0
 40
1.778895728359617
 40
3.473925422202958
 40
3.473925422202958
 40
3.473925422202958
 40
3.473925422202958
 10
-43.09966948047013
 20
-7.999964288104127
 30
0.0
 10
-42.60378888858318
 20
-7.674833210317405
 30
0.0
 10
-41.54635354782107
 20
-6.842516412509429
 30
0.0
 10
-40.40823711954345
 20
-7.535903113278032
 30
0.0
 10
-39.89966948047013
 20
-7.782063916953882
 30
0.0
 11
-43.09966948047013
 21
-7.999964288104127
 31
0.0
 11
-41.49966948047013
 21
-7.222487592391587
 31
0.0
 11
-39.89966948047013
 21
-7.782063916953882
 31
0.0
  0
SPLINE
  5
3F74
330
1F
100
AcDbEntity
  8
AM_0
100
AcDbSpline
210
0.0
220
0.0
230
1.0
 70
     8
 71
     3
 72
     8
 73
     4
 74
     2
 42
0.0000000001
 43
0.0000000001
 44
0.0000000001
 12
0.8857418982387386
 22
0.464178079732807
 32
0.0
 13
0.9626176208368654
 23
-0.2708640176442281
 33
0.0
 40
0.0
 40
0.0
 40
0.0
 40
0.0
 40
1.598318199087484
 40
1.598318199087484
 40
1.598318199087484
 40
1.598318199087484
 10
-43.09966948047013
 20
-7.589140097917004
 30
0.0
 10
-42.62777034858704
 20
-7.341838673765528
 30
0.0
 10
-42.05616780989671
 20
-7.081003487280113
 30
0.0
 10
-41.54331138918141
 20
-7.225312450239687
 30
0.0
 11
-43.09966948047013
 21
-7.589140097917004
 31
0.0
 11
-41.54331138918141
 21
-7.225312450239687
 31
0.0
  0
SPLINE
  5
3F75
330
1F
100
AcDbEntity
  8
AM_0
100
AcDbSpline
210
0.0
220
0.0
230
1.0
 70
     8
 71
     3
 72
     9
 73
     5
 74
     0
 42
0.0000000001
 43
0.0000000001
 40
0.0
 40
0.0
 40
0.0
 40
0.0
 40
1.141960538050321
 40
1.719110204138551
 40
1.719110204138551
 40
1.719110204138551
 40
1.719110204138551
 10
-45.49966948047013
 20
-7.869333354942899
 30
0.0
 10
-46.03556307605777
 20
-7.579929447217307
 30
0.0
 10
-46.78108180018953
 20
-6.817233259074999
 30
0.0
 10
-47.69350592755991
 20
-7.007254758100896
 30
0.0
 10
-47.99999999999973
 20
-7.098290412370295
 30
0.0
  0
SPLINE
  5
3F76
330
1F
100
AcDbEntity
  8
AM_0
100
AcDbSpline
210
0.0
220
0.0
230
1.0
 70
     8
 71
     3
 72
     8
 73
     4
 74
     2
 42
0.0000000001
 43
0.0000000001
 44
0.0000000001
 12
0.8857418982387386
 22
0.464178079732807
 32
0.0
 13
0.9626176208368654
 23
-0.2708640176442281
 33
0.0
 40
0.0
 40
0.0
 40
0.0
 40
0.0
 40
1.598318199087481
 40
1.598318199087481
 40
1.598318199087481
 40
1.598318199087481
 10
-21.79999999999937
 20
-7.589140097916822
 30
0.0
 10
-21.32810086811628
 20
-7.341838673765347
 30
0.0
 10
-20.75649832942594
 20
-7.081003487279931
 30
0.0
 10
-20.24364190871066
 20
-7.225312450239505
 30
0.0
 11
-21.79999999999937
 21
-7.589140097916822
 31
0.0
 11
-20.24364190871066
 21
-7.225312450239505
 31
0.0
  0
SPLINE
  5
3F77
330
1F
100
AcDbEntity
  8
AM_0
100
AcDbSpline
210
0.0
220
0.0
230
1.0
 70
     8
 71
     3
 72
     9
 73
     5
 74
     3
 42
0.0000000001
 43
0.0000000001
 44
0.0000000001
 12
0.8362726111173659
 22
0.5483138881105814
 32
0.0
 13
0.9001039467105636
 23
-0.4356752059918798
 33
0.0
 40
0.0
 40
0.0
 40
0.0
 40
0.0
 40
1.778895728359614
 40
3.473925422202955
 40
3.473925422202955
 40
3.473925422202955
 40
3.473925422202955
 10
-21.79999999999937
 20
-7.999964288103945
 30
0.0
 10
-21.30411940811243
 20
-7.674833210317223
 30
0.0
 10
-20.24668406735032
 20
-6.842516412509248
 30
0.0
 10
-19.1085676390727
 20
-7.53590311327785
 30
0.0
 10
-18.59999999999937
 20
-7.7820639169537
 30
0.0
 11
-21.79999999999937
 21
-7.999964288103945
 31
0.0
 11
-20.19999999999937
 21
-7.222487592391406
 31
0.0
 11
-18.59999999999937
 21
-7.7820639169537
 31
0.0
  0
SPLINE
  5
3F78
330
1F
100
AcDbEntity
  8
AM_0
100
AcDbSpline
210
0.0
220
0.0
230
1.0
 70
     8
 71
     3
 72
     9
 73
     5
 74
     3
 42
0.0000000001
 43
0.0000000001
 44
0.0000000001
 12
-0.6110826252653754
 22
0.7915668165725349
 32
0.0
 13
-0.9134460065687765
 23
-0.4069599403916245
 33
0.0
 40
0.0
 40
0.0
 40
0.0
 40
0.0
 40
1.841695322372449
 40
3.46376736279375
 40
3.46376736279375
 40
3.46376736279375
 40
3.46376736279375
 10
-3.199999999999363
 20
-7.776582809930676
 30
0.0
 10
-3.575142670844135
 20
-7.290641175455047
 30
0.0
 10
-4.711460315509127
 20
-6.65040315328269
 30
0.0
 10
-5.906108257436128
 20
-6.911168851269698
 30
0.0
 10
-6.399999999999363
 20
-7.131208298229956
 30
0.0
 11
-3.199999999999363
 21
-7.776582809930676
 31
0.0
 11
-4.799999999999363
 21
-6.864529269589673
 31
0.0
 11
-6.399999999999363
 21
-7.131208298229956
 31
0.0
  0
SPLINE
  5
3F79
330
1F
100
AcDbEntity
  8
AM_0
100
AcDbSpline
210
0.0
220
0.0
230
1.0
 70
     8
 71
     3
 72
     8
 73
     4
 74
     0
 42
0.0000000001
 43
0.0000000001
 40
1.999245295235591
 40
1.999245295235591
 40
1.999245295235591
 40
1.999245295235591
 40
2.130230809022907
 40
2.130230809022907
 40
2.130230809022907
 40
2.130230809022907
 10
-18.59999999999937
 20
-7.7820639169537
 30
0.0
 10
-18.53179460727634
 20
-7.772774285635239
 30
0.0
 10
-18.46363936889767
 20
-7.763202887243676
 30
0.0
 10
-18.39553375891565
 20
-7.753352676558131
 30
0.0
  0
SPLINE
  5
3F7A
330
1F
100
AcDbEntity
  8
AM_0
100
AcDbSpline
210
0.0
220
0.0
230
1.0
 70
     8
 71
     3
 72
     8
 73
     4
 74
     0
 42
0.0000000001
 43
0.0000000001
 40
0.2298684927509915
 40
0.2298684927509915
 40
0.2298684927509915
 40
0.2298684927509915
 40
2.764560748519282
 40
2.764560748519282
 40
2.764560748519282
 40
2.764560748519282
 10
-18.59999999999937
 20
-7.75751925739554
 30
0.0
 10
-17.25188590425615
 20
-7.736004043715581
 30
0.0
 10
-15.92412661716017
 20
-7.596819660042672
 30
0.0
 10
-14.61309115612175
 20
-7.360956463742912
 30
0.0
  0
SPLINE
  5
3F7B
330
1F
100
AcDbEntity
  8
AM_0
100
AcDbSpline
210
0.0
220
0.0
230
1.0
 70
     8
 71
     3
 72
     8
 73
     4
 74
     0
 42
0.0000000001
 43
0.0000000001
 40
1.870660592686466
 40
1.870660592686466
 40
1.870660592686466
 40
1.870660592686466
 40
3.826008700541491
 40
3.826008700541491
 40
3.826008700541491
 40
3.826008700541491
 10
-0.1679999999993925
 20
-7.573505852188588
 30
0.0
 10
-1.18882559922431
 20
-7.446171496504155
 30
0.0
 10
-2.198936618275274
 20
-7.256897194451574
 30
0.0
 10
-3.199999999995725
 20
-7.015319380560447
 30
0.0
  0
SPLINE
  5
3F7C
330
1F
100
AcDbEntity
  8
AM_0
100
AcDbSpline
210
0.0
220
0.0
230
1.0
 70
     8
 71
     3
 72
     8
 73
     4
 74
     0
 42
0.0000000001
 43
0.0000000001
 40
0.0
 40
0.0
 40
0.0
 40
0.0
 40
2.024855066027545
 40
2.024855066027545
 40
2.024855066027545
 40
2.024855066027545
 10
0.0000000000006366
 20
-7.99999999999394
 30
0.0
 10
-1.079922701880514
 20
-7.99999999999394
 30
0.0
 10
-2.145941727989793
 20
-7.921889159102045
 30
0.0
 10
-3.199999999999363
 20
-7.776582809930676
 30
0.0
  0
SPLINE
  5
3F7D
330
1F
100
AcDbEntity
  8
AM_0
100
AcDbSpline
210
0.0
220
0.0
230
1.0
 70
     8
 71
     3
 72
     8
 73
     4
 74
     0
 42
0.0000000001
 43
0.0000000001
 40
1.788970302442027
 40
1.788970302442027
 40
1.788970302442027
 40
1.788970302442027
 40
3.332324051699147
 40
3.332324051699147
 40
3.332324051699147
 40
3.332324051699147
 10
-21.79999999999937
 20
-7.589140097916822
 30
0.0
 10
-22.60644526168263
 20
-7.492733497230654
 30
0.0
 10
-23.40617203466182
 20
-7.357487966486075
 30
0.0
 10
-24.1999999999899
 20
-7.188142002166512
 30
0.0
  0
SPLINE
  5
3F7E
330
1F
100
AcDbEntity
  8
AM_0
100
AcDbSpline
210
0.0
220
0.0
230
1.0
 70
     8
 71
     3
 72
     8
 73
     4
 74
     0
 42
0.0000000001
 43
0.0000000001
 40
0.0
 40
0.0
 40
0.0
 40
0.0
 40
1.539536607901005
 40
1.539536607901005
 40
1.539536607901005
 40
1.539536607901005
 10
-21.75999999999923
 20
-7.999999999993668
 30
0.0
 10
-22.58108619088026
 20
-7.999999999993668
 30
0.0
 10
-23.39413486694985
 20
-7.954845247334595
 30
0.0
 10
-24.19999999999936
 20
-7.869333354942807
 30
0.0
  0
SPLINE
  5
3F7F
330
1F
100
AcDbEntity
  8
AM_0
100
AcDbSpline
210
0.0
220
0.0
230
1.0
 70
     8
 71
     3
 72
     8
 73
     4
 74
     0
 42
0.0000000001
 43
0.0000000001
 40
14.25229543663493
 40
14.25229543663493
 40
14.25229543663493
 40
14.25229543663493
 40
14.43901837670146
 40
14.43901837670146
 40
14.43901837670146
 40
14.43901837670146
 10
-40.99999999999936
 20
0.1505269211550171
 30
0.0
 10
-40.90909301521469
 20
0.10035687507376
 30
0.0
 10
-40.81818748201121
 20
0.0501784375400007
 30
0.0
 10
-40.72728194880847
 20
0.0000000000062414
 30
0.0
  0
SPLINE
  5
3F80
330
1F
100
AcDbEntity
  8
AM_0
100
AcDbSpline
210
0.0
220
0.0
230
1.0
 70
     8
 71
     3
 72
     8
 73
     4
 74
     0
 42
0.0000000001
 43
0.0000000001
 40
12.98298737538389
 40
12.98298737538389
 40
12.98298737538389
 40
12.98298737538389
 40
14.43901837670148
 40
14.43901837670148
 40
14.43901837670148
 40
14.43901837670148
 10
-38.59999999995207
 20
-1.169867730223938
 30
0.0
 10
-39.30955283113299
 20
-0.782564377149845
 30
0.0
 10
-40.01841738997036
 20
-0.3912821885718017
 30
0.0
 10
-40.72728194880847
 20
0.0000000000062414
 30
0.0
  0
SPLINE
  5
3F81
330
1F
100
AcDbEntity
  8
AM_0
100
AcDbSpline
210
0.0
220
0.0
230
1.0
 70
     8
 71
     3
 72
     9
 73
     5
 74
     3
 42
0.0000000001
 43
0.0000000001
 44
0.0000000001
 12
-0.70922844039674
 22
0.7049787367945277
 32
0.0
 13
-0.9773066838349782
 23
-0.2118292844048671
 33
0.0
 40
0.0
 40
0.0
 40
0.0
 40
0.0
 40
2.383028724344361
 40
3.983028724344362
 40
3.983028724344362
 40
3.983028724344362
 40
3.983028724344362
 10
-35.39999999999936
 20
-2.872469460349691
 30
0.0
 10
-35.96337058186182
 20
-2.312474600405237
 30
0.0
 10
-36.5446479571594
 20
-0.7857109116291908
 30
0.0
 10
-38.07876976862072
 20
-0.9934740513269751
 30
0.0
 10
-38.59999999999937
 20
-1.106449669676237
 30
0.0
 11
-35.39999999999936
 21
-2.872469460349691
 31
0.0
 11
-36.99999999999937
 21
-1.106449669676237
 31
0.0
 11
-38.59999999999937
 21
-1.106449669676237
 31
0.0
  0
SPLINE
  5
3F82
330
1F
100
AcDbEntity
  8
AM_0
100
AcDbSpline
210
0.0
220
0.0
230
1.0
 70
     8
 71
     3
 72
     8
 73
     4
 74
     0
 42
0.0000000001
 43
0.0000000001
 40
9.170645305362121
 40
9.170645305362121
 40
9.170645305362121
 40
9.170645305362121
 40
10.79891126818747
 40
10.79891126818747
 40
10.79891126818747
 40
10.79891126818747
 10
-32.99999999999936
 20
-4.058858358312079
 30
0.0
 10
-33.80279355828397
 20
-3.679544680948981
 30
0.0
 10
-34.60247270744521
 20
-3.282226907209349
 30
0.0
 10
-35.40000000011578
 20
-2.872469460289664
 30
0.0
  0
SPLINE
  5
3F83
330
1F
100
AcDbEntity
  8
AM_0
100
AcDbSpline
210
0.0
220
0.0
230
1.0
 70
     8
 71
     3
 72
     9
 73
     5
 74
     3
 42
0.0000000001
 43
0.0000000001
 44
0.0000000001
 12
-0.5352929995799692
 22
0.8446664457646457
 32
0.0
 13
-0.9737293462750431
 23
-0.2277084983103998
 33
0.0
 40
0.0
 40
0.0
 40
0.0
 40
0.0
 40
2.269351860301935
 40
3.88269881049378
 40
3.88269881049378
 40
3.88269881049378
 40
3.88269881049378
 10
-29.79999999999936
 20
-5.461097858997471
 30
0.0
 10
-30.20492272146716
 20
-4.822149402320596
 30
0.0
 10
-31.06780739644607
 20
-3.44729963770487
 30
0.0
 10
-32.47634557632591
 20
-3.936400754535092
 30
0.0
 10
-33.00000000003429
 20
-4.058858358295708
 30
0.0
 11
-29.79999999999936
 21
-5.461097858997471
 31
0.0
 11
-31.39999999999936
 21
-3.851763255549247
 31
0.0
 11
-33.00000000003429
 21
-4.058858358295708
 31
0.0
  0
SPLINE
  5
3F84
330
1F
100
AcDbEntity
  8
AM_0
100
AcDbSpline
210
0.0
220
0.0
230
1.0
 70
     8
 71
     3
 72
     8
 73
     4
 74
     0
 42
0.0000000001
 43
0.0000000001
 40
5.425905956994038
 40
5.425905956994038
 40
5.425905956994038
 40
5.425905956994038
 40
7.019702002723574
 40
7.019702002723574
 40
7.019702002723574
 40
7.019702002723574
 10
-27.39999999999936
 20
-6.322561367144533
 30
0.0
 10
-28.20480401528412
 20
-6.061145807438458
 30
0.0
 10
-29.00450311303512
 20
-5.770219215748818
 30
0.0
 10
-29.79999999999936
 20
-5.455000052013872
 30
0.0
  0
SPLINE
  5
3F85
330
1F
100
AcDbEntity
  8
AM_0
100
AcDbSpline
210
0.0
220
0.0
230
1.0
 70
     8
 71
     3
 72
     8
 73
     4
 74
     0
 42
0.0000000001
 43
0.0000000001
 40
3.600603813281411
 40
3.600603813281411
 40
3.600603813281411
 40
3.600603813281411
 40
5.175009087017798
 40
5.175009087017798
 40
5.175009087017798
 40
5.175009087017798
 10
-27.40000000000009
 20
-7.320412526655434
 30
0.0
 10
-28.20601255003285
 20
-7.131253014457559
 30
0.0
 10
-29.00570810996077
 20
-6.906604656205252
 30
0.0
 10
-29.79999999999936
 20
-6.651598484247677
 30
0.0
  0
SPLINE
  5
3F86
330
1F
100
AcDbEntity
  8
AM_0
100
AcDbSpline
210
0.0
220
0.0
230
1.0
 70
     8
 71
     3
 72
     9
 73
     5
 74
     3
 42
0.0000000001
 43
0.0000000001
 44
0.0000000001
 12
-0.7007569881530874
 22
0.7134000585608428
 32
0.0
 13
-0.954040132710994
 23
-0.2996788700872805
 33
0.0
 40
0.0
 40
0.0
 40
0.0
 40
0.0
 40
1.976743425976598
 40
3.607107919690554
 40
3.607107919690554
 40
3.607107919690554
 40
3.607107919690554
 10
-24.19999999999936
 20
-7.170195671843192
 30
0.0
 10
-24.66173892317895
 20
-6.70012604655937
 30
0.0
 10
-25.61375497273134
 20
-5.633379169890101
 30
0.0
 10
-26.88152228068556
 20
-6.159699437374569
 30
0.0
 10
-27.40000000000227
 20
-6.322561367143442
 30
0.0
 11
-24.19999999999936
 21
-7.170195671843192
 31
0.0
 11
-25.79999999999936
 21
-6.009370718570005
 31
0.0
 11
-27.40000000000227
 21
-6.322561367143442
 31
0.0
  0
SPLINE
  5
3F87
330
1F
100
AcDbEntity
  8
AM_0
100
AcDbSpline
210
0.0
220
0.0
230
1.0
 70
     8
 71
     3
 72
     8
 73
     4
 74
     0
 42
0.0000000001
 43
0.0000000001
 40
5.307227569610006
 40
5.307227569610006
 40
5.307227569610006
 40
5.307227569610006
 40
5.635889483499305
 40
5.635889483499305
 40
5.635889483499305
 40
5.635889483499305
 10
-29.99999999999945
 20
6.586712995905384
 30
0.0
 10
-30.16562274060497
 20
6.53242282211146
 30
0.0
 10
-30.33101334340181
 20
6.476828498263841
 30
0.0
 10
-30.49618011686989
 20
6.419976701400139
 30
0.0
  0
SPLINE
  5
3F88
330
1F
100
AcDbEntity
  8
AM_0
100
AcDbSpline
210
0.0
220
0.0
230
1.0
 70
     8
 71
     3
 72
     9
 73
     5
 74
     3
 42
0.0000000001
 43
0.0000000001
 44
0.0000000001
 12
0.9763857352009798
 22
-0.2160344789519539
 32
0.0
 13
0.7423022879960325
 23
0.6700651559631014
 33
0.0
 40
0.0
 40
0.0
 40
0.0
 40
0.0
 40
1.603667575144109
 40
3.477866482973873
 40
3.477866482973873
 40
3.477866482973873
 40
3.477866482973873
 10
-29.99999999999945
 20
6.586712995906111
 30
0.0
 10
-29.47806728520777
 20
6.471230499569977
 30
0.0
 10
-28.25615680757295
 20
6.243982011527021
 30
0.0
 10
-27.26374071248002
 20
7.035728539937339
 30
0.0
 10
-26.79999999999945
 20
7.454340334430947
 30
0.0
 11
-29.99999999999945
 21
6.586712995906111
 31
0.0
 11
-28.39999999999936
 21
6.478317001661401
 31
0.0
 11
-26.79999999999945
 21
7.454340334430947
 31
0.0
  0
SPLINE
  5
3F89
330
1F
100
AcDbEntity
  8
AM_0
100
AcDbSpline
210
0.0
220
0.0
230
1.0
 70
     8
 71
     3
 72
     8
 73
     4
 74
     0
 42
0.0000000001
 43
0.0000000001
 40
2.489821994174631
 40
2.489821994174631
 40
2.489821994174631
 40
2.489821994174631
 40
4.043019649814397
 40
4.043019649814397
 40
4.043019649814397
 40
4.043019649814397
 10
-36.79999999999945
 20
7.434218787458724
 30
0.0
 10
-35.9943816934976
 20
7.302681417489714
 30
0.0
 10
-35.19519086507516
 20
7.133987421593395
 30
0.0
 10
-34.40159204901883
 20
6.93296654584052
 30
0.0
  0
SPLINE
  5
3F8A
330
1F
100
AcDbEntity
  8
AM_0
100
AcDbSpline
210
0.0
220
0.0
230
1.0
 70
     8
 71
     3
 72
     8
 73
     4
 74
     0
 42
0.0000000001
 43
0.0000000001
 40
4.306226182506206
 40
4.306226182506206
 40
4.306226182506206
 40
4.306226182506206
 40
5.890739774064351
 40
5.890739774064351
 40
5.890739774064351
 40
5.890739774064351
 10
-36.79999999999945
 20
7.045154207990401
 30
0.0
 10
-35.99432658398819
 20
6.823802229068007
 30
0.0
 10
-35.19463692567387
 20
6.568833503530242
 30
0.0
 10
-34.39999999999936
 20
6.28547852951275
 30
0.0
  0
SPLINE
  5
3F8B
330
1F
100
AcDbEntity
  8
AM_0
100
AcDbSpline
210
0.0
220
0.0
230
1.0
 70
     8
 71
     3
 72
     9
 73
     5
 74
     3
 42
0.0000000001
 43
0.0000000001
 44
0.0000000001
 12
-0.9980349569700276
 22
-0.0626595935658276
 32
0.0
 13
-0.9269020209125923
 23
0.375303402100424
 33
0.0
 40
0.0
 40
0.0
 40
0.0
 40
0.0
 40
1.601582173475356
 40
3.247468489590606
 40
3.247468489590606
 40
3.247468489590606
 40
3.247468489590606
 10
-36.79999999999945
 20
7.434218787458724
 30
0.0
 10
-37.3328116651956
 20
7.400767291441311
 30
0.0
 10
-38.41730761841356
 20
7.256074009247287
 30
0.0
 10
-39.49147488246625
 20
7.543074250791494
 30
0.0
 10
-39.99999999999946
 20
7.748976495427689
 30
0.0
 11
-36.79999999999945
 21
7.434218787458724
 31
0.0
 11
-38.39999999999946
 21
7.36304675366706
 31
0.0
 11
-39.99999999999946
 21
7.748976495427689
 31
0.0
  0
SPLINE
  5
3F8C
330
1F
100
AcDbEntity
  8
AM_0
100
AcDbSpline
210
0.0
220
0.0
230
1.0
 70
     8
 71
     3
 72
     9
 73
     5
 74
     3
 42
0.0000000001
 43
0.0000000001
 44
0.0000000001
 12
-0.9815548294604761
 22
-0.1911808483159736
 32
0.0
 13
-0.8368779624517481
 23
0.5473895102782028
 33
0.0
 40
0.0
 40
0.0
 40
0.0
 40
0.0
 40
1.617725852877286
 40
3.465382052280212
 40
3.465382052280212
 40
3.465382052280212
 40
3.465382052280212
 10
-36.79999999999945
 20
7.045154207990401
 30
0.0
 10
-37.32929554121104
 20
6.942061474358481
 30
0.0
 10
-38.53663814533523
 20
6.471885973731673
 30
0.0
 10
-39.48457908151024
 20
7.393232010381545
 30
0.0
 10
-39.99999999999946
 20
7.730361217766096
 30
0.0
 11
-36.79999999999945
 21
7.045154207990401
 31
0.0
 11
-38.39999999999946
 21
6.806330140803822
 31
0.0
 11
-39.99999999999946
 21
7.730361217766096
 31
0.0
  0
SPLINE
  5
3F8D
330
1F
100
AcDbEntity
  8
AM_0
100
AcDbSpline
210
0.0
220
0.0
230
1.0
 70
     8
 71
     3
 72
     8
 73
     4
 74
     0
 42
0.0000000001
 43
0.0000000001
 40
6.150480381241876
 40
6.150480381241876
 40
6.150480381241876
 40
6.150480381241876
 40
7.75241736749254
 40
7.75241736749254
 40
7.75241736749254
 40
7.75241736749254
 10
-31.19999999999936
 20
5.948217959952365
 30
0.0
 10
-30.39556292862553
 20
5.65958140744666
 30
0.0
 10
-29.59586846539614
 20
5.343528298311923
 30
0.0
 10
-28.79999999999936
 20
5.005357467654232
 30
0.0
  0
SPLINE
  5
3F8E
330
1F
100
AcDbEntity
  8
AM_0
100
AcDbSpline
210
0.0
220
0.0
230
1.0
 70
     8
 71
     3
 72
     8
 73
     4
 74
     0
 42
0.0000000001
 43
0.0000000001
 40
8.034594408064972
 40
8.034594408064972
 40
8.034594408064972
 40
8.034594408064972
 40
9.661611892530016
 40
9.661611892530016
 40
9.661611892530016
 40
9.661611892530016
 10
-31.19999999999936
 20
4.992398154253954
 30
0.0
 10
-30.3963367175239
 20
4.632400264638329
 30
0.0
 10
-29.59667270947111
 20
4.249934454072774
 30
0.0
 10
-28.80000000000009
 20
3.850663530144868
 30
0.0
  0
SPLINE
  5
3F8F
330
1F
100
AcDbEntity
  8
AM_0
100
AcDbSpline
210
0.0
220
0.0
230
1.0
 70
     8
 71
     3
 72
     9
 73
     5
 74
     3
 42
0.0000000001
 43
0.0000000001
 44
0.0000000001
 12
-0.8872020512481618
 22
0.4613811008928021
 32
0.0
 13
-0.9856395606727497
 23
0.1688628332014753
 33
0.0
 40
0.0
 40
0.0
 40
0.0
 40
0.0
 40
1.726360005253407
 40
3.361264576957785
 40
3.361264576957785
 40
3.361264576957785
 40
3.361264576957785
 10
-31.19999999999936
 20
5.948217959952728
 30
0.0
 10
-31.7105433792839
 20
6.213721253206434
 30
0.0
 10
-32.75471418918353
 20
6.648981552524777
 30
0.0
 10
-33.86285779206726
 20
6.840538357288981
 30
0.0
 10
-34.39999999999946
 20
6.932563229952996
 30
0.0
 11
-31.19999999999936
 21
5.948217959952728
 31
0.0
 11
-32.79999999999946
 21
6.596537994918674
 31
0.0
 11
-34.39999999999946
 21
6.932563229952996
 31
0.0
  0
SPLINE
  5
3F90
330
1F
100
AcDbEntity
  8
AM_0
100
AcDbSpline
210
0.0
220
0.0
230
1.0
 70
     8
 71
     3
 72
     9
 73
     5
 74
     3
 42
0.0000000001
 43
0.0000000001
 44
0.0000000001
 12
-0.9971207175624307
 22
0.0758305651290009
 32
0.0
 13
-0.7822668508322156
 23
0.6229434758379352
 33
0.0
 40
0.0
 40
0.0
 40
0.0
 40
0.0
 40
1.615609612748552
 40
3.539887384252772
 40
3.539887384252772
 40
3.539887384252772
 40
3.539887384252772
 10
-31.19999999999936
 20
4.992398154254681
 30
0.0
 10
-31.73698593878756
 20
5.033235684242204
 30
0.0
 10
-32.97201886646536
 20
5.044502039191444
 30
0.0
 10
-33.89823376251902
 20
5.885906435026578
 30
0.0
 10
-34.39999999999936
 20
6.28547852951275
 30
0.0
 11
-31.19999999999936
 21
4.992398154254681
 31
0.0
 11
-32.79999999999936
 21
5.216439268351007
 31
0.0
 11
-34.39999999999936
 21
6.28547852951275
 31
0.0
  0
SPLINE
  5
3F91
330
1F
100
AcDbEntity
  8
AM_0
100
AcDbSpline
210
0.0
220
0.0
230
1.0
 70
     8
 71
     3
 72
     9
 73
     5
 74
     3
 42
0.0000000001
 43
0.0000000001
 44
0.0000000001
 12
-0.774417105688407
 22
0.6326753878705816
 32
0.0
 13
-0.997664332449759
 23
-0.0683072452787872
 33
0.0
 40
0.0
 40
0.0
 40
0.0
 40
0.0
 40
2.017604005824343
 40
3.636419563842892
 40
3.636419563842892
 40
3.636419563842892
 40
3.636419563842892
 10
-25.59999999999936
 20
3.530144398579853
 30
0.0
 10
-26.12082235153797
 20
3.955640530897905
 30
0.0
 10
-26.97134195060833
 20
4.905320102526403
 30
0.0
 10
-28.26165515231608
 20
5.042216411448462
 30
0.0
 10
-28.79999999999936
 20
5.005357467654232
 30
0.0
 11
-25.59999999999936
 21
3.530144398579853
 31
0.0
 11
-27.19999999999936
 21
4.759260310249067
 31
0.0
 11
-28.79999999999936
 21
5.005357467654232
 31
0.0
  0
SPLINE
  5
3F92
330
1F
100
AcDbEntity
  8
AM_0
100
AcDbSpline
210
0.0
220
0.0
230
1.0
 70
     8
 71
     3
 72
     9
 73
     5
 74
     3
 42
0.0000000001
 43
0.0000000001
 44
0.0000000001
 12
-0.9430790451623929
 22
0.3325686614454065
 32
0.0
 13
-0.7408851562591475
 23
0.6716317333441437
 33
0.0
 40
0.0
 40
0.0
 40
0.0
 40
0.0
 40
1.716631004099492
 40
3.639275549541572
 40
3.639275549541572
 40
3.639275549541572
 40
3.639275549541572
 10
-25.59999999999936
 20
2.162616726877661
 30
0.0
 10
-26.13963957608013
 20
2.352915951954012
 30
0.0
 10
-27.29149931934712
 20
2.742519374780583
 30
0.0
 10
-28.32518039850144
 20
3.420227167255679
 30
0.0
 10
-28.79999999999499
 20
3.850663530142321
 30
0.0
 11
-25.59999999999936
 21
2.162616726877661
 31
0.0
 11
-27.19999999999936
 21
2.784566889057589
 31
0.0
 11
-28.79999999999499
 21
3.850663530142321
 31
0.0
  0
SPLINE
  5
3F93
330
1F
100
AcDbEntity
  8
AM_0
100
AcDbSpline
210
0.0
220
0.0
230
1.0
 70
     8
 71
     3
 72
     8
 73
     4
 74
     0
 42
0.0000000001
 43
0.0000000001
 40
0.3581103616548037
 40
0.3581103616548037
 40
0.3581103616548037
 40
0.3581103616548037
 40
0.4557920900567158
 40
0.4557920900567158
 40
0.4557920900567158
 40
0.4557920900567158
 10
-40.15553375891486
 20
7.753352676570341
 30
0.0
 10
-40.10365928436822
 20
7.752066730540957
 30
0.0
 10
-40.05181476733651
 20
7.750607603029914
 30
0.0
 10
-39.99999999999946
 20
7.748976495427689
 30
0.0
  0
SPLINE
  5
3F94
330
1F
100
AcDbEntity
  8
AM_0
100
AcDbSpline
210
0.0
220
0.0
230
1.0
 70
     8
 71
     3
 72
     8
 73
     4
 74
     0
 42
0.0000000001
 43
0.0000000001
 40
1.666991338825053
 40
1.666991338825053
 40
1.666991338825053
 40
1.666991338825053
 40
3.21070440243455
 40
3.21070440243455
 40
3.21070440243455
 40
3.21070440243455
 10
-24.39999999999654
 20
7.847268272320127
 30
0.0
 10
-25.20686450823214
 20
7.75485709554747
 30
0.0
 10
-26.00657752802381
 20
7.622268861637042
 30
0.0
 10
-26.79999999999945
 20
7.454340334430947
 30
0.0
  0
SPLINE
  5
3F95
330
1F
100
AcDbEntity
  8
AM_0
100
AcDbSpline
210
0.0
220
0.0
230
1.0
 70
     8
 71
     3
 72
     8
 73
     4
 74
     0
 42
0.0000000001
 43
0.0000000001
 40
11.33959573889505
 40
11.33959573889505
 40
11.33959573889505
 40
11.33959573889505
 40
14.36247867694493
 40
14.36247867694493
 40
14.36247867694493
 40
14.36247867694493
 10
-49.99999999999962
 20
5.759935614836759
 30
0.0
 10
-40.47913453465525
 20
1.554939870416694
 30
0.0
 10
-38.9953139225473
 20
0.7774699352114682
 30
0.0
 10
-37.51149331043935
 20
0.0000000000062414
 30
0.0
  0
SPLINE
  5
3F96
330
1F
100
AcDbEntity
  8
AM_0
100
AcDbSpline
210
0.0
220
0.0
230
1.0
 70
     8
 71
     3
 72
     9
 73
     5
 74
     3
 42
0.0000000001
 43
0.0000000001
 44
0.0000000001
 12
-0.70922844039674
 22
0.7049787367945277
 32
0.0
 13
-0.9773066838349782
 23
-0.2118292844048671
 33
0.0
 40
0.0
 40
0.0
 40
0.0
 40
0.0
 40
2.330193744347547
 40
3.931083879474789
 40
3.931083879474789
 40
3.931083879474789
 40
3.931083879474789
 10
-40.99999999999936
 20
0.1505269211548352
 30
0.0
 10
-41.55087989170798
 20
0.6981059352803834
 30
0.0
 10
-42.17548661597578
 20
2.117285497247475
 30
0.0
 10
-43.6784797904043
 20
2.010992775309284
 30
0.0
 10
-44.20000000011941
 20
1.897954304731013
 30
0.0
 11
-40.99999999999936
 21
0.1505269211548352
 31
0.0
 11
-42.59999999999936
 21
1.844576178465979
 31
0.0
 11
-44.20000000011941
 21
1.897954304731013
 31
0.0
  0
SPLINE
  5
3F97
330
1F
100
AcDbEntity
  8
AM_0
100
AcDbSpline
210
0.0
220
0.0
230
1.0
 70
     8
 71
     3
 72
     9
 73
     5
 74
     3
 42
0.0000000001
 43
0.0000000001
 44
0.0000000001
 12
-0.8041147091497457
 22
0.5944741664101308
 32
0.0
 13
-0.9870280271745947
 23
-0.1605480413204322
 33
0.0
 40
0.0
 40
0.0
 40
0.0
 40
0.0
 40
1.914665116920469
 40
3.519961608796179
 40
3.519961608796179
 40
3.519961608796179
 40
3.519961608796179
 10
-29.79999999999936
 20
-6.651598484251678
 30
0.0
 10
-30.31320346120325
 20
-6.272192167806394
 30
0.0
 10
-31.216394224543
 20
-5.447088974239377
 30
0.0
 10
-32.47184245687118
 20
-5.383756249634371
 30
0.0
 10
-33.00000000000664
 20
-5.469665318804107
 30
0.0
 11
-29.79999999999936
 21
-6.651598484251678
 31
0.0
 11
-31.39999999999936
 21
-5.599960471458269
 31
0.0
 11
-33.00000000000664
 21
-5.469665318804107
 31
0.0
  0
SPLINE
  5
3F98
330
1F
100
AcDbEntity
  8
AM_0
100
AcDbSpline
210
0.0
220
0.0
230
1.0
 70
     8
 71
     3
 72
     8
 73
     4
 74
     0
 42
0.0000000001
 43
0.0000000001
 40
7.307451768075528
 40
7.307451768075528
 40
7.307451768075528
 40
7.307451768075528
 40
8.927702162744216
 40
8.927702162744216
 40
8.927702162744216
 40
8.927702162744216
 10
-32.99999999999936
 20
-5.469665318807017
 30
0.0
 10
-33.80408100163995
 20
-5.123722718463557
 30
0.0
 10
-34.60374918465177
 20
-4.761556365915692
 30
0.0
 10
-35.39999999999936
 20
-4.387949312388025
 30
0.0
  0
SPLINE
  5
3F99
330
1F
100
AcDbEntity
  8
AM_0
100
AcDbSpline
210
0.0
220
0.0
230
1.0
 70
     8
 71
     3
 72
     9
 73
     5
 74
     3
 42
0.0000000001
 43
0.0000000001
 44
0.0000000001
 12
-0.6468728043913146
 22
0.7625979117063697
 32
0.0
 13
-0.9968429144675983
 23
0.0793990168436886
 33
0.0
 40
0.0
 40
0.0
 40
0.0
 40
0.0
 40
1.934298590101249
 40
3.623803431961734
 40
3.623803431961734
 40
3.623803431961734
 40
3.623803431961734
 10
-35.39999999999936
 20
-4.387949312388025
 30
0.0
 10
-35.81708171783568
 20
-3.896251957245429
 30
0.0
 10
-36.92206010891831
 20
-3.326023573869771
 30
0.0
 10
-38.03860968981025
 20
-2.803080062886513
 30
0.0
 10
-38.59999999999937
 20
-2.758365055087722
 30
0.0
 11
-35.39999999999936
 21
-4.387949312388025
 31
0.0
 11
-36.99999999999937
 21
-3.300975975241397
 31
0.0
 11
-38.59999999999937
 21
-2.758365055087722
 31
0.0
  0
SPLINE
  5
3F9A
330
1F
100
AcDbEntity
  8
AM_0
100
AcDbSpline
210
0.0
220
0.0
230
1.0
 70
     8
 71
     3
 72
     9
 73
     5
 74
     3
 42
0.0000000001
 43
0.0000000001
 44
0.0000000001
 12
-0.6468728043913146
 22
0.7625979117063697
 32
0.0
 13
-0.9968429144675983
 23
0.0793990168436886
 33
0.0
 40
0.0
 40
0.0
 40
0.0
 40
0.0
 40
1.906686012670254
 40
3.746319224081031
 40
3.746319224081031
 40
3.746319224081031
 40
3.746319224081031
 10
-40.99999999999936
 20
-1.435690521809226
 30
0.0
 10
-41.41112777603593
 20
-0.951012264628533
 30
0.0
 10
-42.38701421604513
 20
-0.1455720854622544
 30
0.0
 10
-43.58872488932798
 20
0.3441891318764787
 30
0.0
 10
-44.19999999999936
 20
0.3928774879894832
 30
0.0
 11
-40.99999999999936
 21
-1.435690521809226
 31
0.0
 11
-42.46297601949373
 21
-0.2129261465934519
 31
0.0
 11
-44.19999999999936
 21
0.3928774879894832
 31
0.0
  0
SPLINE
  5
3F9B
330
1F
100
AcDbEntity
  8
AM_0
100
AcDbSpline
210
0.0
220
0.0
230
1.0
 70
     8
 71
     3
 72
     8
 73
     4
 74
     0
 42
0.0000000001
 43
0.0000000001
 40
12.93073884177286
 40
12.93073884177286
 40
12.93073884177286
 40
12.93073884177286
 40
13.17864449622839
 40
13.17864449622839
 40
13.17864449622839
 40
13.17864449622839
 10
-44.19999999999936
 20
0.3928774879895741
 30
0.0
 10
-44.72108887709137
 20
0.6890500412847929
 30
0.0
 10
-45.29671726146216
 20
1.016450211155881
 30
0.0
 10
-45.93431428422983
 20
1.379290718235972
 30
0.0
  0
SPLINE
  5
3F9C
330
1F
100
AcDbEntity
  8
AM_0
100
AcDbSpline
210
0.0
220
0.0
230
1.0
 70
     8
 71
     3
 72
     8
 73
     4
 74
     0
 42
0.0000000001
 43
0.0000000001
 40
8.337842376104966
 40
8.337842376104966
 40
8.337842376104966
 40
8.337842376104966
 40
9.419743745067137
 40
9.419743745067137
 40
9.419743745067137
 40
9.419743745067137
 10
-38.59999999999937
 20
-2.758365055087722
 30
0.0
 10
-39.38465610588801
 20
-2.337896571160161
 30
0.0
 10
-40.18376189213104
 20
-1.896459156709477
 30
0.0
 10
-40.99999999999927
 20
-1.435690521809226
 30
0.0
  0
SPLINE
  5
3F9D
330
1F
100
AcDbEntity
  8
AM_0
100
AcDbSpline
210
0.0
220
0.0
230
1.0
 70
     8
 71
     3
 72
     8
 73
     4
 74
     0
 42
0.0000000001
 43
0.0000000001
 40
0.0
 40
0.0
 40
0.0
 40
0.0
 40
4.451443990518192
 40
4.451443990518192
 40
4.451443990518192
 40
4.451443990518192
 10
-37.05116279090953
 20
-7.38791120607824
 30
0.0
 10
-34.67705932930048
 20
-7.387911206078149
 30
0.0
 10
-32.36155088983442
 20
-7.033069462789661
 30
0.0
 10
-30.08647678694624
 20
-6.433364078271495
 30
0.0
  0
SPLINE
  5
3F9E
330
1F
100
AcDbEntity
  8
AM_0
100
AcDbSpline
210
0.0
220
0.0
230
1.0
 70
     8
 71
     3
 72
     8
 73
     4
 74
     0
 42
0.0000000001
 43
0.0000000001
 40
0.0
 40
0.0
 40
0.0
 40
0.0
 40
7.074983227811165
 40
7.074983227811165
 40
7.074983227811165
 40
7.074983227811165
 10
-37.05116279090953
 20
-7.38791120607824
 30
0.0
 10
-40.82448717907546
 20
-7.38791120607824
 30
0.0
 10
-44.44979520537099
 20
-6.491548648989862
 30
0.0
 10
-50.00000000000039
 20
-4.474752403002558
 30
0.0
  0
SPLINE
  5
3F9F
330
1F
100
AcDbEntity
  8
AM_0
100
AcDbSpline
210
0.0
220
0.0
230
1.0
 70
     8
 71
     3
 72
     9
 73
     5
 74
     0
 42
0.0000000001
 43
0.0000000001
 40
0.0
 40
0.0
 40
0.0
 40
0.0
 40
1.235464641235373
 40
1.810002043229209
 40
1.810002043229209
 40
1.810002043229209
 40
1.810002043229209
 10
-45.49966948047013
 20
-7.170195671843282
 30
0.0
 10
-45.96140840364969
 20
-6.700126046559432
 30
0.0
 10
-46.72574416880734
 20
-5.843677470307136
 30
0.0
 10
-47.69360828482414
 20
-6.014095201091857
 30
0.0
 10
-47.99999999996408
 20
-6.099868526710213
 30
0.0
  0
SPLINE
  5
3FA2
330
1F
100
AcDbEntity
  8
AM_0
100
AcDbSpline
210
0.0
220
0.0
230
1.0
 70
     8
 71
     3
 72
     8
 73
     4
 74
     0
 42
0.0000000001
 43
0.0000000001
 40
10.84126532222565
 40
10.84126532222565
 40
10.84126532222565
 40
10.84126532222565
 40
12.06337302160172
 40
12.06337302160172
 40
12.06337302160172
 40
12.06337302160172
 10
-45.93431428422909
 20
2.823608061036122
 30
0.0
 10
-45.39382620998649
 20
2.532439233028128
 30
0.0
 10
-44.79651753898925
 20
2.217483497838259
 30
0.0
 10
-44.20000000011941
 20
1.897954304731013
 30
0.0
  0
SPLINE
  5
3FA3
330
1F
100
AcDbEntity
  8
AM_0
100
AcDbSpline
210
0.0
220
0.0
230
1.0
 70
     8
 71
     3
 72
     8
 73
     4
 74
     0
 42
0.0000000001
 43
0.0000000001
 40
0.3507760400854742
 40
0.3507760400854742
 40
0.3507760400854742
 40
0.3507760400854742
 40
1.871307041999678
 40
1.871307041999678
 40
1.871307041999678
 40
1.871307041999678
 10
-42.55553375891486
 20
7.937901723906509
 30
0.0
 10
-41.74815750929574
 20
7.91782514006369
 30
0.0
 10
-40.94843175387159
 20
7.85476808511263
 30
0.0
 10
-40.15553375891486
 20
7.75335267657025
 30
0.0
  0
SPLINE
  5
3FA4
330
1F
100
AcDbEntity
  8
AM_0
100
AcDbSpline
210
0.0
220
0.0
230
1.0
 70
     8
 71
     3
 72
     9
 73
     5
 74
     3
 42
0.0000000001
 43
0.0000000001
 44
0.0000000001
 12
0.9127464726416866
 22
-0.4085264699871465
 32
0.0
 13
0.886564333846492
 23
0.4626053198476276
 33
0.0
 40
0.0
 40
0.0
 40
0.0
 40
0.0
 40
1.710098482074351
 40
3.476921461296509
 40
3.476921461296509
 40
3.476921461296509
 40
3.476921461296509
 10
-45.75553375891487
 20
7.79214566448278
 30
0.0
 10
-45.23523830645377
 20
7.559272165745376
 30
0.0
 10
-44.11940473859508
 20
6.766063013356982
 30
0.0
 10
-43.07766783811445
 20
7.665454487434108
 30
0.0
 10
-42.55553375891486
 20
7.937901723906509
 30
0.0
 11
-45.75553375891487
 21
7.79214566448278
 31
0.0
 11
-44.15553375891486
 21
7.188459638147072
 31
0.0
 11
-42.55553375891486
 21
7.937901723906509
 31
0.0
  0
SPLINE
  5
3FA5
330
1F
100
AcDbEntity
  8
AM_0
100
AcDbSpline
210
0.0
220
0.0
230
1.0
 70
     8
 71
     3
 72
     8
 73
     4
 74
     0
 42
0.0000000001
 43
0.0000000001
 40
1.666991338825053
 40
1.666991338825053
 40
1.666991338825053
 40
1.666991338825053
 40
3.109885954059111
 40
3.109885954059111
 40
3.109885954059111
 40
3.109885954059111
 10
-45.75553375891195
 20
7.792145664483507
 30
0.0
 10
-46.5097027049429
 20
7.705769774756356
 30
0.0
 10
-47.25762377344653
 20
7.584293313397177
 30
0.0
 10
-49.99999999999952
 20
7.545549085742066
 30
0.0
  0
SPLINE
  5
3FA6
330
1F
100
AcDbEntity
  8
AM_0
100
AcDbSpline
210
0.0
220
0.0
230
1.0
 70
     8
 71
     3
 72
     8
 73
     4
 74
     0
 42
0.0000000001
 43
0.0000000001
 40
2.130606102564619
 40
2.130606102564619
 40
2.130606102564619
 40
2.130606102564619
 40
3.679329335050426
 40
3.679329335050426
 40
3.679329335050426
 40
3.679329335050426
 10
-15.59999999999945
 20
7.519460665014924
 30
0.0
 10
-14.79369347887495
 20
7.405697106350783
 30
0.0
 10
-13.99396956758073
 20
7.253880120194811
 30
0.0
 10
-13.200000000003
 20
7.068797832416897
 30
0.0
  0
SPLINE
  5
3FA7
330
1F
100
AcDbEntity
  8
AM_0
100
AcDbSpline
210
0.0
220
0.0
230
1.0
 70
     8
 71
     3
 72
     8
 73
     4
 74
     0
 42
0.0000000001
 43
0.0000000001
 40
3.939746932601999
 40
3.939746932601999
 40
3.939746932601999
 40
3.939746932601999
 40
5.519086939037594
 40
5.519086939037594
 40
5.519086939037594
 40
5.519086939037594
 10
-15.59999999999936
 20
7.193282871332996
 30
0.0
 10
-14.79414863408392
 20
6.988432053590952
 30
0.0
 10
-13.99445594580111
 20
6.748981789164247
 30
0.0
 10
-13.19999999999936
 20
6.480111509092387
 30
0.0
  0
SPLINE
  5
3FA8
330
1F
100
AcDbEntity
  8
AM_0
100
AcDbSpline
210
0.0
220
0.0
230
1.0
 70
     8
 71
     3
 72
     9
 73
     5
 74
     0
 42
0.0000000001
 43
0.0000000001
 40
0.0
 40
0.0
 40
0.0
 40
0.0
 40
1.008936993267342
 40
1.777052715134862
 40
1.777052715134862
 40
1.777052715134862
 40
1.777052715134862
 10
-15.59999999999945
 20
7.51946066501456
 30
0.0
 10
-16.12166943352076
 20
7.387504910010978
 30
0.0
 10
-17.08229697987271
 20
7.181302707789075
 30
0.0
 10
-18.00421326442902
 20
7.445752837627662
 30
0.0
 10
-18.4009015840138
 20
7.560156799022809
 30
0.0
  0
SPLINE
  5
3FA9
330
1F
100
AcDbEntity
  8
AM_0
100
AcDbSpline
210
0.0
220
0.0
230
1.0
 70
     8
 71
     3
 72
     9
 73
     5
 74
     3
 42
0.0000000001
 43
0.0000000001
 44
0.0000000001
 12
-0.9326421945680822
 22
-0.3608026287476736
 32
0.0
 13
-0.8816144343688907
 23
0.4719703265168488
 33
0.0
 40
0.0
 40
0.0
 40
0.0
 40
0.0
 40
1.625652785504901
 40
3.462807762724871
 40
3.462807762724871
 40
3.462807762724871
 40
3.462807762724871
 10
-15.59999999999936
 20
7.193282871332996
 30
0.0
 10
-16.10538412715903
 20
6.997769605185947
 30
0.0
 10
-17.34948067667881
 20
6.581980562477329
 30
0.0
 10
-18.26011255130286
 20
7.519447739586773
 30
0.0
 10
-18.79999999999945
 20
7.808475284406961
 30
0.0
 11
-15.59999999999936
 21
7.193282871332996
 31
0.0
 11
-17.19999999999936
 21
6.905625125009613
 31
0.0
 11
-18.79999999999945
 21
7.808475284406961
 31
0.0
  0
SPLINE
  5
3FAA
330
1F
100
AcDbEntity
  8
AM_0
100
AcDbSpline
210
0.0
220
0.0
230
1.0
 70
     8
 71
     3
 72
     8
 73
     4
 74
     0
 42
0.0000000001
 43
0.0000000001
 40
5.779271486987545
 40
5.779271486987545
 40
5.779271486987545
 40
5.779271486987545
 40
7.377122246071414
 40
7.377122246071414
 40
7.377122246071414
 40
7.377122246071414
 10
-9.999999999999364
 20
6.144388449322889
 30
0.0
 10
-9.195373441216451
 20
5.869445748844976
 30
0.0
 10
-8.395676645852745
 20
5.566004565289643
 30
0.0
 10
-7.599999999999363
 20
5.239323288237812
 30
0.0
  0
SPLINE
  5
3FAB
330
1F
100
AcDbEntity
  8
AM_0
100
AcDbSpline
210
0.0
220
0.0
230
1.0
 70
     8
 71
     3
 72
     8
 73
     4
 74
     0
 42
0.0000000001
 43
0.0000000001
 40
7.657131739025505
 40
7.657131739025505
 40
7.657131739025505
 40
7.657131739025505
 40
9.280732515295124
 40
9.280732515295124
 40
9.280732515295124
 40
9.280732515295124
 10
-9.999999999999364
 20
5.239254563391535
 30
0.0
 10
-9.19611851847012
 20
4.890719883525765
 30
0.0
 10
-8.396452398128259
 20
4.518503307420053
 30
0.0
 10
-7.600000000000091
 20
4.128232042137335
 30
0.0
  0
SPLINE
  5
3FAC
330
1F
100
AcDbEntity
  8
AM_0
100
AcDbSpline
210
0.0
220
0.0
230
1.0
 70
     8
 71
     3
 72
     9
 73
     5
 74
     3
 42
0.0000000001
 43
0.0000000001
 44
0.0000000001
 12
-0.8654492111584179
 22
0.5009966695550703
 32
0.0
 13
-0.997987337591188
 23
0.0634135159698014
 33
0.0
 40
0.0
 40
0.0
 40
0.0
 40
0.0
 40
1.702670276686898
 40
3.338833875203176
 40
3.338833875203176
 40
3.338833875203176
 40
3.338833875203176
 10
-9.999999999999364
 20
6.144388449322889
 30
0.0
 10
-10.49119154927321
 20
6.428732495313071
 30
0.0
 10
-11.58343795167141
 20
6.70985694399192
 30
0.0
 10
-12.65570981548373
 20
7.034212870255657
 30
0.0
 10
-13.19999999999936
 20
7.068797832416897
 30
0.0
 11
-9.999999999999364
 21
6.144388449322889
 31
0.0
 11
-11.59999999999936
 21
6.726699423900083
 31
0.0
 11
-13.19999999999936
 21
7.068797832416897
 31
0.0
  0
SPLINE
  5
3FAD
330
1F
100
AcDbEntity
  8
AM_0
100
AcDbSpline
210
0.0
220
0.0
230
1.0
 70
     8
 71
     3
 72
     9
 73
     5
 74
     3
 42
0.0000000001
 43
0.0000000001
 44
0.0000000001
 12
-0.9981770100665453
 22
0.0603544246481742
 32
0.0
 13
-0.7796355206958435
 23
0.6262335465857136
 33
0.0
 40
0.0
 40
0.0
 40
0.0
 40
0.0
 40
1.610110474762479
 40
3.529769065969946
 40
3.529769065969946
 40
3.529769065969946
 40
3.529769065969946
 10
-9.999999999999364
 20
5.239254563391535
 30
0.0
 10
-10.53572508652444
 20
5.271646993832964
 30
0.0
 10
-11.77266020315582
 20
5.230714123707699
 30
0.0
 10
-12.70112199156127
 20
6.079393306490889
 30
0.0
 10
-13.19999999999936
 20
6.480111509092751
 30
0.0
 11
-9.999999999999364
 21
5.239254563391535
 31
0.0
 11
-11.59999999999936
 21
5.419409332797897
 31
0.0
 11
-13.19999999999936
 21
6.480111509092751
 31
0.0
  0
SPLINE
  5
3FAE
330
1F
100
AcDbEntity
  8
AM_0
100
AcDbSpline
210
0.0
220
0.0
230
1.0
 70
     8
 71
     3
 72
     8
 73
     4
 74
     0
 42
0.0000000001
 43
0.0000000001
 40
9.532359626456116
 40
9.532359626456116
 40
9.532359626456116
 40
9.532359626456116
 40
12.40023413887867
 40
12.40023413887867
 40
12.40023413887867
 40
12.40023413887867
 10
-4.400000000013188
 20
3.803463760853867
 30
0.0
 10
-2.988388414756718
 20
3.121771102286823
 30
0.0
 10
-1.585775007828579
 20
2.388060849561827
 30
0.0
 10
-0.1869004678324018
 20
1.632736570580402
 30
0.0
  0
SPLINE
  5
3FAF
330
1F
100
AcDbEntity
  8
AM_0
100
AcDbSpline
210
0.0
220
0.0
230
1.0
 70
     8
 71
     3
 72
     8
 73
     4
 74
     0
 42
0.0000000001
 43
0.0000000001
 40
11.46537929237052
 40
11.46537929237052
 40
11.46537929237052
 40
11.46537929237052
 40
14.48999654934396
 40
14.48999654934396
 40
14.48999654934396
 40
14.48999654934396
 10
-4.40000000000009
 20
2.468479296250245
 30
0.0
 10
-2.929016219684217
 20
1.669906405669701
 30
0.0
 10
-1.46450810984179
 20
0.8349532028378803
 30
0.0
 10
0.0000000000006366
 20
0.0000000000064233
 30
0.0
  0
SPLINE
  5
3FB0
330
1F
100
AcDbEntity
  8
AM_0
100
AcDbSpline
210
0.0
220
0.0
230
1.0
 70
     8
 71
     3
 72
     9
 73
     5
 74
     3
 42
0.0000000001
 43
0.0000000001
 44
0.0000000001
 12
-0.8176346168783101
 22
0.5757374690622967
 32
0.0
 13
-0.9964633055848633
 23
-0.0840290463047593
 33
0.0
 40
0.0
 40
0.0
 40
0.0
 40
0.0
 40
1.987190187309672
 40
3.607751898181889
 40
3.607751898181889
 40
3.607751898181889
 40
3.607751898181889
 10
-4.399999999999363
 20
3.803463760846955
 30
0.0
 10
-4.941598495821123
 20
4.184830377175989
 30
0.0
 10
-5.780604046584196
 20
5.121428221057187
 30
0.0
 10
-7.061723240226033
 20
5.284714706585346
 30
0.0
 10
-7.599999999999363
 20
5.239323288237812
 30
0.0
 11
-4.399999999999363
 21
3.803463760846955
 31
0.0
 11
-5.999999999999364
 21
4.981990315719542
 31
0.0
 11
-7.599999999999363
 21
5.239323288237812
 31
0.0
  0
SPLINE
  5
3FB1
330
1F
100
AcDbEntity
  8
AM_0
100
AcDbSpline
210
0.0
220
0.0
230
1.0
 70
     8
 71
     3
 72
     9
 73
     5
 74
     3
 42
0.0000000001
 43
0.0000000001
 44
0.0000000001
 12
-0.9681805968441551
 22
0.2502525362398859
 32
0.0
 13
-0.8208259885173385
 23
0.5711783404283938
 33
0.0
 40
0.0
 40
0.0
 40
0.0
 40
0.0
 40
1.70396906040894
 40
3.630814948209556
 40
3.630814948209556
 40
3.630814948209556
 40
3.630814948209556
 10
-4.399999999999363
 20
2.468479296249881
 30
0.0
 10
-4.949916593969597
 20
2.610620155930425
 30
0.0
 10
-6.11936219282516
 20
2.993068587445022
 30
0.0
 10
-7.072798273141193
 20
3.761374496651894
 30
0.0
 10
-7.599999999999363
 20
4.128232042136971
 30
0.0
 11
-4.399999999999363
 21
2.468479296249881
 31
0.0
 11
-5.999999999999364
 21
3.054577034541819
 31
0.0
 11
-7.599999999999363
 21
4.128232042136971
 31
0.0
  0
SPLINE
  5
3FB2
330
1F
100
AcDbEntity
  8
AM_0
100
AcDbSpline
210
0.0
220
0.0
230
1.0
 70
     8
 71
     3
 72
     9
 73
     5
 74
     0
 42
0.0000000001
 43
0.0000000001
 40
0.0
 40
0.0
 40
0.0
 40
0.0
 40
1.173671883824386
 40
1.360226551015519
 40
1.360226551015519
 40
1.360226551015519
 40
1.360226551015519
 10
-5.999999999999364
 20
7.233479238264647
 30
0.0
 10
-6.390029454475097
 20
6.743886687665384
 30
0.0
 10
-7.070052697893061
 20
6.358935715147402
 30
0.0
 10
-7.799039687961431
 20
6.203449301673993
 30
0.0
 10
-7.899471163222279
 20
6.186702120904612
 30
0.0
  0
SPLINE
  5
3FB3
330
1F
100
AcDbEntity
  8
AM_0
100
AcDbSpline
210
0.0
220
0.0
230
1.0
 70
     8
 71
     3
 72
     8
 73
     4
 74
     0
 42
0.0000000001
 43
0.0000000001
 40
13.73199344169106
 40
13.73199344169106
 40
13.73199344169106
 40
13.73199344169106
 40
14.43901837670146
 40
14.43901837670146
 40
14.43901837670146
 40
14.43901837670146
 10
-19.99999999999937
 20
0.5695452071160276
 30
0.0
 10
-19.65570811307199
 20
0.3800005133192486
 30
0.0
 10
-19.31149503093994
 20
0.1900002566626086
 30
0.0
 10
-18.96728194880789
 20
0.0000000000063324
 30
0.0
  0
SPLINE
  5
3FB4
330
1F
100
AcDbEntity
  8
AM_0
100
AcDbSpline
210
0.0
220
0.0
230
1.0
 70
     8
 71
     3
 72
     9
 73
     5
 74
     3
 42
0.0000000001
 43
0.0000000001
 44
0.0000000001
 12
-0.5307113561502297
 22
0.8475526275419031
 32
0.0
 13
-0.9709540402127611
 23
-0.2392660690413831
 33
0.0
 40
0.0
 40
0.0
 40
0.0
 40
0.0
 40
2.277033175565643
 40
3.880980823120742
 40
3.880980823120742
 40
3.880980823120742
 40
3.880980823120742
 10
-19.99999999999937
 20
0.5695452071160276
 30
0.0
 10
-20.40281578820054
 20
1.212847024099609
 30
0.0
 10
-21.25441768404506
 20
2.363107968288253
 30
0.0
 10
-22.68088018377158
 20
2.4300803669428
 30
0.0
 10
-23.19999999999937
 20
2.302156950749906
 30
0.0
 11
-19.99999999999937
 21
0.5695452071160276
 31
0.0
 11
-21.59999999999937
 21
2.189693373990451
 31
0.0
 11
-23.19999999999937
 21
2.302156950749906
 31
0.0
  0
SPLINE
  5
3FB5
330
1F
100
AcDbEntity
  8
AM_0
100
AcDbSpline
210
0.0
220
0.0
230
1.0
 70
     8
 71
     3
 72
     8
 73
     4
 74
     0
 42
0.0000000001
 43
0.0000000001
 40
13.50299628442394
 40
13.50299628442394
 40
13.50299628442394
 40
13.50299628442394
 40
14.43901837670146
 40
14.43901837670146
 40
14.43901837670146
 40
14.43901837670146
 10
-17.59999999999937
 20
-0.7535603263228383
 30
0.0
 10
-18.05588255291014
 20
-0.5030782620530205
 30
0.0
 10
-18.51158225085902
 20
-0.2515391310235259
 30
0.0
 10
-18.96728194880789
 20
0.0000000000063324
 30
0.0
  0
SPLINE
  5
3FB6
330
1F
100
AcDbEntity
  8
AM_0
100
AcDbSpline
210
0.0
220
0.0
230
1.0
 70
     8
 71
     3
 72
     8
 73
     4
 74
     0
 42
0.0000000001
 43
0.0000000001
 40
11.62991291415682
 40
11.62991291415682
 40
11.62991291415682
 40
11.62991291415682
 40
14.48999654934396
 40
14.48999654934396
 40
14.48999654934396
 40
14.48999654934396
 10
-17.59999999999937
 20
-2.337839492777709
 30
0.0
 10
-18.99031688131591
 20
-1.579066565232858
 30
0.0
 10
-20.3751584406572
 20
-0.7895332826132631
 30
0.0
 10
-21.75999999999923
 20
0.0000000000059686
 30
0.0
  0
SPLINE
  5
3FB7
330
1F
100
AcDbEntity
  8
AM_0
100
AcDbSpline
210
0.0
220
0.0
230
1.0
 70
     8
 71
     3
 72
     9
 73
     5
 74
     3
 42
0.0000000001
 43
0.0000000001
 44
0.0000000001
 12
-0.4936303795221301
 22
0.8696718050005058
 32
0.0
 13
-0.8861177952488985
 23
-0.4634600877564662
 33
0.0
 40
0.0
 40
0.0
 40
0.0
 40
0.0
 40
2.383662307866484
 40
3.983662307866485
 40
3.983662307866485
 40
3.983662307866485
 40
3.983662307866485
 10
-14.39999999999936
 20
-2.478080757416899
 30
0.0
 10
-14.7922160432276
 20
-1.787079456818926
 30
0.0
 10
-15.56555715881761
 20
-0.5342457037357377
 30
0.0
 10
-17.12740384253329
 20
-0.464027402682344
 30
0.0
 10
-17.59999999999937
 20
-0.7112061161524595
 30
0.0
 11
-14.39999999999936
 21
-2.478080757416899
 31
0.0
 11
-15.99999999999937
 21
-0.7112061161524595
 31
0.0
 11
-17.59999999999937
 21
-0.7112061161524595
 31
0.0
  0
SPLINE
  5
3FB8
330
1F
100
AcDbEntity
  8
AM_0
100
AcDbSpline
210
0.0
220
0.0
230
1.0
 70
     8
 71
     3
 72
     9
 73
     5
 74
     3
 42
0.0000000001
 43
0.0000000001
 44
0.0000000001
 12
-0.7690286934869394
 22
0.639214258753488
 32
0.0
 13
-0.9823098605277891
 23
0.1872627509940926
 33
0.0
 40
0.0
 40
0.0
 40
0.0
 40
0.0
 40
1.92515359731676
 40
3.63451197800001
 40
3.63451197800001
 40
3.63451197800001
 40
3.63451197800001
 10
-14.39999999999936
 20
-4.010040741483897
 30
0.0
 10
-14.89349945190142
 20
-3.599845531585415
 30
0.0
 10
-15.90542325808634
 20
-2.924911331793802
 30
0.0
 10
-17.04029346915905
 20
-2.444539210378227
 30
0.0
 10
-17.59999999999937
 20
-2.337839492777709
 30
0.0
 11
-14.39999999999936
 21
-4.010040741483897
 31
0.0
 11
-15.99999999999937
 21
-2.939425790504026
 31
0.0
 11
-17.59999999999937
 21
-2.337839492777709
 31
0.0
  0
SPLINE
  5
3FB9
330
1F
100
AcDbEntity
  8
AM_0
100
AcDbSpline
210
0.0
220
0.0
230
1.0
 70
     8
 71
     3
 72
     8
 73
     4
 74
     0
 42
0.0000000001
 43
0.0000000001
 40
9.685078621624523
 40
9.685078621624523
 40
9.685078621624523
 40
9.685078621624523
 40
11.31655044551473
 40
11.31655044551473
 40
11.31655044551473
 40
11.31655044551473
 10
-11.99999999999936
 20
-3.694122089844166
 30
0.0
 10
-12.80249862828505
 20
-3.303219306211246
 30
0.0
 10
-13.60217587852903
 20
-2.89600641039782
 30
0.0
 10
-14.40000000001901
 20
-2.478080757406712
 30
0.0
  0
SPLINE
  5
3FBA
330
1F
100
AcDbEntity
  8
AM_0
100
AcDbSpline
210
0.0
220
0.0
230
1.0
 70
     8
 71
     3
 72
     8
 73
     4
 74
     0
 42
0.0000000001
 43
0.0000000001
 40
7.818791612490512
 40
7.818791612490512
 40
7.818791612490512
 40
7.818791612490512
 40
9.443881246512125
 40
9.443881246512125
 40
9.443881246512125
 40
9.443881246512125
 10
-11.99999999999936
 20
-5.134446305651943
 30
0.0
 10
-12.80378838185433
 20
-4.780927577575346
 30
0.0
 10
-13.60345358284112
 20
-4.404244822227918
 30
0.0
 10
-14.39999999999936
 20
-4.010040741483897
 30
0.0
  0
SPLINE
  5
3FBB
330
1F
100
AcDbEntity
  8
AM_0
100
AcDbSpline
210
0.0
220
0.0
230
1.0
 70
     8
 71
     3
 72
     9
 73
     5
 74
     3
 42
0.0000000001
 43
0.0000000001
 44
0.0000000001
 12
-0.631174810220657
 22
0.7756406119736886
 32
0.0
 13
-0.993948350019866
 23
-0.1098484296327715
 33
0.0
 40
0.0
 40
0.0
 40
0.0
 40
0.0
 40
2.28379663330438
 40
3.89495786919211
 40
3.89495786919211
 40
3.89495786919211
 40
3.89495786919211
 10
-8.799999999999362
 20
-5.134446305652216
 30
0.0
 10
-9.280491635535518
 20
-4.543977832892329
 30
0.0
 10
-10.03923397477523
 20
-3.045887031144495
 30
0.0
 10
-11.4661963159905
 20
-3.635127579295011
 30
0.0
 10
-11.99999999999936
 20
-3.694122089844166
 30
0.0
 11
-8.799999999999362
 21
-5.134446305652216
 31
0.0
 11
-10.39999999999936
 21
-3.504806142213544
 31
0.0
 11
-11.99999999999936
 21
-3.694122089844166
 31
0.0
  0
SPLINE
  5
3FBC
330
1F
100
AcDbEntity
  8
AM_0
100
AcDbSpline
210
0.0
220
0.0
230
1.0
 70
     8
 71
     3
 72
     9
 73
     5
 74
     3
 42
0.0000000001
 43
0.0000000001
 44
0.0000000001
 12
-0.6160346874185745
 22
0.7877190259839479
 32
0.0
 13
-0.9511353387127352
 23
-0.3087742985609561
 33
0.0
 40
0.0
 40
0.0
 40
0.0
 40
0.0
 40
1.921736341899393
 40
3.534068957120313
 40
3.534068957120313
 40
3.534068957120313
 40
3.534068957120313
 10
-8.799999999999362
 20
-6.397943026431073
 30
0.0
 10
-9.194618748893665
 20
-5.893346933284759
 30
0.0
 10
-10.25677612302244
 20
-5.316137894908379
 30
0.0
 10
-11.48881782396745
 20
-4.968497348215043
 30
0.0
 10
-11.99999999999936
 20
-5.134446305652307
 30
0.0
 11
-8.799999999999362
 21
-6.397943026431073
 31
0.0
 11
-10.39999999999936
 21
-5.333485151371258
 31
0.0
 11
-11.99999999999936
 21
-5.134446305652307
 31
0.0
  0
SPLINE
  5
3FBD
330
1F
100
AcDbEntity
  8
AM_0
100
AcDbSpline
210
0.0
220
0.0
230
1.0
 70
     8
 71
     3
 72
     8
 73
     4
 74
     0
 42
0.0000000001
 43
0.0000000001
 40
5.928582328726523
 40
5.928582328726523
 40
5.928582328726523
 40
5.928582328726523
 40
7.528098176779675
 40
7.528098176779675
 40
7.528098176779675
 40
7.528098176779675
 10
-6.400000000006639
 20
-6.066570304117465
 30
0.0
 10
-7.204550713736626
 20
-5.786055434783827
 30
0.0
 10
-8.004246560205592
 20
-5.477475049783368
 30
0.0
 10
-8.799999999960073
 20
-5.146103994827115
 30
0.0
  0
SPLINE
  5
3FBE
330
1F
100
AcDbEntity
  8
AM_0
100
AcDbSpline
210
0.0
220
0.0
230
1.0
 70
     8
 71
     3
 72
     8
 73
     4
 74
     0
 42
0.0000000001
 43
0.0000000001
 40
4.096652702081863
 40
4.096652702081863
 40
4.096652702081863
 40
4.096652702081863
 40
5.678228147290397
 40
5.678228147290397
 40
5.678228147290397
 40
5.678228147290397
 10
-6.399999999996452
 20
-7.1312082982285
 30
0.0
 10
-7.205775653017281
 20
-6.919234155641368
 30
0.0
 10
-8.005467034522098
 20
-6.673078579879564
 30
0.0
 10
-8.799999999999362
 20
-6.397943026431073
 30
0.0
  0
SPLINE
  5
3FBF
330
1F
100
AcDbEntity
  8
AM_0
100
AcDbSpline
210
0.0
220
0.0
230
1.0
 70
     8
 71
     3
 72
     9
 73
     5
 74
     3
 42
0.0000000001
 43
0.0000000001
 44
0.0000000001
 12
-0.6494269884643476
 22
0.7604239519203274
 32
0.0
 13
-0.960424896803377
 23
-0.2785390773306727
 33
0.0
 40
0.0
 40
0.0
 40
0.0
 40
0.0
 40
2.030658767599434
 40
3.658851428921794
 40
3.658851428921794
 40
3.658851428921794
 40
3.658851428921794
 10
-3.199999999999363
 20
-7.015319380576091
 30
0.0
 10
-3.639588202679638
 20
-6.500598858889549
 30
0.0
 10
-4.592512644478737
 20
-5.376085235199242
 30
0.0
 10
-5.878747743764458
 20
-5.915398543583698
 30
0.0
 10
-6.400000000006639
 20
-6.066570304117465
 30
0.0
 11
-3.199999999999363
 21
-7.015319380576091
 31
0.0
 11
-4.799999999999363
 21
-5.764889442343463
 31
0.0
 11
-6.400000000006639
 21
-6.066570304117465
 31
0.0
  0
SPLINE
  5
3FC0
330
1F
100
AcDbEntity
  8
AM_0
100
AcDbSpline
210
0.0
220
0.0
230
1.0
 70
     8
 71
     3
 72
     8
 73
     4
 74
     2
 42
0.0000000001
 43
0.0000000001
 44
0.0000000001
 12
0.6880548427449761
 22
-0.7256586893128109
 32
0.0
 13
-0.9854444993171648
 23
-0.1699974669386056
 33
0.0
 40
0.0
 40
0.0
 40
0.0
 40
0.0
 40
4.580514447725867
 40
4.580514447725867
 40
4.580514447725867
 40
4.580514447725867
 10
-0.4799999999990178
 20
8.000000000006059
 30
0.0
 10
0.5705483826746863
 20
6.892036629834343
 30
0.0
 10
-2.265901314116158
 20
5.073084093847526
 30
0.0
 10
-3.770515569634244
 20
4.813525476051165
 30
0.0
 11
-0.4799999999990178
 21
8.000000000006059
 31
0.0
 11
-3.770515569634244
 21
4.813525476051165
 31
0.0
  0
SPLINE
  5
3FC1
330
1F
100
AcDbEntity
  8
AM_0
100
AcDbSpline
210
0.0
220
0.0
230
1.0
 70
     8
 71
     3
 72
     8
 73
     4
 74
     0
 42
0.0000000001
 43
0.0000000001
 40
0.0
 40
0.0
 40
0.0
 40
0.0
 40
4.451443990518192
 40
4.451443990518192
 40
4.451443990518192
 40
4.451443990518192
 10
-15.75149331043877
 20
-7.387911206078058
 30
0.0
 10
-13.37738984882971
 20
-7.387911206078058
 30
0.0
 10
-11.06188140936364
 20
-7.033069462789478
 30
0.0
 10
-8.786807306475475
 20
-6.433364078271313
 30
0.0
  0
SPLINE
  5
3FC2
330
1F
100
AcDbEntity
  8
AM_0
100
AcDbSpline
210
0.0
220
0.0
230
1.0
 70
     8
 71
     3
 72
     8
 73
     4
 74
     0
 42
0.0000000001
 43
0.0000000001
 40
4.542668862435135
 40
4.542668862435135
 40
4.542668862435135
 40
4.542668862435135
 40
14.36247867694493
 40
14.36247867694493
 40
14.36247867694493
 40
14.36247867694493
 10
-1.095999999997093
 20
-6.396186648724449
 30
0.0
 10
-6.111135738968096
 20
-5.051209098510423
 30
0.0
 10
-10.93131452470343
 20
-2.525604549252
 30
0.0
 10
-15.75149331043877
 20
0.0000000000063324
 30
0.0
  0
SPLINE
  5
3FC3
330
1F
100
AcDbEntity
  8
AM_0
100
AcDbSpline
210
0.0
220
0.0
230
1.0
 70
     8
 71
     3
 72
     8
 73
     4
 74
     0
 42
0.0000000001
 43
0.0000000001
 40
0.0
 40
0.0
 40
0.0
 40
0.0
 40
3.835275104118792
 40
3.835275104118792
 40
3.835275104118792
 40
3.835275104118792
 10
0.0000000000006366
 20
8.000000000006059
 30
0.0
 10
-2.045480055529515
 20
8.000000000006059
 30
0.0
 10
-4.041079152766997
 20
7.719768810746121
 30
0.0
 10
-5.999999999999364
 20
7.233479238264647
 30
0.0
  0
SPLINE
  5
3FC4
330
1F
100
AcDbEntity
  8
AM_0
100
AcDbSpline
210
0.0
220
0.0
230
1.0
 70
     8
 71
     3
 72
     8
 73
     4
 74
     0
 42
0.0000000001
 43
0.0000000001
 40
0.3507760400854742
 40
0.3507760400854742
 40
0.3507760400854742
 40
0.3507760400854742
 40
1.871307041999678
 40
1.871307041999678
 40
1.871307041999678
 40
1.871307041999678
 10
-21.19999999999945
 20
7.99302433174322
 30
0.0
 10
-20.39262375038033
 20
7.9729477479004
 30
0.0
 10
-19.59289799495618
 20
7.909890692949341
 30
0.0
 10
-18.79999999999945
 20
7.808475284406961
 30
0.0
  0
SPLINE
  5
3FC5
330
1F
100
AcDbEntity
  8
AM_0
100
AcDbSpline
210
0.0
220
0.0
230
1.0
 70
     8
 71
     3
 72
     8
 73
     4
 74
     0
 42
0.0000000001
 43
0.0000000001
 40
0.7142832446738512
 40
0.7142832446738512
 40
0.7142832446738512
 40
0.7142832446738512
 40
9.361146747480315
 40
9.361146747480315
 40
9.361146747480315
 40
9.361146747480315
 10
-14.61309115595304
 20
7.360956463725017
 30
0.0
 10
-10.0370496542172
 20
7.145253502360958
 30
0.0
 10
-5.671106162315936
 20
5.657231812485645
 30
0.0
 10
-1.382152327407038
 20
3.702973519175668
 30
0.0
  0
SPLINE
  5
3FC6
330
1F
100
AcDbEntity
  8
AM_0
100
AcDbSpline
210
0.0
220
0.0
230
1.0
 70
     8
 71
     3
 72
     9
 73
     5
 74
     3
 42
0.0000000001
 43
0.0000000001
 44
0.0000000001
 12
0.9127464726416866
 22
-0.4085264699871465
 32
0.0
 13
0.886564333846492
 23
0.4626053198476276
 33
0.0
 40
0.0
 40
0.0
 40
0.0
 40
0.0
 40
1.710098482074402
 40
3.476921461296476
 40
3.476921461296476
 40
3.476921461296476
 40
3.476921461296476
 10
-24.39999999999945
 20
7.8472682723194
 30
0.0
 10
-23.87970454753835
 20
7.614394773581989
 30
0.0
 10
-22.76387097967958
 20
6.821185621193732
 30
0.0
 10
-21.72213407919902
 20
7.720577095270831
 30
0.0
 10
-21.19999999999945
 20
7.99302433174322
 30
0.0
 11
-24.39999999999945
 21
7.8472682723194
 31
0.0
 11
-22.79999999999936
 21
7.243582245983782
 31
0.0
 11
-21.19999999999945
 21
7.99302433174322
 31
0.0
  0
SPLINE
  5
3FC7
330
1F
100
AcDbEntity
  8
AM_0
100
AcDbSpline
210
0.0
220
0.0
230
1.0
 70
     8
 71
     3
 72
     8
 73
     4
 74
     0
 42
0.0000000001
 43
0.0000000001
 40
9.911909440357588
 40
9.911909440357588
 40
9.911909440357588
 40
9.911909440357588
 40
11.54467281373877
 40
11.54467281373877
 40
11.54467281373877
 40
11.54467281373877
 10
-25.59999999999936
 20
3.530144398579489
 30
0.0
 10
-24.79763250325277
 20
3.1345015178366
 30
0.0
 10
-23.99795602013411
 20
2.723302148922141
 30
0.0
 10
-23.19999999999937
 20
2.302156950749906
 30
0.0
  0
SPLINE
  5
3FC8
330
1F
100
AcDbEntity
  8
AM_0
100
AcDbSpline
210
0.0
220
0.0
230
1.0
 70
     8
 71
     3
 72
     8
 73
     4
 74
     0
 42
0.0000000001
 43
0.0000000001
 40
11.84940637128532
 40
11.84940637128532
 40
11.84940637128532
 40
11.84940637128532
 40
14.48999654934396
 40
14.48999654934396
 40
14.48999654934396
 40
14.48999654934396
 10
-25.59999999999936
 20
2.162616726877661
 30
0.0
 10
-24.31712733346367
 20
1.457883123202975
 30
0.0
 10
-23.03856366673145
 20
0.7289415616048815
 30
0.0
 10
-21.75999999999923
 20
0.0000000000063324
 30
0.0
  0
SPLINE
  5
3FC9
330
1F
100
AcDbEntity
  8
AM_0
100
AcDbSpline
210
0.0
220
0.0
230
1.0
 70
     8
 71
     3
 72
     8
 73
     4
 74
     0
 42
0.0000000001
 43
0.0000000001
 40
0.7142832446738512
 40
0.7142832446738512
 40
0.7142832446738512
 40
0.7142832446738512
 40
14.36247867694493
 40
14.36247867694493
 40
14.36247867694493
 40
14.36247867694493
 10
-36.37309115595289
 20
7.360956463724926
 30
0.0
 10
-29.15027461656882
 20
7.02049125676682
 30
0.0
 10
-22.45088396350411
 20
3.510245628386622
 30
0.0
 10
-15.75149331043877
 20
0.0000000000063324
 30
0.0
  0
SPLINE
  5
3FCA
330
1F
100
AcDbEntity
  8
AM_0
100
AcDbSpline
210
0.0
220
0.0
230
1.0
 70
     8
 71
     3
 72
     8
 73
     4
 74
     2
 42
0.0000000001
 43
0.0000000001
 44
0.0000000001
 12
-1.0
 22
-0.0000000000000038
 32
0.0
 40
0.0
 40
0.0
 40
0.0
 40
0.0
 40
22.97996588311242
 40
22.97996588311242
 40
22.97996588311242
 40
22.97996588311242
 10
-15.75149331043877
 20
-7.387911206078058
 30
0.0
 10
-23.41148193814291
 20
-7.387911206078087
 30
0.0
 10
-30.46148762429113
 20
-3.693955603035923
 30
0.0
 10
-37.51149331043935
 20
0.0000000000062414
 30
0.0
 11
-15.75149331043877
 21
-7.387911206078058
 31
0.0
 11
-37.51149331043935
 21
0.0000000000062414
 31
0.0
  0
LINE
  5
3FCC
330
1F
100
AcDbEntity
  8
AM_11
100
AcDbLine
 10
-50.00000000000063
 20
-7.99999999999413
 30
0.0
 11
0.0000000000006366
 21
-7.99999999999394
 31
0.0
  0
LINE
  5
3FCD
330
1F
100
AcDbEntity
  8
AM_11
100
AcDbLine
 10
-0.0000000000008185
 20
8.000000000006059
 30
0.0
 11
-49.99999999999946
 21
8.00000000000587
 31
0.0
  0
LINE
  5
3FCE
330
1F
100
AcDbEntity
  8
AM_0
100
AcDbLine
 10
-6.399999999999363
 20
-7.131208298229956
 30
0.0
 11
-6.399999999999363
 21
-6.066570304120012
 31
0.0
  0
LINE
  5
3FCF
330
1F
100
AcDbEntity
  8
AM_0
100
AcDbLine
 10
-0.1679999999993925
 20
-7.573505852188588
 30
0.0
 11
-1.095999999999276
 21
-6.396186648732816
 31
0.0
  0
LINE
  5
3FD0
330
1F
100
AcDbEntity
  8
AM_0
100
AcDbLine
 10
-0.1679999999993925
 20
-7.573505852188588
 30
0.0
 11
-0.1679999999993925
 21
-2.123036567294673
 31
0.0
  0
LINE
  5
3FD1
330
1F
100
AcDbEntity
  8
AM_0
100
AcDbLine
 10
0.0000000000006366
 20
-7.99999999999394
 30
0.0
 11
0.0000000000006366
 21
-1.59999999999394
 31
0.0
  0
LINE
  5
3FD2
330
1F
100
AcDbEntity
  8
AM_11
100
AcDbLine
 10
-0.0000000000006366
 20
-7.99999999999394
 30
0.0
 11
0.0000000000006366
 21
8.000000000006059
 31
0.0
  0
LINE
  5
3FD3
330
1F
100
AcDbEntity
  8
AM_0
100
AcDbLine
 10
-8.799999999999362
 20
-6.397943026431073
 30
0.0
 11
-8.799999999999362
 21
-5.146103994810744
 31
0.0
  0
LINE
  5
3FD4
330
1F
100
AcDbEntity
  8
AM_0
100
AcDbLine
 10
-1.376732777105007
 20
-2.357847624260227
 30
0.0
 11
-0.1679999999993925
 21
-2.123036567294673
 31
0.0
  0
LINE
  5
3FD5
330
1F
100
AcDbEntity
  8
AM_0
100
AcDbLine
 10
-0.1679999999993925
 20
-2.123036567294673
 30
0.0
 11
0.0000000000006366
 21
-1.59999999999394
 31
0.0
  0
ARC
  5
3FD6
330
1F
100
AcDbEntity
  8
AM_0
100
AcDbCircle
 10
3.177077091244325
 20
-4.070208263542508
 30
0.0
 40
4.865116984825681
100
AcDbArc
 50
159.3923269732575
 51
208.5609268810316
  0
LINE
  5
3FD7
330
1F
100
AcDbEntity
  8
AM_0
100
AcDbLine
 10
-4.399999999999363
 20
2.468479296249881
 30
0.0
 11
-4.399999999999363
 21
3.803463760846955
 31
0.0
  0
LINE
  5
3FD8
330
1F
100
AcDbEntity
  8
AM_0
100
AcDbLine
 10
-3.770515569634244
 20
0.0000000000060595
 30
0.0
 11
-3.770515569634244
 21
-1.279999999993867
 31
0.0
  0
LINE
  5
3FD9
330
1F
100
AcDbEntity
  8
AM_0
100
AcDbLine
 10
-7.599999999999363
 20
4.128232042136971
 30
0.0
 11
-7.599999999999363
 21
5.239323288237812
 31
0.0
  0
LINE
  5
3FDA
330
1F
100
AcDbEntity
  8
AM_0
100
AcDbLine
 10
-9.999999999999364
 20
5.239254563391535
 30
0.0
 11
-9.999999999999364
 21
6.144388449322889
 31
0.0
  0
LINE
  5
3FDB
330
1F
100
AcDbEntity
  8
AM_0
100
AcDbLine
 10
0.0000000000006366
 20
0.0000000000060595
 30
0.0
 11
-0.1679999999993925
 21
1.600000000006423
 31
0.0
  0
LINE
  5
3FDC
330
1F
100
AcDbEntity
  8
AM_0
100
AcDbLine
 10
-0.1679999999993925
 20
1.600000000006423
 30
0.0
 11
-1.708038716393002
 21
4.267425302422873
 31
0.0
  0
LINE
  5
3FDD
330
1F
100
AcDbEntity
  8
AM_0
100
AcDbLine
 10
0.0000000000006366
 20
0.0000000000060595
 30
0.0
 11
-0.1421481746293466
 21
-1.35379213933096
 31
0.0
  0
LINE
  5
3FDE
330
1F
100
AcDbEntity
  8
AM_0
100
AcDbLine
 10
-1.708038716393002
 20
4.267425302422873
 30
0.0
 11
-3.770515569634244
 21
4.813525476051165
 31
0.0
  0
LINE
  5
3FDF
330
1F
100
AcDbEntity
  8
AM_0
100
AcDbLine
 10
0.0000000000006366
 20
0.0000000000060595
 30
0.0
 11
-3.770515569634244
 21
0.0000000000060595
 31
0.0
  0
LINE
  5
3FE0
330
1F
100
AcDbEntity
  8
AM_0
100
AcDbLine
 10
-3.770515569634244
 20
-1.279999999993867
 30
0.0
 11
-0.1847520861397243
 21
-1.279999999993867
 31
0.0
  0
LINE
  5
3FE1
330
1F
100
AcDbEntity
  8
AM_0
100
AcDbLine
 10
-3.770515569634244
 20
-1.279999999993867
 30
0.0
 11
-1.376732777105007
 21
-2.357847624260227
 31
0.0
  0
LINE
  5
3FE2
330
1F
100
AcDbEntity
  8
AM_0
100
AcDbLine
 10
0.0000000000006366
 20
-1.59999999999394
 30
0.0
 11
-0.9237604307026231
 21
0.0000000000064233
 31
0.0
  0
LINE
  5
3FE3
330
1F
100
AcDbEntity
  8
AM_0
100
AcDbLine
 10
0.0000000000006366
 20
0.0000000000060595
 30
0.0
 11
0.0000000000006366
 21
8.000000000006059
 31
0.0
  0
LINE
  5
3FE4
330
1F
100
AcDbEntity
  8
AM_0
100
AcDbLine
 10
-3.199999999999363
 20
-7.776582809930676
 30
0.0
 11
-3.199999999999363
 21
-7.015319380576091
 31
0.0
  0
LINE
  5
3FE5
330
1F
100
AcDbEntity
  8
AM_0
100
AcDbLine
 10
0.0000000000006366
 20
-7.99999999999394
 30
0.0
 11
-0.1679999999993925
 21
-7.573505852188588
 31
0.0
  0
LINE
  5
3FE6
330
1F
100
AcDbEntity
  8
AM_0
100
AcDbLine
 10
-48.00000000000037
 20
-6.119331889970988
 30
0.0
 11
-48.00000000000037
 21
-7.098290412367385
 31
0.0
  0
LINE
  5
3FE7
330
1F
100
AcDbEntity
  8
AM_0
100
AcDbLine
 10
-27.39999999999936
 20
-7.320412526664529
 30
0.0
 11
-27.39999999999936
 21
-6.322561367144897
 31
0.0
  0
ARC
  5
3FE9
330
1F
100
AcDbEntity
  8
AM_0
100
AcDbCircle
 10
-66.95720987385069
 20
44.52738419328054
 30
0.0
 40
53.82354169281263
100
AcDbArc
 50
282.5995721823813
 51
288.3639478729427
  0
LINE
  5
3FEB
330
1F
100
AcDbEntity
  8
AM_0
100
AcDbLine
 10
-14.39999999999572
 20
-4.010040741485716
 30
0.0
 11
-14.39999999999936
 21
-2.478080757369605
 31
0.0
  0
LINE
  5
3FEC
330
1F
100
AcDbEntity
  8
AM_0
100
AcDbLine
 10
-11.99999999999936
 20
-5.134446305652307
 30
0.0
 11
-11.99999999999936
 21
-3.694122089844166
 31
0.0
  0
LINE
  5
3FED
330
1F
100
AcDbEntity
  8
AM_0
100
AcDbLine
 10
-19.99999999999937
 20
-1.00084646584786
 30
0.0
 11
-19.99999999999937
 21
0.5695452071160276
 31
0.0
  0
LINE
  5
3FEE
330
1F
100
AcDbEntity
  8
AM_0
100
AcDbLine
 10
-15.59999999999936
 20
7.193282871332996
 30
0.0
 11
-15.59999999999945
 21
7.51946066501456
 31
0.0
  0
LINE
  5
3FEF
330
1F
100
AcDbEntity
  8
AM_0
100
AcDbLine
 10
-13.19999999999936
 20
6.480111509092751
 30
0.0
 11
-13.19999999999936
 21
7.068797832416897
 31
0.0
  0
LINE
  5
3FF0
330
1F
100
AcDbEntity
  8
AM_0
100
AcDbLine
 10
-17.59999999999937
 20
-2.337839492777709
 30
0.0
 11
-17.59999999999937
 21
-0.7535603263228383
 31
0.0
  0
LINE
  5
3FF1
330
1F
100
AcDbEntity
  8
AM_0
100
AcDbLine
 10
-32.99999999999936
 20
-5.469665318807017
 30
0.0
 11
-32.99999999999936
 21
-4.058858358312079
 31
0.0
  0
LINE
  5
3FF2
330
1F
100
AcDbEntity
  8
AM_0
100
AcDbLine
 10
-29.79999999999936
 20
-6.651598484247677
 30
0.0
 11
-29.79999999999936
 21
-5.455000052013872
 31
0.0
  0
LINE
  5
3FF3
330
1F
100
AcDbEntity
  8
AM_0
100
AcDbLine
 10
-31.19999999999936
 20
4.992398154254681
 30
0.0
 11
-31.19999999999864
 21
5.948217959952365
 31
0.0
  0
LINE
  5
3FF4
330
1F
100
AcDbEntity
  8
AM_0
100
AcDbLine
 10
-25.59999999999936
 20
2.162616726878025
 30
0.0
 11
-25.60000000001828
 21
3.530144398588948
 31
0.0
  0
LINE
  5
3FF5
330
1F
100
AcDbEntity
  8
AM_0
100
AcDbLine
 10
-28.79999999999936
 20
3.850663530145959
 30
0.0
 11
-28.79999999999936
 21
5.005357467654232
 31
0.0
  0
LINE
  5
3FF6
330
1F
100
AcDbEntity
  8
AM_0
100
AcDbLine
 10
-23.19999999999937
 20
0.8195702910315617
 30
0.0
 11
-23.19999999999937
 21
2.302156950749906
 31
0.0
  0
LINE
  5
3FF7
330
1F
100
AcDbEntity
  8
AM_0
100
AcDbLine
 10
-44.19999999999936
 20
0.3928774879894832
 30
0.0
 11
-44.20000000011941
 21
1.897954304731013
 31
0.0
  0
LINE
  5
3FF8
330
1F
100
AcDbEntity
  8
AM_0
100
AcDbLine
 10
-36.79999999999945
 20
7.045154207990401
 30
0.0
 11
-36.79999999999945
 21
7.434218787458724
 31
0.0
  0
LINE
  5
3FF9
330
1F
100
AcDbEntity
  8
AM_0
100
AcDbLine
 10
-38.59999999999937
 20
-2.758365055087722
 30
0.0
 11
-38.59999999999937
 21
-1.169867730198109
 31
0.0
  0
LINE
  5
3FFA
330
1F
100
AcDbEntity
  8
AM_0
100
AcDbLine
 10
-40.99999999999936
 20
-1.435690521809226
 30
0.0
 11
-40.99999999999936
 21
0.1505269211550171
 31
0.0
  0
LINE
  5
3FFB
330
1F
100
AcDbEntity
  8
AM_0
100
AcDbLine
 10
-40.99999999999936
 20
-1.435690521809226
 30
0.0
 11
-40.99999999999936
 21
0.0785563877925256
 31
0.0
  0
LINE
  5
3FFC
330
1F
100
AcDbEntity
  8
AM_0
100
AcDbLine
 10
-35.39999999999936
 20
-4.387949312388025
 30
0.0
 11
-35.39999999999936
 21
-2.872469460349691
 31
0.0
  0
LINE
  5
3FFD
330
1F
100
AcDbEntity
  8
AM_0
100
AcDbLine
 10
-34.39999999999936
 20
6.28547852951275
 30
0.0
 11
-34.39999999999946
 21
6.932563229952996
 31
0.0
  0
LINE
  5
3FFE
330
1F
100
AcDbEntity
  8
AM_0
100
AcDbLine
 10
-49.99999999999962
 20
5.759935614836759
 30
0.0
 11
-49.99999999999978
 21
3.700077958513848
 31
0.0
  0
LINE
  5
3FFF
330
1F
100
AcDbEntity
  8
AM_0
100
AcDbLine
 10
-45.93431428422973
 20
1.379290718235972
 30
0.0
 11
-45.93431428422973
 21
2.823608061035213
 31
0.0
  0
LINE
  5
4000
330
1F
100
AcDbEntity
  8
AM_0
100
AcDbLine
 10
-49.99999999999952
 20
7.545549085742066
 30
0.0
 11
-49.99999999999952
 21
7.221146906345227
 31
0.0
  0
ARC
  5
401D
330
1F
100
AcDbEntity
  8
AM_0
100
AcDbCircle
 10
-50.22515961040465
 20
19.94647993396577
 30
0.0
 40
12.72732483729428
100
AcDbArc
 50
249.8257564739788
 51
271.0136747966074
  0
LINE
  5
401F
330
1F
100
AcDbEntity
  8
AM_0
100
AcDbLine
 10
-21.79999999999792
 20
-7.999964288102853
 30
0.0
 11
-21.80000000003648
 21
-7.589140097912457
 31
0.0
  0
LINE
  5
4020
330
1F
100
AcDbEntity
  8
AM_0
100
AcDbLine
 10
-24.19999999999936
 20
-7.869333354942807
 30
0.0
 11
-24.19999999999936
 21
-7.188142002210168
 31
0.0
  0
LINE
  5
4021
330
1F
100
AcDbEntity
  8
AM_0
100
AcDbLine
 10
-43.09966948046867
 20
-7.999964288103035
 30
0.0
 11
-43.09966948050724
 21
-7.589140097912639
 31
0.0
  0
LINE
  5
4022
330
1F
100
AcDbEntity
  8
AM_0
100
AcDbLine
 10
-45.49966948047013
 20
-7.869333354942899
 30
0.0
 11
-45.49966948047013
 21
-7.188142002210259
 31
0.0
  0
DIMENSION
  5
40B9
330
1F
100
AcDbEntity
  8
AM_5
100
AcDbDimension
  2
*D5
 10
18.55776903085654
 20
-7.999999999993946
 30
0.0
 11
15.45776903085654
 21
0.0000000000060571
 31
0.0
 70
    32
  1
%%c<>
  3
AM_JIS
100
AcDbAlignedDimension
 13
0.0000000000006366
 23
8.000000000006059
 33
0.0
 14
0.0000000000006479
 24
-7.99999999999394
 34
0.0
 50
90.0
100
AcDbRotatedDimension
1001
GENIUS_GENDTOL_13
1000

1000
h7
1000

1040
0.0
  0
DIMENSION
  5
4145
330
1F
100
AcDbEntity
  8
AM_5
100
AcDbDimension
  2
*D6
 10
-104.9999999999999
 20
-34.00000100999052
 30
0.0
 11
-52.50000000000019
 21
-30.90000100999052
 31
0.0
 70
    32
  1
<>
  3
AM_JIS
100
AcDbAlignedDimension
 13
-0.0000000000003979
 23
-4.999999999996212
 33
0.0
 14
-104.9999999999999
 24
-7.000000000013095
 34
0.0
 50
0.0000000000001132
100
AcDbRotatedDimension
1001
GENIUS_GENDTOL_13
1000

1000
h7
1000

1040
0.0
  0
DIMENSION
  5
423E
330
1F
100
AcDbEntity
  8
AM_5
100
AcDbDimension
  2
*D7
 10
-50.00000000000063
 20
-22.0000010099904
 30
0.0
 11
-25.00000000000063
 21
-18.9000010099904
 31
0.0
 70
    32
  1
<>
  3
AM_JIS
100
AcDbAlignedDimension
 13
-0.0000000000006366
 23
-7.999999999990708
 33
0.0
 14
-50.00000000000063
 24
-8.000000000013061
 34
0.0
 50
0.0000000000001132
100
AcDbRotatedDimension
1001
GENIUS_GENDTOL_13
1000

1000
h7
1000

1040
0.0
  0
LINE
  5
4347
330
1F
100
AcDbEntity
  8
AM_0
100
AcDbLine
 10
-55.21636023805149
 20
-7.999999999990436
 30
0.0
 11
-103.9999999999999
 21
-8.000000000013095
 31
0.0
  0
LINE
  5
4349
330
1F
100
AcDbEntity
  8
AM_0
100
AcDbLine
 10
-104.9999999999999
 20
-7.000000000013095
 30
0.0
 11
-104.9999999999999
 21
6.999999999986905
 31
0.0
  0
LINE
  5
434B
330
1F
100
AcDbEntity
  8
AM_0
100
AcDbLine
 10
-103.9999999999999
 20
7.999999999986906
 30
0.0
 11
-103.9999999999999
 21
-8.000000000013121
 31
0.0
  0
DIMENSION
  5
434C
330
1F
100
AcDbEntity
  8
AM_5
100
AcDbDimension
  2
*D8
 10
-121.7536996173885
 20
-8.000000000013089
 30
0.0
 11
-124.8536996173885
 21
-0.0000000000131083
 31
0.0
 70
    32
  1
%%c<>
  3
AM_JIS
100
AcDbAlignedDimension
 13
-103.9999999999999
 23
7.999999999986906
 33
0.0
 14
-103.9999999999999
 24
-8.000000000013095
 34
0.0
 50
270.0
100
AcDbRotatedDimension
1001
GENIUS_GENDTOL_13
1000

1000
h7
1000

1040
0.0
  0
LINE
  5
4359
330
1F
100
AcDbEntity
  8
AM_0
100
AcDbLine
 10
-54.61451203428783
 20
7.999999999986934
 30
0.0
 11
-103.9999999999999
 21
7.999999999986906
 31
0.0
  0
LINE
  5
4369
330
1F
100
AcDbEntity
  8
AM_0
100
AcDbLine
 10
-103.9999999999999
 20
7.999999999986906
 30
0.0
 11
-104.9999999999999
 21
6.999999999986905
 31
0.0
1001
GENIUS_GENFIL_13
1070
     0
1040
1.0
1040
1.0
1040
20.0
1040
0.0
1002
{
1002
}
1001
GENIUS_GENODEF_13
1002
{
1000
HIER
1070
     0
1002
}
1002
{
1000
MANEDIT
1070
     0
1002
}
1002
{
1000
NOSEL
1070
     0
1002
}
1002
{
1000
BEHIND
1070
     0
1002
}
1002
{
1000
REACTOR
1002
}
1001
GENIUS_GENOBJ-N-CHA_13
1002
{
1000
OWNER
1000
GEN
1002
}
  0
LINE
  5
436C
330
1F
100
AcDbEntity
  8
AM_0
100
AcDbLine
 10
-104.9999999999999
 20
-7.000000000013095
 30
0.0
 11
-103.9999999999999
 21
-8.000000000013095
 31
0.0
1001
GENIUS_GENFIL_13
1070
     0
1040
1.0
1040
1.0
1040
20.0
1040
0.0
1002
{
1002
}
1001
GENIUS_GENODEF_13
1002
{
1000
HIER
1070
     0
1002
}
1002
{
1000
MANEDIT
1070
     0
1002
}
1002
{
1000
NOSEL
1070
     0
1002
}
1002
{
1000
BEHIND
1070
     0
1002
}
1002
{
1000
REACTOR
1002
}
1001
GENIUS_GENOBJ-N-CHA_13
1002
{
1000
OWNER
1000
GEN
1002
}
  0
LINE
  5
43F3
330
1F
100
AcDbEntity
  8
AM_11
100
AcDbLine
 10
-50.00000000000063
 20
-7.999999999990301
 30
0.0
 11
-49.99999999999946
 21
8.000000000009697
 31
0.0
  0
POLYLINE
  5
44FE
330
1F
100
AcDbEntity
  8
AM_0
100
AcDb2dPolyline
 66
     1
 10
0.0
 20
0.0
 30
0.0
  0
VERTEX
  5
44FF
330
44FE
100
AcDbEntity
  8
AM_0
100
AcDbVertex
100
AcDb2dVertex
 10
-54.61451203433902
 20
8.000000000005774
 30
0.0
 42
0.0132595710984769
  0
VERTEX
  5
4500
330
44FE
100
AcDbEntity
  8
AM_0
100
AcDbVertex
100
AcDb2dVertex
 10
-54.28237451049932
 20
7.707163083859995
 30
0.0
 42
0.0241650628538406
  0
VERTEX
  5
4501
330
44FE
100
AcDbEntity
  8
AM_0
100
AcDbVertex
100
AcDb2dVertex
 10
-54.08854499618502
 20
7.560497269646702
 30
0.0
 42
0.0015774304016965
  0
VERTEX
  5
4502
330
44FE
100
AcDbEntity
  8
AM_0
100
AcDbVertex
100
AcDb2dVertex
 10
-53.68218043460547
 20
7.284699867211429
 30
0.0
 42
0.0050294305953809
  0
VERTEX
  5
4503
330
44FE
100
AcDbEntity
  8
AM_0
100
AcDbVertex
100
AcDb2dVertex
 10
-53.55359350385061
 20
7.19988845596066
 30
0.0
 42
0.0123536871219503
  0
VERTEX
  5
4504
330
44FE
100
AcDbEntity
  8
AM_0
100
AcDbVertex
100
AcDb2dVertex
 10
-53.16040542471881
 20
6.959738873953227
 30
0.0
 42
0.0084718807827994
  0
VERTEX
  5
4505
330
44FE
100
AcDbEntity
  8
AM_0
100
AcDbVertex
100
AcDb2dVertex
 10
-52.57302286063504
 20
6.633755731140711
 30
0.0
 42
0.027604186044913
  0
VERTEX
  5
4506
330
44FE
100
AcDbEntity
  8
AM_0
100
AcDbVertex
100
AcDb2dVertex
 10
-52.25670610031383
 20
6.486953013565042
 30
0.0
 42
0.0069359858675024
  0
VERTEX
  5
4507
330
44FE
100
AcDbEntity
  8
AM_0
100
AcDbVertex
100
AcDb2dVertex
 10
-50.96141870991636
 20
5.99132464547705
 30
0.0
 42
0.0300652702386881
  0
VERTEX
  5
4508
330
44FE
100
AcDbEntity
  8
AM_0
100
AcDbVertex
100
AcDb2dVertex
 10
-50.63001898984979
 20
5.891900891031285
 30
0.0
 42
0.0124395231294991
  0
VERTEX
  5
4509
330
44FE
100
AcDbEntity
  8
AM_0
100
AcDbVertex
100
AcDb2dVertex
 10
-49.99999999999962
 20
5.759935614836759
 30
0.0
  0
SEQEND
  5
450A
330
44FE
100
AcDbEntity
  8
AM_0
  0
SPLINE
  5
450C
330
1F
100
AcDbEntity
  8
AM_0
100
AcDbSpline
210
0.0
220
0.0
230
1.0
 70
     8
 71
     3
 72
     9
 73
     5
 74
     3
 42
0.0000000001
 43
0.0000000001
 44
0.0000000001
 12
-0.70922844039674
 22
0.7049787367945277
 32
0.0
 13
-0.9773066838349782
 23
-0.2118292844048671
 33
0.0
 40
0.0
 40
0.0
 40
0.0
 40
0.0
 40
2.210887137215339
 40
3.814978361297172
 40
3.814978361297172
 40
3.814978361297172
 40
3.814978361297172
 10
-45.93431428422973
 20
2.823608061035213
 30
0.0
 10
-46.45698896296988
 20
3.343150868098326
 30
0.0
 10
-47.18263159437682
 20
4.557472567457758
 30
0.0
 10
-48.61175125942447
 20
4.577151271003677
 30
0.0
 10
-49.13431428434988
 20
4.463886772297882
 30
0.0
 11
-45.93431428422973
 21
2.823608061035213
 31
0.0
 11
-47.53431428422983
 21
4.349393738482717
 31
0.0
 11
-49.13431428434988
 21
4.463886772297882
 31
0.0
  0
SPLINE
  5
450D
330
1F
100
AcDbEntity
  8
AM_0
100
AcDbSpline
210
0.0
220
0.0
230
1.0
 70
     8
 71
     3
 72
     8
 73
     4
 74
     0
 42
0.0000000001
 43
0.0000000001
 40
12.93073884177286
 40
12.93073884177286
 40
12.93073884177286
 40
12.93073884177286
 40
13.06071821438677
 40
13.06071821438677
 40
13.06071821438677
 40
13.06071821438677
 10
-49.13431428422982
 20
3.207858728034773
 30
0.0
 10
-49.40752630704254
 20
3.36314491038233
 30
0.0
 10
-49.69573128416662
 20
3.527015589582443
 30
0.0
 10
-49.99999999999978
 20
3.700077958515984
 30
0.0
  0
LINE
  5
450E
330
1F
100
AcDbEntity
  8
AM_0
100
AcDbLine
 10
-49.13431428422982
 20
3.207858728034682
 30
0.0
 11
-49.13431428433001
 21
4.463886772287238
 31
0.0
  0
SPLINE
  5
4510
330
1F
100
AcDbEntity
  8
AM_0
100
AcDbSpline
210
0.0
220
0.0
230
1.0
 70
     8
 71
     3
 72
     8
 73
     4
 74
     0
 42
0.0000000001
 43
0.0000000001
 40
11.46802165326744
 40
11.46802165326744
 40
11.46802165326744
 40
11.46802165326744
 40
12.06337302160172
 40
12.06337302160172
 40
12.06337302160172
 40
12.06337302160172
 10
-49.99999999999964
 20
4.925386651309317
 30
0.0
 10
-49.71569063555877
 20
4.774119546587913
 30
0.0
 10
-49.42490858564007
 20
4.619545837727442
 30
0.0
 10
-49.13431428434988
 20
4.463886772297882
 30
0.0
  0
SPLINE
  5
4511
330
1F
100
AcDbEntity
  8
AM_0
100
AcDbSpline
210
0.0
220
0.0
230
1.0
 70
     8
 71
     3
 72
     9
 73
     5
 74
     3
 42
0.0000000001
 43
0.0000000001
 44
0.0000000001
 12
-0.6468728043913146
 22
0.7625979117063697
 32
0.0
 13
-0.9968429144675983
 23
0.0793990168436886
 33
0.0
 40
0.0
 40
0.0
 40
0.0
 40
0.0
 40
1.906686012670254
 40
3.746319224081031
 40
3.746319224081031
 40
3.746319224081031
 40
3.746319224081031
 10
-45.93431428422983
 20
1.379290718235972
 30
0.0
 10
-46.34544206026639
 20
1.863968975416666
 30
0.0
 10
-47.3213285002756
 20
2.669409154582945
 30
0.0
 10
-48.52303917355845
 20
3.159170371921677
 30
0.0
 10
-49.13431428422982
 20
3.207858728034682
 30
0.0
 11
-45.93431428422983
 21
1.379290718235972
 31
0.0
 11
-47.39729030372418
 21
2.602055093451747
 31
0.0
 11
-49.13431428422982
 21
3.207858728034682
 31
0.0
  0
SPLINE
  5
4515
330
1F
100
AcDbEntity
  8
AM_0
100
AcDbSpline
210
0.0
220
0.0
230
1.0
 70
     8
 71
     3
 72
     8
 73
     4
 74
     0
 42
0.0000000001
 43
0.0000000001
 40
5.425905956994038
 40
5.425905956994038
 40
5.425905956994038
 40
5.425905956994038
 40
6.752804577694429
 40
6.752804577694429
 40
6.752804577694429
 40
6.752804577694429
 10
-47.99999999999245
 20
-6.10043925286085
 30
0.0
 10
-48.67003136358933
 20
-5.88280039842083
 30
0.0
 10
-49.33652439399712
 20
-5.644706783796902
 30
0.0
 10
-50.00000000000044
 20
-5.389169732027234
 30
0.0
  0
SPLINE
  5
4516
330
1F
100
AcDbEntity
  8
AM_0
100
AcDbSpline
210
0.0
220
0.0
230
1.0
 70
     8
 71
     3
 72
     8
 73
     4
 74
     0
 42
0.0000000001
 43
0.0000000001
 40
3.600603813281411
 40
3.600603813281411
 40
3.600603813281411
 40
3.600603813281411
 40
4.911026453664341
 40
4.911026453664341
 40
4.911026453664341
 40
4.911026453664341
 10
-47.99999999999317
 20
-7.098290412371751
 30
0.0
 10
-48.67086735010634
 20
-6.94084752802494
 30
0.0
 10
-49.33735847262116
 20
-6.75881900004741
 30
0.0
 10
-50.00000000000054
 20
-6.555163449257203
 30
0.0
  0
LINE
  5
4517
330
1F
100
AcDbEntity
  8
AM_0
100
AcDbLine
 10
-50.00000000000038
 20
-4.47475240300256
 30
0.0
 11
-50.00000000000053
 21
-6.555163449257202
 31
0.0
  0
SPLINE
  5
4568
330
1F
100
AcDbEntity
  8
AM_0
100
AcDbSpline
210
0.0
220
0.0
230
1.0
 70
     8
 71
     3
 72
    14
 73
    10
 74
     8
 42
0.0000000001
 43
0.0000000001
 44
0.0000000001
 40
0.0
 40
0.0
 40
0.0
 40
0.0
 40
0.9281287794959169
 40
1.613185775245247
 40
2.158422940068511
 40
3.193709664500383
 40
4.166179760002307
 40
6.156570321870995
 40
7.795224255144605
 40
7.795224255144605
 40
7.795224255144605
 40
7.795224255144605
 10
-49.99999999999978
 20
3.700077958515979
 30
0.0
 10
-50.30917224413531
 20
3.718062954077275
 30
0.0
 10
-50.84654623507109
 20
3.749322774533534
 30
0.0
 10
-51.56600419643584
 20
3.696025616171606
 30
0.0
 10
-52.31162460645734
 20
3.580036055186201
 30
0.0
 10
-53.16068029788801
 20
3.475428727088699
 30
0.0
 10
-54.44172773221801
 20
3.178940277345243
 30
0.0
 10
-55.98866704928923
 20
2.45429520702416
 30
0.0
 10
-56.2720442396757
 20
1.222034381663212
 30
0.0
 10
-56.40000000000005
 20
0.6656209645779177
 30
0.0
 11
-49.99999999999978
 21
3.700077958515979
 31
0.0
 11
-50.92763006516032
 21
3.730499883813831
 31
0.0
 11
-51.61100079397591
 21
3.682463081014846
 31
0.0
 11
-52.150997142227
 21
3.60704750052915
 31
0.0
 11
-53.17507868555158
 21
3.455140968718213
 31
0.0
 11
-54.12060917277953
 21
3.227830202655536
 31
0.0
 11
-55.82516451510464
 21
2.200140719529975
 31
0.0
 11
-56.40000000000005
 21
0.6656209645779177
 31
0.0
  0
POLYLINE
  5
4569
330
1F
100
AcDbEntity
  8
AM_0
100
AcDb2dPolyline
 66
     1
 10
0.0
 20
0.0
 30
0.0
  0
VERTEX
  5
456A
330
4569
100
AcDbEntity
  8
AM_0
100
AcDbVertex
100
AcDb2dVertex
 10
-50.00000000000042
 20
-4.474752403002552
 30
0.0
 42
-0.0198889565917329
  0
VERTEX
  5
456B
330
4569
100
AcDbEntity
  8
AM_0
100
AcDbVertex
100
AcDb2dVertex
 10
-51.65544040914952
 20
-3.884183064175799
 30
0.0
 42
-0.029463196711072
  0
VERTEX
  5
456C
330
4569
100
AcDbEntity
  8
AM_0
100
AcDbVertex
100
AcDb2dVertex
 10
-52.72872882304923
 20
-3.377125080284626
 30
0.0
 42
-0.0043615462457846
  0
VERTEX
  5
456D
330
4569
100
AcDbEntity
  8
AM_0
100
AcDbVertex
100
AcDb2dVertex
 10
-53.96008080177321
 20
-2.689997472633971
 30
0.0
 42
-0.009441808533592
  0
VERTEX
  5
456E
330
4569
100
AcDbEntity
  8
AM_0
100
AcDbVertex
100
AcDb2dVertex
 10
-54.51995231894167
 20
-2.35698290180035
 30
0.0
 42
-0.0439302380745563
  0
VERTEX
  5
456F
330
4569
100
AcDbEntity
  8
AM_0
100
AcDbVertex
100
AcDb2dVertex
 10
-55.46728007128855
 20
-1.646816946845049
 30
0.0
 42
-0.0551946304363759
  0
VERTEX
  5
4570
330
4569
100
AcDbEntity
  8
AM_0
100
AcDbVertex
100
AcDb2dVertex
 10
-56.09599760407906
 20
-0.9434776712267218
 30
0.0
 42
-0.108531418392727
  0
VERTEX
  5
4571
330
4569
100
AcDbEntity
  8
AM_0
100
AcDbVertex
100
AcDb2dVertex
 10
-56.36303163082653
 20
-0.3170289716318644
 30
0.0
 42
-0.0746999284091838
  0
VERTEX
  5
4572
330
4569
100
AcDbEntity
  8
AM_0
100
AcDbVertex
100
AcDb2dVertex
 10
-56.40000000000005
 20
0.6656209645779177
 30
0.0
 42
-0.0635337416404777
  0
SEQEND
  5
4573
330
4569
100
AcDbEntity
  8
AM_0
  0
VIEWPORT
  5
110
330
101
100
AcDbEntity
 67
     1
  8
0
100
AcDbViewport
 10
420.5
 20
297.0
 30
0.0
 40
948.9782706766916
 41
628.452
 68
     1
 69
     1
1001
ACAD
1000
MVIEW
1002
{
1070
    16
1010
0.0
1020
0.0
1030
0.0
1010
0.0
1020
0.0
1030
1.0
1040
0.0
1040
628.452
1040
420.5
1040
297.0
1040
50.0
1040
0.0
1040
0.0
1070
     0
1070
   100
1070
     1
1070
     1
1070
     0
1070
     0
1070
     0
1070
     0
1040
0.0
1040
0.0
1040
0.0
1040
10.0
1040
10.0
1040
10.0
1040
10.0
1070
     0
1002
{
1002
}
1002
}
  0
ENDSEC
  0
SECTION
  2
OBJECTS
  0
DICTIONARY
  5
C
330
0
100
AcDbDictionary
  3
ACAD_GROUP
350
D
  3
ACAD_LAYOUT
350
1A
  3
ACAD_MLINESTYLE
350
17
  3
ACAD_PLOTSETTINGS
350
19
  3
ACAD_PLOTSTYLENAME
350
E
  3
ACDBVARIABLEDICTIONARY
350
34
  3
ACMDICTIONARY
350
43
  3
AMG
350
2B
  3
AMGSNAPSETTINGS
350
6E
  3
ASE_INDEX_DICTIONARY
350
151A
  3
DWGPROPS
350
458A
  3
ACDBHEADERROUNDTRIPXREC
350
4596
  0
DICTIONARY
  5
74
330
1F
100
AcDbDictionary
280
     1
  3
ACAD_INDEX
360
458C
  3
ACAD_LAYOUTSELFREF
360
45B9
  0
DICTIONARY
  5
45BE
330
101
100
AcDbDictionary
280
     1
  3
ACAD_LAYOUTSELFREF
360
45BF
  0
DICTIONARY
  5
D
102
{ACAD_REACTORS
330
C
102
}
330
C
100
AcDbDictionary
  0
DICTIONARY
  5
1A
102
{ACAD_REACTORS
330
C
102
}
330
C
100
AcDbDictionary
  0
DICTIONARY
  5
17
102
{ACAD_REACTORS
330
C
102
}
330
C
100
AcDbDictionary
  3
STANDARD
350
18
  0
DICTIONARY
  5
19
102
{ACAD_REACTORS
330
C
102
}
330
C
100
AcDbDictionary
  0
ACDBDICTIONARYWDFLT
  5
E
102
{ACAD_REACTORS
330
C
102
}
330
C
100
AcDbDictionary
281
     1
  3
Normal
350
F
100
AcDbDictionaryWithDefault
340
F
  0
DICTIONARY
  5
34
102
{ACAD_REACTORS
330
C
102
}
330
C
100
AcDbDictionary
  3
INDEXCTL
350
35
  3
SORTENTS
350
B5E
  0
DICTIONARY
  5
43
102
{ACAD_REACTORS
330
C
102
}
330
C
100
AcDbDictionary
  3
ACMSTDDICTIONARY
350
260
  0
DICTIONARY
  5
2B
102
{ACAD_REACTORS
330
C
102
}
330
C
100
AcDbDictionary
  3
ACMGSETTINGS
350
2C
  0
DICTIONARY
  5
6E
102
{ACAD_REACTORS
330
C
102
}
330
C
100
AcDbDictionary
  0
DICTIONARY
  5
151A
102
{ACAD_REACTORS
330
C
102
}
330
C
100
AcDbDictionary
  3
ASEBLOCKHIERARCHYINDEXRECORD
350
151C
1001
DCO15
1040
1471862535.906
  0
XRECORD
  5
458A
102
{ACAD_REACTORS
330
C
102
}
330
C
100
AcDbXrecord
  1
DWGPROPS COOKIE
  2

  3

  4

  6

  7

  8

  9

300
AmdtFileType=82
301
=
302
=
303
=
304
=
305
=
306
=
307
=
308
=
309
=
 40
0.1414627199074074
 41
2452838.430434386
 42
2453045.550501921
  1

 90
        1
  0
DICTIONARY
  5
4596
102
{ACAD_REACTORS
330
C
102
}
330
C
100
AcDbDictionary
  3
TSTACKALIGN
350
4597
  3
TSTACKSIZE
350
4598
  3
HYPERLINKBASE
350
4599
  3
STYLESHEET
350
459A
  3
LAYOUTDICT
350
459B
  3
PLOTSETDICT
350
459C
  3
PLOTSTYLNAMDICT
350
459D
  3
LWETCUNION
350
459E
  3
INSUNITS
350
459F
  3
CEPSNTYPE
350
45A0
  3
FINGERPRINTGUID
350
45A1
  3
VERSIONGUID
350
45A2
  3
PSVPSCALE
350
45A3
  3
DIMSTYLEDATA
350
45A4
  3
PUCSORTHOREF
350
45A5
  3
PUCSORTHOVIEW
350
45A6
  3
PUCSBASE
350
45A7
  3
PUCSORGTOP
350
45A8
  3
PUCSORGBOTTOM
350
45A9
  3
PUCSORGLEFT
350
45AA
  3
PUCSORGRIGHT
350
45AB
  3
PUCSORGFRONT
350
45AC
  3
PUCSORGBACK
350
45AD
  3
UCSORTHOREF
350
45AE
  3
UCSORTHOVIEW
350
45AF
  3
UCSBASE
350
45B0
  3
UCSORGTOP
350
45B1
  3
UCSORGBOTTOM
350
45B2
  3
UCSORGLEFT
350
45B3
  3
UCSORGRIGHT
350
45B4
  3
UCSORGFRONT
350
45B5
  3
UCSORGBACK
350
45B6
  0
DICTIONARY
  5
458C
102
{ACAD_REACTORS
330
74
102
}
330
74
100
AcDbDictionary
  3
*A1
350
458D
  0
XRECORD
  5
45B9
102
{ACAD_REACTORS
330
74
102
}
330
74
100
AcDbXrecord
340
1F
  0
XRECORD
  5
45BF
102
{ACAD_REACTORS
330
45BE
102
}
330
45BE
100
AcDbXrecord
340
101
  0
MLINESTYLE
  5
18
102
{ACAD_REACTORS
330
17
102
}
330
17
100
AcDbMlineStyle
  2
STANDARD
 70
     0
  3

 62
   256
 51
90.0
 52
90.0
 71
     2
 49
0.5
 62
   256
  6
BYLAYER
 49
-0.5
 62
   256
  6
BYLAYER
  0
ACDBPLACEHOLDER
  5
F
102
{ACAD_REACTORS
330
E
102
}
330
E
100
AcDbPlaceHolder
280
     0
  0
DICTIONARYVAR
  5
35
102
{ACAD_REACTORS
330
34
102
}
330
34
100
DictionaryVariables
280
     0
  1
1
  0
DICTIONARYVAR
  5
B5E
102
{ACAD_REACTORS
330
34
102
}
330
34
100
DictionaryVariables
280
     0
  1
96
  0
DICTIONARY
  5
260
102
{ACAD_REACTORS
330
43
102
}
330
43
100
AcDbDictionary
  0
DICTIONARY
  5
2C
102
{ACAD_REACTORS
330
2B
102
}
330
2B
100
AcDbDictionary
  3
DWGSETTINGS
350
2D
  0
XRECORD
  5
151C
102
{ACAD_REACTORS
330
151A
102
}
330
151A
100
AcDbXrecord
330
0
330
0
330
0
330
0
330
0
330
0
330
0
330
0
  0
XRECORD
  5
4597
102
{ACAD_REACTORS
330
4596
102
}
330
4596
100
AcDbXrecord
 90
        1
  0
XRECORD
  5
4598
102
{ACAD_REACTORS
330
4596
102
}
330
4596
100
AcDbXrecord
 90
       70
  0
XRECORD
  5
4599
102
{ACAD_REACTORS
330
4596
102
}
330
4596
100
AcDbXrecord
  1

  0
XRECORD
  5
459A
102
{ACAD_REACTORS
330
4596
102
}
330
4596
100
AcDbXrecord
  1
ASAMI.ctb
  0
XRECORD
  5
459B
102
{ACAD_REACTORS
330
4596
102
}
330
4596
100
AcDbXrecord
340
1A
  0
XRECORD
  5
459C
102
{ACAD_REACTORS
330
4596
102
}
330
4596
100
AcDbXrecord
340
19
  0
XRECORD
  5
459D
102
{ACAD_REACTORS
330
4596
102
}
330
4596
100
AcDbXrecord
340
E
  0
XRECORD
  5
459E
102
{ACAD_REACTORS
330
4596
102
}
330
4596
100
AcDbXrecord
 90
    10781
  0
XRECORD
  5
459F
102
{ACAD_REACTORS
330
4596
102
}
330
4596
100
AcDbXrecord
 90
        4
  0
XRECORD
  5
45A0
102
{ACAD_REACTORS
330
4596
102
}
330
4596
100
AcDbXrecord
 90
        0
  0
XRECORD
  5
45A1
102
{ACAD_REACTORS
330
4596
102
}
330
4596
100
AcDbXrecord
  1
{AFB28963-8C59-40AE-9337-C84526B81ACE}
  0
XRECORD
  5
45A2
102
{ACAD_REACTORS
330
4596
102
}
330
4596
100
AcDbXrecord
  1
{9FF26EBD-0E6F-45B9-B140-D32DB950A1D4}
  0
XRECORD
  5
45A3
102
{ACAD_REACTORS
330
4596
102
}
330
4596
100
AcDbXrecord
 40
0.0
  0
XRECORD
  5
45A4
102
{ACAD_REACTORS
330
4596
102
}
330
4596
100
AcDbXrecord
1000
DSTYLE
1002
{
1070
    79
 70
     2
1070
   341
340
59
1070
   342
340
59
1070
   371
 70
    -1
1070
   372
 70
    -1
1002
}
  0
XRECORD
  5
45A5
102
{ACAD_REACTORS
330
4596
102
}
330
4596
100
AcDbXrecord
340
0
  0
XRECORD
  5
45A6
102
{ACAD_REACTORS
330
4596
102
}
330
4596
100
AcDbXrecord
 70
     0
  0
XRECORD
  5
45A7
102
{ACAD_REACTORS
330
4596
102
}
330
4596
100
AcDbXrecord
340
0
  0
XRECORD
  5
45A8
102
{ACAD_REACTORS
330
4596
102
}
330
4596
100
AcDbXrecord
 10
0.0
 20
0.0
 30
0.0
  0
XRECORD
  5
45A9
102
{ACAD_REACTORS
330
4596
102
}
330
4596
100
AcDbXrecord
 10
0.0
 20
0.0
 30
0.0
  0
XRECORD
  5
45AA
102
{ACAD_REACTORS
330
4596
102
}
330
4596
100
AcDbXrecord
 10
0.0
 20
0.0
 30
0.0
  0
XRECORD
  5
45AB
102
{ACAD_REACTORS
330
4596
102
}
330
4596
100
AcDbXrecord
 10
0.0
 20
0.0
 30
0.0
  0
XRECORD
  5
45AC
102
{ACAD_REACTORS
330
4596
102
}
330
4596
100
AcDbXrecord
 10
0.0
 20
0.0
 30
0.0
  0
XRECORD
  5
45AD
102
{ACAD_REACTORS
330
4596
102
}
330
4596
100
AcDbXrecord
 10
0.0
 20
0.0
 30
0.0
  0
XRECORD
  5
45AE
102
{ACAD_REACTORS
330
4596
102
}
330
4596
100
AcDbXrecord
340
0
  0
XRECORD
  5
45AF
102
{ACAD_REACTORS
330
4596
102
}
330
4596
100
AcDbXrecord
 70
     0
  0
XRECORD
  5
45B0
102
{ACAD_REACTORS
330
4596
102
}
330
4596
100
AcDbXrecord
340
0
  0
XRECORD
  5
45B1
102
{ACAD_REACTORS
330
4596
102
}
330
4596
100
AcDbXrecord
 10
0.0
 20
0.0
 30
0.0
  0
XRECORD
  5
45B2
102
{ACAD_REACTORS
330
4596
102
}
330
4596
100
AcDbXrecord
 10
0.0
 20
0.0
 30
0.0
  0
XRECORD
  5
45B3
102
{ACAD_REACTORS
330
4596
102
}
330
4596
100
AcDbXrecord
 10
0.0
 20
0.0
 30
0.0
  0
XRECORD
  5
45B4
102
{ACAD_REACTORS
330
4596
102
}
330
4596
100
AcDbXrecord
 10
0.0
 20
0.0
 30
0.0
  0
XRECORD
  5
45B5
102
{ACAD_REACTORS
330
4596
102
}
330
4596
100
AcDbXrecord
 10
0.0
 20
0.0
 30
0.0
  0
XRECORD
  5
45B6
102
{ACAD_REACTORS
330
4596
102
}
330
4596
100
AcDbXrecord
 10
0.0
 20
0.0
 30
0.0
  0
LAYER_INDEX
  5
458D
102
{ACAD_REACTORS
330
458C
102
}
330
458C
100
AcDbIndex
 40
2453151.882536643
100
AcDbLayerIndex
  8
0
360
458E
 90
        0
  8
AM_0
360
458F
 90
      161
  8
AM_11
360
4590
 90
        4
  8
AM_7
360
4591
 90
        1
  8
AM_5
360
4592
 90
        4
  8
Defpoints
360
4593
 90
        0
  8
AM_6
360
4594
 90
        1
  0
XRECORD
  5
2D
102
{ACAD_REACTORS
330
2C
102
}
330
2C
100
AcDbXrecord
  1
VERSION
140
15.0
  1
PRODUCT
  2
AutoCAD Mechanical 2000
  0
IDBUFFER
  5
458E
330
0
100
AcDbIdBuffer
  0
IDBUFFER
  5
458F
330
0
100
AcDbIdBuffer
330
3FE4
330
3FE5
330
3FE6
330
3FE7
330
3FE9
330
3FEB
330
3FEC
330
3FED
330
3FEE
330
3FEF
330
3FF0
330
3FF1
330
3FF2
330
3FF3
330
3FF4
330
3FF5
330
3FF6
330
3FF7
330
3FF8
330
3FF9
330
3FFA
330
3FFB
330
3FFC
330
3FFD
330
3FFE
330
3FFF
330
4000
330
401D
330
401F
330
4020
330
4021
330
4022
330
4347
330
4349
330
434B
330
4359
330
4369
330
436C
330
44FE
330
450C
330
450D
330
450E
330
4510
330
4511
330
4515
330
4516
330
4517
330
4568
330
4569
330
3F6E
330
3F6F
330
3F70
330
3F71
330
3F72
330
3F73
330
3F74
330
3F75
330
3F76
330
3F77
330
3F78
330
3F79
330
3F7A
330
3F7B
330
3F7C
330
3F7D
330
3F7E
330
3F7F
330
3F80
330
3F81
330
3F82
330
3F83
330
3F84
330
3F85
330
3F86
330
3F87
330
3F88
330
3F89
330
3F8A
330
3F8B
330
3F8C
330
3F8D
330
3F8E
330
3F8F
330
3F90
330
3F91
330
3F92
330
3F93
330
3F94
330
3F95
330
3F96
330
3F97
330
3F98
330
3F99
330
3F9A
330
3F9B
330
3F9C
330
3F9D
330
3F9E
330
3F9F
330
3FA2
330
3FA3
330
3FA4
330
3FA5
330
3FA6
330
3FA7
330
3FA8
330
3FA9
330
3FAA
330
3FAB
330
3FAC
330
3FAD
330
3FAE
330
3FAF
330
3FB0
330
3FB1
330
3FB2
330
3FB3
330
3FB4
330
3FB5
330
3FB6
330
3FB7
330
3FB8
330
3FB9
330
3FBA
330
3FBB
330
3FBC
330
3FBD
330
3FBE
330
3FBF
330
3FC0
330
3FC1
330
3FC2
330
3FC3
330
3FC4
330
3FC5
330
3FC6
330
3FC7
330
3FC8
330
3FC9
330
3FCA
330
3FCE
330
3FCF
330
3FD0
330
3FD1
330
3FD3
330
3FD4
330
3FD5
330
3FD6
330
3FD7
330
3FD8
330
3FD9
330
3FDA
330
3FDB
330
3FDC
330
3FDD
330
3FDE
330
3FDF
330
3FE0
330
3FE1
330
3FE2
330
3FE3
  0
IDBUFFER
  5
4590
330
0
100
AcDbIdBuffer
330
3FCC
330
3FCD
330
3FD2
330
43F3
  0
IDBUFFER
  5
4591
330
0
100
AcDbIdBuffer
330
3CF2
  0
IDBUFFER
  5
4592
330
0
100
AcDbIdBuffer
330
40B9
330
4145
330
423E
330
434C
  0
IDBUFFER
  5
4593
330
0
100
AcDbIdBuffer
  0
IDBUFFER
  5
4594
330
0
100
AcDbIdBuffer
330
1500
  0
ENDSEC
  0
EOF
