  0
SECTION
  2
HEADER
  9
$ACADVER
  1
AC1014
  9
$ACADMAINTVER
 70
     9
  9
$DWGCODEPAGE
  3
ANSI_932
  9
$INSBASE
 10
0.0
 20
0.0
 30
0.0
  9
$EXTMIN
 10
-136.4536996173885
 20
-58.50000100001323
 30
-0.00000001
  9
$EXTMAX
 10
19.55776903085654
 20
9.999999999986977
 30
0.00000001
  9
$LIMMIN
 10
-166.2358075741386
 20
-71.69540034099935
  9
$LIMMAX
 10
26.5102931735048
 20
36.83398345335138
  9
$ORTHOMODE
 70
     0
  9
$REGENMODE
 70
     1
  9
$FILLMODE
 70
     1
  9
$QTEXTMODE
 70
     0
  9
$MIRRTEXT
 70
     0
  9
$DRAGMODE
 70
     2
  9
$LTSCALE
 40
1.0
  9
$OSMODE
 70
    55
  9
$ATTMODE
 70
     1
  9
$TEXTSIZE
 40
2.5
  9
$TRACEWID
 40
1.0
  9
$TEXTSTYLE
  7
STANDARD
  9
$CLAYER
  8
AM_0
  9
$CELTYPE
  6
BYLAYER
  9
$CECOLOR
 62
   256
  9
$CELTSCALE
 40
1.0
  9
$DELOBJ
 70
     1
  9
$DISPSILH
 70
     0
  9
$DIMSCALE
 40
1.0
  9
$DIMASZ
 40
2.5
  9
$DIMEXO
 40
1.0
  9
$DIMDLI
 40
12.0
  9
$DIMRND
 40
0.0
  9
$DIMDLE
 40
0.0
  9
$DIMEXE
 40
1.0
  9
$DIMTP
 40
0.1
  9
$DIMTM
 40
0.1
  9
$DIMTXT
 40
3.2
  9
$DIMCEN
 40
0.0
  9
$DIMTSZ
 40
0.0
  9
$DIMTOL
 70
     0
  9
$DIMLIM
 70
     0
  9
$DIMTIH
 70
     0
  9
$DIMTOH
 70
     0
  9
$DIMSE1
 70
     0
  9
$DIMSE2
 70
     0
  9
$DIMTAD
 70
     3
  9
$DIMZIN
 70
     8
  9
$DIMBLK
  1
OPEN30
  9
$DIMASO
 70
     1
  9
$DIMSHO
 70
     1
  9
$DIMPOST
  1

  9
$DIMAPOST
  1
"
  9
$DIMALT
 70
     0
  9
$DIMALTD
 70
     2
  9
$DIMALTF
 40
0.0393701
  9
$DIMLFAC
 40
1.0
  9
$DIMTOFL
 70
     1
  9
$DIMTVP
 40
0.0
  9
$DIMTIX
 70
     0
  9
$DIMSOXD
 70
     0
  9
$DIMSAH
 70
     0
  9
$DIMBLK1
  1

  9
$DIMBLK2
  1

  9
$DIMSTYLE
  2
AM_JIS
  9
$DIMCLRD
 70
   256
  9
$DIMCLRE
 70
   256
  9
$DIMCLRT
 70
     2
  9
$DIMTFAC
 40
0.71
  9
$DIMGAP
 40
1.5
  9
$DIMJUST
 70
     0
  9
$DIMSD1
 70
     0
  9
$DIMSD2
 70
     0
  9
$DIMTOLJ
 70
     0
  9
$DIMTZIN
 70
     0
  9
$DIMALTZ
 70
     0
  9
$DIMALTTZ
 70
     0
  9
$DIMFIT
 70
     3
  9
$DIMUPT
 70
     0
  9
$DIMUNIT
 70
     2
  9
$DIMDEC
 70
     3
  9
$DIMTDEC
 70
     3
  9
$DIMALTU
 70
     2
  9
$DIMALTTD
 70
     2
  9
$DIMTXSTY
  7
ASAMI
  9
$DIMAUNIT
 70
     0
  9
$LUNITS
 70
     2
  9
$LUPREC
 70
     2
  9
$SKETCHINC
 40
1.0
  9
$FILLETRAD
 40
2.5
  9
$AUNITS
 70
     0
  9
$AUPREC
 70
     0
  9
$MENU
  1
.
  9
$ELEVATION
 40
0.0
  9
$PELEVATION
 40
0.0
  9
$THICKNESS
 40
0.0
  9
$LIMCHECK
 70
     0
  9
$BLIPMODE
 70
     0
  9
$CHAMFERA
 40
1.25
  9
$CHAMFERB
 40
1.25
  9
$CHAMFERC
 40
20.0
  9
$CHAMFERD
 40
0.0
  9
$SKPOLY
 70
     0
  9
$TDCREATE
 40
2452838.430434386
  9
$TDUPDATE
 40
2453151.882816782
  9
$TDINDWG
 40
0.1581829977
  9
$TDUSRTIMER
 40
0.1581829977
  9
$USRTIMER
 70
     1
  9
$ANGBASE
 50
0.0
  9
$ANGDIR
 70
     0
  9
$PDMODE
 70
     0
  9
$PDSIZE
 40
0.0
  9
$PLINEWID
 40
0.0
  9
$COORDS
 70
     1
  9
$SPLFRAME
 70
     0
  9
$SPLINETYPE
 70
     6
  9
$SPLINESEGS
 70
     8
  9
$ATTDIA
 70
     1
  9
$ATTREQ
 70
     1
  9
$HANDLING
 70
 12289
  9
$HANDSEED
  5
4683
  9
$SURFTAB1
 70
     6
  9
$SURFTAB2
 70
     6
  9
$SURFTYPE
 70
     6
  9
$SURFU
 70
     6
  9
$SURFV
 70
     6
  9
$UCSNAME
  2

  9
$UCSORG
 10
0.0
 20
0.0
 30
0.0
  9
$UCSXDIR
 10
1.0
 20
0.0
 30
0.0
  9
$UCSYDIR
 10
0.0
 20
1.0
 30
0.0
  9
$PUCSNAME
  2

  9
$PUCSORG
 10
0.0
 20
0.0
 30
0.0
  9
$PUCSXDIR
 10
1.0
 20
0.0
 30
0.0
  9
$PUCSYDIR
 10
0.0
 20
1.0
 30
0.0
  9
$USERI1
 70
     0
  9
$USERI2
 70
     0
  9
$USERI3
 70
     0
  9
$USERI4
 70
     0
  9
$USERI5
 70
     0
  9
$USERR1
 40
0.0
  9
$USERR2
 40
0.0
  9
$USERR3
 40
0.0
  9
$USERR4
 40
0.0
  9
$USERR5
 40
0.0
  9
$WORLDVIEW
 70
     1
  9
$SHADEDGE
 70
     3
  9
$SHADEDIF
 70
    70
  9
$TILEMODE
 70
     1
  9
$MAXACTVP
 70
    64
  9
$PINSBASE
 10
0.0
 20
0.0
 30
0.0
  9
$PLIMCHECK
 70
     0
  9
$PEXTMIN
 10
1.000000000000000E+20
 20
1.000000000000000E+20
 30
1.000000000000000E+20
  9
$PEXTMAX
 10
-1.000000000000000E+20
 20
-1.000000000000000E+20
 30
-1.000000000000000E+20
  9
$PLIMMIN
 10
0.0
 20
0.0
  9
$PLIMMAX
 10
841.0
 20
594.0
  9
$UNITMODE
 70
     0
  9
$VISRETAIN
 70
     1
  9
$PLINEGEN
 70
     0
  9
$PSLTSCALE
 70
     0
  9
$TREEDEPTH
 70
  3020
  9
$PICKSTYLE
 70
     0
  9
$CMLSTYLE
  2
STANDARD
  9
$CMLJUST
 70
     0
  9
$CMLSCALE
 40
20.0
  9
$PROXYGRAPHICS
 70
     1
  9
$MEASUREMENT
 70
     1
  0
ENDSEC
  0
SECTION
  2
CLASSES
  0
CLASS
  1
ACDBDICTIONARYWDFLT
  2
AcDbDictionaryWithDefault
  3
AutoCAD 2000
 90
        0
280
     0
281
     0
  0
CLASS
  1
ACDBPLACEHOLDER
  2
AcDbPlaceHolder
  3
AutoCAD 2000
 90
        0
280
     0
281
     0
  0
CLASS
  1
LAYOUT
  2
AcDbLayout
  3
AutoCAD 2000
 90
        0
280
     0
281
     0
  0
CLASS
  1
AMGSETTINGSOBJ
  2
AmgSettingsObj
  3
"AcadM|Product Description: AutoCAD Mechanical 2000|Company: Autodesk"
 90
        0
280
     0
281
     0
  0
CLASS
  1
ACME_DOCUMENT
  2
AcMeDbDoc
  3
AcMeServices
 90
        0
280
     0
281
     0
  0
CLASS
  1
ACMESCOPE
  2
AcMeScope
  3
AcMeServices
 90
        0
280
     0
281
     0
  0
CLASS
  1
ACMECOMMANDHISTORY
  2
AcMeCommandHistory
  3
AcMeServices
 90
        0
280
     0
281
     0
  0
CLASS
  1
DICTIONARYVAR
  2
AcDbDictionaryVar
  3
AutoCAD 2000
 90
        0
280
     0
281
     0
  0
CLASS
  1
ACIMSYSVARMAN
  2
AcImSysVarManager
  3
AcMeServices
 90
        0
280
     0
281
     0
  0
CLASS
  1
ACIMREALSYSVAR
  2
AcImRealSysVar
  3
AcMeServices
 90
        0
280
     0
281
     0
  0
CLASS
  1
ACIMINTSYSVAR
  2
AcImIntSysVar
  3
AcMeServices
 90
        0
280
     0
281
     0
  0
CLASS
  1
ACMEDRAWINGMAN
  2
AcMeDrawingMan
  3
AcMeServices
 90
        0
280
     0
281
     0
  0
CLASS
  1
ACMEVIEW
  2
AcMeView
  3
AcMeServices
 90
        0
280
     0
281
     0
  0
CLASS
  1
ACDBENTITYCACHE
  2
AcMeEntityCache
  3
AcMeServices
 90
        0
280
     0
281
     0
  0
CLASS
  1
GSMANAGER
  2
AcMeGSManager
  3
AcMeServices
 90
        0
280
     0
281
     0
  0
CLASS
  1
AmdtInternalReactor
  2
AmdtInternalReactor
  3
AcMeServices
 90
        0
280
     0
281
     0
  0
CLASS
  1
ACMESTATEMGR
  2
AcMeStateMgr
  3
AcMeServices
 90
        0
280
     0
281
     0
  0
CLASS
  1
ACME_DATABASE
  2
AcMeDbDatabase
  3
AcMeServices
 90
        0
280
     0
281
     0
  0
CLASS
  1
ACRFINSADJUSTERMGR
  2
AcRfInsAdjusterMgr
  3
AcMeServices
 90
        0
280
     0
281
     0
  0
CLASS
  1
ACMDATADICTIONARY
  2
AcmDataDictionary
  3
"AcmSymBB|Product Description: AutoCAD Mechanical 2000|Company: Autodesk"
 90
        0
280
     0
281
     0
  0
CLASS
  1
ACMDATAENTRYBLOCK
  2
AcmDataEntryBlock
  3
"AcmSymBB|Product Description: AutoCAD Mechanical 2000|Company: Autodesk"
 90
        0
280
     0
281
     0
  0
CLASS
  1
AMGOBJPROPCFG
  2
AmgObjPropCfg
  3
"AmgLay|Product Description: AutoCAD Mechanical 2000|Company: Autodesk"
 90
        1
280
     0
281
     0
  0
CLASS
  1
ACAMGFILTERDAT
  2
AcAmgFilterDat
  3
"AcadM|Product Description: AutoCAD Mechanical 2000|Company: Autodesk"
 90
        0
280
     0
281
     0
  0
CLASS
  1
LAYER_INDEX
  2
AcDbLayerIndex
  3
AutoCAD 2000
 90
        0
280
     0
281
     0
  0
CLASS
  1
IDBUFFER
  2
AcDbIdBuffer
  3
AutoCAD 2000
 90
        0
280
     0
281
     0
  0
CLASS
  1
ACIMSTRSYSVAR
  2
AcImStrSysVar
  3
AcMeServices
 90
        0
280
     0
281
     0
  0
CLASS
  1
ACMSTANDARDJIS
  2
AcmStandardJIS
  3
"AcmSymBB|Product Description: AutoCAD Mechanical 2000|Company: Autodesk"
 90
        0
280
     0
281
     0
  0
CLASS
  1
ACMSURFSTANDARDJIS
  2
AcmSurfTextStdJIS
  3
"AcmSymBB|Product Description: AutoCAD Mechanical 2000|Company: Autodesk"
 90
        0
280
     0
281
     0
  0
CLASS
  1
ACMFCFSTANDARDJIS
  2
AcmFCFStdJIS
  3
"AcmSymBB|Product Description: AutoCAD Mechanical 2000|Company: Autodesk"
 90
        0
280
     0
281
     0
  0
CLASS
  1
ACMWELDSTANDARDJIS
  2
AcmWeldingStdJIS
  3
"AcmSymBB|Product Description: AutoCAD Mechanical 2000|Company: Autodesk"
 90
        0
280
     0
281
     0
  0
CLASS
  1
ACMIDSTANDARDJIS
  2
AcmIdStdJIS
  3
"AcmSymBB|Product Description: AutoCAD Mechanical 2000|Company: Autodesk"
 90
        0
280
     0
281
     0
  0
CLASS
  1
ACMDATUMSTANDARDJIS
  2
AcmDatumStdJIS
  3
"AcmSymBB|Product Description: AutoCAD Mechanical 2000|Company: Autodesk"
 90
        0
280
     0
281
     0
  0
CLASS
  1
ACMBOMSTANDARDJIS
  2
AcmBOMStdJIS
  3
"AcmSymBB|Product Description: AutoCAD Mechanical 2000|Company: Autodesk"
 90
        0
280
     0
281
     0
  0
CLASS
  1
ACMSTANDARDANSI
  2
AcmStandardANSI
  3
"AcmSymBB|Product Description: AutoCAD Mechanical 2000|Company: Autodesk"
 90
        0
280
     0
281
     0
  0
CLASS
  1
ACMSURFSTANDARDANSI
  2
AcmSurfTextStdANSI
  3
"AcmSymBB|Product Description: AutoCAD Mechanical 2000|Company: Autodesk"
 90
        0
280
     0
281
     0
  0
CLASS
  1
ACMFCFSTANDARDANSI
  2
AcmFCFStdANSI
  3
"AcmSymBB|Product Description: AutoCAD Mechanical 2000|Company: Autodesk"
 90
        0
280
     0
281
     0
  0
CLASS
  1
ACMWELDSTANDARDANSI
  2
AcmWeldingStdANSI
  3
"AcmSymBB|Product Description: AutoCAD Mechanical 2000|Company: Autodesk"
 90
        0
280
     0
281
     0
  0
CLASS
  1
ACMIDSTANDARDANSI
  2
AcmIdStdANSI
  3
"AcmSymBB|Product Description: AutoCAD Mechanical 2000|Company: Autodesk"
 90
        0
280
     0
281
     0
  0
CLASS
  1
ACMDATUMSTANDARDANSI
  2
AcmDatumStdANSI
  3
"AcmSymBB|Product Description: AutoCAD Mechanical 2000|Company: Autodesk"
 90
        0
280
     0
281
     0
  0
CLASS
  1
ACMBOMSTANDARDANSI
  2
AcmBOMStdANSI
  3
"AcmSymBB|Product Description: AutoCAD Mechanical 2000|Company: Autodesk"
 90
        0
280
     0
281
     0
  0
CLASS
  1
ACMSTANDARDBSI
  2
AcmStandardBSI
  3
"AcmSymBB|Product Description: AutoCAD Mechanical 2000|Company: Autodesk"
 90
        0
280
     0
281
     0
  0
CLASS
  1
ACMSURFSTANDARDBSI
  2
AcmSurfTextStdBSI
  3
"AcmSymBB|Product Description: AutoCAD Mechanical 2000|Company: Autodesk"
 90
        0
280
     0
281
     0
  0
CLASS
  1
ACMFCFSTANDARDBSI
  2
AcmFCFStdBSI
  3
"AcmSymBB|Product Description: AutoCAD Mechanical 2000|Company: Autodesk"
 90
        0
280
     0
281
     0
  0
CLASS
  1
ACMWELDSTANDARDBSI
  2
AcmWeldingStdBSI
  3
"AcmSymBB|Product Description: AutoCAD Mechanical 2000|Company: Autodesk"
 90
        0
280
     0
281
     0
  0
CLASS
  1
ACMIDSTANDARDBSI
  2
AcmIdStdBSI
  3
"AcmSymBB|Product Description: AutoCAD Mechanical 2000|Company: Autodesk"
 90
        0
280
     0
281
     0
  0
CLASS
  1
ACMDATUMSTANDARDBSI
  2
AcmDatumStdBSI
  3
"AcmSymBB|Product Description: AutoCAD Mechanical 2000|Company: Autodesk"
 90
        0
280
     0
281
     0
  0
CLASS
  1
ACMBOMSTANDARDBSI
  2
AcmBOMStdBSI
  3
"AcmSymBB|Product Description: AutoCAD Mechanical 2000|Company: Autodesk"
 90
        0
280
     0
281
     0
  0
CLASS
  1
LONG_TRANSACTION
  2
AcDbLongTransaction
  3
AutoCAD 2000
 90
        0
280
     0
281
     0
  0
CLASS
  1
LWPOLYLINE
  2
AcDbPolyline
  3
AutoCAD 2000
 90
        0
280
     0
281
     1
  0
CLASS
  1
HATCH
  2
AcDbHatch
  3
AutoCAD 2000
 90
        0
280
     0
281
     1
  0
CLASS
  1
XRECORD
  2
AcDbXrecord
  3
AutoCAD 2000
 90
        0
280
     0
281
     0
  0
ENDSEC
  0
SECTION
  2
TABLES
  0
TABLE
  2
VPORT
  5
8
330
0
100
AcDbSymbolTable
 70
     3
  0
VPORT
  5
4658
330
8
100
AcDbSymbolTableRecord
100
AcDbViewportTableRecord
  2
*ACTIVE
 70
     0
 10
0.0
 20
0.0
 11
1.0
 21
1.0
 12
-53.8306807118706
 22
-16.03272808540941
 13
0.0
 23
0.0
 14
2.5
 24
2.5
 15
10.0
 25
10.0
 16
0.0
 26
0.0
 36
1.0
 17
0.0
 27
0.0
 37
0.0
 40
123.6214946682673
 41
1.56570841889117
 42
50.0
 43
0.0
 44
0.0
 50
0.0
 51
0.0
 71
     0
 72
   100
 73
     1
 74
     3
 75
     0
 76
     0
 77
     0
 78
     0
  0
ENDTAB
  0
TABLE
  2
LTYPE
  5
5
330
0
100
AcDbSymbolTable
 70
    10
  0
LTYPE
  5
14
330
5
100
AcDbSymbolTableRecord
100
AcDbLinetypeTableRecord
  2
BYBLOCK
 70
     0
  3

 72
    65
 73
     0
 40
0.0
  0
LTYPE
  5
15
330
5
100
AcDbSymbolTableRecord
100
AcDbLinetypeTableRecord
  2
BYLAYER
 70
     0
  3

 72
    65
 73
     0
 40
0.0
  0
LTYPE
  5
16
330
5
100
AcDbSymbolTableRecord
100
AcDbLinetypeTableRecord
  2
CONTINUOUS
 70
     0
  3
Solid line
 72
    65
 73
     0
 40
0.0
  0
LTYPE
  5
4B
330
5
100
AcDbSymbolTableRecord
100
AcDbLinetypeTableRecord
  2
AM_ISO02W050
 70
     0
  3
__ __ __ __ __ __ __ __ __ __ __ __ __ __ __
 72
    65
 73
     2
 40
7.5
 49
6.0
 74
     0
 49
-1.5
 74
     0
  0
LTYPE
  5
4C
330
5
100
AcDbSymbolTableRecord
100
AcDbLinetypeTableRecord
  2
AM_ISO08W050
 70
     0
  3
____ . ____ . ____ . ____ . ____ . ____ . ____
 72
    65
 73
     4
 40
18.0
 49
12.0
 74
     0
 49
-1.5
 74
     0
 49
3.0
 74
     0
 49
-1.5
 74
     0
  0
LTYPE
  5
4D
330
5
100
AcDbSymbolTableRecord
100
AcDbLinetypeTableRecord
  2
AM_ISO09W050
 70
     0
  3
_____ . . _____ . . _____ . . ____ .. ____
 72
    65
 73
     6
 40
22.5
 49
12.0
 74
     0
 49
-1.5
 74
     0
 49
3.0
 74
     0
 49
-1.5
 74
     0
 49
3.0
 74
     0
 49
-1.5
 74
     0
  0
LTYPE
  5
4E
330
5
100
AcDbSymbolTableRecord
100
AcDbLinetypeTableRecord
  2
AMCONSTR
 70
     0
  3
_______________________
 72
    65
 73
     2
 40
9999.0
 49
9999.0
 74
     0
 49
0.0
 74
     0
  0
LTYPE
  5
4F
330
5
100
AcDbSymbolTableRecord
100
AcDbLinetypeTableRecord
  2
AM_ISO02W050X2
 70
     0
  3
 _ _ _ _ _ _ _ _ _ _ _ _
 72
    65
 73
     2
 40
3.75
 49
3.0
 74
     0
 49
-0.75
 74
     0
  0
LTYPE
  5
50
330
5
100
AcDbSymbolTableRecord
100
AcDbLinetypeTableRecord
  2
AM_ISO08W050X2
 70
     0
  3
__ . __ . __ . __ . __ . __
 72
    65
 73
     4
 40
9.0
 49
6.0
 74
     0
 49
-0.75
 74
     0
 49
1.5
 74
     0
 49
-0.75
 74
     0
  0
LTYPE
  5
53
330
5
100
AcDbSymbolTableRecord
100
AcDbLinetypeTableRecord
  2
AMZIGZAG
 70
     0
  3
/\/-/\/-/\/-/\/-/\/-/\/
 72
    65
 73
     2
 40
11.00009999999999
 49
0.0001
 74
     4
 75
   135
340
52
 46
0.04
 50
0.0
 44
0.0
 45
0.0
 49
-11.0
 74
     0
  0
LTYPE
  5
166
330
5
100
AcDbSymbolTableRecord
100
AcDbLinetypeTableRecord
  2
ACJISTGL
 70
     0
  3
_ _ _ _ _
 72
    65
 73
     2
 40
3.0
 49
2.0
 74
     0
 49
-1.0
 74
     0
  0
LTYPE
  5
26A
330
5
100
AcDbSymbolTableRecord
100
AcDbLinetypeTableRecord
  2
ACJISTGB
 70
     0
  3
__ . . __ . .
 72
    65
 73
     6
 40
9.0
 49
4.0
 74
     0
 49
-1.0
 74
     0
 49
1.0
 74
     0
 49
-1.0
 74
     0
 49
1.0
 74
     0
 49
-1.0
 74
     0
  0
ENDTAB
  0
TABLE
  2
LAYER
  5
2
330
0
100
AcDbSymbolTable
 70
     7
  0
LAYER
  5
10
330
2
100
AcDbSymbolTableRecord
100
AcDbLayerTableRecord
  2
0
 70
     0
 62
     7
  6
CONTINUOUS
  0
LAYER
  5
3F9
330
2
100
AcDbSymbolTableRecord
100
AcDbLayerTableRecord
  2
AM_0
 70
     0
 62
     7
  6
CONTINUOUS
  0
LAYER
  5
BDD
330
2
100
AcDbSymbolTableRecord
100
AcDbLayerTableRecord
  2
AM_11
 70
     0
 62
     3
  6
AM_ISO09W050
  0
LAYER
  5
BDE
330
2
100
AcDbSymbolTableRecord
100
AcDbLayerTableRecord
  2
AM_7
 70
     0
 62
     4
  6
AM_ISO08W050
  0
LAYER
  5
BDF
330
2
100
AcDbSymbolTableRecord
100
AcDbLayerTableRecord
  2
AM_5
 70
     0
 62
     3
  6
CONTINUOUS
  0
LAYER
  5
BE0
330
2
100
AcDbSymbolTableRecord
100
AcDbLayerTableRecord
  2
DEFPOINTS
 70
     0
 62
     7
  6
CONTINUOUS
  0
LAYER
  5
14FF
330
2
100
AcDbSymbolTableRecord
100
AcDbLayerTableRecord
  2
AM_6
 70
     0
 62
     2
  6
CONTINUOUS
  0
ENDTAB
  0
TABLE
  2
STYLE
  5
3
330
0
100
AcDbSymbolTable
 70
     5
  0
STYLE
  5
11
330
3
100
AcDbSymbolTableRecord
100
AcDbTextStyleTableRecord
  2
STANDARD
 70
     0
 40
0.0
 41
1.0
 50
0.0
 71
     0
 42
2.5
  3
simplex.shx
  4
EXTFONT.SHX
  0
STYLE
  5
52
330
3
100
AcDbSymbolTableRecord
100
AcDbTextStyleTableRecord
  2

 70
     1
 40
0.0
 41
1.0
 50
0.0
 71
     0
 42
2.5
  3
ltypeshp.shx
  4

  0
STYLE
  5
6B
330
3
100
AcDbSymbolTableRecord
100
AcDbTextStyleTableRecord
  2
ASAMI
 70
     0
 40
0.0
 41
1.0
 50
0.0
 71
     0
 42
2.5
  3
simplex.shx
  4
EXTFONT.SHX
  0
STYLE
  5
262
330
3
100
AcDbSymbolTableRecord
100
AcDbTextStyleTableRecord
  2
ACJISTS
 70
     0
 40
1.0
 41
1.0
 50
0.0
 71
     0
 42
2.5
  3
simplex.shx
  4
bigfont.shx
  0
STYLE
  5
269
330
3
100
AcDbSymbolTableRecord
100
AcDbTextStyleTableRecord
  2
ACJISGDT
 70
     0
 40
0.0
 41
1.0
 50
0.0
 71
     0
 42
2.5
  3
amgdtans.shx
  4

  0
ENDTAB
  0
TABLE
  2
VIEW
  5
6
330
0
100
AcDbSymbolTable
 70
     0
  0
ENDTAB
  0
TABLE
  2
UCS
  5
7
330
0
100
AcDbSymbolTable
 70
     0
  0
ENDTAB
  0
TABLE
  2
APPID
  5
9
330
0
100
AcDbSymbolTable
 70
    14
  0
APPID
  5
12
330
9
100
AcDbSymbolTableRecord
100
AcDbRegAppTableRecord
  2
ACAD
 70
     0
  0
APPID
  5
30
330
9
100
AcDbSymbolTableRecord
100
AcDbRegAppTableRecord
  2
MCAD_NO_VIS
 70
     0
  0
APPID
  5
31
330
9
100
AcDbSymbolTableRecord
100
AcDbRegAppTableRecord
  2
ACAD_TEMP_GRAPHIC
 70
     0
  0
APPID
  5
2C2
330
9
100
AcDbSymbolTableRecord
100
AcDbRegAppTableRecord
  2
GENIUS_GENDTOL_13
 70
     0
  0
APPID
  5
339
330
9
100
AcDbSymbolTableRecord
100
AcDbRegAppTableRecord
  2
GENIUS_GENODEF_13
 70
     0
  0
APPID
  5
33A
330
9
100
AcDbSymbolTableRecord
100
AcDbRegAppTableRecord
  2
GENIUS_GENOBJ-N-RSBK_13
 70
     0
  0
APPID
  5
33B
330
9
100
AcDbSymbolTableRecord
100
AcDbRegAppTableRecord
  2
GENIUS_GENOBJ-N-LIB_13
 70
     0
  0
APPID
  5
33C
330
9
100
AcDbSymbolTableRecord
100
AcDbRegAppTableRecord
  2
GENIUS_GENSCALE_13
 70
     0
  0
APPID
  5
378
330
9
100
AcDbSymbolTableRecord
100
AcDbRegAppTableRecord
  2
GENIUS_GENDIMSH_14
 70
     0
  0
APPID
  5
BE1
330
9
100
AcDbSymbolTableRecord
100
AcDbRegAppTableRecord
  2
GENIUS_GENFIL_13
 70
     0
  0
APPID
  5
BE2
330
9
100
AcDbSymbolTableRecord
100
AcDbRegAppTableRecord
  2
GENIUS_GENOBJ-N-CHA_13
 70
     0
  0
APPID
  5
151B
330
9
100
AcDbSymbolTableRecord
100
AcDbRegAppTableRecord
  2
DCO15
 70
     0
  0
APPID
  5
1860
330
9
100
AcDbSymbolTableRecord
100
AcDbRegAppTableRecord
  2
GENIUS_GENOBJ-N-CEN_13
 70
     0
  0
APPID
  5
359C
330
9
100
AcDbSymbolTableRecord
100
AcDbRegAppTableRecord
  2
GENIUS_GENOBJ-N-FIL_13
 70
     0
  0
ENDTAB
  0
TABLE
  2
DIMSTYLE
  5
A
330
0
100
AcDbSymbolTable
 70
     8
  0
DIMSTYLE
105
58
102
{ACAD_REACTORS
330
3EBC
330
3F4C
330
406D
330
43CF
102
}
330
A
100
AcDbSymbolTableRecord
100
AcDbDimStyleTableRecord
  2
AM_JIS
 70
     0
  3

  4
"
  5
OPEN30
  6

  7

 40
1.0
 41
2.5
 42
1.0
 43
12.0
 44
1.0
 45
0.0
 46
0.0
 47
0.1
 48
0.1
140
3.2
141
0.0
142
0.0
143
0.0393701
144
1.0
145
0.0
146
0.71
147
1.5
 71
     0
 72
     0
 73
     0
 74
     0
 75
     0
 76
     0
 77
     3
 78
     8
170
     0
171
     2
172
     1
173
     0
174
     0
175
     0
176
   256
177
   256
178
     2
270
     2
271
     3
272
     3
273
     2
274
     2
340
6B
275
     0
280
     0
281
     0
282
     0
283
     0
284
     0
285
     0
286
     0
287
     3
288
     0
  0
DIMSTYLE
105
5F
330
A
100
AcDbSymbolTableRecord
100
AcDbDimStyleTableRecord
  2
AM_JIS$3
 70
     0
  3

  4
"
  5
OPEN30
  6

  7

 40
1.0
 41
2.5
 42
1.0
 43
10.0
 44
1.0
 45
0.0
 46
0.0
 47
0.1
 48
0.1
140
3.2
141
0.0
142
0.0
143
0.0393701
144
1.0
145
0.0
146
0.71
147
1.5
 71
     0
 72
     0
 73
     0
 74
     1
 75
     0
 76
     0
 77
     3
 78
     8
170
     0
171
     2
172
     0
173
     0
174
     0
175
     0
176
   256
177
   256
178
     2
270
     2
271
     2
272
     3
273
     2
274
     2
340
6B
275
     0
280
     0
281
     0
282
     0
283
     0
284
     0
285
     0
286
     0
287
     0
288
     1
  0
DIMSTYLE
105
60
330
A
100
AcDbSymbolTableRecord
100
AcDbDimStyleTableRecord
  2
AM_JIS$4
 70
     0
  3

  4
"
  5
OPEN30
  6

  7

 40
1.0
 41
2.5
 42
1.0
 43
10.0
 44
1.0
 45
0.0
 46
0.0
 47
0.1
 48
0.1
140
3.2
141
0.0
142
0.0
143
0.0393701
144
1.0
145
0.0
146
0.71
147
1.5
 71
     0
 72
     0
 73
     0
 74
     1
 75
     0
 76
     0
 77
     3
 78
     8
170
     0
171
     2
172
     0
173
     0
174
     0
175
     0
176
   256
177
   256
178
     2
270
     2
271
     2
272
     3
273
     2
274
     2
340
6B
275
     0
280
     0
281
     0
282
     0
283
     0
284
     0
285
     0
286
     0
287
     0
288
     1
  0
DIMSTYLE
105
61
330
A
100
AcDbSymbolTableRecord
100
AcDbDimStyleTableRecord
  2
AM_JIS$6
 70
     0
  3

  4
"
  5
OPEN30
  6

  7

 40
1.0
 41
2.5
 42
1.0
 43
10.0
 44
1.0
 45
0.0
 46
0.0
 47
0.1
 48
0.1
140
3.2
141
0.0
142
0.0
143
0.0393701
144
1.0
145
0.0
146
0.71
147
1.5
 71
     0
 72
     0
 73
     0
 74
     0
 75
     0
 76
     0
 77
     0
 78
     8
170
     0
171
     2
172
     1
173
     0
174
     0
175
     0
176
   256
177
   256
178
     2
270
     2
271
     2
272
     2
273
     2
274
     2
340
6B
275
     0
280
     0
281
     0
282
     0
283
     0
284
     0
285
     0
286
     0
287
     3
288
     0
  0
DIMSTYLE
105
62
330
A
100
AcDbSymbolTableRecord
100
AcDbDimStyleTableRecord
  2
AM_JIS$7
 70
     0
  3

  4
"
  5
OPEN30
  6

  7

 40
1.0
 41
2.5
 42
1.0
 43
10.0
 44
1.0
 45
0.0
 46
0.0
 47
0.1
 48
0.1
140
3.2
141
0.0
142
0.0
143
0.0393701
144
1.0
145
0.0
146
0.71
147
1.5
 71
     0
 72
     0
 73
     0
 74
     0
 75
     0
 76
     0
 77
     3
 78
     8
170
     0
171
     2
172
     1
173
     0
174
     0
175
     0
176
   256
177
   256
178
     2
270
     2
271
     2
272
     3
273
     2
274
     2
340
6B
275
     0
280
     0
281
     0
282
     0
283
     0
284
     0
285
     0
286
     0
287
     3
288
     0
  0
DIMSTYLE
105
63
330
A
100
AcDbSymbolTableRecord
100
AcDbDimStyleTableRecord
  2
AM_JIS$SF
 70
     0
  3

  4
"
  5
OPEN30
  6

  7

 40
1.0
 41
2.5
 42
1.0
 43
10.0
 44
1.0
 45
0.0
 46
0.0
 47
0.1
 48
0.1
140
3.2
141
0.0
142
0.0
143
0.0393701
144
1.0
145
0.0
146
0.71
147
1.5
 71
     0
 72
     0
 73
     0
 74
     0
 75
     1
 76
     1
 77
     3
 78
     8
170
     0
171
     2
172
     1
173
     0
174
     0
175
     0
176
   256
177
   256
178
     2
270
     2
271
     2
272
     2
273
     2
274
     2
340
6B
275
     0
280
     0
281
     0
282
     0
283
     0
284
     0
285
     0
286
     0
287
     3
288
     0
  0
DIMSTYLE
105
68
330
A
100
AcDbSymbolTableRecord
100
AcDbDimStyleTableRecord
  2
AM_JIS$SH
 70
     0
  3

  4
"
  5

  6
GENAXEH
  7
OPEN30
 40
1.0
 41
2.5
 42
1.0
 43
10.0
 44
1.0
 45
0.0
 46
0.0
 47
0.1
 48
0.1
140
3.2
141
0.0
142
0.0
143
0.0393701
144
2.0
145
0.0
146
0.71
147
1.5
 71
     0
 72
     0
 73
     0
 74
     0
 75
     1
 76
     1
 77
     3
 78
     8
170
     0
171
     2
172
     1
173
     1
174
     0
175
     0
176
   256
177
   256
178
     2
270
     2
271
     2
272
     2
273
     2
274
     2
340
6B
275
     0
280
     0
281
     0
282
     0
283
     0
284
     0
285
     0
286
     0
287
     3
288
     0
  0
DIMSTYLE
105
B34
330
A
100
AcDbSymbolTableRecord
100
AcDbDimStyleTableRecord
  2
AM_JIS$2
 70
     0
  3

  4
"
  5
OPEN30
  6

  7

 40
1.0
 41
2.5
 42
1.0
 43
12.0
 44
1.0
 45
0.0
 46
0.0
 47
0.1
 48
0.1
140
3.2
141
0.0
142
0.0
143
0.0393701
144
1.0
145
0.0
146
0.71
147
1.5
 71
     0
 72
     0
 73
     0
 74
     0
 75
     0
 76
     0
 77
     3
 78
     8
170
     0
171
     2
172
     1
173
     0
174
     0
175
     0
176
   256
177
   256
178
     2
270
     2
271
     3
272
     3
273
     2
274
     2
340
6B
275
     0
280
     0
281
     0
282
     0
283
     0
284
     0
285
     0
286
     0
287
     3
288
     0
  0
ENDTAB
  0
TABLE
  2
BLOCK_RECORD
  5
1
330
0
100
AcDbSymbolTable
 70
     9
  0
BLOCK_RECORD
  5
1F
102
{ACAD_XDICTIONARY
360
74
102
}
330
1
100
AcDbSymbolTableRecord
100
AcDbBlockTableRecord
  2
*MODEL_SPACE
  0
BLOCK_RECORD
  5
101
102
{ACAD_XDICTIONARY
360
4681
102
}
330
1
100
AcDbSymbolTableRecord
100
AcDbBlockTableRecord
  2
*PAPER_SPACE
  0
BLOCK_RECORD
  5
59
330
1
100
AcDbSymbolTableRecord
100
AcDbBlockTableRecord
  2
_OPEN30
  0
BLOCK_RECORD
  5
64
330
1
100
AcDbSymbolTableRecord
100
AcDbBlockTableRecord
  2
GENAXEH
  0
BLOCK_RECORD
  5
3EBD
330
1
100
AcDbSymbolTableRecord
100
AcDbBlockTableRecord
  2
*D5
  0
BLOCK_RECORD
  5
3F4D
330
1
100
AcDbSymbolTableRecord
100
AcDbBlockTableRecord
  2
*D6
  0
BLOCK_RECORD
  5
406E
330
1
100
AcDbSymbolTableRecord
100
AcDbBlockTableRecord
  2
*D7
  0
BLOCK_RECORD
  5
43D0
330
1
100
AcDbSymbolTableRecord
100
AcDbBlockTableRecord
  2
*D8
  0
ENDTAB
  0
ENDSEC
  0
SECTION
  2
BLOCKS
  0
BLOCK
  5
20
330
1F
100
AcDbEntity
  8
0
100
AcDbBlockBegin
  2
*MODEL_SPACE
 70
     0
 10
0.0
 20
0.0
 30
0.0
  3
*MODEL_SPACE
  1

  0
ENDBLK
  5
21
330
1F
100
AcDbEntity
  8
0
100
AcDbBlockEnd
  0
BLOCK
  5
103
330
101
100
AcDbEntity
 67
     1
  8
0
100
AcDbBlockBegin
  2
*PAPER_SPACE
 70
     0
 10
0.0
 20
0.0
 30
0.0
  3
*PAPER_SPACE
  1

  0
ENDBLK
  5
104
330
101
100
AcDbEntity
 67
     1
  8
0
100
AcDbBlockEnd
  0
BLOCK
  5
5D
330
59
100
AcDbEntity
  8
0
100
AcDbBlockBegin
  2
_OPEN30
 70
     0
 10
0.0
 20
0.0
 30
0.0
  3
_OPEN30
  1

  0
LINE
  5
5A
330
59
100
AcDbEntity
  8
0
 62
     0
100
AcDbLine
 10
-1.0
 20
0.26794919
 30
0.0
 11
0.0
 21
0.0
 31
0.0
  0
LINE
  5
5B
330
59
100
AcDbEntity
  8
0
 62
     0
100
AcDbLine
 10
0.0
 20
0.0
 30
0.0
 11
-1.0
 21
-0.26794919
 31
0.0
  0
LINE
  5
5C
330
59
100
AcDbEntity
  8
0
 62
     0
100
AcDbLine
 10
0.0
 20
0.0
 30
0.0
 11
-1.0
 21
0.0
 31
0.0
  0
ENDBLK
  5
5E
330
59
100
AcDbEntity
  8
0
100
AcDbBlockEnd
  0
BLOCK
  5
66
330
64
100
AcDbEntity
  8
0
100
AcDbBlockBegin
  2
GENAXEH
 70
     0
 10
0.0
 20
0.0
 30
0.0
  3
GENAXEH
  1

  0
LINE
  5
65
330
64
100
AcDbEntity
  8
0
100
AcDbLine
 10
-1.0
 20
0.0
 30
0.0
 11
1.0
 21
0.0
 31
0.0
  0
ENDBLK
  5
67
330
64
100
AcDbEntity
  8
0
100
AcDbBlockEnd
  0
BLOCK
  5
3EC7
330
3EBD
100
AcDbEntity
  8
0
100
AcDbBlockBegin
  2
*D5
 70
     1
 10
0.0
 20
0.0
 30
0.0
  3
*D5
  1

  0
LINE
  5
44C8
330
3EBD
100
AcDbEntity
  8
AM_5
100
AcDbLine
 10
-49.99999999999752
 20
-10.00000000002351
 30
0.0
 11
-49.99999999999752
 21
-25.00000100001294
 31
0.0
  0
LINE
  5
44C9
330
3EBD
100
AcDbEntity
  8
AM_5
100
AcDbLine
 10
0.0000000000013784
 20
-6.000000000013084
 30
0.0
 11
0.0000000000013772
 21
-25.00000100001294
 31
0.0
  0
LINE
  5
44CA
330
3EBD
100
AcDbEntity
  8
AM_5
100
AcDbLine
 10
-47.49999999999752
 20
-24.00000100001294
 30
0.0
 11
-2.499999999998622
 21
-24.00000100001294
 31
0.0
  0
INSERT
  5
44CB
330
3EBD
100
AcDbEntity
  8
AM_5
100
AcDbBlockReference
  2
_OPEN30
 10
-49.99999999999752
 20
-24.00000100001294
 30
0.0
 41
2.5
 42
2.5
 43
2.5
 50
180.0
  0
INSERT
  5
44CC
330
3EBD
100
AcDbEntity
  8
AM_5
100
AcDbBlockReference
  2
_OPEN30
 10
0.0000000000013773
 20
-24.00000100001294
 30
0.0
 41
2.5
 42
2.5
 43
2.5
  0
MTEXT
  5
44CD
330
3EBD
100
AcDbEntity
  8
AM_5
 62
     2
100
AcDbMText
 10
-24.99999999999807
 20
-20.90000100001293
 30
0.0
 40
3.2
 41
0.0
 71
     5
 72
     1
  1
50
  7
ASAMI
1001
ACAD
1000
MTEXTBEGIN
1070
    73
1070
     1
1070
    44
1040
1.0
1070
    74
1070
     0
1000
MTEXTEND
  0
POINT
  5
44CE
330
3EBD
100
AcDbEntity
  8
DEFPOINTS
 62
     0
100
AcDbPoint
 10
-49.99999999999752
 20
-9.000000000023517
 30
0.0
  0
POINT
  5
44CF
330
3EBD
100
AcDbEntity
  8
DEFPOINTS
 62
     0
100
AcDbPoint
 10
0.0000000000013785
 20
-5.000000000013084
 30
0.0
  0
POINT
  5
44D0
330
3EBD
100
AcDbEntity
  8
DEFPOINTS
 62
     0
100
AcDbPoint
 10
0.0000000000013773
 20
-24.00000100001294
 30
0.0
  0
ENDBLK
  5
3EC8
330
3EBD
100
AcDbEntity
  8
0
100
AcDbBlockEnd
  0
BLOCK
  5
3F57
330
3F4D
100
AcDbEntity
  8
0
100
AcDbBlockBegin
  2
*D6
 70
     1
 10
0.0
 20
0.0
 30
0.0
  3
*D6
  1

  0
LINE
  5
44BF
330
3F4D
100
AcDbEntity
  8
AM_5
100
AcDbLine
 10
0.0000000000013784
 20
-6.000000000013084
 30
0.0
 11
0.0000000000013765
 21
-37.00000100001321
 31
0.0
  0
LINE
  5
44C0
330
3F4D
100
AcDbEntity
  8
AM_5
100
AcDbLine
 10
-114.9999999999999
 20
-9.750000000013187
 30
0.0
 11
-114.9999999999999
 21
-37.00000100001321
 31
0.0
  0
LINE
  5
44C1
330
3F4D
100
AcDbEntity
  8
AM_5
100
AcDbLine
 10
-2.499999999998623
 20
-36.00000100001321
 30
0.0
 11
-112.4999999999999
 21
-36.00000100001321
 31
0.0
  0
INSERT
  5
44C2
330
3F4D
100
AcDbEntity
  8
AM_5
100
AcDbBlockReference
  2
_OPEN30
 10
0.0000000000013766
 20
-36.00000100001321
 30
0.0
 41
2.5
 42
2.5
 43
2.5
  0
INSERT
  5
44C3
330
3F4D
100
AcDbEntity
  8
AM_5
100
AcDbBlockReference
  2
_OPEN30
 10
-114.9999999999999
 20
-36.00000100001321
 30
0.0
 41
2.5
 42
2.5
 43
2.5
 50
180.0
  0
MTEXT
  5
44C4
330
3F4D
100
AcDbEntity
  8
AM_5
 62
     2
100
AcDbMText
 10
-57.49999999999928
 20
-32.90000100001321
 30
0.0
 40
3.2
 41
0.0
 71
     5
 72
     1
  1
115
  7
ASAMI
1001
ACAD
1000
MTEXTBEGIN
1070
    73
1070
     1
1070
    44
1040
1.0
1070
    74
1070
     0
1000
MTEXTEND
  0
POINT
  5
44C5
330
3F4D
100
AcDbEntity
  8
DEFPOINTS
 62
     0
100
AcDbPoint
 10
0.0000000000013785
 20
-5.000000000013084
 30
0.0
  0
POINT
  5
44C6
330
3F4D
100
AcDbEntity
  8
DEFPOINTS
 62
     0
100
AcDbPoint
 10
-114.9999999999999
 20
-8.750000000013187
 30
0.0
  0
POINT
  5
44C7
330
3F4D
100
AcDbEntity
  8
DEFPOINTS
 62
     0
100
AcDbPoint
 10
-114.9999999999999
 20
-36.00000100001321
 30
0.0
  0
ENDBLK
  5
3F58
330
3F4D
100
AcDbEntity
  8
0
100
AcDbBlockEnd
  0
BLOCK
  5
4078
330
406E
100
AcDbEntity
  8
0
100
AcDbBlockBegin
  2
*D7
 70
     1
 10
0.0
 20
0.0
 30
0.0
  3
*D7
  1

  0
LINE
  5
44D1
330
406E
100
AcDbEntity
  8
AM_5
100
AcDbLine
 10
1.000000000002481
 20
8.999999999976491
 30
0.0
 11
19.55776903085654
 21
8.999999999976486
 31
0.0
  0
LINE
  5
44D2
330
406E
100
AcDbEntity
  8
AM_5
100
AcDbLine
 10
1.000000000000972
 20
-9.00000000002352
 30
0.0
 11
19.55776903085653
 21
-9.000000000023526
 31
0.0
  0
LINE
  5
44D3
330
406E
100
AcDbEntity
  8
AM_5
100
AcDbLine
 10
18.55776903085654
 20
6.499999999976485
 30
0.0
 11
18.55776903085654
 21
-6.500000000023526
 31
0.0
  0
INSERT
  5
44D4
330
406E
100
AcDbEntity
  8
AM_5
100
AcDbBlockReference
  2
_OPEN30
 10
18.55776903085654
 20
8.999999999976486
 30
0.0
 41
2.5
 42
2.5
 43
2.5
 50
90.0
  0
INSERT
  5
44D5
330
406E
100
AcDbEntity
  8
AM_5
100
AcDbBlockReference
  2
_OPEN30
 10
18.55776903085653
 20
-9.000000000023526
 30
0.0
 41
2.5
 42
2.5
 43
2.5
 50
270.0
  0
MTEXT
  5
44D6
330
406E
100
AcDbEntity
  8
AM_5
 62
     2
100
AcDbMText
 10
15.45776903085654
 20
-0.0000000000235171
 30
0.0
 40
3.2
 41
0.0
 71
     5
 72
     1
  1
%%c18
  7
ASAMI
 11
0.0000000000000001
 21
1.0
 31
0.0
1001
ACAD
1000
MTEXTBEGIN
1070
    73
1070
     1
1070
    44
1040
1.0
1070
    74
1070
     0
1000
MTEXTEND
  0
POINT
  5
44D7
330
406E
100
AcDbEntity
  8
DEFPOINTS
 62
     0
100
AcDbPoint
 10
0.0000000000024812
 20
8.999999999976491
 30
0.0
  0
POINT
  5
44D8
330
406E
100
AcDbEntity
  8
DEFPOINTS
 62
     0
100
AcDbPoint
 10
0.000000000000972
 20
-9.00000000002352
 30
0.0
  0
POINT
  5
44D9
330
406E
100
AcDbEntity
  8
DEFPOINTS
 62
     0
100
AcDbPoint
 10
18.55776903085653
 20
-9.000000000023526
 30
0.0
  0
ENDBLK
  5
4079
330
406E
100
AcDbEntity
  8
0
100
AcDbBlockEnd
  0
BLOCK
  5
43DA
330
43D0
100
AcDbEntity
  8
0
100
AcDbBlockBegin
  2
*D8
 70
     1
 10
0.0
 20
0.0
 30
0.0
  3
*D8
  1

  0
LINE
  5
43FF
330
43D0
100
AcDbEntity
  8
AM_5
100
AcDbLine
 10
-114.75
 20
9.999999999986822
 30
0.0
 11
-132.7536996173885
 21
9.99999999998683
 31
0.0
  0
LINE
  5
4400
330
43D0
100
AcDbEntity
  8
AM_5
100
AcDbLine
 10
-114.7499999999999
 20
-10.00000000001314
 30
0.0
 11
-132.7536996173885
 21
-10.00000000001313
 31
0.0
  0
LINE
  5
4401
330
43D0
100
AcDbEntity
  8
AM_5
100
AcDbLine
 10
-131.7536996173885
 20
7.499999999986829
 30
0.0
 11
-131.7536996173885
 21
-7.500000000013135
 31
0.0
  0
INSERT
  5
4402
330
43D0
100
AcDbEntity
  8
AM_5
100
AcDbBlockReference
  2
_OPEN30
 10
-131.7536996173885
 20
9.999999999986828
 30
0.0
 41
2.5
 42
2.5
 43
2.5
 50
90.0
  0
INSERT
  5
4403
330
43D0
100
AcDbEntity
  8
AM_5
100
AcDbBlockReference
  2
_OPEN30
 10
-131.7536996173885
 20
-10.00000000001313
 30
0.0
 41
2.5
 42
2.5
 43
2.5
 50
270.0
  0
MTEXT
  5
4404
330
43D0
100
AcDbEntity
  8
AM_5
 62
     2
100
AcDbMText
 10
-134.8536996173885
 20
-0.0000000000131739
 30
0.0
 40
3.2
 41
0.0
 71
     5
 72
     1
  1
%%c20
  7
ASAMI
 11
0.0000000000000001
 21
1.0
 31
0.0
1001
ACAD
1000
MTEXTBEGIN
1070
    73
1070
     1
1070
    44
1040
1.0
1070
    74
1070
     0
1000
MTEXTEND
  0
POINT
  5
4405
330
43D0
100
AcDbEntity
  8
DEFPOINTS
 62
     0
100
AcDbPoint
 10
-113.75
 20
9.999999999986822
 30
0.0
  0
POINT
  5
4406
330
43D0
100
AcDbEntity
  8
DEFPOINTS
 62
     0
100
AcDbPoint
 10
-113.7499999999999
 20
-10.00000000001314
 30
0.0
  0
POINT
  5
4407
330
43D0
100
AcDbEntity
  8
DEFPOINTS
 62
     0
100
AcDbPoint
 10
-131.7536996173885
 20
-10.00000000001313
 30
0.0
  0
ENDBLK
  5
43DB
330
43D0
100
AcDbEntity
  8
0
100
AcDbBlockEnd
  0
ENDSEC
  0
SECTION
  2
ENTITIES
  0
TEXT
  5
1500
330
1F
100
AcDbEntity
  8
AM_6
100
AcDbText
 10
-73.57142857142783
 20
-58.50000100001321
 30
0.0
 40
5.0
  1
RSM4180
 72
     4
 11
-57.49999999999927
 21
-56.00000100001321
 31
0.0
100
AcDbText
  0
SPLINE
  5
3C9E
330
1F
100
AcDbEntity
  8
AM_0
100
AcDbSpline
210
0.0
220
0.0
230
1.0
 70
     8
 71
     3
 72
     8
 73
     4
 74
     0
 42
0.0000000001
 43
0.0000000001
 40
0.0
 40
0.0
 40
0.0
 40
0.0
 40
9.450452127946082
 40
9.450452127946082
 40
9.450452127946082
 40
9.450452127946082
 10
-51.37041059288399
 20
-9.000000000023518
 30
0.0
 10
-48.98868633986515
 20
-8.91421501862497
 30
0.0
 10
-47.13659086131776
 20
-8.691106261487961
 30
0.0
 10
-45.31422038799739
 20
-8.371924718054028
 30
0.0
  0
SPLINE
  5
3C9F
330
1F
100
AcDbEntity
  8
AM_0
100
AcDbSpline
210
0.0
220
0.0
230
1.0
 70
     8
 71
     3
 72
     8
 73
     4
 74
     0
 42
0.0000000001
 43
0.0000000001
 40
0.0
 40
0.0
 40
0.0
 40
0.0
 40
9.637195575647414
 40
9.637195575647414
 40
9.637195575647414
 40
9.637195575647414
 10
-39.77133147802176
 20
-7.85951146705515
 30
0.0
 10
-37.84389241107826
 20
-7.85951146705515
 30
0.0
 10
-35.94760312173609
 20
-7.660795741267471
 30
0.0
 10
-34.07546671810639
 20
-7.308000000023408
 30
0.0
  0
SPLINE
  5
3CA0
330
1F
100
AcDbEntity
  8
AM_0
100
AcDbSpline
210
0.0
220
0.0
230
1.0
 70
     8
 71
     3
 72
     8
 73
     4
 74
     0
 42
0.0000000001
 43
0.0000000001
 40
4.041712701031851
 40
4.041712701031851
 40
4.041712701031851
 40
4.041712701031851
 40
9.964098609850829
 40
9.964098609850829
 40
9.964098609850829
 40
9.964098609850829
 10
-45.31422038799739
 20
-8.371924718054028
 30
0.0
 10
-44.17754517886094
 20
-8.285057902435481
 30
0.0
 10
-43.02301437984449
 20
-8.108133229041957
 30
0.0
 10
-41.8789207815407
 20
-7.869545009543934
 30
0.0
  0
SPLINE
  5
3CA1
330
1F
100
AcDbEntity
  8
AM_0
100
AcDbSpline
210
0.0
220
0.0
230
1.0
 70
     8
 71
     3
 72
     8
 73
     4
 74
     0
 42
0.0000000001
 43
0.0000000001
 40
0.0
 40
0.0
 40
0.0
 40
0.0
 40
3.254285608942788
 40
3.254285608942788
 40
3.254285608942788
 40
3.254285608942788
 10
-39.61349724052713
 20
-7.85951146705515
 30
0.0
 10
-42.05421144723479
 20
-7.85951146705515
 30
0.0
 10
-44.4449765739207
 20
-7.540868174768025
 30
0.0
 10
-49.99999999999752
 20
-6.528441370998737
 30
0.0
  0
SPLINE
  5
3CA3
330
1F
100
AcDbEntity
  8
AM_0
100
AcDbSpline
210
0.0
220
0.0
230
1.0
 70
     8
 71
     3
 72
     8
 73
     4
 74
     0
 42
0.0000000001
 43
0.0000000001
 40
1.570424189788742
 40
1.570424189788742
 40
1.570424189788742
 40
1.570424189788742
 40
2.790246636948332
 40
2.790246636948332
 40
2.790246636948332
 40
2.790246636948332
 10
-49.99999999999753
 20
-7.647084755652021
 30
0.0
 10
-51.06555102051904
 20
-7.539720675644814
 30
0.0
 10
-51.95753330305044
 20
-7.393731815472704
 30
0.0
 10
-52.84420917287095
 20
-7.213891424589061
 30
0.0
  0
SPLINE
  5
3CA4
330
1F
100
AcDbEntity
  8
AM_0
100
AcDbSpline
210
0.0
220
0.0
230
1.0
 70
     8
 71
     3
 72
     8
 73
     4
 74
     0
 42
0.0000000001
 43
0.0000000001
 40
11.33959573889505
 40
11.33959573889505
 40
11.33959573889505
 40
11.33959573889505
 40
14.36247867694493
 40
14.36247867694493
 40
14.36247867694493
 40
14.36247867694493
 10
-49.99999999999752
 20
3.621547894776098
 30
0.0
 10
-45.53902635148539
 20
1.749307354188661
 30
0.0
 10
-43.86972816286395
 20
0.8746536770827816
 30
0.0
 10
-42.2004299742425
 20
-0.0000000000230983
 30
0.0
  0
SPLINE
  5
3CA5
330
1F
100
AcDbEntity
  8
AM_0
100
AcDbSpline
210
0.0
220
0.0
230
1.0
 70
     8
 71
     3
 72
     8
 73
     4
 74
     0
 42
0.0000000001
 43
0.0000000001
 40
0.7142832446738512
 40
0.7142832446738512
 40
0.7142832446738512
 40
0.7142832446738512
 40
9.361146747480315
 40
9.361146747480315
 40
9.361146747480315
 40
9.361146747480315
 10
-16.4397275504453
 20
8.281076021660416
 30
0.0
 10
-11.29168086099259
 20
8.038410190125746
 30
0.0
 10
-6.379994432603676
 20
6.36438578901602
 30
0.0
 10
-1.554921368331166
 20
4.165845209042296
 30
0.0
  0
SPLINE
  5
3CA6
330
1F
100
AcDbEntity
  8
AM_0
100
AcDbSpline
210
0.0
220
0.0
230
1.0
 70
     8
 71
     3
 72
     8
 73
     4
 74
     0
 42
0.0000000001
 43
0.0000000001
 40
0.3507760400854742
 40
0.3507760400854742
 40
0.3507760400854742
 40
0.3507760400854742
 40
1.871307041999678
 40
1.871307041999678
 40
1.871307041999678
 40
1.871307041999678
 10
-23.84999999999751
 20
8.992152373180893
 30
0.0
 10
-22.941701719176
 20
8.969566216357721
 30
0.0
 10
-22.04201024432383
 20
8.898627029537779
 30
0.0
 10
-21.14999999999751
 20
8.784534694927602
 30
0.0
  0
SPLINE
  5
3CA7
330
1F
100
AcDbEntity
  8
AM_0
100
AcDbSpline
210
0.0
220
0.0
230
1.0
 70
     8
 71
     3
 72
     8
 73
     4
 74
     0
 42
0.0000000001
 43
0.0000000001
 40
0.0
 40
0.0
 40
0.0
 40
0.0
 40
2.024855066027545
 40
2.024855066027545
 40
2.024855066027545
 40
2.024855066027545
 10
0.0000000000024684
 20
-9.00000000002352
 30
0.0
 10
-1.214913039613826
 20
-9.00000000002352
 30
0.0
 10
-2.414184443986765
 20
-8.912125304020138
 30
0.0
 10
-3.599999999997531
 20
-8.748655661202347
 30
0.0
  0
SPLINE
  5
3CA8
330
1F
100
AcDbEntity
  8
AM_0
100
AcDbSpline
210
0.0
220
0.0
230
1.0
 70
     8
 71
     3
 72
     8
 73
     4
 74
     0
 42
0.0000000001
 43
0.0000000001
 40
0.703092330802404
 40
0.703092330802404
 40
0.703092330802404
 40
0.703092330802404
 40
2.229997198220355
 40
2.229997198220355
 40
2.229997198220355
 40
2.229997198220355
 10
-49.99999999999751
 20
8.999999999976493
 30
0.0
 10
-46.79184957014692
 20
8.923827311135985
 30
0.0
 10
-45.89216199147183
 20
8.831381212396083
 30
0.0
 10
-44.99999999999752
 20
8.696656369956732
 30
0.0
  0
SPLINE
  5
3CA9
330
1F
100
AcDbEntity
  8
AM_0
100
AcDbSpline
210
0.0
220
0.0
230
1.0
 70
     8
 71
     3
 72
     8
 73
     4
 74
     0
 42
0.0000000001
 43
0.0000000001
 40
0.0
 40
0.0
 40
0.0
 40
0.0
 40
3.835275104118792
 40
3.835275104118792
 40
3.835275104118792
 40
3.835275104118792
 10
0.0000000000024812
 20
8.999999999976486
 30
0.0
 10
-2.301165062468836
 20
8.999999999976486
 30
0.0
 10
-4.546214046861106
 20
8.684739912059054
 30
0.0
 10
-6.749999999997518
 20
8.137664143017396
 30
0.0
  0
SPLINE
  5
3CAA
330
1F
100
AcDbEntity
  8
AM_0
100
AcDbSpline
210
0.0
220
0.0
230
1.0
 70
     8
 71
     3
 72
     8
 73
     4
 74
     0
 42
0.0000000001
 43
0.0000000001
 40
0.0
 40
0.0
 40
0.0
 40
0.0
 40
1.539536607901005
 40
1.539536607901005
 40
1.539536607901005
 40
1.539536607901005
 10
-24.47999999999735
 20
-9.000000000023097
 30
0.0
 10
-25.40372196473851
 20
-9.000000000023097
 30
0.0
 10
-26.3184017253168
 20
-8.94920090328164
 30
0.0
 10
-27.22499999999751
 20
-8.853000024340778
 30
0.0
  0
SPLINE
  5
3CAB
330
1F
100
AcDbEntity
  8
AM_0
100
AcDbSpline
210
0.0
220
0.0
230
1.0
 70
     8
 71
     3
 72
     8
 73
     4
 74
     0
 42
0.0000000001
 43
0.0000000001
 40
1.788970302442027
 40
1.788970302442027
 40
1.788970302442027
 40
1.788970302442027
 40
3.332324051699147
 40
3.332324051699147
 40
3.332324051699147
 40
3.332324051699147
 10
-24.52499999999751
 20
-8.537782610186647
 30
0.0
 10
-25.43225091939118
 20
-8.429325184414707
 30
0.0
 10
-26.33194353899277
 20
-8.277173962327056
 30
0.0
 10
-27.22499999998687
 20
-8.086659752467445
 30
0.0
  0
SPLINE
  5
3CAC
330
1F
100
AcDbEntity
  8
AM_0
100
AcDbSpline
210
0.0
220
0.0
230
1.0
 70
     8
 71
     3
 72
     8
 73
     4
 74
     2
 42
0.0000000001
 43
0.0000000001
 44
0.0000000001
 12
-1.0
 22
0.0000000000000001
 32
0.0
 40
0.0
 40
0.0
 40
0.0
 40
0.0
 40
25.85246161850152
 40
25.85246161850152
 40
25.85246161850152
 40
25.85246161850152
 10
-17.72042997424184
 20
-8.311400106868051
 30
0.0
 10
-26.33791718040901
 20
-8.311400106868049
 30
0.0
 10
-34.26917357732575
 20
-4.155700053445573
 30
0.0
 10
-42.2004299742425
 20
-0.0000000000230983
 30
0.0
 11
-17.72042997424184
 21
-8.311400106868051
 31
0.0
 11
-42.2004299742425
 21
-0.0000000000230983
 31
0.0
  0
SPLINE
  5
3CAD
330
1F
100
AcDbEntity
  8
AM_0
100
AcDbSpline
210
0.0
220
0.0
230
1.0
 70
     8
 71
     3
 72
     8
 73
     4
 74
     0
 42
0.0000000001
 43
0.0000000001
 40
1.666991338825053
 40
1.666991338825053
 40
1.666991338825053
 40
1.666991338825053
 40
3.21070440243455
 40
3.21070440243455
 40
3.21070440243455
 40
3.21070440243455
 10
-27.44999999999424
 20
8.828176806330017
 30
0.0
 10
-28.35772257175928
 20
8.724214232460777
 30
0.0
 10
-29.25739971902491
 20
8.575052469311545
 30
0.0
 10
-30.14999999999751
 20
8.386132876204689
 30
0.0
  0
SPLINE
  5
3CAE
330
1F
100
AcDbEntity
  8
AM_0
100
AcDbSpline
210
0.0
220
0.0
230
1.0
 70
     8
 71
     3
 72
     8
 73
     4
 74
     0
 42
0.0000000001
 43
0.0000000001
 40
0.7142832446738512
 40
0.7142832446738512
 40
0.7142832446738512
 40
0.7142832446738512
 40
14.36247867694493
 40
14.36247867694493
 40
14.36247867694493
 40
14.36247867694493
 10
-40.91972755044514
 20
8.281076021660416
 30
0.0
 10
-32.79405894363805
 20
7.898052663832546
 30
0.0
 10
-25.25724445894036
 20
3.94902633190472
 30
0.0
 10
-17.72042997424184
 20
-0.0000000000231111
 30
0.0
  0
SPLINE
  5
3CAF
330
1F
100
AcDbEntity
  8
AM_0
100
AcDbSpline
210
0.0
220
0.0
230
1.0
 70
     8
 71
     3
 72
     8
 73
     4
 74
     0
 42
0.0000000001
 43
0.0000000001
 40
0.3581103616548037
 40
0.3581103616548037
 40
0.3581103616548037
 40
0.3581103616548037
 40
0.4557920900567158
 40
0.4557920900567158
 40
0.4557920900567158
 40
0.4557920900567158
 10
-45.17497547877734
 20
8.722521761111506
 30
0.0
 10
-45.11661669491238
 20
8.721075071828449
 30
0.0
 10
-45.0582916132517
 20
8.719433553378527
 30
0.0
 10
-44.99999999999752
 20
8.717598557326024
 30
0.0
  0
SPLINE
  5
3CB0
330
1F
100
AcDbEntity
  8
AM_0
100
AcDbSpline
210
0.0
220
0.0
230
1.0
 70
     8
 71
     3
 72
     8
 73
     4
 74
     0
 42
0.0000000001
 43
0.0000000001
 40
1.870660592686466
 40
1.870660592686466
 40
1.870660592686466
 40
1.870660592686466
 40
3.826008700541491
 40
3.826008700541491
 40
3.826008700541491
 40
3.826008700541491
 10
-0.1889999999975643
 20
-8.520194083742499
 30
0.0
 10
-1.337428799125596
 20
-8.376942933597511
 30
0.0
 10
-2.473803695557931
 20
-8.164009343788357
 30
0.0
 10
-3.599999999993438
 20
-7.89223430316084
 30
0.0
  0
SPLINE
  5
3CB1
330
1F
100
AcDbEntity
  8
AM_0
100
AcDbSpline
210
0.0
220
0.0
230
1.0
 70
     8
 71
     3
 72
     8
 73
     4
 74
     0
 42
0.0000000001
 43
0.0000000001
 40
4.542668862435135
 40
4.542668862435135
 40
4.542668862435135
 40
4.542668862435135
 40
14.36247867694493
 40
14.36247867694493
 40
14.36247867694493
 40
14.36247867694493
 10
-1.232999999994977
 20
-7.195709979845342
 30
0.0
 10
-6.875027706337355
 20
-5.682610235854563
 30
0.0
 10
-12.2977288402896
 20
-2.841305117938837
 30
0.0
 10
-17.72042997424184
 20
-0.0000000000231111
 30
0.0
  0
SPLINE
  5
3CB2
330
1F
100
AcDbEntity
  8
AM_0
100
AcDbSpline
210
0.0
220
0.0
230
1.0
 70
     8
 71
     3
 72
     8
 73
     4
 74
     0
 42
0.0000000001
 43
0.0000000001
 40
0.0
 40
0.0
 40
0.0
 40
0.0
 40
4.451443990518192
 40
4.451443990518192
 40
4.451443990518192
 40
4.451443990518192
 10
-17.72042997424184
 20
-8.311400106868051
 30
0.0
 10
-15.04956357993166
 20
-8.311400106868051
 30
0.0
 10
-12.44461658553235
 20
-7.9122031456685
 30
0.0
 10
-9.885158219783157
 20
-7.237534588085564
 30
0.0
  0
SPLINE
  5
3CB3
330
1F
100
AcDbEntity
  8
AM_0
100
AcDbSpline
210
0.0
220
0.0
230
1.0
 70
     8
 71
     3
 72
     8
 73
     4
 74
     0
 42
0.0000000001
 43
0.0000000001
 40
0.2298684927509915
 40
0.2298684927509915
 40
0.2298684927509915
 40
0.2298684927509915
 40
2.764560748519282
 40
2.764560748519282
 40
2.764560748519282
 40
2.764560748519282
 10
-20.92499999999752
 20
-8.727209164600205
 30
0.0
 10
-19.40837164228639
 20
-8.70300454921025
 30
0.0
 10
-17.91464244430341
 20
-8.54642211757824
 30
0.0
 10
-16.4397275506352
 20
-8.281076021741009
 30
0.0
  0
SPLINE
  5
3CB4
330
1F
100
AcDbEntity
  8
AM_0
100
AcDbSpline
210
0.0
220
0.0
230
1.0
 70
     8
 71
     3
 72
     8
 73
     4
 74
     0
 42
0.0000000001
 43
0.0000000001
 40
1.999245295235591
 40
1.999245295235591
 40
1.999245295235591
 40
1.999245295235591
 40
2.130230809022907
 40
2.130230809022907
 40
2.130230809022907
 40
2.130230809022907
 10
-20.92499999999752
 20
-8.754821906603135
 30
0.0
 10
-20.8482689331841
 20
-8.744371071369865
 30
0.0
 10
-20.77159429000809
 20
-8.733603248179358
 30
0.0
 10
-20.69497547877833
 20
-8.72252176115812
 30
0.0
  0
SPLINE
  5
3CB5
330
1F
100
AcDbEntity
  8
AM_0
100
AcDbSpline
210
0.0
220
0.0
230
1.0
 70
     8
 71
     3
 72
     8
 73
     4
 74
     2
 42
0.0000000001
 43
0.0000000001
 44
0.0000000001
 12
0.6880548427449731
 22
-0.7256586893128137
 32
0.0
 13
-0.9854444993171654
 23
-0.1699974669386016
 33
0.0
 40
0.0
 40
0.0
 40
0.0
 40
0.0
 40
5.153078753691683
 40
5.153078753691683
 40
5.153078753691683
 40
5.153078753691683
 10
-0.5399999999970277
 20
8.999999999976486
 30
0.0
 10
0.6418669305109037
 20
7.753541208533281
 30
0.0
 10
-2.549138978378898
 20
5.707219605548134
 30
0.0
 10
-4.241830015836772
 20
5.41521616052723
 30
0.0
 11
-0.5399999999970277
 21
8.999999999976486
 31
0.0
 11
-4.241830015836772
 21
5.41521616052723
 31
0.0
  0
SPLINE
  5
3CB6
330
1F
100
AcDbEntity
  8
AM_0
100
AcDbSpline
210
0.0
220
0.0
230
1.0
 70
     8
 71
     3
 72
     9
 73
     5
 74
     3
 42
0.0000000001
 43
0.0000000001
 44
0.0000000001
 12
-0.6110826252653724
 22
0.7915668165725372
 32
0.0
 13
-0.9134460065687781
 23
-0.4069599403916208
 33
0.0
 40
0.0
 40
0.0
 40
0.0
 40
0.0
 40
2.071907237669004
 40
3.896738283142968
 40
3.896738283142968
 40
3.896738283142968
 40
3.896738283142968
 10
-3.599999999997531
 20
-8.748655661202347
 30
0.0
 10
-4.022035504697898
 20
-8.201971322417263
 30
0.0
 10
-5.300392854946017
 20
-7.481703547473362
 30
0.0
 10
-6.64437178961389
 20
-7.77506495770875
 30
0.0
 10
-7.199999999997531
 20
-8.022609335539037
 30
0.0
 11
-3.599999999997531
 21
-8.748655661202347
 31
0.0
 11
-5.399999999997531
 21
-7.722595428318719
 31
0.0
 11
-7.199999999997531
 21
-8.022609335539037
 31
0.0
  0
SPLINE
  5
3CB7
330
1F
100
AcDbEntity
  8
AM_0
100
AcDbSpline
210
0.0
220
0.0
230
1.0
 70
     8
 71
     3
 72
     9
 73
     5
 74
     3
 42
0.0000000001
 43
0.0000000001
 44
0.0000000001
 12
-0.6494269884643444
 22
0.7604239519203299
 32
0.0
 13
-0.9604248968033781
 23
-0.2785390773306688
 33
0.0
 40
0.0
 40
0.0
 40
0.0
 40
0.0
 40
2.284491113549363
 40
4.116207857537018
 40
4.116207857537018
 40
4.116207857537018
 40
4.116207857537018
 10
-3.599999999997531
 20
-7.892234303178438
 30
0.0
 10
-4.094536728012838
 20
-7.313173716281077
 30
0.0
 10
-5.166576725036827
 20
-6.048095889629482
 30
0.0
 10
-6.613591211733262
 20
-6.654823361561999
 30
0.0
 10
-7.200000000005716
 20
-6.824891592162485
 30
0.0
 11
-3.599999999997531
 21
-7.892234303178438
 31
0.0
 11
-5.399999999997531
 21
-6.485500622666732
 31
0.0
 11
-7.200000000005716
 21
-6.824891592162485
 31
0.0
  0
SPLINE
  5
3CB8
330
1F
100
AcDbEntity
  8
AM_0
100
AcDbSpline
210
0.0
220
0.0
230
1.0
 70
     8
 71
     3
 72
     8
 73
     4
 74
     0
 42
0.0000000001
 43
0.0000000001
 40
4.096652702081863
 40
4.096652702081863
 40
4.096652702081863
 40
4.096652702081863
 40
5.678228147290397
 40
5.678228147290397
 40
5.678228147290397
 40
5.678228147290397
 10
-7.199999999994257
 20
-8.022609335537399
 30
0.0
 10
-8.106497609642689
 20
-7.784138425126876
 30
0.0
 10
-9.006150413835607
 20
-7.507213402394846
 30
0.0
 10
-9.899999999997531
 20
-7.197685904765294
 30
0.0
  0
SPLINE
  5
3CB9
330
1F
100
AcDbEntity
  8
AM_0
100
AcDbSpline
210
0.0
220
0.0
230
1.0
 70
     8
 71
     3
 72
     8
 73
     4
 74
     0
 42
0.0000000001
 43
0.0000000001
 40
5.928582328726523
 40
5.928582328726523
 40
5.928582328726523
 40
5.928582328726523
 40
7.528098176779675
 40
7.528098176779675
 40
7.528098176779675
 40
7.528098176779675
 10
-7.200000000005716
 20
-6.824891592162485
 30
0.0
 10
-8.105119552951951
 20
-6.509312364162142
 30
0.0
 10
-9.004777380229539
 20
-6.162159431036625
 30
0.0
 10
-9.89999999995333
 20
-5.789366994210841
 30
0.0
  0
SPLINE
  5
3CBA
330
1F
100
AcDbEntity
  8
AM_0
100
AcDbSpline
210
0.0
220
0.0
230
1.0
 70
     8
 71
     3
 72
     9
 73
     5
 74
     3
 42
0.0000000001
 43
0.0000000001
 44
0.0000000001
 12
-0.6160346874185714
 22
0.7877190259839502
 32
0.0
 13
-0.9511353387127366
 23
-0.3087742985609524
 33
0.0
 40
0.0
 40
0.0
 40
0.0
 40
0.0
 40
2.161953384636817
 40
3.975827576760363
 40
3.975827576760363
 40
3.975827576760363
 40
3.975827576760363
 10
-9.899999999997531
 20
-7.197685904765294
 30
0.0
 10
-10.34394609250361
 20
-6.630015299975688
 30
0.0
 10
-11.53887313839851
 20
-5.98065513180232
 30
0.0
 10
-12.92492005196162
 20
-5.589559516772159
 30
0.0
 10
-13.49999999999753
 20
-5.77625209388908
 30
0.0
 11
-9.899999999997531
 21
-7.197685904765294
 31
0.0
 11
-11.69999999999753
 21
-6.000170795323001
 31
0.0
 11
-13.49999999999753
 21
-5.77625209388908
 31
0.0
  0
SPLINE
  5
3CBB
330
1F
100
AcDbEntity
  8
AM_0
100
AcDbSpline
210
0.0
220
0.0
230
1.0
 70
     8
 71
     3
 72
     9
 73
     5
 74
     3
 42
0.0000000001
 43
0.0000000001
 44
0.0000000001
 12
-0.6311748102206538
 22
0.7756406119736909
 32
0.0
 13
-0.9939483500198665
 23
-0.1098484296327676
 33
0.0
 40
0.0
 40
0.0
 40
0.0
 40
0.0
 40
2.569271212467427
 40
4.381827602841111
 40
4.381827602841111
 40
4.381827602841111
 40
4.381827602841111
 10
-9.899999999997531
 20
-5.77625209388908
 30
0.0
 10
-10.4405530899757
 20
-5.111975062034206
 30
0.0
 10
-11.29413822162036
 20
-3.426622910067967
 30
0.0
 10
-12.89947085548756
 20
-4.089518526737125
 30
0.0
 10
-13.49999999999753
 20
-4.155887351104921
 30
0.0
 11
-9.899999999997531
 21
-5.77625209388908
 31
0.0
 11
-11.69999999999753
 21
-3.942906910020575
 31
0.0
 11
-13.49999999999753
 21
-4.155887351104921
 31
0.0
  0
SPLINE
  5
3CBC
330
1F
100
AcDbEntity
  8
AM_0
100
AcDbSpline
210
0.0
220
0.0
230
1.0
 70
     8
 71
     3
 72
     8
 73
     4
 74
     0
 42
0.0000000001
 43
0.0000000001
 40
7.818791612490512
 40
7.818791612490512
 40
7.818791612490512
 40
7.818791612490512
 40
9.443881246512125
 40
9.443881246512125
 40
9.443881246512125
 40
9.443881246512125
 10
-13.49999999999753
 20
-5.77625209388867
 30
0.0
 10
-14.40426192958436
 20
-5.378543524802499
 30
0.0
 10
-15.30388528069449
 20
-4.954775425036642
 30
0.0
 10
-16.19999999999752
 20
-4.511295834199619
 30
0.0
  0
SPLINE
  5
3CBD
330
1F
100
AcDbEntity
  8
AM_0
100
AcDbSpline
210
0.0
220
0.0
230
1.0
 70
     8
 71
     3
 72
     8
 73
     4
 74
     0
 42
0.0000000001
 43
0.0000000001
 40
9.685078621624523
 40
9.685078621624523
 40
9.685078621624523
 40
9.685078621624523
 40
11.31655044551473
 40
11.31655044551473
 40
11.31655044551473
 40
11.31655044551473
 10
-13.49999999999753
 20
-4.155887351104921
 30
0.0
 10
-14.40281095681891
 20
-3.716121719517887
 30
0.0
 10
-15.30244786334339
 20
-3.258007211727782
 30
0.0
 10
-16.20000000001961
 20
-2.787840852112786
 30
0.0
  0
SPLINE
  5
3CBE
330
1F
100
AcDbEntity
  8
AM_0
100
AcDbSpline
210
0.0
220
0.0
230
1.0
 70
     8
 71
     3
 72
     9
 73
     5
 74
     3
 42
0.0000000001
 43
0.0000000001
 44
0.0000000001
 12
-0.7690286934869368
 22
0.6392142587534911
 32
0.0
 13
-0.9823098605277882
 23
0.1872627509940964
 33
0.0
 40
0.0
 40
0.0
 40
0.0
 40
0.0
 40
2.165797796981343
 40
4.088825975250003
 40
4.088825975250003
 40
4.088825975250003
 40
4.088825975250003
 10
-16.19999999999752
 20
-4.511295834199619
 30
0.0
 10
-16.75518688338733
 20
-4.049826223063828
 30
0.0
 10
-17.89360116534536
 20
-3.290525248298263
 30
0.0
 10
-19.17033015280215
 20
-2.75010661170573
 30
0.0
 10
-19.79999999999751
 20
-2.630069429405145
 30
0.0
 11
-16.19999999999752
 21
-4.511295834199619
 31
0.0
 11
-17.99999999999751
 21
-3.306854014347264
 31
0.0
 11
-19.79999999999751
 21
-2.630069429405145
 31
0.0
  0
SPLINE
  5
3CBF
330
1F
100
AcDbEntity
  8
AM_0
100
AcDbSpline
210
0.0
220
0.0
230
1.0
 70
     8
 71
     3
 72
     9
 73
     5
 74
     3
 42
0.0000000001
 43
0.0000000001
 44
0.0000000001
 12
-0.4936303795221268
 22
0.8696718050005076
 32
0.0
 13
-0.8861177952489002
 23
-0.4634600877564626
 33
0.0
 40
0.0
 40
0.0
 40
0.0
 40
0.0
 40
2.681620096349785
 40
4.481620096349786
 40
4.481620096349786
 40
4.481620096349786
 40
4.481620096349786
 10
-16.19999999999752
 20
-2.787840852124246
 30
0.0
 10
-16.64124304862928
 20
-2.010464388951528
 30
0.0
 10
-17.51125180366804
 20
-0.6010264167329456
 30
0.0
 10
-19.26832932284817
 20
-0.5220308280478614
 30
0.0
 10
-19.79999999999751
 20
-0.8001068807017389
 30
0.0
 11
-16.19999999999752
 21
-2.787840852124246
 31
0.0
 11
-17.99999999999751
 21
-0.8001068807017517
 31
0.0
 11
-19.79999999999751
 21
-0.8001068807017389
 31
0.0
  0
SPLINE
  5
3CC0
330
1F
100
AcDbEntity
  8
AM_0
100
AcDbSpline
210
0.0
220
0.0
230
1.0
 70
     8
 71
     3
 72
     8
 73
     4
 74
     0
 42
0.0000000001
 43
0.0000000001
 40
11.62991291415682
 40
11.62991291415682
 40
11.62991291415682
 40
11.62991291415682
 40
14.48999654934396
 40
14.48999654934396
 40
14.48999654934396
 40
14.48999654934396
 10
-19.79999999999751
 20
-2.630069429405145
 30
0.0
 10
-21.36410649147862
 20
-1.776449885917187
 30
0.0
 10
-22.92205324573758
 20
-0.8882249429701431
 30
0.0
 10
-24.47999999999735
 20
-0.0000000000235076
 30
0.0
  0
SPLINE
  5
3CC1
330
1F
100
AcDbEntity
  8
AM_0
100
AcDbSpline
210
0.0
220
0.0
230
1.0
 70
     8
 71
     3
 72
     8
 73
     4
 74
     0
 42
0.0000000001
 43
0.0000000001
 40
13.50299628442394
 40
13.50299628442394
 40
13.50299628442394
 40
13.50299628442394
 40
14.43901837670146
 40
14.43901837670146
 40
14.43901837670146
 40
14.43901837670146
 10
-19.79999999999751
 20
-0.8477553671434151
 30
0.0
 10
-20.31286787202213
 20
-0.5659630448398702
 30
0.0
 10
-20.82553003221462
 20
-0.2829815224316888
 30
0.0
 10
-21.3381921924071
 20
-0.0000000000230983
 30
0.0
  0
SPLINE
  5
3CC2
330
1F
100
AcDbEntity
  8
AM_0
100
AcDbSpline
210
0.0
220
0.0
230
1.0
 70
     8
 71
     3
 72
     9
 73
     5
 74
     3
 42
0.0000000001
 43
0.0000000001
 44
0.0000000001
 12
-0.5307113561502264
 22
0.8475526275419053
 32
0.0
 13
-0.970954040212762
 23
-0.2392660690413793
 33
0.0
 40
0.0
 40
0.0
 40
0.0
 40
0.0
 40
2.561662322511348
 40
4.366103426010839
 40
4.366103426010839
 40
4.366103426010839
 40
4.366103426010839
 10
-22.49999999999751
 20
0.6407383579753088
 30
0.0
 10
-22.95316776172382
 20
1.364452902081839
 30
0.0
 10
-23.91121989454891
 20
2.658496464293997
 30
0.0
 10
-25.51599020674125
 20
2.733840412780522
 30
0.0
 10
-26.09999999999752
 20
2.589926569563518
 30
0.0
 11
-22.49999999999751
 21
0.6407383579753088
 31
0.0
 11
-24.29999999999751
 21
2.463405045709035
 31
0.0
 11
-26.09999999999752
 21
2.589926569563518
 31
0.0
  0
SPLINE
  5
3CC3
330
1F
100
AcDbEntity
  8
AM_0
100
AcDbSpline
210
0.0
220
0.0
230
1.0
 70
     8
 71
     3
 72
     8
 73
     4
 74
     0
 42
0.0000000001
 43
0.0000000001
 40
13.73199344169106
 40
13.73199344169106
 40
13.73199344169106
 40
13.73199344169106
 40
14.43901837670146
 40
14.43901837670146
 40
14.43901837670146
 40
14.43901837670146
 10
-22.49999999999751
 20
0.6407383579753088
 30
0.0
 10
-22.11267162720421
 20
0.4275005774539324
 30
0.0
 10
-21.72543190980565
 20
0.2137502887152124
 30
0.0
 10
-21.3381921924071
 20
-0.0000000000230983
 30
0.0
  0
SPLINE
  5
3CC4
330
1F
100
AcDbEntity
  8
AM_0
100
AcDbSpline
210
0.0
220
0.0
230
1.0
 70
     8
 71
     3
 72
     9
 73
     5
 74
     3
 42
0.0000000001
 43
0.0000000001
 44
0.0000000001
 12
-0.9430790451623916
 22
0.3325686614454102
 32
0.0
 13
-0.7408851562591448
 23
0.6716317333441464
 33
0.0
 40
0.0
 40
0.0
 40
0.0
 40
0.0
 40
1.931209879611929
 40
4.09418499323427
 40
4.09418499323427
 40
4.09418499323427
 40
4.09418499323427
 10
-28.79999999999752
 20
2.432943817707248
 30
0.0
 10
-29.40709452308838
 20
2.647030445918145
 30
0.0
 10
-30.70293673426375
 20
3.085334296598025
 30
0.0
 10
-31.86582794831236
 20
3.84775556313251
 30
0.0
 10
-32.39999999999261
 20
4.331996471379985
 30
0.0
 11
-28.79999999999752
 21
2.432943817707248
 31
0.0
 11
-30.59999999999751
 21
3.132637750159661
 31
0.0
 11
-32.39999999999261
 21
4.331996471379985
 31
0.0
  0
SPLINE
  5
3CC5
330
1F
100
AcDbEntity
  8
AM_0
100
AcDbSpline
210
0.0
220
0.0
230
1.0
 70
     8
 71
     3
 72
     9
 73
     5
 74
     3
 42
0.0000000001
 43
0.0000000001
 44
0.0000000001
 12
-0.7744171056884045
 22
0.6326753878705846
 32
0.0
 13
-0.9976643324497596
 23
-0.0683072452787833
 33
0.0
 40
0.0
 40
0.0
 40
0.0
 40
0.0
 40
2.269804506552389
 40
4.090972009323255
 40
4.090972009323255
 40
4.090972009323255
 40
4.090972009323255
 10
-28.79999999999752
 20
3.971412448372207
 30
0.0
 10
-29.38592514547845
 20
4.450095597230019
 30
0.0
 10
-30.34275969443261
 20
5.518485115312075
 30
0.0
 10
-31.79436204635382
 20
5.672493462849391
 30
0.0
 10
-32.39999999999751
 20
5.631027151080885
 30
0.0
 11
-28.79999999999752
 21
3.971412448372207
 31
0.0
 11
-30.59999999999751
 21
5.354167849000074
 31
0.0
 11
-32.39999999999751
 21
5.631027151080885
 31
0.0
  0
SPLINE
  5
3CC6
330
1F
100
AcDbEntity
  8
AM_0
100
AcDbSpline
210
0.0
220
0.0
230
1.0
 70
     8
 71
     3
 72
     8
 73
     4
 74
     0
 42
0.0000000001
 43
0.0000000001
 40
11.84940637128532
 40
11.84940637128532
 40
11.84940637128532
 40
11.84940637128532
 40
14.48999654934396
 40
14.48999654934396
 40
14.48999654934396
 40
14.48999654934396
 10
-28.79999999999752
 20
2.432943817707248
 30
0.0
 10
-27.35676825014486
 20
1.640118513573227
 30
0.0
 10
-25.9183841250711
 20
0.8200592567752693
 30
0.0
 10
-24.47999999999735
 20
-0.0000000000230983
 30
0.0
  0
SPLINE
  5
3CC7
330
1F
100
AcDbEntity
  8
AM_0
100
AcDbSpline
210
0.0
220
0.0
230
1.0
 70
     8
 71
     3
 72
     8
 73
     4
 74
     0
 42
0.0000000001
 43
0.0000000001
 40
9.911909440357588
 40
9.911909440357588
 40
9.911909440357588
 40
9.911909440357588
 40
11.54467281373877
 40
11.54467281373877
 40
11.54467281373877
 40
11.54467281373877
 10
-28.79999999999752
 20
3.971412448371798
 30
0.0
 10
-27.8973365661576
 20
3.526314207536048
 30
0.0
 10
-26.99770052264909
 20
3.063714917507282
 30
0.0
 10
-26.09999999999752
 20
2.589926569563518
 30
0.0
  0
SPLINE
  5
3CC8
330
1F
100
AcDbEntity
  8
AM_0
100
AcDbSpline
210
0.0
220
0.0
230
1.0
 70
     8
 71
     3
 72
     9
 73
     5
 74
     3
 42
0.0000000001
 43
0.0000000001
 44
0.0000000001
 12
-0.9971207175624304
 22
0.0758305651290049
 32
0.0
 13
-0.7822668508322132
 23
0.6229434758379383
 33
0.0
 40
0.0
 40
0.0
 40
0.0
 40
0.0
 40
1.817560814342124
 40
3.982373307284368
 40
3.982373307284368
 40
3.982373307284368
 40
3.982373307284368
 10
-35.09999999999751
 20
5.616447923506389
 30
0.0
 10
-35.70410918113424
 20
5.662390144742355
 30
0.0
 10
-37.09352122477177
 20
5.675064794060247
 30
0.0
 10
-38.13551298283212
 20
6.621644739374772
 30
0.0
 10
-38.69999999999751
 20
7.071163345671717
 30
0.0
 11
-35.09999999999751
 21
5.616447923506389
 31
0.0
 11
-36.89999999999752
 21
5.868494176864756
 31
0.0
 11
-38.69999999999751
 21
7.071163345671717
 31
0.0
  0
SPLINE
  5
3CC9
330
1F
100
AcDbEntity
  8
AM_0
100
AcDbSpline
210
0.0
220
0.0
230
1.0
 70
     8
 71
     3
 72
     9
 73
     5
 74
     3
 42
0.0000000001
 43
0.0000000001
 44
0.0000000001
 12
-0.8872020512481599
 22
0.4613811008928057
 32
0.0
 13
-0.985639560672749
 23
0.1688628332014792
 33
0.0
 40
0.0
 40
0.0
 40
0.0
 40
0.0
 40
1.942155005909989
 40
3.78142264907741
 40
3.78142264907741
 40
3.78142264907741
 40
3.78142264907741
 10
-35.09999999999751
 20
6.691745204916693
 30
0.0
 10
-35.67436130169259
 20
6.990436409827101
 30
0.0
 10
-36.84905346282962
 20
7.480104246560269
 30
0.0
 10
-38.0957150160738
 20
7.695605651919974
 30
0.0
 10
-38.69999999999751
 20
7.799133633666993
 30
0.0
 11
-35.09999999999751
 21
6.691745204916693
 31
0.0
 11
-36.89999999999752
 21
7.421105244253381
 31
0.0
 11
-38.69999999999751
 21
7.799133633666993
 31
0.0
  0
SPLINE
  5
3CCA
330
1F
100
AcDbEntity
  8
AM_0
100
AcDbSpline
210
0.0
220
0.0
230
1.0
 70
     8
 71
     3
 72
     8
 73
     4
 74
     0
 42
0.0000000001
 43
0.0000000001
 40
8.034594408064972
 40
8.034594408064972
 40
8.034594408064972
 40
8.034594408064972
 40
9.661611892530016
 40
9.661611892530016
 40
9.661611892530016
 40
9.661611892530016
 10
-35.09999999999751
 20
5.616447923505571
 30
0.0
 10
-34.19587880721262
 20
5.211450297687993
 30
0.0
 10
-33.29625679815324
 20
4.781176260801744
 30
0.0
 10
-32.39999999999833
 20
4.33199647138285
 30
0.0
  0
SPLINE
  5
3CCB
330
1F
100
AcDbEntity
  8
AM_0
100
AcDbSpline
210
0.0
220
0.0
230
1.0
 70
     8
 71
     3
 72
     8
 73
     4
 74
     0
 42
0.0000000001
 43
0.0000000001
 40
6.150480381241876
 40
6.150480381241876
 40
6.150480381241876
 40
6.150480381241876
 40
7.75241736749254
 40
7.75241736749254
 40
7.75241736749254
 40
7.75241736749254
 10
-35.09999999999751
 20
6.691745204916283
 30
0.0
 10
-34.19500829470195
 20
6.367029083347365
 30
0.0
 10
-33.29535202356889
 20
6.011469335570787
 30
0.0
 10
-32.39999999999751
 20
5.631027151080885
 30
0.0
  0
SPLINE
  5
3CCC
330
1F
100
AcDbEntity
  8
AM_0
100
AcDbSpline
210
0.0
220
0.0
230
1.0
 70
     8
 71
     3
 72
     9
 73
     5
 74
     3
 42
0.0000000001
 43
0.0000000001
 44
0.0000000001
 12
-0.981554829460477
 22
-0.1911808483159698
 32
0.0
 13
-0.8368779624517458
 23
0.5473895102782062
 33
0.0
 40
0.0
 40
0.0
 40
0.0
 40
0.0
 40
1.819941584486942
 40
3.898554808815236
 40
3.898554808815236
 40
3.898554808815236
 40
3.898554808815236
 10
-41.39999999999751
 20
7.925798483959074
 30
0.0
 10
-41.99545748386055
 20
7.809819158623167
 30
0.0
 10
-43.35371791350026
 20
7.280871720418006
 30
0.0
 10
-44.42015146669715
 20
8.31738601164911
 30
0.0
 10
-44.99999999999752
 20
8.696656369956732
 30
0.0
 11
-41.39999999999751
 21
7.925798483959074
 31
0.0
 11
-43.19999999999751
 21
7.657121408374173
 31
0.0
 11
-44.99999999999752
 21
8.696656369956732
 31
0.0
  0
SPLINE
  5
3CCD
330
1F
100
AcDbEntity
  8
AM_0
100
AcDbSpline
210
0.0
220
0.0
230
1.0
 70
     8
 71
     3
 72
     9
 73
     5
 74
     3
 42
0.0000000001
 43
0.0000000001
 44
0.0000000001
 12
-0.998034956970028
 22
-0.0626595935658236
 32
0.0
 13
-0.9269020209125907
 23
0.3753034021004276
 33
0.0
 40
0.0
 40
0.0
 40
0.0
 40
0.0
 40
1.801779945159771
 40
3.653402050789431
 40
3.653402050789431
 40
3.653402050789431
 40
3.653402050789431
 10
-41.39999999999751
 20
8.363496135860938
 30
0.0
 10
-41.99941312334318
 20
8.32586320284135
 30
0.0
 10
-43.21947107071337
 20
8.163083260373069
 30
0.0
 10
-44.42790924277267
 20
8.4859585321103
 30
0.0
 10
-44.99999999999752
 20
8.717598557326024
 30
0.0
 11
-41.39999999999751
 21
8.363496135860938
 31
0.0
 11
-43.19999999999751
 21
8.283427597845316
 31
0.0
 11
-44.99999999999752
 21
8.717598557326024
 31
0.0
  0
SPLINE
  5
3CCE
330
1F
100
AcDbEntity
  8
AM_0
100
AcDbSpline
210
0.0
220
0.0
230
1.0
 70
     8
 71
     3
 72
     8
 73
     4
 74
     0
 42
0.0000000001
 43
0.0000000001
 40
4.306226182506206
 40
4.306226182506206
 40
4.306226182506206
 40
4.306226182506206
 40
5.890739774064351
 40
5.890739774064351
 40
5.890739774064351
 40
5.890739774064351
 10
-41.39999999999751
 20
7.925798483959074
 30
0.0
 10
-40.49361740698484
 20
7.676777507671381
 30
0.0
 10
-39.59396654138124
 20
7.389937691441396
 30
0.0
 10
-38.69999999999751
 20
7.071163345671717
 30
0.0
  0
SPLINE
  5
3CCF
330
1F
100
AcDbEntity
  8
AM_0
100
AcDbSpline
210
0.0
220
0.0
230
1.0
 70
     8
 71
     3
 72
     8
 73
     4
 74
     0
 42
0.0000000001
 43
0.0000000001
 40
2.489821994174631
 40
2.489821994174631
 40
2.489821994174631
 40
2.489821994174631
 40
4.043019649814397
 40
4.043019649814397
 40
4.043019649814397
 40
4.043019649814397
 10
-41.39999999999751
 20
8.363496135860938
 30
0.0
 10
-40.49367940518293
 20
8.215516594645801
 30
0.0
 10
-39.59458972320769
 20
8.025735849262442
 30
0.0
 10
-38.70179105514432
 20
7.799587364040458
 30
0.0
  0
SPLINE
  5
3CD0
330
1F
100
AcDbEntity
  8
AM_0
100
AcDbSpline
210
0.0
220
0.0
230
1.0
 70
     8
 71
     3
 72
     9
 73
     5
 74
     0
 42
0.0000000001
 43
0.0000000001
 40
0.0
 40
0.0
 40
0.0
 40
0.0
 40
1.173671883824386
 40
1.360226551015519
 40
1.360226551015519
 40
1.360226551015519
 40
1.360226551015519
 10
-6.749999999997518
 20
8.137664143017396
 30
0.0
 10
-7.188783136282732
 20
7.586872523593225
 30
0.0
 10
-7.953809285127941
 20
7.153802679510495
 30
0.0
 10
-8.773919648954857
 20
6.97888046435291
 30
0.0
 10
-8.886905058623311
 20
6.960039885987358
 30
0.0
  0
SPLINE
  5
3CD1
330
1F
100
AcDbEntity
  8
AM_0
100
AcDbSpline
210
0.0
220
0.0
230
1.0
 70
     8
 71
     3
 72
     9
 73
     5
 74
     3
 42
0.0000000001
 43
0.0000000001
 44
0.0000000001
 12
-0.9681805968441542
 22
0.2502525362398896
 32
0.0
 13
-0.8208259885173362
 23
0.5711783404283972
 33
0.0
 40
0.0
 40
0.0
 40
0.0
 40
0.0
 40
1.916965192960057
 40
4.084666816735751
 40
4.084666816735751
 40
4.084666816735751
 40
4.084666816735751
 10
-4.949999999997531
 20
2.777039208250786
 30
0.0
 10
-5.568656168214043
 20
2.9369476753914
 30
0.0
 10
-6.884282466926552
 20
3.367202160845318
 30
0.0
 10
-7.956898057282091
 20
4.231546308703047
 30
0.0
 10
-8.549999999997531
 20
4.644261047373761
 30
0.0
 11
-4.949999999997531
 21
2.777039208250786
 31
0.0
 11
-6.749999999997531
 21
3.436399163829215
 31
0.0
 11
-8.549999999997531
 21
4.644261047373761
 31
0.0
  0
SPLINE
  5
3CD2
330
1F
100
AcDbEntity
  8
AM_0
100
AcDbSpline
210
0.0
220
0.0
230
1.0
 70
     8
 71
     3
 72
     9
 73
     5
 74
     3
 42
0.0000000001
 43
0.0000000001
 44
0.0000000001
 12
-0.8176346168783078
 22
0.5757374690623
 32
0.0
 13
-0.9964633055848636
 23
-0.0840290463047553
 33
0.0
 40
0.0
 40
0.0
 40
0.0
 40
0.0
 40
2.235588960723381
 40
4.058720885454626
 40
4.058720885454626
 40
4.058720885454626
 40
4.058720885454626
 10
-4.949999999997531
 20
4.278896730922493
 30
0.0
 10
-5.559298307797009
 20
4.707934174292659
 30
0.0
 10
-6.50317955240547
 20
5.761606748659004
 30
0.0
 10
-7.944438645252534
 20
5.945304044878181
 30
0.0
 10
-8.549999999997531
 20
5.894238699237208
 30
0.0
 11
-4.949999999997531
 21
4.278896730922493
 31
0.0
 11
-6.749999999997531
 21
5.604739105154154
 31
0.0
 11
-8.549999999997531
 21
5.894238699237208
 31
0.0
  0
SPLINE
  5
3CD3
330
1F
100
AcDbEntity
  8
AM_0
100
AcDbSpline
210
0.0
220
0.0
230
1.0
 70
     8
 71
     3
 72
     8
 73
     4
 74
     0
 42
0.0000000001
 43
0.0000000001
 40
11.46537929237052
 40
11.46537929237052
 40
11.46537929237052
 40
11.46537929237052
 40
14.48999654934396
 40
14.48999654934396
 40
14.48999654934396
 40
14.48999654934396
 10
-4.949999999998349
 20
2.777039208251195
 30
0.0
 10
-3.295143247142992
 20
1.878644706348076
 30
0.0
 10
-1.647571623570262
 20
0.939322353162278
 30
0.0
 10
0.0000000000024684
 20
-0.0000000000231111
 30
0.0
  0
SPLINE
  5
3CD4
330
1F
100
AcDbEntity
  8
AM_0
100
AcDbSpline
210
0.0
220
0.0
230
1.0
 70
     8
 71
     3
 72
     8
 73
     4
 74
     0
 42
0.0000000001
 43
0.0000000001
 40
9.532359626456116
 40
9.532359626456116
 40
9.532359626456116
 40
9.532359626456116
 40
12.40023413887867
 40
12.40023413887867
 40
12.40023413887867
 40
12.40023413887867
 10
-4.950000000013083
 20
4.278896730930269
 30
0.0
 10
-3.361936966599556
 20
3.511992490042344
 30
0.0
 10
-1.783996883805398
 20
2.686568455726725
 30
0.0
 10
-0.2102630263096998
 20
1.836828641872615
 30
0.0
  0
SPLINE
  5
3CD5
330
1F
100
AcDbEntity
  8
AM_0
100
AcDbSpline
210
0.0
220
0.0
230
1.0
 70
     8
 71
     3
 72
     9
 73
     5
 74
     3
 42
0.0000000001
 43
0.0000000001
 44
0.0000000001
 12
-0.9981770100665448
 22
0.0603544246481782
 32
0.0
 13
-0.7796355206958411
 23
0.6262335465857167
 33
0.0
 40
0.0
 40
0.0
 40
0.0
 40
0.0
 40
1.811374284107791
 40
3.970990199216236
 40
3.970990199216236
 40
3.970990199216236
 40
3.970990199216236
 10
-11.24999999999753
 20
5.894161383785145
 30
0.0
 10
-11.85269072233824
 20
5.930602868031756
 30
0.0
 10
-13.24424272854857
 20
5.884553389140797
 30
0.0
 10
-14.28876224050465
 20
6.839317469772009
 30
0.0
 10
-14.84999999999751
 20
7.290125447699115
 30
0.0
 11
-11.24999999999753
 21
5.894161383785145
 31
0.0
 11
-13.04999999999753
 21
6.096835499367303
 31
0.0
 11
-14.84999999999751
 21
7.290125447699115
 31
0.0
  0
SPLINE
  5
3CD6
330
1F
100
AcDbEntity
  8
AM_0
100
AcDbSpline
210
0.0
220
0.0
230
1.0
 70
     8
 71
     3
 72
     9
 73
     5
 74
     3
 42
0.0000000001
 43
0.0000000001
 44
0.0000000001
 12
-0.8654492111584159
 22
0.5009966695550736
 32
0.0
 13
-0.9979873375911875
 23
0.0634135159698054
 33
0.0
 40
0.0
 40
0.0
 40
0.0
 40
0.0
 40
1.915504061272762
 40
3.756188109603582
 40
3.756188109603582
 40
3.756188109603582
 40
3.756188109603582
 10
-11.24999999999753
 20
6.912437005457919
 30
0.0
 10
-11.80259049293061
 20
7.232324057196876
 30
0.0
 10
-13.03136769562859
 20
7.548589061960527
 30
0.0
 10
-14.23767354241743
 20
7.913489479007381
 30
0.0
 10
-14.84999999999751
 20
7.952397561438779
 30
0.0
 11
-11.24999999999753
 21
6.912437005457919
 31
0.0
 11
-13.04999999999753
 21
7.567536851857262
 31
0.0
 11
-14.84999999999751
 21
7.952397561438779
 31
0.0
  0
SPLINE
  5
3CD7
330
1F
100
AcDbEntity
  8
AM_0
100
AcDbSpline
210
0.0
220
0.0
230
1.0
 70
     8
 71
     3
 72
     8
 73
     4
 74
     0
 42
0.0000000001
 43
0.0000000001
 40
7.657131739025505
 40
7.657131739025505
 40
7.657131739025505
 40
7.657131739025505
 40
9.280732515295124
 40
9.280732515295124
 40
9.280732515295124
 40
9.280732515295124
 10
-11.24999999999753
 20
5.894161383785145
 30
0.0
 10
-10.34563333327713
 20
5.502059868936154
 30
0.0
 10
-9.446008947892538
 20
5.083316220817228
 30
0.0
 10
-8.54999999999835
 20
4.644261047374171
 30
0.0
  0
SPLINE
  5
3CD8
330
1F
100
AcDbEntity
  8
AM_0
100
AcDbSpline
210
0.0
220
0.0
230
1.0
 70
     8
 71
     3
 72
     8
 73
     4
 74
     0
 42
0.0000000001
 43
0.0000000001
 40
5.779271486987545
 40
5.779271486987545
 40
5.779271486987545
 40
5.779271486987545
 40
7.377122246071414
 40
7.377122246071414
 40
7.377122246071414
 40
7.377122246071414
 10
-11.24999999999753
 20
6.912437005457919
 30
0.0
 10
-10.34479512136675
 20
6.603126467420266
 30
0.0
 10
-9.445136226582585
 20
6.261755135920517
 30
0.0
 10
-8.549999999997531
 20
5.894238699237208
 30
0.0
  0
SPLINE
  5
3CD9
330
1F
100
AcDbEntity
  8
AM_0
100
AcDbSpline
210
0.0
220
0.0
230
1.0
 70
     8
 71
     3
 72
     9
 73
     5
 74
     3
 42
0.0000000001
 43
0.0000000001
 44
0.0000000001
 12
-0.9326421945680834
 22
-0.3608026287476699
 32
0.0
 13
-0.881614434368889
 23
0.4719703265168522
 33
0.0
 40
0.0
 40
0.0
 40
0.0
 40
0.0
 40
1.828859383693016
 40
3.895658733065394
 40
3.895658733065394
 40
3.895658733065394
 40
3.895658733065394
 10
-17.54999999999751
 20
8.092443230219393
 30
0.0
 10
-18.11855714305214
 20
7.872490805803964
 30
0.0
 10
-19.51816576126186
 20
7.404728132756744
 30
0.0
 10
-20.54262662021387
 20
8.459378707004903
 30
0.0
 10
-21.14999999999751
 20
8.784534694927602
 30
0.0
 11
-17.54999999999751
 21
8.092443230219393
 31
0.0
 11
-19.34999999999751
 21
7.768828265605584
 31
0.0
 11
-21.14999999999751
 21
8.784534694927602
 31
0.0
  0
SPLINE
  5
3CDA
330
1F
100
AcDbEntity
  8
AM_0
100
AcDbSpline
210
0.0
220
0.0
230
1.0
 70
     8
 71
     3
 72
     9
 73
     5
 74
     0
 42
0.0000000001
 43
0.0000000001
 40
0.0
 40
0.0
 40
0.0
 40
0.0
 40
1.008936993267342
 40
1.777052715134862
 40
1.777052715134862
 40
1.777052715134862
 40
1.777052715134862
 10
-17.54999999999751
 20
8.459393248111151
 30
0.0
 10
-18.13687811270899
 20
8.31094302373212
 30
0.0
 10
-19.21758410235504
 20
8.078965546232479
 30
0.0
 10
-20.25473992248077
 20
8.376471942300891
 30
0.0
 10
-20.70101428201366
 20
8.50517639887043
 30
0.0
  0
SPLINE
  5
3CDB
330
1F
100
AcDbEntity
  8
AM_0
100
AcDbSpline
210
0.0
220
0.0
230
1.0
 70
     8
 71
     3
 72
     8
 73
     4
 74
     0
 42
0.0000000001
 43
0.0000000001
 40
3.939746932601999
 40
3.939746932601999
 40
3.939746932601999
 40
3.939746932601999
 40
5.519086939037594
 40
5.519086939037594
 40
5.519086939037594
 40
5.519086939037594
 10
-17.54999999999751
 20
8.092443230219393
 30
0.0
 10
-16.64341721334264
 20
7.861986060259592
 30
0.0
 10
-15.74376293902448
 20
7.592604512779549
 30
0.0
 10
-14.84999999999751
 20
7.290125447698706
 30
0.0
  0
SPLINE
  5
3CDC
330
1F
100
AcDbEntity
  8
AM_0
100
AcDbSpline
210
0.0
220
0.0
230
1.0
 70
     8
 71
     3
 72
     8
 73
     4
 74
     0
 42
0.0000000001
 43
0.0000000001
 40
2.130606102564619
 40
2.130606102564619
 40
2.130606102564619
 40
2.130606102564619
 40
3.679329335050426
 40
3.679329335050426
 40
3.679329335050426
 40
3.679329335050426
 10
-17.54999999999751
 20
8.45939324811156
 30
0.0
 10
-16.64290516373245
 20
8.331409244614402
 30
0.0
 10
-15.74321576352656
 20
8.160615135188932
 30
0.0
 10
-14.85000000000161
 20
7.952397561438779
 30
0.0
  0
SPLINE
  5
3CDD
330
1F
100
AcDbEntity
  8
AM_0
100
AcDbSpline
210
0.0
220
0.0
230
1.0
 70
     8
 71
     3
 72
     9
 73
     5
 74
     3
 42
0.0000000001
 43
0.0000000001
 44
0.0000000001
 12
0.9763857352009789
 22
-0.2160344789519577
 32
0.0
 13
0.7423022879960352
 23
0.6700651559630985
 33
0.0
 40
0.0
 40
0.0
 40
0.0
 40
0.0
 40
1.804126022037026
 40
3.912599793345595
 40
3.912599793345595
 40
3.912599793345595
 40
3.912599793345595
 10
-33.74999999999752
 20
7.410052120364248
 30
0.0
 10
-33.16282569585691
 20
7.280134311986103
 30
0.0
 10
-31.78817640851774
 20
7.024479762937803
 30
0.0
 10
-30.67170830153818
 20
7.915194607399362
 30
0.0
 10
-30.14999999999751
 20
8.386132876204689
 30
0.0
 11
-33.74999999999752
 21
7.410052120364248
 31
0.0
 11
-31.94999999999751
 21
7.288106626838949
 31
0.0
 11
-30.14999999999751
 21
8.386132876204689
 31
0.0
  0
SPLINE
  5
3CDE
330
1F
100
AcDbEntity
  8
AM_0
100
AcDbSpline
210
0.0
220
0.0
230
1.0
 70
     8
 71
     3
 72
     9
 73
     5
 74
     3
 42
0.0000000001
 43
0.0000000001
 44
0.0000000001
 12
0.912746472641685
 22
-0.4085264699871499
 32
0.0
 13
0.8865643338464938
 23
0.4626053198476241
 33
0.0
 40
0.0
 40
0.0
 40
0.0
 40
0.0
 40
1.923860792333644
 40
3.911536643958571
 40
3.911536643958571
 40
3.911536643958571
 40
3.911536643958571
 10
-27.44999999999752
 20
8.828176806329198
 30
0.0
 10
-26.86466761597879
 20
8.566194120249615
 30
0.0
 10
-25.60935485213775
 20
7.673833823812673
 30
0.0
 10
-24.43740083909705
 20
8.685649232149444
 30
0.0
 10
-23.84999999999751
 20
8.992152373180893
 30
0.0
 11
-27.44999999999752
 21
8.828176806329198
 31
0.0
 11
-25.64999999999752
 21
8.149030026701526
 31
0.0
 11
-23.84999999999751
 21
8.992152373180893
 31
0.0
  0
SPLINE
  5
3CDF
330
1F
100
AcDbEntity
  8
AM_0
100
AcDbSpline
210
0.0
220
0.0
230
1.0
 70
     8
 71
     3
 72
     8
 73
     4
 74
     0
 42
0.0000000001
 43
0.0000000001
 40
5.307227569610006
 40
5.307227569610006
 40
5.307227569610006
 40
5.307227569610006
 40
5.635889483499305
 40
5.635889483499305
 40
5.635889483499305
 40
5.635889483499305
 10
-33.74999999999752
 20
7.41005212036343
 30
0.0
 10
-33.93632558317883
 20
7.348975674845265
 30
0.0
 10
-34.12239001132527
 20
7.286432060516695
 30
0.0
 10
-34.30820263147686
 20
7.22247378904503
 30
0.0
  0
SPLINE
  5
3CE0
330
1F
100
AcDbEntity
  8
AM_0
100
AcDbSpline
210
0.0
220
0.0
230
1.0
 70
     8
 71
     3
 72
     9
 73
     5
 74
     3
 42
0.0000000001
 43
0.0000000001
 44
0.0000000001
 12
0.8362726111173678
 22
0.5483138881105781
 32
0.0
 13
0.9001039467105618
 23
-0.4356752059918834
 33
0.0
 40
0.0
 40
0.0
 40
0.0
 40
0.0
 40
2.001257694404568
 40
3.908166099978327
 40
3.908166099978327
 40
3.908166099978327
 40
3.908166099978327
 10
-24.52499999999751
 20
-8.999959824147159
 30
0.0
 10
-23.9671343341247
 20
-8.634187361637099
 30
0.0
 10
-22.77751957576734
 20
-7.697830964103125
 30
0.0
 10
-21.49713859395501
 20
-8.477891002467801
 30
0.0
 10
-20.92499999999752
 20
-8.754821906603135
 30
0.0
 11
-24.52499999999751
 21
-8.999959824147159
 31
0.0
 11
-22.72499999999751
 21
-8.125298541470552
 31
0.0
 11
-20.92499999999752
 21
-8.754821906603135
 31
0.0
  0
SPLINE
  5
3CE1
330
1F
100
AcDbEntity
  8
AM_0
100
AcDbSpline
210
0.0
220
0.0
230
1.0
 70
     8
 71
     3
 72
     8
 73
     4
 74
     2
 42
0.0000000001
 43
0.0000000001
 44
0.0000000001
 12
0.8857418982387404
 22
0.4641780797328035
 32
0.0
 13
0.9626176208368644
 23
-0.2708640176442318
 33
0.0
 40
0.0
 40
0.0
 40
0.0
 40
0.0
 40
1.798107973973418
 40
1.798107973973418
 40
1.798107973973418
 40
1.798107973973418
 10
-24.52499999999751
 20
-8.537782610186647
 30
0.0
 10
-23.99411347662904
 20
-8.25956850801624
 30
0.0
 10
-23.35106062060241
 20
-7.966128923220142
 30
0.0
 10
-22.77409714729771
 20
-8.128476506549665
 30
0.0
 11
-24.52499999999751
 21
-8.537782610186647
 31
0.0
 11
-22.77409714729771
 21
-8.128476506549665
 31
0.0
  0
SPLINE
  5
3CE2
330
1F
100
AcDbEntity
  8
AM_0
100
AcDbSpline
210
0.0
220
0.0
230
1.0
 70
     8
 71
     3
 72
     9
 73
     5
 74
     3
 42
0.0000000001
 43
0.0000000001
 44
0.0000000001
 12
-0.8798907302369245
 22
0.4751760756215865
 32
0.0
 13
-0.9606681205777119
 23
-0.2776990495224759
 33
0.0
 40
0.0
 40
0.0
 40
0.0
 40
0.0
 40
2.055528968490578
 40
3.894183942881107
 40
3.894183942881107
 40
3.894183942881107
 40
3.894183942881107
 10
-27.22499999999751
 20
-8.853000024340778
 30
0.0
 10
-27.82788029503362
 20
-8.527420628149497
 30
0.0
 10
-28.88336347378885
 20
-7.447618108068724
 30
0.0
 10
-30.23622092712616
 20
-8.065266512919839
 30
0.0
 10
-30.8250000000057
 20
-8.235464092515845
 30
0.0
 11
-27.22499999999751
 21
-8.853000024340778
 31
0.0
 11
-29.02499999999752
 21
-7.860427941162967
 31
0.0
 11
-30.8250000000057
 21
-8.235464092515845
 31
0.0
  0
SPLINE
  5
3CE3
330
1F
100
AcDbEntity
  8
AM_0
100
AcDbSpline
210
0.0
220
0.0
230
1.0
 70
     8
 71
     3
 72
     9
 73
     5
 74
     3
 42
0.0000000001
 43
0.0000000001
 44
0.0000000001
 12
-0.7007569881530845
 22
0.7134000585608455
 32
0.0
 13
-0.954040132710995
 23
-0.2996788700872767
 33
0.0
 40
0.0
 40
0.0
 40
0.0
 40
0.0
 40
2.223836354223672
 40
4.05799640965187
 40
4.05799640965187
 40
4.05799640965187
 40
4.05799640965187
 10
-27.22499999999751
 20
-8.06647013085371
 30
0.0
 10
-27.74445628857455
 20
-7.537641802409408
 30
0.0
 10
-28.815474344321
 20
-6.337551566156482
 30
0.0
 10
-30.24171256576948
 20
-6.929661867076512
 30
0.0
 10
-30.82500000000079
 20
-7.112881538066491
 30
0.0
 11
-27.22499999999751
 21
-8.06647013085371
 31
0.0
 11
-29.02499999999752
 21
-6.760542058421376
 31
0.0
 11
-30.82500000000079
 21
-7.112881538066491
 31
0.0
  0
SPLINE
  5
3CE4
330
1F
100
AcDbEntity
  8
AM_0
100
AcDbSpline
210
0.0
220
0.0
230
1.0
 70
     8
 71
     3
 72
     8
 73
     4
 74
     0
 42
0.0000000001
 43
0.0000000001
 40
3.600603813281411
 40
3.600603813281411
 40
3.600603813281411
 40
3.600603813281411
 40
5.175009087017798
 40
5.175009087017798
 40
5.175009087017798
 40
5.175009087017798
 10
-30.82499999999833
 20
-8.235464092517483
 30
0.0
 10
-31.73176411878518
 20
-8.022659641294874
 30
0.0
 10
-32.6314216237041
 20
-7.769930238261028
 30
0.0
 10
-33.52499999999752
 20
-7.483048294808756
 30
0.0
  0
SPLINE
  5
3CE5
330
1F
100
AcDbEntity
  8
AM_0
100
AcDbSpline
210
0.0
220
0.0
230
1.0
 70
     8
 71
     3
 72
     8
 73
     4
 74
     0
 42
0.0000000001
 43
0.0000000001
 40
5.425905956994038
 40
5.425905956994038
 40
5.425905956994038
 40
5.425905956994038
 40
7.019702002723574
 40
7.019702002723574
 40
7.019702002723574
 40
7.019702002723574
 10
-30.82499999999751
 20
-7.112881538067719
 30
0.0
 10
-31.73040451719286
 20
-6.818789033398386
 30
0.0
 10
-32.63006600216274
 20
-6.49149661774754
 30
0.0
 10
-33.52499999999752
 20
-6.136875058545726
 30
0.0
  0
SPLINE
  5
3CE6
330
1F
100
AcDbEntity
  8
AM_0
100
AcDbSpline
210
0.0
220
0.0
230
1.0
 70
     8
 71
     3
 72
     9
 73
     5
 74
     3
 42
0.0000000001
 43
0.0000000001
 44
0.0000000001
 12
-0.8041147091497434
 22
0.594474166410134
 32
0.0
 13
-0.9870280271745954
 23
-0.1605480413204284
 33
0.0
 40
0.0
 40
0.0
 40
0.0
 40
0.0
 40
2.153998256535524
 40
3.960764656930601
 40
3.960764656930601
 40
3.960764656930601
 40
3.960764656930601
 10
-33.52499999999752
 20
-7.483048294813258
 30
0.0
 10
-34.10235389385189
 20
-7.056216188812312
 30
0.0
 10
-35.11915273886919
 20
-6.133539563775762
 30
0.0
 10
-36.5305569747566
 20
-6.047044155833277
 30
0.0
 10
-37.1250000000057
 20
-6.143735091402274
 30
0.0
 11
-33.52499999999752
 21
-7.483048294813258
 31
0.0
 11
-35.32499999999751
 21
-6.299955530420672
 31
0.0
 11
-37.1250000000057
 21
-6.143735091402274
 31
0.0
  0
SPLINE
  5
3CE7
330
1F
100
AcDbEntity
  8
AM_0
100
AcDbSpline
210
0.0
220
0.0
230
1.0
 70
     8
 71
     3
 72
     9
 73
     5
 74
     3
 42
0.0000000001
 43
0.0000000001
 44
0.0000000001
 12
-0.5352929995799657
 22
0.8446664457646479
 32
0.0
 13
-0.9737293462750439
 23
-0.227708498310396
 33
0.0
 40
0.0
 40
0.0
 40
0.0
 40
0.0
 40
2.553020842839675
 40
4.3680361618055
 40
4.3680361618055
 40
4.3680361618055
 40
4.3680361618055
 10
-33.52499999999752
 20
-6.143735091402274
 30
0.0
 10
-33.98053806164879
 20
-5.424918077640789
 30
0.0
 10
-34.95128332100005
 20
-3.878212092448097
 30
0.0
 10
-36.53588877336488
 20
-4.428450848882101
 30
0.0
 10
-37.1250000000368
 20
-4.566215653112791
 30
0.0
 11
-33.52499999999752
 21
-6.143735091402274
 31
0.0
 11
-35.32499999999751
 21
-4.333233662523022
 31
0.0
 11
-37.1250000000368
 21
-4.566215653112791
 31
0.0
  0
SPLINE
  5
3CE8
330
1F
100
AcDbEntity
  8
AM_0
100
AcDbSpline
210
0.0
220
0.0
230
1.0
 70
     8
 71
     3
 72
     8
 73
     4
 74
     0
 42
0.0000000001
 43
0.0000000001
 40
7.307451768075528
 40
7.307451768075528
 40
7.307451768075528
 40
7.307451768075528
 40
8.927702162744216
 40
8.927702162744216
 40
8.927702162744216
 40
8.927702162744216
 10
-37.12499999999752
 20
-6.143735091405548
 30
0.0
 10
-38.02959112684318
 20
-5.764188058301621
 30
0.0
 10
-38.92921783273147
 20
-5.356750911685272
 30
0.0
 10
-39.82499999999751
 20
-4.927715149737329
 30
0.0
  0
SPLINE
  5
3CE9
330
1F
100
AcDbEntity
  8
AM_0
100
AcDbSpline
210
0.0
220
0.0
230
1.0
 70
     8
 71
     3
 72
     8
 73
     4
 74
     0
 42
0.0000000001
 43
0.0000000001
 40
9.170645305362121
 40
9.170645305362121
 40
9.170645305362121
 40
9.170645305362121
 40
10.79891126818747
 40
10.79891126818747
 40
10.79891126818747
 40
10.79891126818747
 10
-37.12499999999752
 20
-4.566215653131209
 30
0.0
 10
-38.0281427530677
 20
-4.139487766097723
 30
0.0
 10
-38.92778179587409
 20
-3.692505270640637
 30
0.0
 10
-39.82500000012848
 20
-3.231528142855992
 30
0.0
  0
SPLINE
  5
3CEA
330
1F
100
AcDbEntity
  8
AM_0
100
AcDbSpline
210
0.0
220
0.0
230
1.0
 70
     8
 71
     3
 72
     9
 73
     5
 74
     3
 42
0.0000000001
 43
0.0000000001
 44
0.0000000001
 12
-0.6468728043913115
 22
0.7625979117063725
 32
0.0
 13
-0.9968429144675981
 23
0.0793990168436926
 33
0.0
 40
0.0
 40
0.0
 40
0.0
 40
0.0
 40
2.17119334027346
 40
4.075276506119635
 40
4.075276506119635
 40
4.075276506119635
 40
4.075276506119635
 10
-39.82499999999751
 20
-4.927715149737329
 30
0.0
 10
-40.29316197496366
 20
-4.375799314002888
 30
0.0
 10
-41.54346316731884
 20
-3.748507157738194
 30
0.0
 10
-42.79230939585391
 20
-3.143079284839447
 30
0.0
 10
-43.42499999999751
 20
-3.092685174387176
 30
0.0
 11
-39.82499999999751
 21
-4.927715149737329
 31
0.0
 11
-41.62499999999751
 21
-3.713597972176691
 31
0.0
 11
-43.42499999999751
 21
-3.092685174387176
 31
0.0
  0
SPLINE
  5
3CEB
330
1F
100
AcDbEntity
  8
AM_0
100
AcDbSpline
210
0.0
220
0.0
230
1.0
 70
     8
 71
     3
 72
     9
 73
     5
 74
     3
 42
0.0000000001
 43
0.0000000001
 44
0.0000000001
 12
-0.7092284403967371
 22
0.7049787367945307
 32
0.0
 13
-0.9773066838349791
 23
-0.211829284404863
 33
0.0
 40
0.0
 40
0.0
 40
0.0
 40
0.0
 40
2.680907314887408
 40
4.482320691770388
 40
4.482320691770388
 40
4.482320691770388
 40
4.482320691770388
 10
-39.82499999999751
 20
-3.231528142923522
 30
0.0
 10
-40.45879190459278
 20
-2.601533925486008
 30
0.0
 10
-41.11408807578159
 20
-0.8304782072100397
 30
0.0
 10
-42.83815555547169
 20
-1.188903827655502
 30
0.0
 10
-43.42499999999751
 20
-1.316101196502992
 30
0.0
 11
-39.82499999999751
 21
-3.231528142923522
 31
0.0
 11
-41.62499999999751
 21
-1.244755878415887
 31
0.0
 11
-43.42499999999751
 21
-1.316101196502992
 31
0.0
  0
SPLINE
  5
3CEC
330
1F
100
AcDbEntity
  8
AM_0
100
AcDbSpline
210
0.0
220
0.0
230
1.0
 70
     8
 71
     3
 72
     8
 73
     4
 74
     0
 42
0.0000000001
 43
0.0000000001
 40
11.10916553453163
 40
11.10916553453163
 40
11.10916553453163
 40
11.10916553453163
 40
12.75600251548186
 40
12.75600251548186
 40
12.75600251548186
 40
12.75600251548186
 10
-43.42499999999751
 20
-3.09268517429468
 30
0.0
 10
-44.32702210114331
 20
-2.609087302551922
 30
0.0
 10
-45.22663012777224
 20
-2.111927161839685
 30
0.0
 10
-46.12499999999753
 20
-1.607811070541256
 30
0.0
  0
SPLINE
  5
3CED
330
1F
100
AcDbEntity
  8
AM_0
100
AcDbSpline
210
0.0
220
0.0
230
1.0
 70
     8
 71
     3
 72
     8
 73
     4
 74
     0
 42
0.0000000001
 43
0.0000000001
 40
12.98298737538389
 40
12.98298737538389
 40
12.98298737538389
 40
12.98298737538389
 40
14.43901837670148
 40
14.43901837670148
 40
14.43901837670148
 40
14.43901837670148
 10
-43.42499999994431
 20
-1.31610119653205
 30
0.0
 10
-44.22324693502284
 20
-0.8803849243236951
 30
0.0
 10
-45.02071956371489
 20
-0.4401924621733971
 30
0.0
 10
-45.81819219240776
 20
-0.0000000000230984
 30
0.0
  0
SPLINE
  5
3CEE
330
1F
100
AcDbEntity
  8
AM_0
100
AcDbSpline
210
0.0
220
0.0
230
1.0
 70
     8
 71
     3
 72
     9
 73
     5
 74
     3
 42
0.0000000001
 43
0.0000000001
 44
0.0000000001
 12
-0.6072898004698009
 22
0.7944803951296406
 32
0.0
 13
-0.9588635601642705
 23
-0.2838673510446389
 33
0.0
 40
0.0
 40
0.0
 40
0.0
 40
0.0
 40
2.589985704465274
 40
4.392964165859438
 40
4.392964165859438
 40
4.392964165859438
 40
4.392964165859438
 10
-46.12499999999752
 20
0.1693427862692744
 30
0.0
 10
-46.6492906338923
 20
0.855240408223838
 30
0.0
 10
-47.49008625093479
 20
2.244120295531894
 30
0.0
 10
-49.14872988453354
 20
2.305800832662404
 30
0.0
 10
-49.72499999999751
 20
2.135198592720237
 30
0.0
 11
-46.12499999999752
 21
0.1693427862692744
 31
0.0
 11
-47.92499999999751
 21
2.031606448948244
 31
0.0
 11
-49.72499999999751
 21
2.135198592720237
 31
0.0
  0
SPLINE
  5
3CEF
330
1F
100
AcDbEntity
  8
AM_0
100
AcDbSpline
210
0.0
220
0.0
230
1.0
 70
     8
 71
     3
 72
     8
 73
     4
 74
     0
 42
0.0000000001
 43
0.0000000001
 40
14.25229543663493
 40
14.25229543663493
 40
14.25229543663493
 40
14.25229543663493
 40
14.43901837670146
 40
14.43901837670146
 40
14.43901837670146
 40
14.43901837670146
 10
-46.12499999999752
 20
0.1693427862692744
 30
0.0
 10
-46.02272964211476
 20
0.11290148442786
 30
0.0
 10
-45.92046091726085
 20
0.0564507422023809
 30
0.0
 10
-45.81819219240776
 20
-0.0000000000230983
 30
0.0
  0
LINE
  5
3CF1
330
1F
100
AcDbEntity
  8
AM_11
100
AcDbLine
 10
0.0000000000008441
 20
8.999999999976486
 30
0.0
 11
-49.99999999999751
 21
8.999999999976479
 31
0.0
  0
LINE
  5
3CF2
330
1F
100
AcDbEntity
  8
AM_7
  6
AM_ISO08W050X2
100
AcDbLine
 10
4.557768030856557
 20
-0.0000000000130669
 30
0.0
 11
-117.7536986173885
 21
-0.0000000000131202
 31
0.0
1001
GENIUS_GENODEF_13
1002
{
1000
HIER
1070
     0
1002
}
1002
{
1000
MANEDIT
1070
     0
1002
}
1002
{
1000
NOSEL
1070
     0
1002
}
1002
{
1000
BEHIND
1070
     0
1002
}
1002
{
1000
REACTOR
1002
}
1001
GENIUS_GENOBJ-N-CEN_13
1002
{
1000
OWNER
1000
GEN
1002
}
  0
LINE
  5
3CF3
330
1F
100
AcDbEntity
  8
AM_11
100
AcDbLine
 10
-49.99999999999752
 20
-9.000000000023501
 30
0.0
 11
0.0000000000024684
 21
-9.00000000002352
 31
0.0
  0
LINE
  5
3CF4
330
1F
100
AcDbEntity
  8
AM_0
100
AcDbLine
 10
0.0000000000024684
 20
-0.0000000000235204
 30
0.0
 11
0.0000000000024812
 21
8.999999999976486
 31
0.0
  0
ARC
  5
3CF5
330
1F
100
AcDbEntity
  8
AM_0
100
AcDbCircle
 10
3.574211727651618
 20
-4.578984296515639
 30
0.0
 40
5.47325660792889
100
AcDbArc
 50
159.3923269732576
 51
208.5609268810303
  0
LINE
  5
3CF6
330
1F
100
AcDbEntity
  8
AM_0
100
AcDbLine
 10
0.0000000000024684
 20
-9.00000000002352
 30
0.0
 11
0.0000000000024684
 21
-1.80000000002352
 31
0.0
  0
LINE
  5
3CF7
330
1F
100
AcDbEntity
  8
AM_0
100
AcDbLine
 10
-0.1889999999975643
 20
-8.520194083742499
 30
0.0
 11
-0.1889999999975643
 21
-2.388416138236844
 31
0.0
  0
LINE
  5
3CF8
330
1F
100
AcDbEntity
  8
AM_0
100
AcDbLine
 10
0.0000000000024684
 20
-0.0000000000235204
 30
0.0
 11
-0.1599166964562627
 21
-1.523016156777667
 31
0.0
  0
LINE
  5
3CF9
330
1F
100
AcDbEntity
  8
AM_0
100
AcDbLine
 10
-1.921543555940375
 20
4.800853465195401
 30
0.0
 11
-4.241830015836772
 21
5.41521616052723
 31
0.0
  0
LINE
  5
3CFA
330
1F
100
AcDbEntity
  8
AM_0
100
AcDbLine
 10
-0.1889999999975643
 20
1.799999999976888
 30
0.0
 11
-1.921543555940375
 21
4.800853465195401
 31
0.0
  0
LINE
  5
3CFB
330
1F
100
AcDbEntity
  8
AM_0
100
AcDbLine
 10
0.0000000000024684
 20
-0.0000000000235204
 30
0.0
 11
-0.1889999999975643
 21
1.799999999976888
 31
0.0
  0
LINE
  5
3CFC
330
1F
100
AcDbEntity
  8
AM_0
100
AcDbLine
 10
0.0000000000024684
 20
-1.80000000002352
 30
0.0
 11
-1.039230484538698
 21
-0.0000000000231111
 31
0.0
  0
LINE
  5
3CFD
330
1F
100
AcDbEntity
  8
AM_0
100
AcDbLine
 10
-0.1889999999975643
 20
-2.388416138236844
 30
0.0
 11
0.0000000000024684
 21
-1.80000000002352
 31
0.0
  0
LINE
  5
3CFE
330
1F
100
AcDbEntity
  8
AM_0
100
AcDbLine
 10
-1.548824374241381
 20
-2.652578577323093
 30
0.0
 11
-0.1889999999975643
 21
-2.388416138236844
 31
0.0
  0
LINE
  5
3CFF
330
1F
100
AcDbEntity
  8
AM_0
100
AcDbLine
 10
-4.241830015836772
 20
-1.440000000023438
 30
0.0
 11
-0.2078460969054376
 21
-1.440000000023438
 31
0.0
  0
LINE
  5
3D00
330
1F
100
AcDbEntity
  8
AM_0
100
AcDbLine
 10
-4.241830015836772
 20
-1.440000000023438
 30
0.0
 11
-1.548824374241381
 21
-2.652578577323093
 31
0.0
  0
LINE
  5
3D01
330
1F
100
AcDbEntity
  8
AM_0
100
AcDbLine
 10
-4.241830015836772
 20
-0.0000000000235204
 30
0.0
 11
-4.241830015836772
 21
-1.440000000023438
 31
0.0
  0
LINE
  5
3D02
330
1F
100
AcDbEntity
  8
AM_0
100
AcDbLine
 10
0.0000000000024684
 20
-0.0000000000235204
 30
0.0
 11
-4.241830015836772
 21
-0.0000000000235204
 31
0.0
  0
LINE
  5
3D03
330
1F
100
AcDbEntity
  8
AM_0
100
AcDbLine
 10
-4.949999999997531
 20
2.777039208250786
 30
0.0
 11
-4.949999999997531
 21
4.278896730922493
 31
0.0
  0
LINE
  5
3D04
330
1F
100
AcDbEntity
  8
AM_0
100
AcDbLine
 10
-0.1889999999975643
 20
-8.520194083742499
 30
0.0
 11
-1.232999999997433
 21
-7.195709979854755
 31
0.0
  0
LINE
  5
3D05
330
1F
100
AcDbEntity
  8
AM_0
100
AcDbLine
 10
0.0000000000024684
 20
-9.00000000002352
 30
0.0
 11
-0.1889999999975643
 21
-8.520194083742499
 31
0.0
  0
LINE
  5
3D06
330
1F
100
AcDbEntity
  8
AM_0
100
AcDbLine
 10
-3.599999999997531
 20
-8.748655661202347
 30
0.0
 11
-3.599999999997531
 21
-7.892234303178438
 31
0.0
  0
LINE
  5
3D07
330
1F
100
AcDbEntity
  8
AM_0
100
AcDbLine
 10
-11.24999999999753
 20
5.894161383785145
 30
0.0
 11
-11.24999999999753
 21
6.912437005457919
 31
0.0
  0
LINE
  5
3D08
330
1F
100
AcDbEntity
  8
AM_0
100
AcDbLine
 10
-14.84999999999751
 20
7.290125447699115
 30
0.0
 11
-14.84999999999751
 21
7.952397561438779
 31
0.0
  0
LINE
  5
3D09
330
1F
100
AcDbEntity
  8
AM_0
100
AcDbLine
 10
-17.54999999999751
 20
8.092443230219393
 30
0.0
 11
-17.54999999999751
 21
8.459393248111151
 31
0.0
  0
LINE
  5
3D0A
330
1F
100
AcDbEntity
  8
AM_0
100
AcDbLine
 10
-13.49999999999753
 20
-5.77625209388908
 30
0.0
 11
-13.49999999999753
 21
-4.155887351104921
 31
0.0
  0
LINE
  5
3D0B
330
1F
100
AcDbEntity
  8
AM_0
100
AcDbLine
 10
-16.19999999999342
 20
-4.511295834201665
 30
0.0
 11
-16.19999999999752
 21
-2.78784085207104
 31
0.0
  0
LINE
  5
3D0C
330
1F
100
AcDbEntity
  8
AM_0
100
AcDbLine
 10
-8.549999999997531
 20
4.644261047373761
 30
0.0
 11
-8.549999999997531
 21
5.894238699237208
 31
0.0
  0
LINE
  5
3D0D
330
1F
100
AcDbEntity
  8
AM_0
100
AcDbLine
 10
-7.199999999997531
 20
-8.022609335539037
 30
0.0
 11
-7.199999999997531
 21
-6.82489159216535
 31
0.0
  0
LINE
  5
3D0E
330
1F
100
AcDbEntity
  8
AM_0
100
AcDbLine
 10
-9.899999999997531
 20
-7.197685904765294
 30
0.0
 11
-9.899999999997531
 21
-5.789366994192424
 31
0.0
  0
LINE
  5
3D0F
330
1F
100
AcDbEntity
  8
AM_0
100
AcDbLine
 10
-27.22499999999751
 20
-8.853000024340778
 30
0.0
 11
-27.22499999999751
 21
-8.086659752516558
 31
0.0
  0
LINE
  5
3D10
330
1F
100
AcDbEntity
  8
AM_0
100
AcDbLine
 10
-28.79999999999752
 20
2.432943817707658
 30
0.0
 11
-28.8000000000188
 21
3.971412448382439
 31
0.0
  0
LINE
  5
3D11
330
1F
100
AcDbEntity
  8
AM_0
100
AcDbLine
 10
-30.82499999999751
 20
-8.235464092527715
 30
0.0
 11
-30.82499999999751
 21
-7.112881538068128
 31
0.0
  0
LINE
  5
3D12
330
1F
100
AcDbEntity
  8
AM_0
100
AcDbLine
 10
-19.79999999999751
 20
-2.630069429405145
 30
0.0
 11
-19.79999999999751
 21
-0.8477553671434151
 31
0.0
  0
LINE
  5
3D13
330
1F
100
AcDbEntity
  8
AM_0
100
AcDbLine
 10
-26.09999999999752
 20
0.9220165773802847
 30
0.0
 11
-26.09999999999752
 21
2.589926569563518
 31
0.0
  0
LINE
  5
3D14
330
1F
100
AcDbEntity
  8
AM_0
100
AcDbLine
 10
-22.49999999999751
 20
-1.125952274109064
 30
0.0
 11
-22.49999999999751
 21
0.6407383579753088
 31
0.0
  0
LINE
  5
3D15
330
1F
100
AcDbEntity
  8
AM_0
100
AcDbLine
 10
-24.52499999999588
 20
-8.999959824145932
 30
0.0
 11
-24.52500000003926
 21
-8.537782610181736
 31
0.0
  0
LINE
  5
3D18
330
1F
100
AcDbEntity
  8
AM_0
100
AcDbLine
 10
-41.39999999999751
 20
7.925798483959074
 30
0.0
 11
-41.39999999999751
 21
8.363496135860938
 31
0.0
  0
LINE
  5
3D19
330
1F
100
AcDbEntity
  8
AM_0
100
AcDbLine
 10
-38.69999999999751
 20
7.071163345671717
 30
0.0
 11
-38.69999999999751
 21
7.799133633666993
 31
0.0
  0
ARC
  5
3D1B
330
1F
100
AcDbEntity
  8
AM_0
100
AcDbCircle
 10
-49.75303098415565
 20
0.0888880907512659
 30
0.0
 40
8.914533591474183
100
AcDbArc
 50
91.58753039115401
 51
125.8706961729954
  0
LINE
  5
3D1D
330
1F
100
AcDbEntity
  8
AM_0
100
AcDbLine
 10
-43.42499999999751
 20
-3.092685174387176
 30
0.0
 11
-43.42499999999751
 21
-1.316101196502992
 31
0.0
  0
LINE
  5
3D1E
330
1F
100
AcDbEntity
  8
AM_0
100
AcDbLine
 10
-32.39999999999751
 20
4.331996471384077
 30
0.0
 11
-32.39999999999751
 21
5.631027151080885
 31
0.0
  0
LINE
  5
3D1F
330
1F
100
AcDbEntity
  8
AM_0
100
AcDbLine
 10
-35.09999999999751
 20
5.616447923506389
 30
0.0
 11
-35.09999999999669
 21
6.691745204916283
 31
0.0
  0
LINE
  5
3D20
330
1F
100
AcDbEntity
  8
AM_0
100
AcDbLine
 10
-33.52499999999752
 20
-7.483048294808756
 30
0.0
 11
-33.52499999999752
 21
-6.136875058545726
 31
0.0
  0
LINE
  5
3D21
330
1F
100
AcDbEntity
  8
AM_0
100
AcDbLine
 10
-37.12499999999752
 20
-6.143735091405548
 30
0.0
 11
-37.12499999999752
 21
-4.566215653131209
 31
0.0
  0
LINE
  5
3D22
330
1F
100
AcDbEntity
  8
AM_0
100
AcDbLine
 10
-39.82499999999751
 20
-4.927715149737329
 30
0.0
 11
-39.82499999999751
 21
-3.231528142923522
 31
0.0
  0
LINE
  5
3D23
330
1F
100
AcDbEntity
  8
AM_0
100
AcDbLine
 10
-49.99999999999752
 20
-6.528441370998737
 30
0.0
 11
-49.99999999999752
 21
-8.932320954499251
 31
0.0
  0
LINE
  5
3D24
330
1F
100
AcDbEntity
  8
AM_0
100
AcDbLine
 10
-49.99999999999752
 20
0.5065023081722888
 30
0.0
 11
-49.99999999999752
 21
3.621547894776098
 31
0.0
  0
ARC
  5
3D25
330
1F
100
AcDbEntity
  8
AM_0
100
AcDbCircle
 10
-51.0753025548373
 20
-3.114920001987968
 30
0.0
 40
3.741687508381359
100
AcDbArc
 50
73.29857254811539
 51
144.8477357611468
  0
LINE
  5
3D26
330
1F
100
AcDbEntity
  8
AM_0
100
AcDbLine
 10
-54.9942561179659
 20
-2.066274727502903
 30
0.0
 11
-54.11302762711596
 21
-0.9303258072628485
 31
0.0
  0
ARC
  5
3D27
330
1F
100
AcDbEntity
  8
AM_0
100
AcDbCircle
 10
-52.08266015012141
 20
-3.872986900218964
 30
0.0
 40
3.426601808644926
100
AcDbArc
 50
148.1794482968553
 51
257.1590061011211
  0
LINE
  5
3D28
330
1F
100
AcDbEntity
  8
AM_0
100
AcDbLine
 10
-46.12499999999752
 20
-1.607811070541217
 30
0.0
 11
-46.12499999999752
 21
0.1693427862692744
 31
0.0
  0
LINE
  5
3D90
330
1F
100
AcDbEntity
  8
AM_11
100
AcDbLine
 10
0.0000000000024812
 20
-9.000000000023513
 30
0.0
 11
0.0000000000024812
 21
8.999999999976491
 31
0.0
  0
DIMENSION
  5
3EBC
330
1F
100
AcDbEntity
  8
AM_5
100
AcDbDimension
  2
*D5
 10
0.0000000000013773
 20
-24.00000100001294
 30
0.0
 11
-24.99999999999807
 21
-20.90000100001293
 31
0.0
 70
    32
  1
<>
  3
AM_JIS
100
AcDbAlignedDimension
 13
-49.99999999999752
 23
-9.000000000023517
 33
0.0
 14
0.0000000000013785
 24
-5.000000000013084
 34
0.0
 50
0.0000000000001641
100
AcDbRotatedDimension
1001
GENIUS_GENDTOL_13
1000

1000
h7
1000

1040
0.0
  0
DIMENSION
  5
3F4C
330
1F
100
AcDbEntity
  8
AM_5
100
AcDbDimension
  2
*D6
 10
-114.9999999999999
 20
-36.00000100001321
 30
0.0
 11
-57.49999999999928
 21
-32.90000100001321
 31
0.0
 70
    32
  1
<>
  3
AM_JIS
100
AcDbAlignedDimension
 13
0.0000000000013785
 23
-5.000000000013084
 33
0.0
 14
-114.9999999999999
 24
-8.750000000013187
 34
0.0
 50
0.0000000000001132
100
AcDbRotatedDimension
1001
GENIUS_GENDTOL_13
1000

1000
h7
1000

1040
0.0
  0
DIMENSION
  5
406D
330
1F
100
AcDbEntity
  8
AM_5
100
AcDbDimension
  2
*D7
 10
18.55776903085653
 20
-9.000000000023526
 30
0.0
 11
15.45776903085654
 21
-0.0000000000235171
 31
0.0
 70
    32
  1
%%c<>
  3
AM_JIS
100
AcDbAlignedDimension
 13
0.0000000000024812
 23
8.999999999976491
 33
0.0
 14
0.000000000000972
 24
-9.00000000002352
 34
0.0
 50
90.0
100
AcDbRotatedDimension
1001
GENIUS_GENDTOL_13
1000

1000
h7
1000

1040
0.0
  0
LINE
  5
42DB
330
1F
100
AcDbEntity
  8
AM_0
100
AcDbLine
 10
-61.25252258051655
 20
8.999999999976472
 30
0.0
 11
-64.00000000000003
 21
9.999999999986977
 31
0.0
  0
LINE
  5
42DD
330
1F
100
AcDbEntity
  8
AM_0
100
AcDbLine
 10
-61.25252258057417
 20
-9.000000000023522
 30
0.0
 11
-63.99999999999995
 21
-10.00000000001302
 31
0.0
  0
LINE
  5
43CA
330
1F
100
AcDbEntity
  8
AM_0
100
AcDbLine
 10
-63.99999999999995
 20
-10.00000000001302
 30
0.0
 11
-113.7499999999999
 21
-10.00000000001318
 31
0.0
  0
LINE
  5
43CD
330
1F
100
AcDbEntity
  8
AM_0
100
AcDbLine
 10
-113.75
 20
9.999999999986822
 30
0.0
 11
-113.7499999999999
 21
-10.0000000000132
 31
0.0
  0
LINE
  5
43CE
330
1F
100
AcDbEntity
  8
AM_0
100
AcDbLine
 10
-114.9999999999999
 20
-8.750000000013187
 30
0.0
 11
-115.0
 21
8.749999999986819
 31
0.0
  0
DIMENSION
  5
43CF
330
1F
100
AcDbEntity
  8
AM_5
100
AcDbDimension
  2
*D8
 10
-131.7536996173885
 20
-10.00000000001313
 30
0.0
 11
-134.8536996173885
 21
-0.0000000000131739
 31
0.0
 70
    32
  1
%%c<>
  3
AM_JIS
100
AcDbAlignedDimension
 13
-113.75
 23
9.999999999986822
 33
0.0
 14
-113.7499999999999
 24
-10.00000000001314
 34
0.0
 50
270.0
100
AcDbRotatedDimension
1001
GENIUS_GENDTOL_13
1000

1000
h7
1000

1040
0.0
  0
LINE
  5
43DC
330
1F
100
AcDbEntity
  8
AM_0
100
AcDbLine
 10
-64.00000000000003
 20
9.999999999986977
 30
0.0
 11
-113.75
 21
9.999999999986822
 31
0.0
  0
LINE
  5
43E8
330
1F
100
AcDbEntity
  8
AM_0
100
AcDbLine
 10
-113.75
 20
9.999999999986822
 30
0.0
 11
-115.0
 21
8.749999999986819
 31
0.0
1001
GENIUS_GENFIL_13
1070
     0
1040
1.25
1040
1.25
1040
20.0
1040
0.0
1002
{
1002
}
1001
GENIUS_GENODEF_13
1002
{
1000
HIER
1070
     0
1002
}
1002
{
1000
MANEDIT
1070
     0
1002
}
1002
{
1000
NOSEL
1070
     0
1002
}
1002
{
1000
BEHIND
1070
     0
1002
}
1002
{
1000
REACTOR
1002
}
1001
GENIUS_GENOBJ-N-CHA_13
1002
{
1000
OWNER
1000
GEN
1002
}
  0
LINE
  5
43EB
330
1F
100
AcDbEntity
  8
AM_0
100
AcDbLine
 10
-114.9999999999999
 20
-8.750000000013187
 30
0.0
 11
-113.7499999999999
 21
-10.00000000001318
 31
0.0
1001
GENIUS_GENFIL_13
1070
     0
1040
1.25
1040
1.25
1040
20.0
1040
0.0
1002
{
1002
}
1001
GENIUS_GENODEF_13
1002
{
1000
HIER
1070
     0
1002
}
1002
{
1000
MANEDIT
1070
     0
1002
}
1002
{
1000
NOSEL
1070
     0
1002
}
1002
{
1000
BEHIND
1070
     0
1002
}
1002
{
1000
REACTOR
1002
}
1001
GENIUS_GENOBJ-N-CHA_13
1002
{
1000
OWNER
1000
GEN
1002
}
  0
LINE
  5
440F
330
1F
100
AcDbEntity
  8
AM_0
100
AcDbLine
 10
-63.99999999999995
 20
-10.00000000001302
 30
0.0
 11
-64.00000000000003
 21
9.999999999986977
 31
0.0
  0
LINE
  5
4423
330
1F
100
AcDbEntity
  8
AM_11
100
AcDbLine
 10
-49.99999999999752
 20
-9.000000000023515
 30
0.0
 11
-49.99999999999752
 21
8.999999999976491
 31
0.0
  0
LINE
  5
4427
330
1F
100
AcDbEntity
  8
AM_0
100
AcDbLine
 10
-49.72500000005072
 20
0.3586146148651124
 30
0.0
 11
-49.72500000005072
 21
2.135198592749296
 31
0.0
  0
LINE
  5
44A7
330
1F
100
AcDbEntity
  8
AM_0
100
AcDbLine
 10
-49.72499999994426
 20
2.135198592691172
 30
0.0
 11
-49.99999999999751
 21
2.256147375056068
 31
0.0
  0
SPLINE
  5
44AA
330
1F
100
AcDbEntity
  8
AM_0
100
AcDbSpline
210
0.0
220
0.0
230
1.0
 70
     8
 71
     3
 72
     9
 73
     5
 74
     3
 42
0.0000000001
 43
0.0000000001
 44
0.0000000001
 12
-0.6468728043913115
 22
0.7625979117063725
 32
0.0
 13
-0.9968429144675981
 23
0.0793990168436926
 33
0.0
 40
0.0
 40
0.0
 40
0.0
 40
0.0
 40
2.17119334027346
 40
4.122082391749354
 40
4.122082391749354
 40
4.122082391749354
 40
4.122082391749354
 10
-46.12499999999752
 20
-1.607811070541217
 30
0.0
 10
-46.59316197496366
 20
-1.055895234806775
 30
0.0
 10
-47.88244081543182
 20
-0.4860887166209033
 30
0.0
 10
-49.07675669075866
 20
0.306981723979009
 30
0.0
 10
-49.72500000005072
 20
0.3586146148651124
 30
0.0
 11
-46.12499999999752
 21
-1.607811070541217
 31
0.0
 11
-47.92499999999752
 21
-0.3936938929805791
 31
0.0
 11
-49.72500000005072
 21
0.3586146148651124
 31
0.0
  0
SPLINE
  5
44AB
330
1F
100
AcDbEntity
  8
AM_0
100
AcDbSpline
210
0.0
220
0.0
230
1.0
 70
     8
 71
     3
 72
     8
 73
     4
 74
     0
 42
0.0000000001
 43
0.0000000001
 40
11.10916553453163
 40
11.10916553453163
 40
11.10916553453163
 40
11.10916553453163
 40
11.26101721783948
 40
11.26101721783948
 40
11.26101721783948
 40
11.26101721783948
 10
-49.72500000005072
 20
0.3586146148651124
 30
0.0
 10
-49.81684382667593
 20
0.3945361516255992
 30
0.0
 10
-49.90841823215045
 20
0.4313924765830082
 30
0.0
 10
-49.99999999999744
 20
0.4689256735304343
 30
0.0
  0
LINE
  5
44B8
330
1F
100
AcDbEntity
  8
AM_0
100
AcDbLine
 10
-49.99999999999666
 20
8.999999999976479
 30
0.0
 11
-61.25252258051655
 21
8.99999999997647
 31
0.0
  0
LINE
  5
44B9
330
1F
100
AcDbEntity
  8
AM_0
100
AcDbLine
 10
-51.37041059287323
 20
-9.000000000023517
 30
0.0
 11
-61.25252258051653
 21
-9.000000000023524
 31
0.0
  0
LINE
  5
44BA
330
1F
100
AcDbEntity
  8
AM_0
100
AcDbLine
 10
-61.25252258051655
 20
8.999999999976472
 30
0.0
 11
-61.25252258051653
 21
-9.000000000002543
 31
0.0
  0
ARC
  5
4634
330
1F
100
AcDbEntity
  8
AM_0
100
AcDbCircle
 10
-53.95063249012358
 20
6.339133685086708
 30
0.0
 40
1.414352642470083
100
AcDbArc
 50
136.5003226253242
 51
251.8361986721755
  0
ARC
  5
4635
330
1F
100
AcDbEntity
  8
AM_0
100
AcDbCircle
 10
-1.891404064055116
 20
165.123384456764
 30
0.0
 40
168.5149257953812
100
AcDbArc
 50
251.8475827629275
 51
253.412118602232
  0
VIEWPORT
  5
110
330
101
100
AcDbEntity
 67
     1
  8
0
100
AcDbViewport
 10
420.5
 20
297.0
 30
0.0
 40
948.9782706766916
 41
628.452
 68
     1
 69
     1
1001
ACAD
1000
MVIEW
1002
{
1070
    16
1010
0.0
1020
0.0
1030
0.0
1010
0.0
1020
0.0
1030
1.0
1040
0.0
1040
628.452
1040
420.5
1040
297.0
1040
50.0
1040
0.0
1040
0.0
1070
     0
1070
   100
1070
     1
1070
     1
1070
     0
1070
     0
1070
     0
1070
     0
1040
0.0
1040
0.0
1040
0.0
1040
10.0
1040
10.0
1040
10.0
1040
10.0
1070
     0
1002
{
1002
}
1002
}
  0
ENDSEC
  0
SECTION
  2
OBJECTS
  0
DICTIONARY
  5
C
330
0
100
AcDbDictionary
  3
ACAD_GROUP
350
D
  3
ACAD_LAYOUT
350
1A
  3
ACAD_MLINESTYLE
350
17
  3
ACAD_PLOTSETTINGS
350
19
  3
ACAD_PLOTSTYLENAME
350
E
  3
ACDBVARIABLEDICTIONARY
350
34
  3
ACMDICTIONARY
350
43
  3
AMG
350
2B
  3
AMGSNAPSETTINGS
350
6E
  3
ASE_INDEX_DICTIONARY
350
151A
  3
DWGPROPS
350
464D
  3
ACDBHEADERROUNDTRIPXREC
350
4659
  0
DICTIONARY
  5
74
330
1F
100
AcDbDictionary
280
     1
  3
ACAD_INDEX
360
464F
  3
ACAD_LAYOUTSELFREF
360
467C
  0
DICTIONARY
  5
4681
330
101
100
AcDbDictionary
280
     1
  3
ACAD_LAYOUTSELFREF
360
4682
  0
DICTIONARY
  5
D
102
{ACAD_REACTORS
330
C
102
}
330
C
100
AcDbDictionary
  0
DICTIONARY
  5
1A
102
{ACAD_REACTORS
330
C
102
}
330
C
100
AcDbDictionary
  0
DICTIONARY
  5
17
102
{ACAD_REACTORS
330
C
102
}
330
C
100
AcDbDictionary
  3
STANDARD
350
18
  0
DICTIONARY
  5
19
102
{ACAD_REACTORS
330
C
102
}
330
C
100
AcDbDictionary
  0
ACDBDICTIONARYWDFLT
  5
E
102
{ACAD_REACTORS
330
C
102
}
330
C
100
AcDbDictionary
281
     1
  3
Normal
350
F
100
AcDbDictionaryWithDefault
340
F
  0
DICTIONARY
  5
34
102
{ACAD_REACTORS
330
C
102
}
330
C
100
AcDbDictionary
  3
INDEXCTL
350
35
  3
SORTENTS
350
B5E
  0
DICTIONARY
  5
43
102
{ACAD_REACTORS
330
C
102
}
330
C
100
AcDbDictionary
  3
ACMSTDDICTIONARY
350
260
  0
DICTIONARY
  5
2B
102
{ACAD_REACTORS
330
C
102
}
330
C
100
AcDbDictionary
  3
ACMGSETTINGS
350
2C
  0
DICTIONARY
  5
6E
102
{ACAD_REACTORS
330
C
102
}
330
C
100
AcDbDictionary
  0
DICTIONARY
  5
151A
102
{ACAD_REACTORS
330
C
102
}
330
C
100
AcDbDictionary
  3
ASEBLOCKHIERARCHYINDEXRECORD
350
151C
1001
DCO15
1040
1471862535.906
  0
XRECORD
  5
464D
102
{ACAD_REACTORS
330
C
102
}
330
C
100
AcDbXrecord
  1
DWGPROPS COOKIE
  2

  3

  4

  6

  7

  8

  9

300
AmdtFileType=82
301
=
302
=
303
=
304
=
305
=
306
=
307
=
308
=
309
=
 40
0.1579395717592593
 41
2452838.430434386
 42
2453045.550518379
  1

 90
        1
  0
DICTIONARY
  5
4659
102
{ACAD_REACTORS
330
C
102
}
330
C
100
AcDbDictionary
  3
TSTACKALIGN
350
465A
  3
TSTACKSIZE
350
465B
  3
HYPERLINKBASE
350
465C
  3
STYLESHEET
350
465D
  3
LAYOUTDICT
350
465E
  3
PLOTSETDICT
350
465F
  3
PLOTSTYLNAMDICT
350
4660
  3
LWETCUNION
350
4661
  3
INSUNITS
350
4662
  3
CEPSNTYPE
350
4663
  3
FINGERPRINTGUID
350
4664
  3
VERSIONGUID
350
4665
  3
PSVPSCALE
350
4666
  3
DIMSTYLEDATA
350
4667
  3
PUCSORTHOREF
350
4668
  3
PUCSORTHOVIEW
350
4669
  3
PUCSBASE
350
466A
  3
PUCSORGTOP
350
466B
  3
PUCSORGBOTTOM
350
466C
  3
PUCSORGLEFT
350
466D
  3
PUCSORGRIGHT
350
466E
  3
PUCSORGFRONT
350
466F
  3
PUCSORGBACK
350
4670
  3
UCSORTHOREF
350
4671
  3
UCSORTHOVIEW
350
4672
  3
UCSBASE
350
4673
  3
UCSORGTOP
350
4674
  3
UCSORGBOTTOM
350
4675
  3
UCSORGLEFT
350
4676
  3
UCSORGRIGHT
350
4677
  3
UCSORGFRONT
350
4678
  3
UCSORGBACK
350
4679
  0
DICTIONARY
  5
464F
102
{ACAD_REACTORS
330
74
102
}
330
74
100
AcDbDictionary
  3
*A1
350
4650
  0
XRECORD
  5
467C
102
{ACAD_REACTORS
330
74
102
}
330
74
100
AcDbXrecord
340
1F
  0
XRECORD
  5
4682
102
{ACAD_REACTORS
330
4681
102
}
330
4681
100
AcDbXrecord
340
101
  0
MLINESTYLE
  5
18
102
{ACAD_REACTORS
330
17
102
}
330
17
100
AcDbMlineStyle
  2
STANDARD
 70
     0
  3

 62
   256
 51
90.0
 52
90.0
 71
     2
 49
0.5
 62
   256
  6
BYLAYER
 49
-0.5
 62
   256
  6
BYLAYER
  0
ACDBPLACEHOLDER
  5
F
102
{ACAD_REACTORS
330
E
102
}
330
E
100
AcDbPlaceHolder
280
     0
  0
DICTIONARYVAR
  5
35
102
{ACAD_REACTORS
330
34
102
}
330
34
100
DictionaryVariables
280
     0
  1
1
  0
DICTIONARYVAR
  5
B5E
102
{ACAD_REACTORS
330
34
102
}
330
34
100
DictionaryVariables
280
     0
  1
96
  0
DICTIONARY
  5
260
102
{ACAD_REACTORS
330
43
102
}
330
43
100
AcDbDictionary
  0
DICTIONARY
  5
2C
102
{ACAD_REACTORS
330
2B
102
}
330
2B
100
AcDbDictionary
  3
DWGSETTINGS
350
2D
  0
XRECORD
  5
151C
102
{ACAD_REACTORS
330
151A
102
}
330
151A
100
AcDbXrecord
330
0
330
0
330
0
330
0
330
0
330
0
330
0
330
0
  0
XRECORD
  5
465A
102
{ACAD_REACTORS
330
4659
102
}
330
4659
100
AcDbXrecord
 90
        1
  0
XRECORD
  5
465B
102
{ACAD_REACTORS
330
4659
102
}
330
4659
100
AcDbXrecord
 90
       70
  0
XRECORD
  5
465C
102
{ACAD_REACTORS
330
4659
102
}
330
4659
100
AcDbXrecord
  1

  0
XRECORD
  5
465D
102
{ACAD_REACTORS
330
4659
102
}
330
4659
100
AcDbXrecord
  1
ASAMI.ctb
  0
XRECORD
  5
465E
102
{ACAD_REACTORS
330
4659
102
}
330
4659
100
AcDbXrecord
340
1A
  0
XRECORD
  5
465F
102
{ACAD_REACTORS
330
4659
102
}
330
4659
100
AcDbXrecord
340
19
  0
XRECORD
  5
4660
102
{ACAD_REACTORS
330
4659
102
}
330
4659
100
AcDbXrecord
340
E
  0
XRECORD
  5
4661
102
{ACAD_REACTORS
330
4659
102
}
330
4659
100
AcDbXrecord
 90
    10781
  0
XRECORD
  5
4662
102
{ACAD_REACTORS
330
4659
102
}
330
4659
100
AcDbXrecord
 90
        4
  0
XRECORD
  5
4663
102
{ACAD_REACTORS
330
4659
102
}
330
4659
100
AcDbXrecord
 90
        0
  0
XRECORD
  5
4664
102
{ACAD_REACTORS
330
4659
102
}
330
4659
100
AcDbXrecord
  1
{AFB28963-8C59-40AE-9337-C84526B81ACE}
  0
XRECORD
  5
4665
102
{ACAD_REACTORS
330
4659
102
}
330
4659
100
AcDbXrecord
  1
{BAB04954-252A-4395-B9B5-3B4D4755CE42}
  0
XRECORD
  5
4666
102
{ACAD_REACTORS
330
4659
102
}
330
4659
100
AcDbXrecord
 40
0.0
  0
XRECORD
  5
4667
102
{ACAD_REACTORS
330
4659
102
}
330
4659
100
AcDbXrecord
1000
DSTYLE
1002
{
1070
    79
 70
     2
1070
   341
340
59
1070
   342
340
59
1070
   371
 70
    -1
1070
   372
 70
    -1
1002
}
  0
XRECORD
  5
4668
102
{ACAD_REACTORS
330
4659
102
}
330
4659
100
AcDbXrecord
340
0
  0
XRECORD
  5
4669
102
{ACAD_REACTORS
330
4659
102
}
330
4659
100
AcDbXrecord
 70
     0
  0
XRECORD
  5
466A
102
{ACAD_REACTORS
330
4659
102
}
330
4659
100
AcDbXrecord
340
0
  0
XRECORD
  5
466B
102
{ACAD_REACTORS
330
4659
102
}
330
4659
100
AcDbXrecord
 10
0.0
 20
0.0
 30
0.0
  0
XRECORD
  5
466C
102
{ACAD_REACTORS
330
4659
102
}
330
4659
100
AcDbXrecord
 10
0.0
 20
0.0
 30
0.0
  0
XRECORD
  5
466D
102
{ACAD_REACTORS
330
4659
102
}
330
4659
100
AcDbXrecord
 10
0.0
 20
0.0
 30
0.0
  0
XRECORD
  5
466E
102
{ACAD_REACTORS
330
4659
102
}
330
4659
100
AcDbXrecord
 10
0.0
 20
0.0
 30
0.0
  0
XRECORD
  5
466F
102
{ACAD_REACTORS
330
4659
102
}
330
4659
100
AcDbXrecord
 10
0.0
 20
0.0
 30
0.0
  0
XRECORD
  5
4670
102
{ACAD_REACTORS
330
4659
102
}
330
4659
100
AcDbXrecord
 10
0.0
 20
0.0
 30
0.0
  0
XRECORD
  5
4671
102
{ACAD_REACTORS
330
4659
102
}
330
4659
100
AcDbXrecord
340
0
  0
XRECORD
  5
4672
102
{ACAD_REACTORS
330
4659
102
}
330
4659
100
AcDbXrecord
 70
     0
  0
XRECORD
  5
4673
102
{ACAD_REACTORS
330
4659
102
}
330
4659
100
AcDbXrecord
340
0
  0
XRECORD
  5
4674
102
{ACAD_REACTORS
330
4659
102
}
330
4659
100
AcDbXrecord
 10
0.0
 20
0.0
 30
0.0
  0
XRECORD
  5
4675
102
{ACAD_REACTORS
330
4659
102
}
330
4659
100
AcDbXrecord
 10
0.0
 20
0.0
 30
0.0
  0
XRECORD
  5
4676
102
{ACAD_REACTORS
330
4659
102
}
330
4659
100
AcDbXrecord
 10
0.0
 20
0.0
 30
0.0
  0
XRECORD
  5
4677
102
{ACAD_REACTORS
330
4659
102
}
330
4659
100
AcDbXrecord
 10
0.0
 20
0.0
 30
0.0
  0
XRECORD
  5
4678
102
{ACAD_REACTORS
330
4659
102
}
330
4659
100
AcDbXrecord
 10
0.0
 20
0.0
 30
0.0
  0
XRECORD
  5
4679
102
{ACAD_REACTORS
330
4659
102
}
330
4659
100
AcDbXrecord
 10
0.0
 20
0.0
 30
0.0
  0
LAYER_INDEX
  5
4650
102
{ACAD_REACTORS
330
464F
102
}
330
464F
100
AcDbIndex
 40
2453151.882816782
100
AcDbLayerIndex
  8
0
360
4651
 90
        0
  8
AM_0
360
4652
 90
      148
  8
AM_11
360
4653
 90
        4
  8
AM_7
360
4654
 90
        1
  8
AM_5
360
4655
 90
        4
  8
Defpoints
360
4656
 90
        0
  8
AM_6
360
4657
 90
        1
  0
XRECORD
  5
2D
102
{ACAD_REACTORS
330
2C
102
}
330
2C
100
AcDbXrecord
  1
VERSION
140
15.0
  1
PRODUCT
  2
AutoCAD Mechanical 2000
  0
IDBUFFER
  5
4651
330
0
100
AcDbIdBuffer
  0
IDBUFFER
  5
4652
330
0
100
AcDbIdBuffer
330
3D13
330
3D14
330
3D15
330
3D18
330
3D19
330
3D1B
330
3D1D
330
3D1E
330
3D1F
330
3D20
330
3D21
330
3D22
330
3D23
330
3D24
330
3D25
330
3D26
330
3D27
330
3D28
330
42DB
330
42DD
330
43CA
330
43CD
330
43CE
330
43DC
330
43E8
330
43EB
330
440F
330
4427
330
44A7
330
44AA
330
44AB
330
44B8
330
44B9
330
44BA
330
4634
330
4635
330
3C9E
330
3C9F
330
3CA0
330
3CA1
330
3CA3
330
3CA4
330
3CA5
330
3CA6
330
3CA7
330
3CA8
330
3CA9
330
3CAA
330
3CAB
330
3CAC
330
3CAD
330
3CAE
330
3CAF
330
3CB0
330
3CB1
330
3CB2
330
3CB3
330
3CB4
330
3CB5
330
3CB6
330
3CB7
330
3CB8
330
3CB9
330
3CBA
330
3CBB
330
3CBC
330
3CBD
330
3CBE
330
3CBF
330
3CC0
330
3CC1
330
3CC2
330
3CC3
330
3CC4
330
3CC5
330
3CC6
330
3CC7
330
3CC8
330
3CC9
330
3CCA
330
3CCB
330
3CCC
330
3CCD
330
3CCE
330
3CCF
330
3CD0
330
3CD1
330
3CD2
330
3CD3
330
3CD4
330
3CD5
330
3CD6
330
3CD7
330
3CD8
330
3CD9
330
3CDA
330
3CDB
330
3CDC
330
3CDD
330
3CDE
330
3CDF
330
3CE0
330
3CE1
330
3CE2
330
3CE3
330
3CE4
330
3CE5
330
3CE6
330
3CE7
330
3CE8
330
3CE9
330
3CEA
330
3CEB
330
3CEC
330
3CED
330
3CEE
330
3CEF
330
3CF4
330
3CF5
330
3CF6
330
3CF7
330
3CF8
330
3CF9
330
3CFA
330
3CFB
330
3CFC
330
3CFD
330
3CFE
330
3CFF
330
3D00
330
3D01
330
3D02
330
3D03
330
3D04
330
3D05
330
3D06
330
3D07
330
3D08
330
3D09
330
3D0A
330
3D0B
330
3D0C
330
3D0D
330
3D0E
330
3D0F
330
3D10
330
3D11
330
3D12
  0
IDBUFFER
  5
4653
330
0
100
AcDbIdBuffer
330
3CF1
330
3CF3
330
3D90
330
4423
  0
IDBUFFER
  5
4654
330
0
100
AcDbIdBuffer
330
3CF2
  0
IDBUFFER
  5
4655
330
0
100
AcDbIdBuffer
330
3EBC
330
3F4C
330
406D
330
43CF
  0
IDBUFFER
  5
4656
330
0
100
AcDbIdBuffer
  0
IDBUFFER
  5
4657
330
0
100
AcDbIdBuffer
330
1500
  0
ENDSEC
  0
EOF
