  0
SECTION
  2
HEADER
  9
$ACADVER
  1
AC1014
  9
$ACADMAINTVER
 70
     9
  9
$DWGCODEPAGE
  3
ANSI_932
  9
$INSBASE
 10
0.0
 20
0.0
 30
0.0
  9
$EXTMIN
 10
-161.4536996173885
 20
-61.00000100003295
 30
-0.00000001
  9
$EXTMAX
 10
19.55776903085654
 20
13.6130724158186
 30
0.00000001
  9
$LIMMIN
 10
-166.2358075741386
 20
-71.69540034099935
  9
$LIMMAX
 10
26.5102931735048
 20
36.83398345335138
  9
$ORTHOMODE
 70
     0
  9
$REGENMODE
 70
     1
  9
$FILLMODE
 70
     1
  9
$QTEXTMODE
 70
     0
  9
$MIRRTEXT
 70
     0
  9
$DRAGMODE
 70
     2
  9
$LTSCALE
 40
1.0
  9
$OSMODE
 70
    55
  9
$ATTMODE
 70
     1
  9
$TEXTSIZE
 40
2.5
  9
$TRACEWID
 40
1.0
  9
$TEXTSTYLE
  7
STANDARD
  9
$CLAYER
  8
AM_0
  9
$CELTYPE
  6
BYLAYER
  9
$CECOLOR
 62
   256
  9
$CELTSCALE
 40
1.0
  9
$DELOBJ
 70
     1
  9
$DISPSILH
 70
     0
  9
$DIMSCALE
 40
0.5
  9
$DIMASZ
 40
2.5
  9
$DIMEXO
 40
1.0
  9
$DIMDLI
 40
12.0
  9
$DIMRND
 40
0.0
  9
$DIMDLE
 40
0.0
  9
$DIMEXE
 40
1.0
  9
$DIMTP
 40
0.1
  9
$DIMTM
 40
0.1
  9
$DIMTXT
 40
3.2
  9
$DIMCEN
 40
0.0
  9
$DIMTSZ
 40
0.0
  9
$DIMTOL
 70
     0
  9
$DIMLIM
 70
     0
  9
$DIMTIH
 70
     0
  9
$DIMTOH
 70
     0
  9
$DIMSE1
 70
     0
  9
$DIMSE2
 70
     0
  9
$DIMTAD
 70
     3
  9
$DIMZIN
 70
     8
  9
$DIMBLK
  1
OPEN30
  9
$DIMASO
 70
     1
  9
$DIMSHO
 70
     1
  9
$DIMPOST
  1

  9
$DIMAPOST
  1
"
  9
$DIMALT
 70
     0
  9
$DIMALTD
 70
     2
  9
$DIMALTF
 40
0.0393701
  9
$DIMLFAC
 40
1.0
  9
$DIMTOFL
 70
     1
  9
$DIMTVP
 40
0.0
  9
$DIMTIX
 70
     0
  9
$DIMSOXD
 70
     0
  9
$DIMSAH
 70
     0
  9
$DIMBLK1
  1

  9
$DIMBLK2
  1

  9
$DIMSTYLE
  2
AM_JIS
  9
$DIMCLRD
 70
   256
  9
$DIMCLRE
 70
   256
  9
$DIMCLRT
 70
     2
  9
$DIMTFAC
 40
0.71
  9
$DIMGAP
 40
1.5
  9
$DIMJUST
 70
     0
  9
$DIMSD1
 70
     0
  9
$DIMSD2
 70
     0
  9
$DIMTOLJ
 70
     0
  9
$DIMTZIN
 70
     0
  9
$DIMALTZ
 70
     0
  9
$DIMALTTZ
 70
     0
  9
$DIMFIT
 70
     3
  9
$DIMUPT
 70
     0
  9
$DIMUNIT
 70
     2
  9
$DIMDEC
 70
     3
  9
$DIMTDEC
 70
     3
  9
$DIMALTU
 70
     2
  9
$DIMALTTD
 70
     2
  9
$DIMTXSTY
  7
ASAMI
  9
$DIMAUNIT
 70
     0
  9
$LUNITS
 70
     2
  9
$LUPREC
 70
     2
  9
$SKETCHINC
 40
1.0
  9
$FILLETRAD
 40
2.5
  9
$AUNITS
 70
     0
  9
$AUPREC
 70
     0
  9
$MENU
  1
.
  9
$ELEVATION
 40
0.0
  9
$PELEVATION
 40
0.0
  9
$THICKNESS
 40
0.0
  9
$LIMCHECK
 70
     0
  9
$BLIPMODE
 70
     0
  9
$CHAMFERA
 40
1.25
  9
$CHAMFERB
 40
1.25
  9
$CHAMFERC
 40
20.0
  9
$CHAMFERD
 40
0.0
  9
$SKPOLY
 70
     0
  9
$TDCREATE
 40
2452838.430434386
  9
$TDUPDATE
 40
2453151.883384109
  9
$TDINDWG
 40
0.1379637616
  9
$TDUSRTIMER
 40
0.1379637616
  9
$USRTIMER
 70
     1
  9
$ANGBASE
 50
0.0
  9
$ANGDIR
 70
     0
  9
$PDMODE
 70
     0
  9
$PDSIZE
 40
0.0
  9
$PLINEWID
 40
0.0
  9
$COORDS
 70
     1
  9
$SPLFRAME
 70
     0
  9
$SPLINETYPE
 70
     6
  9
$SPLINESEGS
 70
     8
  9
$ATTDIA
 70
     1
  9
$ATTREQ
 70
     1
  9
$HANDLING
 70
 12289
  9
$HANDSEED
  5
42CC
  9
$SURFTAB1
 70
     6
  9
$SURFTAB2
 70
     6
  9
$SURFTYPE
 70
     6
  9
$SURFU
 70
     6
  9
$SURFV
 70
     6
  9
$UCSNAME
  2

  9
$UCSORG
 10
0.0
 20
0.0
 30
0.0
  9
$UCSXDIR
 10
1.0
 20
0.0
 30
0.0
  9
$UCSYDIR
 10
0.0
 20
1.0
 30
0.0
  9
$PUCSNAME
  2

  9
$PUCSORG
 10
0.0
 20
0.0
 30
0.0
  9
$PUCSXDIR
 10
1.0
 20
0.0
 30
0.0
  9
$PUCSYDIR
 10
0.0
 20
1.0
 30
0.0
  9
$USERI1
 70
     0
  9
$USERI2
 70
     0
  9
$USERI3
 70
     0
  9
$USERI4
 70
     0
  9
$USERI5
 70
     0
  9
$USERR1
 40
0.0
  9
$USERR2
 40
0.0
  9
$USERR3
 40
0.0
  9
$USERR4
 40
0.0
  9
$USERR5
 40
0.0
  9
$WORLDVIEW
 70
     1
  9
$SHADEDGE
 70
     3
  9
$SHADEDIF
 70
    70
  9
$TILEMODE
 70
     1
  9
$MAXACTVP
 70
    64
  9
$PINSBASE
 10
0.0
 20
0.0
 30
0.0
  9
$PLIMCHECK
 70
     0
  9
$PEXTMIN
 10
1.000000000000000E+20
 20
1.000000000000000E+20
 30
1.000000000000000E+20
  9
$PEXTMAX
 10
-1.000000000000000E+20
 20
-1.000000000000000E+20
 30
-1.000000000000000E+20
  9
$PLIMMIN
 10
0.0
 20
0.0
  9
$PLIMMAX
 10
841.0
 20
594.0
  9
$UNITMODE
 70
     0
  9
$VISRETAIN
 70
     1
  9
$PLINEGEN
 70
     0
  9
$PSLTSCALE
 70
     0
  9
$TREEDEPTH
 70
  3020
  9
$PICKSTYLE
 70
     0
  9
$CMLSTYLE
  2
STANDARD
  9
$CMLJUST
 70
     0
  9
$CMLSCALE
 40
20.0
  9
$PROXYGRAPHICS
 70
     1
  9
$MEASUREMENT
 70
     1
  0
ENDSEC
  0
SECTION
  2
CLASSES
  0
CLASS
  1
ACDBDICTIONARYWDFLT
  2
AcDbDictionaryWithDefault
  3
AutoCAD 2000
 90
        0
280
     0
281
     0
  0
CLASS
  1
ACDBPLACEHOLDER
  2
AcDbPlaceHolder
  3
AutoCAD 2000
 90
        0
280
     0
281
     0
  0
CLASS
  1
LAYOUT
  2
AcDbLayout
  3
AutoCAD 2000
 90
        0
280
     0
281
     0
  0
CLASS
  1
AMGSETTINGSOBJ
  2
AmgSettingsObj
  3
"AcadM|Product Description: AutoCAD Mechanical 2000|Company: Autodesk"
 90
        0
280
     0
281
     0
  0
CLASS
  1
ACME_DOCUMENT
  2
AcMeDbDoc
  3
AcMeServices
 90
        0
280
     0
281
     0
  0
CLASS
  1
ACMESCOPE
  2
AcMeScope
  3
AcMeServices
 90
        0
280
     0
281
     0
  0
CLASS
  1
ACMECOMMANDHISTORY
  2
AcMeCommandHistory
  3
AcMeServices
 90
        0
280
     0
281
     0
  0
CLASS
  1
DICTIONARYVAR
  2
AcDbDictionaryVar
  3
AutoCAD 2000
 90
        0
280
     0
281
     0
  0
CLASS
  1
ACIMSYSVARMAN
  2
AcImSysVarManager
  3
AcMeServices
 90
        0
280
     0
281
     0
  0
CLASS
  1
ACIMREALSYSVAR
  2
AcImRealSysVar
  3
AcMeServices
 90
        0
280
     0
281
     0
  0
CLASS
  1
ACIMINTSYSVAR
  2
AcImIntSysVar
  3
AcMeServices
 90
        0
280
     0
281
     0
  0
CLASS
  1
ACMEDRAWINGMAN
  2
AcMeDrawingMan
  3
AcMeServices
 90
        0
280
     0
281
     0
  0
CLASS
  1
ACMEVIEW
  2
AcMeView
  3
AcMeServices
 90
        0
280
     0
281
     0
  0
CLASS
  1
ACDBENTITYCACHE
  2
AcMeEntityCache
  3
AcMeServices
 90
        0
280
     0
281
     0
  0
CLASS
  1
GSMANAGER
  2
AcMeGSManager
  3
AcMeServices
 90
        0
280
     0
281
     0
  0
CLASS
  1
AmdtInternalReactor
  2
AmdtInternalReactor
  3
AcMeServices
 90
        0
280
     0
281
     0
  0
CLASS
  1
ACMESTATEMGR
  2
AcMeStateMgr
  3
AcMeServices
 90
        0
280
     0
281
     0
  0
CLASS
  1
ACME_DATABASE
  2
AcMeDbDatabase
  3
AcMeServices
 90
        0
280
     0
281
     0
  0
CLASS
  1
ACRFINSADJUSTERMGR
  2
AcRfInsAdjusterMgr
  3
AcMeServices
 90
        0
280
     0
281
     0
  0
CLASS
  1
ACMDATADICTIONARY
  2
AcmDataDictionary
  3
"AcmSymBB|Product Description: AutoCAD Mechanical 2000|Company: Autodesk"
 90
        0
280
     0
281
     0
  0
CLASS
  1
ACMDATAENTRYBLOCK
  2
AcmDataEntryBlock
  3
"AcmSymBB|Product Description: AutoCAD Mechanical 2000|Company: Autodesk"
 90
        0
280
     0
281
     0
  0
CLASS
  1
AMGOBJPROPCFG
  2
AmgObjPropCfg
  3
"AmgLay|Product Description: AutoCAD Mechanical 2000|Company: Autodesk"
 90
        1
280
     0
281
     0
  0
CLASS
  1
ACAMGFILTERDAT
  2
AcAmgFilterDat
  3
"AcadM|Product Description: AutoCAD Mechanical 2000|Company: Autodesk"
 90
        0
280
     0
281
     0
  0
CLASS
  1
LAYER_INDEX
  2
AcDbLayerIndex
  3
AutoCAD 2000
 90
        0
280
     0
281
     0
  0
CLASS
  1
IDBUFFER
  2
AcDbIdBuffer
  3
AutoCAD 2000
 90
        0
280
     0
281
     0
  0
CLASS
  1
ACIMSTRSYSVAR
  2
AcImStrSysVar
  3
AcMeServices
 90
        0
280
     0
281
     0
  0
CLASS
  1
ACMSTANDARDJIS
  2
AcmStandardJIS
  3
"AcmSymBB|Product Description: AutoCAD Mechanical 2000|Company: Autodesk"
 90
        0
280
     0
281
     0
  0
CLASS
  1
ACMSURFSTANDARDJIS
  2
AcmSurfTextStdJIS
  3
"AcmSymBB|Product Description: AutoCAD Mechanical 2000|Company: Autodesk"
 90
        0
280
     0
281
     0
  0
CLASS
  1
ACMFCFSTANDARDJIS
  2
AcmFCFStdJIS
  3
"AcmSymBB|Product Description: AutoCAD Mechanical 2000|Company: Autodesk"
 90
        0
280
     0
281
     0
  0
CLASS
  1
ACMWELDSTANDARDJIS
  2
AcmWeldingStdJIS
  3
"AcmSymBB|Product Description: AutoCAD Mechanical 2000|Company: Autodesk"
 90
        0
280
     0
281
     0
  0
CLASS
  1
ACMIDSTANDARDJIS
  2
AcmIdStdJIS
  3
"AcmSymBB|Product Description: AutoCAD Mechanical 2000|Company: Autodesk"
 90
        0
280
     0
281
     0
  0
CLASS
  1
ACMDATUMSTANDARDJIS
  2
AcmDatumStdJIS
  3
"AcmSymBB|Product Description: AutoCAD Mechanical 2000|Company: Autodesk"
 90
        0
280
     0
281
     0
  0
CLASS
  1
ACMBOMSTANDARDJIS
  2
AcmBOMStdJIS
  3
"AcmSymBB|Product Description: AutoCAD Mechanical 2000|Company: Autodesk"
 90
        0
280
     0
281
     0
  0
CLASS
  1
ACMSTANDARDANSI
  2
AcmStandardANSI
  3
"AcmSymBB|Product Description: AutoCAD Mechanical 2000|Company: Autodesk"
 90
        0
280
     0
281
     0
  0
CLASS
  1
ACMSURFSTANDARDANSI
  2
AcmSurfTextStdANSI
  3
"AcmSymBB|Product Description: AutoCAD Mechanical 2000|Company: Autodesk"
 90
        0
280
     0
281
     0
  0
CLASS
  1
ACMFCFSTANDARDANSI
  2
AcmFCFStdANSI
  3
"AcmSymBB|Product Description: AutoCAD Mechanical 2000|Company: Autodesk"
 90
        0
280
     0
281
     0
  0
CLASS
  1
ACMWELDSTANDARDANSI
  2
AcmWeldingStdANSI
  3
"AcmSymBB|Product Description: AutoCAD Mechanical 2000|Company: Autodesk"
 90
        0
280
     0
281
     0
  0
CLASS
  1
ACMIDSTANDARDANSI
  2
AcmIdStdANSI
  3
"AcmSymBB|Product Description: AutoCAD Mechanical 2000|Company: Autodesk"
 90
        0
280
     0
281
     0
  0
CLASS
  1
ACMDATUMSTANDARDANSI
  2
AcmDatumStdANSI
  3
"AcmSymBB|Product Description: AutoCAD Mechanical 2000|Company: Autodesk"
 90
        0
280
     0
281
     0
  0
CLASS
  1
ACMBOMSTANDARDANSI
  2
AcmBOMStdANSI
  3
"AcmSymBB|Product Description: AutoCAD Mechanical 2000|Company: Autodesk"
 90
        0
280
     0
281
     0
  0
CLASS
  1
ACMSTANDARDBSI
  2
AcmStandardBSI
  3
"AcmSymBB|Product Description: AutoCAD Mechanical 2000|Company: Autodesk"
 90
        0
280
     0
281
     0
  0
CLASS
  1
ACMSURFSTANDARDBSI
  2
AcmSurfTextStdBSI
  3
"AcmSymBB|Product Description: AutoCAD Mechanical 2000|Company: Autodesk"
 90
        0
280
     0
281
     0
  0
CLASS
  1
ACMFCFSTANDARDBSI
  2
AcmFCFStdBSI
  3
"AcmSymBB|Product Description: AutoCAD Mechanical 2000|Company: Autodesk"
 90
        0
280
     0
281
     0
  0
CLASS
  1
ACMWELDSTANDARDBSI
  2
AcmWeldingStdBSI
  3
"AcmSymBB|Product Description: AutoCAD Mechanical 2000|Company: Autodesk"
 90
        0
280
     0
281
     0
  0
CLASS
  1
ACMIDSTANDARDBSI
  2
AcmIdStdBSI
  3
"AcmSymBB|Product Description: AutoCAD Mechanical 2000|Company: Autodesk"
 90
        0
280
     0
281
     0
  0
CLASS
  1
ACMDATUMSTANDARDBSI
  2
AcmDatumStdBSI
  3
"AcmSymBB|Product Description: AutoCAD Mechanical 2000|Company: Autodesk"
 90
        0
280
     0
281
     0
  0
CLASS
  1
ACMBOMSTANDARDBSI
  2
AcmBOMStdBSI
  3
"AcmSymBB|Product Description: AutoCAD Mechanical 2000|Company: Autodesk"
 90
        0
280
     0
281
     0
  0
CLASS
  1
LONG_TRANSACTION
  2
AcDbLongTransaction
  3
AutoCAD 2000
 90
        0
280
     0
281
     0
  0
CLASS
  1
LWPOLYLINE
  2
AcDbPolyline
  3
AutoCAD 2000
 90
        0
280
     0
281
     1
  0
CLASS
  1
HATCH
  2
AcDbHatch
  3
AutoCAD 2000
 90
        0
280
     0
281
     1
  0
CLASS
  1
XRECORD
  2
AcDbXrecord
  3
AutoCAD 2000
 90
        0
280
     0
281
     0
  0
ENDSEC
  0
SECTION
  2
TABLES
  0
TABLE
  2
VPORT
  5
8
330
0
100
AcDbSymbolTable
 70
     3
  0
VPORT
  5
42A1
330
8
100
AcDbSymbolTableRecord
100
AcDbViewportTableRecord
  2
*ACTIVE
 70
     0
 10
0.0
 20
0.0
 11
1.0
 21
1.0
 12
-66.02390767301187
 22
-9.411386770553932
 13
0.0
 23
0.0
 14
2.5
 24
2.5
 15
10.0
 25
10.0
 16
0.0
 26
0.0
 36
1.0
 17
0.0
 27
0.0
 37
0.0
 40
147.2405972549651
 41
1.56570841889117
 42
50.0
 43
0.0
 44
0.0
 50
0.0
 51
0.0
 71
     0
 72
   100
 73
     1
 74
     3
 75
     0
 76
     0
 77
     0
 78
     0
  0
ENDTAB
  0
TABLE
  2
LTYPE
  5
5
330
0
100
AcDbSymbolTable
 70
    10
  0
LTYPE
  5
14
330
5
100
AcDbSymbolTableRecord
100
AcDbLinetypeTableRecord
  2
BYBLOCK
 70
     0
  3

 72
    65
 73
     0
 40
0.0
  0
LTYPE
  5
15
330
5
100
AcDbSymbolTableRecord
100
AcDbLinetypeTableRecord
  2
BYLAYER
 70
     0
  3

 72
    65
 73
     0
 40
0.0
  0
LTYPE
  5
16
330
5
100
AcDbSymbolTableRecord
100
AcDbLinetypeTableRecord
  2
CONTINUOUS
 70
     0
  3
Solid line
 72
    65
 73
     0
 40
0.0
  0
LTYPE
  5
4B
330
5
100
AcDbSymbolTableRecord
100
AcDbLinetypeTableRecord
  2
AM_ISO02W050
 70
     0
  3
__ __ __ __ __ __ __ __ __ __ __ __ __ __ __
 72
    65
 73
     2
 40
7.5
 49
6.0
 74
     0
 49
-1.5
 74
     0
  0
LTYPE
  5
4C
330
5
100
AcDbSymbolTableRecord
100
AcDbLinetypeTableRecord
  2
AM_ISO08W050
 70
     0
  3
____ . ____ . ____ . ____ . ____ . ____ . ____
 72
    65
 73
     4
 40
18.0
 49
12.0
 74
     0
 49
-1.5
 74
     0
 49
3.0
 74
     0
 49
-1.5
 74
     0
  0
LTYPE
  5
4D
330
5
100
AcDbSymbolTableRecord
100
AcDbLinetypeTableRecord
  2
AM_ISO09W050
 70
     0
  3
_____ . . _____ . . _____ . . ____ .. ____
 72
    65
 73
     6
 40
22.5
 49
12.0
 74
     0
 49
-1.5
 74
     0
 49
3.0
 74
     0
 49
-1.5
 74
     0
 49
3.0
 74
     0
 49
-1.5
 74
     0
  0
LTYPE
  5
4E
330
5
100
AcDbSymbolTableRecord
100
AcDbLinetypeTableRecord
  2
AMCONSTR
 70
     0
  3
_______________________
 72
    65
 73
     2
 40
9999.0
 49
9999.0
 74
     0
 49
0.0
 74
     0
  0
LTYPE
  5
4F
330
5
100
AcDbSymbolTableRecord
100
AcDbLinetypeTableRecord
  2
AM_ISO02W050X2
 70
     0
  3
 _ _ _ _ _ _ _ _ _ _ _ _
 72
    65
 73
     2
 40
3.75
 49
3.0
 74
     0
 49
-0.75
 74
     0
  0
LTYPE
  5
50
330
5
100
AcDbSymbolTableRecord
100
AcDbLinetypeTableRecord
  2
AM_ISO08W050X2
 70
     0
  3
__ . __ . __ . __ . __ . __
 72
    65
 73
     4
 40
9.0
 49
6.0
 74
     0
 49
-0.75
 74
     0
 49
1.5
 74
     0
 49
-0.75
 74
     0
  0
LTYPE
  5
53
330
5
100
AcDbSymbolTableRecord
100
AcDbLinetypeTableRecord
  2
AMZIGZAG
 70
     0
  3
/\/-/\/-/\/-/\/-/\/-/\/
 72
    65
 73
     2
 40
11.00009999999999
 49
0.0001
 74
     4
 75
   135
340
52
 46
0.04
 50
0.0
 44
0.0
 45
0.0
 49
-11.0
 74
     0
  0
LTYPE
  5
166
330
5
100
AcDbSymbolTableRecord
100
AcDbLinetypeTableRecord
  2
ACJISTGL
 70
     0
  3
_ _ _ _ _
 72
    65
 73
     2
 40
3.0
 49
2.0
 74
     0
 49
-1.0
 74
     0
  0
LTYPE
  5
26A
330
5
100
AcDbSymbolTableRecord
100
AcDbLinetypeTableRecord
  2
ACJISTGB
 70
     0
  3
__ . . __ . .
 72
    65
 73
     6
 40
9.0
 49
4.0
 74
     0
 49
-1.0
 74
     0
 49
1.0
 74
     0
 49
-1.0
 74
     0
 49
1.0
 74
     0
 49
-1.0
 74
     0
  0
ENDTAB
  0
TABLE
  2
LAYER
  5
2
330
0
100
AcDbSymbolTable
 70
     7
  0
LAYER
  5
10
330
2
100
AcDbSymbolTableRecord
100
AcDbLayerTableRecord
  2
0
 70
     0
 62
     7
  6
CONTINUOUS
  0
LAYER
  5
3F9
330
2
100
AcDbSymbolTableRecord
100
AcDbLayerTableRecord
  2
AM_0
 70
     0
 62
     7
  6
CONTINUOUS
  0
LAYER
  5
BDD
330
2
100
AcDbSymbolTableRecord
100
AcDbLayerTableRecord
  2
AM_11
 70
     0
 62
     3
  6
AM_ISO09W050
  0
LAYER
  5
BDE
330
2
100
AcDbSymbolTableRecord
100
AcDbLayerTableRecord
  2
AM_7
 70
     0
 62
     4
  6
AM_ISO08W050
  0
LAYER
  5
BDF
330
2
100
AcDbSymbolTableRecord
100
AcDbLayerTableRecord
  2
AM_5
 70
     0
 62
     3
  6
CONTINUOUS
  0
LAYER
  5
BE0
330
2
100
AcDbSymbolTableRecord
100
AcDbLayerTableRecord
  2
DEFPOINTS
 70
     0
 62
     7
  6
CONTINUOUS
  0
LAYER
  5
14FF
330
2
100
AcDbSymbolTableRecord
100
AcDbLayerTableRecord
  2
AM_6
 70
     0
 62
     2
  6
CONTINUOUS
  0
ENDTAB
  0
TABLE
  2
STYLE
  5
3
330
0
100
AcDbSymbolTable
 70
     5
  0
STYLE
  5
11
330
3
100
AcDbSymbolTableRecord
100
AcDbTextStyleTableRecord
  2
STANDARD
 70
     0
 40
0.0
 41
1.0
 50
0.0
 71
     0
 42
2.5
  3
simplex.shx
  4
EXTFONT.SHX
  0
STYLE
  5
52
330
3
100
AcDbSymbolTableRecord
100
AcDbTextStyleTableRecord
  2

 70
     1
 40
0.0
 41
1.0
 50
0.0
 71
     0
 42
2.5
  3
ltypeshp.shx
  4

  0
STYLE
  5
6B
330
3
100
AcDbSymbolTableRecord
100
AcDbTextStyleTableRecord
  2
ASAMI
 70
     0
 40
0.0
 41
1.0
 50
0.0
 71
     0
 42
2.5
  3
simplex.shx
  4
EXTFONT.SHX
  0
STYLE
  5
262
330
3
100
AcDbSymbolTableRecord
100
AcDbTextStyleTableRecord
  2
ACJISTS
 70
     0
 40
1.0
 41
1.0
 50
0.0
 71
     0
 42
2.5
  3
simplex.shx
  4
bigfont.shx
  0
STYLE
  5
269
330
3
100
AcDbSymbolTableRecord
100
AcDbTextStyleTableRecord
  2
ACJISGDT
 70
     0
 40
0.0
 41
1.0
 50
0.0
 71
     0
 42
2.5
  3
amgdtans.shx
  4

  0
ENDTAB
  0
TABLE
  2
VIEW
  5
6
330
0
100
AcDbSymbolTable
 70
     0
  0
ENDTAB
  0
TABLE
  2
UCS
  5
7
330
0
100
AcDbSymbolTable
 70
     0
  0
ENDTAB
  0
TABLE
  2
APPID
  5
9
330
0
100
AcDbSymbolTable
 70
    14
  0
APPID
  5
12
330
9
100
AcDbSymbolTableRecord
100
AcDbRegAppTableRecord
  2
ACAD
 70
     0
  0
APPID
  5
30
330
9
100
AcDbSymbolTableRecord
100
AcDbRegAppTableRecord
  2
MCAD_NO_VIS
 70
     0
  0
APPID
  5
31
330
9
100
AcDbSymbolTableRecord
100
AcDbRegAppTableRecord
  2
ACAD_TEMP_GRAPHIC
 70
     0
  0
APPID
  5
2C2
330
9
100
AcDbSymbolTableRecord
100
AcDbRegAppTableRecord
  2
GENIUS_GENDTOL_13
 70
     0
  0
APPID
  5
339
330
9
100
AcDbSymbolTableRecord
100
AcDbRegAppTableRecord
  2
GENIUS_GENODEF_13
 70
     0
  0
APPID
  5
33A
330
9
100
AcDbSymbolTableRecord
100
AcDbRegAppTableRecord
  2
GENIUS_GENOBJ-N-RSBK_13
 70
     0
  0
APPID
  5
33B
330
9
100
AcDbSymbolTableRecord
100
AcDbRegAppTableRecord
  2
GENIUS_GENOBJ-N-LIB_13
 70
     0
  0
APPID
  5
33C
330
9
100
AcDbSymbolTableRecord
100
AcDbRegAppTableRecord
  2
GENIUS_GENSCALE_13
 70
     0
  0
APPID
  5
378
330
9
100
AcDbSymbolTableRecord
100
AcDbRegAppTableRecord
  2
GENIUS_GENDIMSH_14
 70
     0
  0
APPID
  5
BE1
330
9
100
AcDbSymbolTableRecord
100
AcDbRegAppTableRecord
  2
GENIUS_GENFIL_13
 70
     0
  0
APPID
  5
BE2
330
9
100
AcDbSymbolTableRecord
100
AcDbRegAppTableRecord
  2
GENIUS_GENOBJ-N-CHA_13
 70
     0
  0
APPID
  5
151B
330
9
100
AcDbSymbolTableRecord
100
AcDbRegAppTableRecord
  2
DCO15
 70
     0
  0
APPID
  5
1860
330
9
100
AcDbSymbolTableRecord
100
AcDbRegAppTableRecord
  2
GENIUS_GENOBJ-N-CEN_13
 70
     0
  0
APPID
  5
359C
330
9
100
AcDbSymbolTableRecord
100
AcDbRegAppTableRecord
  2
GENIUS_GENOBJ-N-FIL_13
 70
     0
  0
ENDTAB
  0
TABLE
  2
DIMSTYLE
  5
A
330
0
100
AcDbSymbolTable
 70
     8
  0
DIMSTYLE
105
58
102
{ACAD_REACTORS
330
3EBC
330
3F4C
330
406D
330
4157
102
}
330
A
100
AcDbSymbolTableRecord
100
AcDbDimStyleTableRecord
  2
AM_JIS
 70
     0
  3

  4
"
  5
OPEN30
  6

  7

 40
1.0
 41
2.5
 42
1.0
 43
12.0
 44
1.0
 45
0.0
 46
0.0
 47
0.1
 48
0.1
140
3.2
141
0.0
142
0.0
143
0.0393701
144
1.0
145
0.0
146
0.71
147
1.5
 71
     0
 72
     0
 73
     0
 74
     0
 75
     0
 76
     0
 77
     3
 78
     8
170
     0
171
     2
172
     1
173
     0
174
     0
175
     0
176
   256
177
   256
178
     2
270
     2
271
     3
272
     3
273
     2
274
     2
340
6B
275
     0
280
     0
281
     0
282
     0
283
     0
284
     0
285
     0
286
     0
287
     3
288
     0
  0
DIMSTYLE
105
5F
330
A
100
AcDbSymbolTableRecord
100
AcDbDimStyleTableRecord
  2
AM_JIS$3
 70
     0
  3

  4
"
  5
OPEN30
  6

  7

 40
1.0
 41
2.5
 42
1.0
 43
10.0
 44
1.0
 45
0.0
 46
0.0
 47
0.1
 48
0.1
140
3.2
141
0.0
142
0.0
143
0.0393701
144
1.0
145
0.0
146
0.71
147
1.5
 71
     0
 72
     0
 73
     0
 74
     1
 75
     0
 76
     0
 77
     3
 78
     8
170
     0
171
     2
172
     0
173
     0
174
     0
175
     0
176
   256
177
   256
178
     2
270
     2
271
     2
272
     3
273
     2
274
     2
340
6B
275
     0
280
     0
281
     0
282
     0
283
     0
284
     0
285
     0
286
     0
287
     0
288
     1
  0
DIMSTYLE
105
60
330
A
100
AcDbSymbolTableRecord
100
AcDbDimStyleTableRecord
  2
AM_JIS$4
 70
     0
  3

  4
"
  5
OPEN30
  6

  7

 40
1.0
 41
2.5
 42
1.0
 43
10.0
 44
1.0
 45
0.0
 46
0.0
 47
0.1
 48
0.1
140
3.2
141
0.0
142
0.0
143
0.0393701
144
1.0
145
0.0
146
0.71
147
1.5
 71
     0
 72
     0
 73
     0
 74
     1
 75
     0
 76
     0
 77
     3
 78
     8
170
     0
171
     2
172
     0
173
     0
174
     0
175
     0
176
   256
177
   256
178
     2
270
     2
271
     2
272
     3
273
     2
274
     2
340
6B
275
     0
280
     0
281
     0
282
     0
283
     0
284
     0
285
     0
286
     0
287
     0
288
     1
  0
DIMSTYLE
105
61
330
A
100
AcDbSymbolTableRecord
100
AcDbDimStyleTableRecord
  2
AM_JIS$6
 70
     0
  3

  4
"
  5
OPEN30
  6

  7

 40
1.0
 41
2.5
 42
1.0
 43
10.0
 44
1.0
 45
0.0
 46
0.0
 47
0.1
 48
0.1
140
3.2
141
0.0
142
0.0
143
0.0393701
144
1.0
145
0.0
146
0.71
147
1.5
 71
     0
 72
     0
 73
     0
 74
     0
 75
     0
 76
     0
 77
     0
 78
     8
170
     0
171
     2
172
     1
173
     0
174
     0
175
     0
176
   256
177
   256
178
     2
270
     2
271
     2
272
     2
273
     2
274
     2
340
6B
275
     0
280
     0
281
     0
282
     0
283
     0
284
     0
285
     0
286
     0
287
     3
288
     0
  0
DIMSTYLE
105
62
330
A
100
AcDbSymbolTableRecord
100
AcDbDimStyleTableRecord
  2
AM_JIS$7
 70
     0
  3

  4
"
  5
OPEN30
  6

  7

 40
1.0
 41
2.5
 42
1.0
 43
10.0
 44
1.0
 45
0.0
 46
0.0
 47
0.1
 48
0.1
140
3.2
141
0.0
142
0.0
143
0.0393701
144
1.0
145
0.0
146
0.71
147
1.5
 71
     0
 72
     0
 73
     0
 74
     0
 75
     0
 76
     0
 77
     3
 78
     8
170
     0
171
     2
172
     1
173
     0
174
     0
175
     0
176
   256
177
   256
178
     2
270
     2
271
     2
272
     3
273
     2
274
     2
340
6B
275
     0
280
     0
281
     0
282
     0
283
     0
284
     0
285
     0
286
     0
287
     3
288
     0
  0
DIMSTYLE
105
63
330
A
100
AcDbSymbolTableRecord
100
AcDbDimStyleTableRecord
  2
AM_JIS$SF
 70
     0
  3

  4
"
  5
OPEN30
  6

  7

 40
1.0
 41
2.5
 42
1.0
 43
10.0
 44
1.0
 45
0.0
 46
0.0
 47
0.1
 48
0.1
140
3.2
141
0.0
142
0.0
143
0.0393701
144
1.0
145
0.0
146
0.71
147
1.5
 71
     0
 72
     0
 73
     0
 74
     0
 75
     1
 76
     1
 77
     3
 78
     8
170
     0
171
     2
172
     1
173
     0
174
     0
175
     0
176
   256
177
   256
178
     2
270
     2
271
     2
272
     2
273
     2
274
     2
340
6B
275
     0
280
     0
281
     0
282
     0
283
     0
284
     0
285
     0
286
     0
287
     3
288
     0
  0
DIMSTYLE
105
68
330
A
100
AcDbSymbolTableRecord
100
AcDbDimStyleTableRecord
  2
AM_JIS$SH
 70
     0
  3

  4
"
  5

  6
GENAXEH
  7
OPEN30
 40
1.0
 41
2.5
 42
1.0
 43
10.0
 44
1.0
 45
0.0
 46
0.0
 47
0.1
 48
0.1
140
3.2
141
0.0
142
0.0
143
0.0393701
144
2.0
145
0.0
146
0.71
147
1.5
 71
     0
 72
     0
 73
     0
 74
     0
 75
     1
 76
     1
 77
     3
 78
     8
170
     0
171
     2
172
     1
173
     1
174
     0
175
     0
176
   256
177
   256
178
     2
270
     2
271
     2
272
     2
273
     2
274
     2
340
6B
275
     0
280
     0
281
     0
282
     0
283
     0
284
     0
285
     0
286
     0
287
     3
288
     0
  0
DIMSTYLE
105
B34
330
A
100
AcDbSymbolTableRecord
100
AcDbDimStyleTableRecord
  2
AM_JIS$2
 70
     0
  3

  4
"
  5
OPEN30
  6

  7

 40
1.0
 41
2.5
 42
1.0
 43
12.0
 44
1.0
 45
0.0
 46
0.0
 47
0.1
 48
0.1
140
3.2
141
0.0
142
0.0
143
0.0393701
144
1.0
145
0.0
146
0.71
147
1.5
 71
     0
 72
     0
 73
     0
 74
     0
 75
     0
 76
     0
 77
     3
 78
     8
170
     0
171
     2
172
     1
173
     0
174
     0
175
     0
176
   256
177
   256
178
     2
270
     2
271
     3
272
     3
273
     2
274
     2
340
6B
275
     0
280
     0
281
     0
282
     0
283
     0
284
     0
285
     0
286
     0
287
     3
288
     0
  0
ENDTAB
  0
TABLE
  2
BLOCK_RECORD
  5
1
330
0
100
AcDbSymbolTable
 70
     9
  0
BLOCK_RECORD
  5
1F
102
{ACAD_XDICTIONARY
360
74
102
}
330
1
100
AcDbSymbolTableRecord
100
AcDbBlockTableRecord
  2
*MODEL_SPACE
  0
BLOCK_RECORD
  5
101
102
{ACAD_XDICTIONARY
360
42CA
102
}
330
1
100
AcDbSymbolTableRecord
100
AcDbBlockTableRecord
  2
*PAPER_SPACE
  0
BLOCK_RECORD
  5
59
330
1
100
AcDbSymbolTableRecord
100
AcDbBlockTableRecord
  2
_OPEN30
  0
BLOCK_RECORD
  5
64
330
1
100
AcDbSymbolTableRecord
100
AcDbBlockTableRecord
  2
GENAXEH
  0
BLOCK_RECORD
  5
3EBD
330
1
100
AcDbSymbolTableRecord
100
AcDbBlockTableRecord
  2
*D5
  0
BLOCK_RECORD
  5
3F4D
330
1
100
AcDbSymbolTableRecord
100
AcDbBlockTableRecord
  2
*D6
  0
BLOCK_RECORD
  5
406E
330
1
100
AcDbSymbolTableRecord
100
AcDbBlockTableRecord
  2
*D7
  0
BLOCK_RECORD
  5
4158
330
1
100
AcDbSymbolTableRecord
100
AcDbBlockTableRecord
  2
*D8
  0
ENDTAB
  0
ENDSEC
  0
SECTION
  2
BLOCKS
  0
BLOCK
  5
20
330
1F
100
AcDbEntity
  8
0
100
AcDbBlockBegin
  2
*MODEL_SPACE
 70
     0
 10
0.0
 20
0.0
 30
0.0
  3
*MODEL_SPACE
  1

  0
ENDBLK
  5
21
330
1F
100
AcDbEntity
  8
0
100
AcDbBlockEnd
  0
BLOCK
  5
103
330
101
100
AcDbEntity
 67
     1
  8
0
100
AcDbBlockBegin
  2
*PAPER_SPACE
 70
     0
 10
0.0
 20
0.0
 30
0.0
  3
*PAPER_SPACE
  1

  0
ENDBLK
  5
104
330
101
100
AcDbEntity
 67
     1
  8
0
100
AcDbBlockEnd
  0
BLOCK
  5
5D
330
59
100
AcDbEntity
  8
0
100
AcDbBlockBegin
  2
_OPEN30
 70
     0
 10
0.0
 20
0.0
 30
0.0
  3
_OPEN30
  1

  0
LINE
  5
5A
330
59
100
AcDbEntity
  8
0
 62
     0
100
AcDbLine
 10
-1.0
 20
0.26794919
 30
0.0
 11
0.0
 21
0.0
 31
0.0
  0
LINE
  5
5B
330
59
100
AcDbEntity
  8
0
 62
     0
100
AcDbLine
 10
0.0
 20
0.0
 30
0.0
 11
-1.0
 21
-0.26794919
 31
0.0
  0
LINE
  5
5C
330
59
100
AcDbEntity
  8
0
 62
     0
100
AcDbLine
 10
0.0
 20
0.0
 30
0.0
 11
-1.0
 21
0.0
 31
0.0
  0
ENDBLK
  5
5E
330
59
100
AcDbEntity
  8
0
100
AcDbBlockEnd
  0
BLOCK
  5
66
330
64
100
AcDbEntity
  8
0
100
AcDbBlockBegin
  2
GENAXEH
 70
     0
 10
0.0
 20
0.0
 30
0.0
  3
GENAXEH
  1

  0
LINE
  5
65
330
64
100
AcDbEntity
  8
0
100
AcDbLine
 10
-1.0
 20
0.0
 30
0.0
 11
1.0
 21
0.0
 31
0.0
  0
ENDBLK
  5
67
330
64
100
AcDbEntity
  8
0
100
AcDbBlockEnd
  0
BLOCK
  5
3EC7
330
3EBD
100
AcDbEntity
  8
0
100
AcDbBlockBegin
  2
*D5
 70
     1
 10
0.0
 20
0.0
 30
0.0
  3
*D5
  1

  0
LINE
  5
4238
330
3EBD
100
AcDbEntity
  8
AM_5
100
AcDbLine
 10
-64.99999999999656
 20
-13.50000000001306
 30
0.0
 11
-64.99999999999656
 21
-27.5000010000326
 31
0.0
  0
LINE
  5
4239
330
3EBD
100
AcDbEntity
  8
AM_5
100
AcDbLine
 10
0.0000000000034461
 20
-13.50000000003271
 30
0.0
 11
0.0000000000034452
 21
-27.5000010000326
 31
0.0
  0
LINE
  5
423A
330
3EBD
100
AcDbEntity
  8
AM_5
100
AcDbLine
 10
-62.49999999999656
 20
-26.50000100003261
 30
0.0
 11
-2.499999999996554
 21
-26.50000100003261
 31
0.0
  0
INSERT
  5
423B
330
3EBD
100
AcDbEntity
  8
AM_5
100
AcDbBlockReference
  2
_OPEN30
 10
-64.99999999999656
 20
-26.50000100003261
 30
0.0
 41
2.5
 42
2.5
 43
2.5
 50
180.0
  0
INSERT
  5
423C
330
3EBD
100
AcDbEntity
  8
AM_5
100
AcDbBlockReference
  2
_OPEN30
 10
0.0000000000034453
 20
-26.50000100003261
 30
0.0
 41
2.5
 42
2.5
 43
2.5
  0
MTEXT
  5
423D
330
3EBD
100
AcDbEntity
  8
AM_5
 62
     2
100
AcDbMText
 10
-32.49999999999656
 20
-23.4000010000326
 30
0.0
 40
3.2
 41
0.0
 71
     5
 72
     1
  1
65
  7
ASAMI
1001
ACAD
1000
MTEXTBEGIN
1070
    73
1070
     1
1070
    44
1040
1.0
1070
    74
1070
     0
1000
MTEXTEND
  0
POINT
  5
423E
330
3EBD
100
AcDbEntity
  8
DEFPOINTS
 62
     0
100
AcDbPoint
 10
-64.99999999999656
 20
-12.50000000001306
 30
0.0
  0
POINT
  5
423F
330
3EBD
100
AcDbEntity
  8
DEFPOINTS
 62
     0
100
AcDbPoint
 10
0.0000000000034461
 20
-12.50000000003271
 30
0.0
  0
POINT
  5
4240
330
3EBD
100
AcDbEntity
  8
DEFPOINTS
 62
     0
100
AcDbPoint
 10
0.0000000000034453
 20
-26.50000100003261
 30
0.0
  0
ENDBLK
  5
3EC8
330
3EBD
100
AcDbEntity
  8
0
100
AcDbBlockEnd
  0
BLOCK
  5
3F57
330
3F4D
100
AcDbEntity
  8
0
100
AcDbBlockBegin
  2
*D6
 70
     1
 10
0.0
 20
0.0
 30
0.0
  3
*D6
  1

  0
LINE
  5
4241
330
3F4D
100
AcDbEntity
  8
AM_5
100
AcDbLine
 10
0.0000000000034461
 20
-13.50000000003271
 30
0.0
 11
0.0000000000034445
 21
-39.50000100003294
 31
0.0
  0
LINE
  5
4242
330
3F4D
100
AcDbEntity
  8
AM_5
100
AcDbLine
 10
-140.0
 20
-12.2500000000132
 30
0.0
 11
-140.0
 21
-39.50000100003294
 31
0.0
  0
LINE
  5
4243
330
3F4D
100
AcDbEntity
  8
AM_5
100
AcDbLine
 10
-2.499999999996555
 20
-38.50000100003294
 30
0.0
 11
-137.5
 21
-38.50000100003294
 31
0.0
  0
INSERT
  5
4244
330
3F4D
100
AcDbEntity
  8
AM_5
100
AcDbBlockReference
  2
_OPEN30
 10
0.0000000000034445
 20
-38.50000100003294
 30
0.0
 41
2.5
 42
2.5
 43
2.5
  0
INSERT
  5
4245
330
3F4D
100
AcDbEntity
  8
AM_5
100
AcDbBlockReference
  2
_OPEN30
 10
-140.0
 20
-38.50000100003294
 30
0.0
 41
2.5
 42
2.5
 43
2.5
 50
180.0
  0
MTEXT
  5
4246
330
3F4D
100
AcDbEntity
  8
AM_5
 62
     2
100
AcDbMText
 10
-69.99999999999828
 20
-35.40000100003294
 30
0.0
 40
3.2
 41
0.0
 71
     5
 72
     1
  1
140
  7
ASAMI
1001
ACAD
1000
MTEXTBEGIN
1070
    73
1070
     1
1070
    44
1040
1.0
1070
    74
1070
     0
1000
MTEXTEND
  0
POINT
  5
4247
330
3F4D
100
AcDbEntity
  8
DEFPOINTS
 62
     0
100
AcDbPoint
 10
0.0000000000034461
 20
-12.50000000003271
 30
0.0
  0
POINT
  5
4248
330
3F4D
100
AcDbEntity
  8
DEFPOINTS
 62
     0
100
AcDbPoint
 10
-140.0
 20
-11.2500000000132
 30
0.0
  0
POINT
  5
4249
330
3F4D
100
AcDbEntity
  8
DEFPOINTS
 62
     0
100
AcDbPoint
 10
-140.0
 20
-38.50000100003294
 30
0.0
  0
ENDBLK
  5
3F58
330
3F4D
100
AcDbEntity
  8
0
100
AcDbBlockEnd
  0
BLOCK
  5
4078
330
406E
100
AcDbEntity
  8
0
100
AcDbBlockBegin
  2
*D7
 70
     1
 10
0.0
 20
0.0
 30
0.0
  3
*D7
  1

  0
LINE
  5
41F4
330
406E
100
AcDbEntity
  8
AM_5
100
AcDbLine
 10
1.000000000003446
 20
12.49999999996735
 30
0.0
 11
19.55776903085654
 21
12.49999999996734
 31
0.0
  0
LINE
  5
41F5
330
406E
100
AcDbEntity
  8
AM_5
100
AcDbLine
 10
1.00000000000135
 20
-12.50000000003266
 30
0.0
 11
19.55776903085653
 21
-12.50000000003267
 31
0.0
  0
LINE
  5
41F6
330
406E
100
AcDbEntity
  8
AM_5
100
AcDbLine
 10
18.55776903085654
 20
9.999999999967345
 30
0.0
 11
18.55776903085653
 21
-10.00000000003267
 31
0.0
  0
INSERT
  5
41F7
330
406E
100
AcDbEntity
  8
AM_5
100
AcDbBlockReference
  2
_OPEN30
 10
18.55776903085654
 20
12.49999999996734
 30
0.0
 41
2.5
 42
2.5
 43
2.5
 50
90.0
  0
INSERT
  5
41F8
330
406E
100
AcDbEntity
  8
AM_5
100
AcDbBlockReference
  2
_OPEN30
 10
18.55776903085653
 20
-12.50000000003267
 30
0.0
 41
2.5
 42
2.5
 43
2.5
 50
270.0
  0
MTEXT
  5
41F9
330
406E
100
AcDbEntity
  8
AM_5
 62
     2
100
AcDbMText
 10
15.45776903085653
 20
-0.0000000000326609
 30
0.0
 40
3.2
 41
0.0
 71
     5
 72
     1
  1
%%c25
  7
ASAMI
 11
0.0000000000000001
 21
1.0
 31
0.0
1001
ACAD
1000
MTEXTBEGIN
1070
    73
1070
     1
1070
    44
1040
1.0
1070
    74
1070
     0
1000
MTEXTEND
  0
POINT
  5
41FA
330
406E
100
AcDbEntity
  8
DEFPOINTS
 62
     0
100
AcDbPoint
 10
0.0000000000034461
 20
12.49999999996735
 30
0.0
  0
POINT
  5
41FB
330
406E
100
AcDbEntity
  8
DEFPOINTS
 62
     0
100
AcDbPoint
 10
0.00000000000135
 20
-12.50000000003266
 30
0.0
  0
POINT
  5
41FC
330
406E
100
AcDbEntity
  8
DEFPOINTS
 62
     0
100
AcDbPoint
 10
18.55776903085653
 20
-12.50000000003267
 30
0.0
  0
ENDBLK
  5
4079
330
406E
100
AcDbEntity
  8
0
100
AcDbBlockEnd
  0
BLOCK
  5
4162
330
4158
100
AcDbEntity
  8
0
100
AcDbBlockBegin
  2
*D8
 70
     1
 10
0.0
 20
0.0
 30
0.0
  3
*D8
  1

  0
LINE
  5
41EB
330
4158
100
AcDbEntity
  8
AM_5
100
AcDbLine
 10
-139.7499999999999
 20
12.49999999998678
 30
0.0
 11
-157.7536996173885
 21
12.49999999998679
 31
0.0
  0
LINE
  5
41EC
330
4158
100
AcDbEntity
  8
AM_5
100
AcDbLine
 10
-139.7499999999999
 20
-12.50000000001322
 30
0.0
 11
-157.7536996173885
 21
-12.50000000001321
 31
0.0
  0
LINE
  5
41ED
330
4158
100
AcDbEntity
  8
AM_5
100
AcDbLine
 10
-156.7536996173885
 20
9.999999999986792
 30
0.0
 11
-156.7536996173885
 21
-10.00000000001321
 31
0.0
  0
INSERT
  5
41EE
330
4158
100
AcDbEntity
  8
AM_5
100
AcDbBlockReference
  2
_OPEN30
 10
-156.7536996173885
 20
12.49999999998679
 30
0.0
 41
2.5
 42
2.5
 43
2.5
 50
90.0
  0
INSERT
  5
41EF
330
4158
100
AcDbEntity
  8
AM_5
100
AcDbBlockReference
  2
_OPEN30
 10
-156.7536996173885
 20
-12.50000000001321
 30
0.0
 41
2.5
 42
2.5
 43
2.5
 50
270.0
  0
MTEXT
  5
41F0
330
4158
100
AcDbEntity
  8
AM_5
 62
     2
100
AcDbMText
 10
-159.8536996173885
 20
-0.0000000000132381
 30
0.0
 40
3.2
 41
0.0
 71
     5
 72
     1
  1
%%c25
  7
ASAMI
 11
0.0000000000000001
 21
1.0
 31
0.0
1001
ACAD
1000
MTEXTBEGIN
1070
    73
1070
     1
1070
    44
1040
1.0
1070
    74
1070
     0
1000
MTEXTEND
  0
POINT
  5
41F1
330
4158
100
AcDbEntity
  8
DEFPOINTS
 62
     0
100
AcDbPoint
 10
-138.7499999999999
 20
12.49999999998678
 30
0.0
  0
POINT
  5
41F2
330
4158
100
AcDbEntity
  8
DEFPOINTS
 62
     0
100
AcDbPoint
 10
-138.7499999999999
 20
-12.50000000001322
 30
0.0
  0
POINT
  5
41F3
330
4158
100
AcDbEntity
  8
DEFPOINTS
 62
     0
100
AcDbPoint
 10
-156.7536996173885
 20
-12.50000000001321
 30
0.0
  0
ENDBLK
  5
4163
330
4158
100
AcDbEntity
  8
0
100
AcDbBlockEnd
  0
ENDSEC
  0
SECTION
  2
ENTITIES
  0
TEXT
  5
1500
330
1F
100
AcDbEntity
  8
AM_6
100
AcDbText
 10
-86.54761904761835
 20
-61.00000100003295
 30
0.0
 40
5.0
  1
RSM4250
 72
     4
 11
-69.9999999999993
 21
-58.50000100003295
 31
0.0
100
AcDbText
  0
SPLINE
  5
3C9E
330
1F
100
AcDbEntity
  8
AM_0
100
AcDbSpline
210
0.0
220
0.0
230
1.0
 70
     8
 71
     3
 72
     8
 73
     4
 74
     0
 42
0.0000000001
 43
0.0000000001
 40
0.0
 40
0.0
 40
0.0
 40
0.0
 40
9.450452127946082
 40
9.450452127946082
 40
9.450452127946082
 40
9.450452127946082
 10
-67.97118137912976
 20
-12.50000000001307
 30
0.0
 10
-65.3039425106169
 20
-12.4756858500697
 30
0.0
 10
-62.73158767930109
 20
-12.17959202884539
 30
0.0
 10
-60.20051757746724
 20
-11.65185158051794
 30
0.0
  0
SPLINE
  5
3C9F
330
1F
100
AcDbEntity
  8
AM_0
100
AcDbSpline
210
0.0
220
0.0
230
1.0
 70
     8
 71
     3
 72
     8
 73
     4
 74
     0
 42
0.0000000001
 43
0.0000000001
 40
0.0
 40
0.0
 40
0.0
 40
0.0
 40
9.637195575647414
 40
9.637195575647414
 40
9.637195575647414
 40
9.637195575647414
 10
-55.23796038614133
 20
-10.9159881486877
 30
0.0
 10
-52.56096168205314
 20
-10.9159881486877
 30
0.0
 10
-49.92722655796679
 20
-10.63999408509371
 30
0.0
 10
-47.3270371084811
 20
-10.15000000003251
 30
0.0
  0
SPLINE
  5
3CA0
330
1F
100
AcDbEntity
  8
AM_0
100
AcDbSpline
210
0.0
220
0.0
230
1.0
 70
     8
 71
     3
 72
     8
 73
     4
 74
     0
 42
0.0000000001
 43
0.0000000001
 40
4.041712701031851
 40
4.041712701031851
 40
4.041712701031851
 40
4.041712701031851
 40
9.964098609850829
 40
9.964098609850829
 40
9.964098609850829
 40
9.964098609850829
 10
-60.20051757746724
 20
-11.65185158051794
 30
0.0
 10
-58.57992385952908
 20
-11.50702486449372
 30
0.0
 10
-56.97640886089512
 20
-11.26129615144716
 30
0.0
 10
-55.38738997436208
 20
-10.92992362436657
 30
0.0
  0
SPLINE
  5
3CA1
330
1F
100
AcDbEntity
  8
AM_0
100
AcDbSpline
210
0.0
220
0.0
230
1.0
 70
     8
 71
     3
 72
     8
 73
     4
 74
     0
 42
0.0000000001
 43
0.0000000001
 40
0.0
 40
0.0
 40
0.0
 40
0.0
 40
3.254285608942788
 40
3.254285608942788
 40
3.254285608942788
 40
3.254285608942788
 10
-55.01874616739879
 20
-10.9159881486877
 30
0.0
 10
-58.40862701004833
 20
-10.9159881486877
 30
0.0
 10
-61.72913413044542
 20
-10.47342802051114
 30
0.0
 10
-64.99999999999656
 20
-9.714188353971605
 30
0.0
  0
SPLINE
  5
3CA3
330
1F
100
AcDbEntity
  8
AM_0
100
AcDbSpline
210
0.0
220
0.0
230
1.0
 70
     8
 71
     3
 72
     8
 73
     4
 74
     0
 42
0.0000000001
 43
0.0000000001
 40
1.140063819971138
 40
1.140063819971138
 40
1.140063819971138
 40
1.140063819971138
 40
2.790246636948332
 40
2.790246636948332
 40
2.790246636948332
 40
2.790246636948332
 10
-64.99999999999656
 20
-10.75845560539018
 30
0.0
 10
-67.27152440287338
 20
-10.60905351281771
 30
0.0
 10
-68.95098466715237
 20
-10.35719519297199
 30
0.0
 10
-70.61695718454299
 20
-10.01929364526258
 30
0.0
  0
SPLINE
  5
3CA4
330
1F
100
AcDbEntity
  8
AM_0
100
AcDbSpline
210
0.0
220
0.0
230
1.0
 70
     8
 71
     3
 72
     8
 73
     4
 74
     0
 42
0.0000000001
 43
0.0000000001
 40
11.33959573889505
 40
11.33959573889505
 40
11.33959573889505
 40
11.33959573889505
 40
14.36247867694493
 40
14.36247867694493
 40
14.36247867694493
 40
14.36247867694493
 10
-64.99999999999656
 20
3.30208506257315
 30
0.0
 10
-63.24864771039639
 20
2.429593547484252
 30
0.0
 10
-60.9301780039777
 20
1.214796773726085
 30
0.0
 10
-58.61170829755902
 20
-0.000000000032081
 30
0.0
  0
SPLINE
  5
3CA5
330
1F
100
AcDbEntity
  8
AM_0
100
AcDbSpline
210
0.0
220
0.0
230
1.0
 70
     8
 71
     3
 72
     8
 73
     4
 74
     0
 42
0.0000000001
 43
0.0000000001
 40
0.7142832446738512
 40
0.7142832446738512
 40
0.7142832446738512
 40
0.7142832446738512
 40
9.361146747480315
 40
9.361146747480315
 40
9.361146747480315
 40
9.361146747480315
 10
-22.83295493117403
 20
11.50149447452835
 30
0.0
 10
-15.68289008471193
 20
11.16445859739687
 30
0.0
 10
-8.861103378616217
 20
8.839424706966694
 30
0.0
 10
-2.159613011571064
 20
5.785896123669855
 30
0.0
  0
SPLINE
  5
3CA6
330
1F
100
AcDbEntity
  8
AM_0
100
AcDbSpline
210
0.0
220
0.0
230
1.0
 70
     8
 71
     3
 72
     8
 73
     4
 74
     0
 42
0.0000000001
 43
0.0000000001
 40
0.3507760400854742
 40
0.3507760400854742
 40
0.3507760400854742
 40
0.3507760400854742
 40
1.871307041999678
 40
1.871307041999678
 40
1.871307041999678
 40
1.871307041999678
 10
-33.12499999999655
 20
12.48910051830679
 30
0.0
 10
-31.86347460996667
 20
12.45773085605239
 30
0.0
 10
-30.61390311711644
 20
12.35920420769136
 30
0.0
 10
-29.37499999999655
 20
12.20074263184389
 30
0.0
  0
SPLINE
  5
3CA7
330
1F
100
AcDbEntity
  8
AM_0
100
AcDbSpline
210
0.0
220
0.0
230
1.0
 70
     8
 71
     3
 72
     8
 73
     4
 74
     0
 42
0.0000000001
 43
0.0000000001
 40
0.0
 40
0.0
 40
0.0
 40
0.0
 40
2.024855066027545
 40
2.024855066027545
 40
2.024855066027545
 40
2.024855066027545
 10
0.0000000000034284
 20
-12.50000000003266
 30
0.0
 10
-1.687379221685869
 20
-12.50000000003266
 30
0.0
 10
-3.353033949981618
 20
-12.37795181113908
 30
0.0
 10
-4.999999999996571
 20
-12.15091064055881
 30
0.0
  0
SPLINE
  5
3CA8
330
1F
100
AcDbEntity
  8
AM_0
100
AcDbSpline
210
0.0
220
0.0
230
1.0
 70
     8
 71
     3
 72
     8
 73
     4
 74
     0
 42
0.0000000001
 43
0.0000000001
 40
0.703092330802404
 40
0.703092330802404
 40
0.703092330802404
 40
0.703092330802404
 40
2.229997198220355
 40
2.229997198220355
 40
2.229997198220355
 40
2.229997198220355
 10
-66.4984063305674
 20
12.49999999998694
 30
0.0
 10
-64.9886799585374
 20
12.39420459879998
 30
0.0
 10
-63.73911387704421
 20
12.265807239439
 30
0.0
 10
-62.49999999999655
 20
12.07868940271768
 30
0.0
  0
SPLINE
  5
3CA9
330
1F
100
AcDbEntity
  8
AM_0
100
AcDbSpline
210
0.0
220
0.0
230
1.0
 70
     8
 71
     3
 72
     8
 73
     4
 74
     0
 42
0.0000000001
 43
0.0000000001
 40
0.0
 40
0.0
 40
0.0
 40
0.0
 40
3.835275104118792
 40
3.835275104118792
 40
3.835275104118792
 40
3.835275104118792
 10
0.0000000000034461
 20
12.49999999996734
 30
0.0
 10
-3.196062586762273
 20
12.49999999996734
 30
0.0
 10
-6.314186176195981
 20
12.06213876674868
 30
0.0
 10
-9.374999999996553
 20
11.30231130974638
 30
0.0
  0
SPLINE
  5
3CAA
330
1F
100
AcDbEntity
  8
AM_0
100
AcDbSpline
210
0.0
220
0.0
230
1.0
 70
     8
 71
     3
 72
     8
 73
     4
 74
     0
 42
0.0000000001
 43
0.0000000001
 40
0.0
 40
0.0
 40
0.0
 40
0.0
 40
1.539536607901005
 40
1.539536607901005
 40
1.539536607901005
 40
1.539536607901005
 10
-33.99999999999632
 20
-12.50000000003208
 30
0.0
 10
-35.28294717324794
 20
-12.50000000003208
 30
0.0
 10
-36.55333572960667
 20
-12.42944569900227
 30
0.0
 10
-37.81249999999655
 20
-12.29583336713996
 30
0.0
  0
SPLINE
  5
3CAB
330
1F
100
AcDbEntity
  8
AM_0
100
AcDbSpline
210
0.0
220
0.0
230
1.0
 70
     8
 71
     3
 72
     8
 73
     4
 74
     0
 42
0.0000000001
 43
0.0000000001
 40
1.788970302442027
 40
1.788970302442027
 40
1.788970302442027
 40
1.788970302442027
 40
3.332324051699147
 40
3.332324051699147
 40
3.332324051699147
 40
3.332324051699147
 10
-34.06249999999655
 20
-11.85803140303701
 30
0.0
 10
-35.32257072137664
 20
-11.70739608946487
 30
0.0
 10
-36.57214380415663
 20
-11.49607494767646
 30
0.0
 10
-37.81249999998177
 20
-11.231471878427
 30
0.0
  0
SPLINE
  5
3CAC
330
1F
100
AcDbEntity
  8
AM_0
100
AcDbSpline
210
0.0
220
0.0
230
1.0
 70
     8
 71
     3
 72
     8
 73
     4
 74
     2
 42
0.0000000001
 43
0.0000000001
 44
0.0000000001
 12
-1.0
 22
0.0000000000000001
 32
0.0
 40
0.0
 40
0.0
 40
0.0
 40
0.0
 40
35.90619669236322
 40
35.90619669236322
 40
35.90619669236322
 40
35.90619669236322
 10
-24.61170829755811
 20
-11.54361125953895
 30
0.0
 10
-36.58044052834586
 20
-11.54361125953895
 30
0.0
 10
-47.59607441295243
 20
-5.771805629785519
 30
0.0
 10
-58.61170829755902
 20
-0.000000000032081
 30
0.0
 11
-24.61170829755811
 21
-11.54361125953895
 31
0.0
 11
-58.61170829755902
 21
-0.000000000032081
 31
0.0
  0
SPLINE
  5
3CAD
330
1F
100
AcDbEntity
  8
AM_0
100
AcDbSpline
210
0.0
220
0.0
230
1.0
 70
     8
 71
     3
 72
     8
 73
     4
 74
     0
 42
0.0000000001
 43
0.0000000001
 40
1.666991338825053
 40
1.666991338825053
 40
1.666991338825053
 40
1.666991338825053
 40
3.21070440243455
 40
3.21070440243455
 40
3.21070440243455
 40
3.21070440243455
 10
-38.124999999992
 20
12.26135667545835
 30
0.0
 10
-39.38572579411012
 20
12.11696421175108
 30
0.0
 10
-40.6352773875346
 20
11.90979509626603
 30
0.0
 10
-41.87499999999655
 20
11.64740677250651
 30
0.0
  0
SPLINE
  5
3CAE
330
1F
100
AcDbEntity
  8
AM_0
100
AcDbSpline
210
0.0
220
0.0
230
1.0
 70
     8
 71
     3
 72
     8
 73
     4
 74
     0
 42
0.0000000001
 43
0.0000000001
 40
0.7142832446738512
 40
0.7142832446738512
 40
0.7142832446738512
 40
0.7142832446738512
 40
14.36247867694493
 40
14.36247867694493
 40
14.36247867694493
 40
14.36247867694493
 10
-56.8329549311738
 20
11.50149447452835
 30
0.0
 10
-45.54730408838619
 20
10.96951758865631
 30
0.0
 10
-35.07950619297272
 20
5.484758794312112
 30
0.0
 10
-24.61170829755811
 20
-0.0000000000320988
 30
0.0
  0
SPLINE
  5
3CAF
330
1F
100
AcDbEntity
  8
AM_0
100
AcDbSpline
210
0.0
220
0.0
230
1.0
 70
     8
 71
     3
 72
     8
 73
     4
 74
     0
 42
0.0000000001
 43
0.0000000001
 40
0.3581103616548037
 40
0.3581103616548037
 40
0.3581103616548037
 40
0.3581103616548037
 40
0.4557920900567158
 40
0.4557920900567158
 40
0.4557920900567158
 40
0.4557920900567158
 10
-62.74302149830187
 20
12.11461355709931
 30
0.0
 10
-62.66196763182275
 20
12.1126042664284
 30
0.0
 10
-62.5809605739607
 20
12.11032437969239
 30
0.0
 10
-62.49999999999655
 20
12.10777577406392
 30
0.0
  0
SPLINE
  5
3CB0
330
1F
100
AcDbEntity
  8
AM_0
100
AcDbSpline
210
0.0
220
0.0
230
1.0
 70
     8
 71
     3
 72
     8
 73
     4
 74
     0
 42
0.0000000001
 43
0.0000000001
 40
1.870660592686466
 40
1.870660592686466
 40
1.870660592686466
 40
1.870660592686466
 40
3.826008700541491
 40
3.826008700541491
 40
3.826008700541491
 40
3.826008700541491
 10
-0.2624999999966171
 20
-11.8336028940868
 30
0.0
 10
-1.857539998785551
 20
-11.63464296332987
 30
0.0
 10
-3.435838466052683
 20
-11.33890186637271
 30
0.0
 10
-4.999999999990887
 20
-10.96143653216783
 30
0.0
  0
SPLINE
  5
3CB1
330
1F
100
AcDbEntity
  8
AM_0
100
AcDbSpline
210
0.0
220
0.0
230
1.0
 70
     8
 71
     3
 72
     8
 73
     4
 74
     0
 42
0.0000000001
 43
0.0000000001
 40
4.542668862435135
 40
4.542668862435135
 40
4.542668862435135
 40
4.542668862435135
 40
14.36247867694493
 40
14.36247867694493
 40
14.36247867694493
 40
14.36247867694493
 10
-1.712499999993024
 20
-9.994041638674087
 30
0.0
 10
-9.548649592135216
 20
-7.892514216464672
 30
0.0
 10
-17.08017894484667
 20
-3.946257108248385
 30
0.0
 10
-24.61170829755811
 20
-0.0000000000320988
 30
0.0
  0
SPLINE
  5
3CB2
330
1F
100
AcDbEntity
  8
AM_0
100
AcDbSpline
210
0.0
220
0.0
230
1.0
 70
     8
 71
     3
 72
     8
 73
     4
 74
     0
 42
0.0000000001
 43
0.0000000001
 40
0.0
 40
0.0
 40
0.0
 40
0.0
 40
4.451443990518192
 40
4.451443990518192
 40
4.451443990518192
 40
4.451443990518192
 10
-24.61170829755811
 20
-11.54361125953895
 30
0.0
 10
-20.90217163879398
 20
-11.54361125953895
 30
0.0
 10
-17.28418970212826
 20
-10.98917103565069
 30
0.0
 10
-13.72938641636549
 20
-10.05213137234106
 30
0.0
  0
SPLINE
  5
3CB3
330
1F
100
AcDbEntity
  8
AM_0
100
AcDbSpline
210
0.0
220
0.0
230
1.0
 70
     8
 71
     3
 72
     8
 73
     4
 74
     0
 42
0.0000000001
 43
0.0000000001
 40
0.2298684927509915
 40
0.2298684927509915
 40
0.2298684927509915
 40
0.2298684927509915
 40
2.764560748519282
 40
2.764560748519282
 40
2.764560748519282
 40
2.764560748519282
 10
-29.06249999999655
 20
-12.1211238397225
 30
0.0
 10
-26.95607172539776
 20
-12.08750631834757
 30
0.0
 10
-24.8814478393103
 20
-11.87003071885866
 30
0.0
 10
-22.83295493143778
 20
-11.50149447464029
 30
0.0
  0
SPLINE
  5
3CB4
330
1F
100
AcDbEntity
  8
AM_0
100
AcDbSpline
210
0.0
220
0.0
230
1.0
 70
     8
 71
     3
 72
     8
 73
     4
 74
     0
 42
0.0000000001
 43
0.0000000001
 40
1.999245295235591
 40
1.999245295235591
 40
1.999245295235591
 40
1.999245295235591
 40
2.130230809022907
 40
2.130230809022907
 40
2.130230809022907
 40
2.130230809022907
 10
-29.06249999999655
 20
-12.15947487028213
 30
0.0
 10
-28.95592907386681
 20
-12.14495982134703
 30
0.0
 10
-28.84943651390013
 20
-12.13000451136021
 30
0.0
 10
-28.74302149830324
 20
-12.11461355716405
 30
0.0
  0
SPLINE
  5
3CB5
330
1F
100
AcDbEntity
  8
AM_0
100
AcDbSpline
210
0.0
220
0.0
230
1.0
 70
     8
 71
     3
 72
     8
 73
     4
 74
     2
 42
0.0000000001
 43
0.0000000001
 44
0.0000000001
 12
0.6880548427449731
 22
-0.7256586893128137
 32
0.0
 13
-0.9854444993171656
 23
-0.1699974669386017
 33
0.0
 40
0.0
 40
0.0
 40
0.0
 40
0.0
 40
7.157053824571782
 40
7.157053824571782
 40
7.157053824571782
 40
7.157053824571782
 10
-0.7499999999958718
 20
12.49999999996734
 30
0.0
 10
0.8914818479318103
 20
10.768807234074
 30
0.0
 10
-3.540470803304024
 20
7.926693896594631
 30
0.0
 10
-5.891430577551073
 20
7.52113355628782
 30
0.0
 11
-0.7499999999958718
 21
12.49999999996734
 31
0.0
 11
-5.891430577551073
 21
7.52113355628782
 31
0.0
  0
SPLINE
  5
3CB6
330
1F
100
AcDbEntity
  8
AM_0
100
AcDbSpline
210
0.0
220
0.0
230
1.0
 70
     8
 71
     3
 72
     9
 73
     5
 74
     3
 42
0.0000000001
 43
0.0000000001
 44
0.0000000001
 12
-0.6110826252653724
 22
0.7915668165725372
 32
0.0
 13
-0.9134460065687783
 23
-0.406959940391621
 33
0.0
 40
0.0
 40
0.0
 40
0.0
 40
0.0
 40
2.877648941206951
 40
5.412136504365235
 40
5.412136504365235
 40
5.412136504365235
 40
5.412136504365235
 10
-4.999999999996571
 20
-12.15091064055881
 30
0.0
 10
-5.586160423191525
 20
-11.39162683669064
 30
0.0
 10
-7.361656742980581
 20
-10.39125492704633
 30
0.0
 10
-9.228294152241515
 20
-10.79870133015104
 30
0.0
 10
-9.999999999996571
 20
-11.14251296602644
 30
0.0
 11
-4.999999999996571
 21
-12.15091064055881
 31
0.0
 11
-7.499999999996571
 21
-10.72582698377599
 31
0.0
 11
-9.999999999996571
 21
-11.14251296602644
 31
0.0
  0
SPLINE
  5
3CB7
330
1F
100
AcDbEntity
  8
AM_0
100
AcDbSpline
210
0.0
220
0.0
230
1.0
 70
     8
 71
     3
 72
     9
 73
     5
 74
     3
 42
0.0000000001
 43
0.0000000001
 44
0.0000000001
 12
-0.6494269884643444
 22
0.76042395192033
 32
0.0
 13
-0.9604248968033783
 23
-0.2785390773306689
 33
0.0
 40
0.0
 40
0.0
 40
0.0
 40
0.0
 40
3.172904324374116
 40
5.716955357690302
 40
5.716955357690302
 40
5.716955357690302
 40
5.716955357690302
 10
-4.999999999996571
 20
-10.96143653219227
 30
0.0
 10
-5.686856566684497
 20
-10.15718571705705
 30
0.0
 10
-7.175801006995594
 20
-8.400133180040946
 30
0.0
 10
-9.185543349629531
 20
-9.242810224391666
 30
0.0
 10
-10.00000000000794
 20
-9.479016100225674
 30
0.0
 11
-4.999999999996571
 21
-10.96143653219227
 31
0.0
 11
-7.499999999996571
 21
-9.007639753703795
 31
0.0
 11
-10.00000000000794
 21
-9.479016100225674
 31
0.0
  0
SPLINE
  5
3CB8
330
1F
100
AcDbEntity
  8
AM_0
100
AcDbSpline
210
0.0
220
0.0
230
1.0
 70
     8
 71
     3
 72
     8
 73
     4
 74
     0
 42
0.0000000001
 43
0.0000000001
 40
4.096652702081863
 40
4.096652702081863
 40
4.096652702081863
 40
4.096652702081863
 40
5.678228147290397
 40
5.678228147290397
 40
5.678228147290397
 40
5.678228147290397
 10
-9.999999999992024
 20
-11.14251296602416
 30
0.0
 10
-11.25902445783706
 20
-10.81130336823177
 30
0.0
 10
-12.50854224143834
 20
-10.42668528110395
 30
0.0
 10
-13.74999999999657
 20
-9.996785978840687
 30
0.0
  0
SPLINE
  5
3CB9
330
1F
100
AcDbEntity
  8
AM_0
100
AcDbSpline
210
0.0
220
0.0
230
1.0
 70
     8
 71
     3
 72
     8
 73
     4
 74
     0
 42
0.0000000001
 43
0.0000000001
 40
5.928582328726523
 40
5.928582328726523
 40
5.928582328726523
 40
5.928582328726523
 40
7.528098176779675
 40
7.528098176779675
 40
7.528098176779675
 40
7.528098176779675
 10
-10.00000000000794
 20
-9.479016100225674
 30
0.0
 10
-11.25711049021104
 20
-9.040711616891865
 30
0.0
 10
-12.5066352503188
 20
-8.558554765328647
 30
0.0
 10
-13.74999999993518
 20
-8.040787491959502
 30
0.0
  0
SPLINE
  5
3CBA
330
1F
100
AcDbEntity
  8
AM_0
100
AcDbSpline
210
0.0
220
0.0
230
1.0
 70
     8
 71
     3
 72
     9
 73
     5
 74
     3
 42
0.0000000001
 43
0.0000000001
 44
0.0000000001
 12
-0.6160346874185714
 22
0.7877190259839503
 32
0.0
 13
-0.9511353387127366
 23
-0.3087742985609524
 33
0.0
 40
0.0
 40
0.0
 40
0.0
 40
0.0
 40
3.0027130342178
 40
5.521982745500506
 40
5.521982745500506
 40
5.521982745500506
 40
5.521982745500506
 10
-13.74999999999657
 20
-9.996785978840687
 30
0.0
 10
-14.36659179514391
 20
-9.208354583299568
 30
0.0
 10
-16.02621269222015
 20
-8.306465460836557
 30
0.0
 10
-17.9512778499467
 20
-7.763277106627999
 30
0.0
 10
-18.74999999999657
 20
-8.022572352623722
 30
0.0
 11
-13.74999999999657
 21
-9.996785978840687
 31
0.0
 11
-16.24999999999657
 21
-8.333570549059725
 31
0.0
 11
-18.74999999999657
 21
-8.022572352623722
 31
0.0
  0
SPLINE
  5
3CBB
330
1F
100
AcDbEntity
  8
AM_0
100
AcDbSpline
210
0.0
220
0.0
230
1.0
 70
     8
 71
     3
 72
     9
 73
     5
 74
     3
 42
0.0000000001
 43
0.0000000001
 44
0.0000000001
 12
-0.6311748102206538
 22
0.7756406119736911
 32
0.0
 13
-0.9939483500198665
 23
-0.1098484296327676
 33
0.0
 40
0.0
 40
0.0
 40
0.0
 40
0.0
 40
3.568432239538092
 40
6.085871670612656
 40
6.085871670612656
 40
6.085871670612656
 40
6.085871670612656
 10
-13.74999999999657
 20
-8.022572352623722
 30
0.0
 10
-14.50076818052181
 20
-7.099965363936397
 30
0.0
 10
-15.68630308558384
 20
-4.759198486205512
 30
0.0
 10
-17.91593174373273
 20
-5.679886842690452
 30
0.0
 10
-18.74999999999657
 20
-5.772065765423501
 30
0.0
 11
-13.74999999999657
 21
-8.022572352623722
 31
0.0
 11
-16.24999999999657
 21
-5.476259597250798
 31
0.0
 11
-18.74999999999657
 21
-5.772065765423501
 31
0.0
  0
SPLINE
  5
3CBC
330
1F
100
AcDbEntity
  8
AM_0
100
AcDbSpline
210
0.0
220
0.0
230
1.0
 70
     8
 71
     3
 72
     8
 73
     4
 74
     0
 42
0.0000000001
 43
0.0000000001
 40
7.818791612490512
 40
7.818791612490512
 40
7.818791612490512
 40
7.818791612490512
 40
9.443881246512125
 40
9.443881246512125
 40
9.443881246512125
 40
9.443881246512125
 10
-18.74999999999657
 20
-8.022572352623154
 30
0.0
 10
-20.00591934664495
 20
-7.470199340003471
 30
0.0
 10
-21.25539622318679
 20
-6.881632534773114
 30
0.0
 10
-22.49999999999655
 20
-6.265688658610581
 30
0.0
  0
SPLINE
  5
3CBD
330
1F
100
AcDbEntity
  8
AM_0
100
AcDbSpline
210
0.0
220
0.0
230
1.0
 70
     8
 71
     3
 72
     8
 73
     4
 74
     0
 42
0.0000000001
 43
0.0000000001
 40
9.685078621624523
 40
9.685078621624523
 40
9.685078621624523
 40
9.685078621624523
 40
11.31655044551473
 40
11.31655044551473
 40
11.31655044551473
 40
11.31655044551473
 10
-18.74999999999657
 20
-5.772065765423501
 30
0.0
 10
-20.00390410669293
 20
-5.161280165997066
 30
0.0
 10
-21.25339981019916
 20
-4.525010016288586
 30
0.0
 10
-22.50000000002724
 20
-3.872001183489981
 30
0.0
  0
SPLINE
  5
3CBE
330
1F
100
AcDbEntity
  8
AM_0
100
AcDbSpline
210
0.0
220
0.0
230
1.0
 70
     8
 71
     3
 72
     9
 73
     5
 74
     3
 42
0.0000000001
 43
0.0000000001
 44
0.0000000001
 12
-0.7690286934869368
 22
0.6392142587534911
 32
0.0
 13
-0.9823098605277884
 23
0.1872627509940964
 33
0.0
 40
0.0
 40
0.0
 40
0.0
 40
0.0
 40
3.008052495807424
 40
5.678924965625006
 40
5.678924965625006
 40
5.678924965625006
 40
5.678924965625006
 10
-22.49999999999655
 20
-6.265688658610581
 30
0.0
 10
-23.27109289359352
 20
-5.624758643144204
 30
0.0
 10
-24.85222384075744
 20
-4.570173955969812
 30
0.0
 10
-26.62545854555855
 20
-3.819592516257958
 30
0.0
 10
-27.49999999999655
 20
-3.652874207507146
 30
0.0
 11
-22.49999999999655
 21
-6.265688658610581
 31
0.0
 11
-24.99999999999655
 21
-4.592852797704534
 31
0.0
 11
-27.49999999999655
 21
-3.652874207507146
 31
0.0
  0
SPLINE
  5
3CBF
330
1F
100
AcDbEntity
  8
AM_0
100
AcDbSpline
210
0.0
220
0.0
230
1.0
 70
     8
 71
     3
 72
     9
 73
     5
 74
     3
 42
0.0000000001
 43
0.0000000001
 44
0.0000000001
 12
-0.4936303795221267
 22
0.8696718050005078
 32
0.0
 13
-0.8861177952489004
 23
-0.4634600877564627
 33
0.0
 40
0.0
 40
0.0
 40
0.0
 40
0.0
 40
3.724472356041371
 40
6.224472356041371
 40
6.224472356041371
 40
6.224472356041371
 40
6.224472356041371
 10
-22.49999999999655
 20
-3.872001183505897
 30
0.0
 10
-23.11283756754067
 20
-2.792311651321566
 30
0.0
 10
-24.32118306065006
 20
-0.8347589121290923
 30
0.0
 10
-26.7615685039558
 20
-0.7250428167331409
 30
0.0
 10
-27.49999999999655
 20
-1.111259556530193
 30
0.0
 11
-22.49999999999655
 21
-3.872001183505897
 31
0.0
 11
-24.99999999999655
 21
-1.11125955653021
 31
0.0
 11
-27.49999999999655
 21
-1.111259556530193
 31
0.0
  0
SPLINE
  5
3CC0
330
1F
100
AcDbEntity
  8
AM_0
100
AcDbSpline
210
0.0
220
0.0
230
1.0
 70
     8
 71
     3
 72
     8
 73
     4
 74
     0
 42
0.0000000001
 43
0.0000000001
 40
11.62991291415682
 40
11.62991291415682
 40
11.62991291415682
 40
11.62991291415682
 40
14.48999654934396
 40
14.48999654934396
 40
14.48999654934396
 40
14.48999654934396
 10
-27.49999999999655
 20
-3.652874207507146
 30
0.0
 10
-29.67237012705364
 20
-2.467291508218316
 30
0.0
 10
-31.83618506352441
 20
-1.233645754125198
 30
0.0
 10
-33.99999999999632
 20
-0.0000000000326494
 30
0.0
  0
SPLINE
  5
3CC1
330
1F
100
AcDbEntity
  8
AM_0
100
AcDbSpline
210
0.0
220
0.0
230
1.0
 70
     8
 71
     3
 72
     8
 73
     4
 74
     0
 42
0.0000000001
 43
0.0000000001
 40
13.50299628442394
 40
13.50299628442394
 40
13.50299628442394
 40
13.50299628442394
 40
14.43901837670146
 40
14.43901837670146
 40
14.43901837670146
 40
14.43901837670146
 10
-27.49999999999655
 20
-1.177438009921409
 30
0.0
 10
-28.21231648891963
 20
-0.7860597844998197
 30
0.0
 10
-28.92434726696475
 20
-0.3930298922662345
 30
0.0
 10
-29.63637804500987
 20
-0.000000000032081
 30
0.0
  0
SPLINE
  5
3CC2
330
1F
100
AcDbEntity
  8
AM_0
100
AcDbSpline
210
0.0
220
0.0
230
1.0
 70
     8
 71
     3
 72
     9
 73
     5
 74
     3
 42
0.0000000001
 43
0.0000000001
 44
0.0000000001
 12
-0.5307113561502265
 22
0.8475526275419053
 32
0.0
 13
-0.970954040212762
 23
-0.2392660690413793
 33
0.0
 40
0.0
 40
0.0
 40
0.0
 40
0.0
 40
3.557864336821316
 40
6.064032536126164
 40
6.064032536126164
 40
6.064032536126164
 40
6.064032536126164
 10
-31.24999999999655
 20
0.8899143860768177
 30
0.0
 10
-31.87939966906087
 20
1.895073475113666
 30
0.0
 10
-33.21002763131795
 20
3.692356200408331
 30
0.0
 10
-35.43887528714062
 20
3.797000573306281
 30
0.0
 10
-36.24999999999655
 20
3.597120235504887
 30
0.0
 11
-31.24999999999655
 21
0.8899143860768177
 31
0.0
 11
-33.74999999999655
 21
3.421395896818104
 31
0.0
 11
-36.24999999999655
 21
3.597120235504887
 31
0.0
  0
SPLINE
  5
3CC3
330
1F
100
AcDbEntity
  8
AM_0
100
AcDbSpline
210
0.0
220
0.0
230
1.0
 70
     8
 71
     3
 72
     8
 73
     4
 74
     0
 42
0.0000000001
 43
0.0000000001
 40
13.73199344169106
 40
13.73199344169106
 40
13.73199344169106
 40
13.73199344169106
 40
14.43901837670146
 40
14.43901837670146
 40
14.43901837670146
 40
14.43901837670146
 10
-31.24999999999655
 20
0.8899143860768177
 30
0.0
 10
-30.71204392667251
 20
0.5937508020193505
 30
0.0
 10
-30.17421098584119
 20
0.2968754009933505
 30
0.0
 10
-29.63637804500987
 20
-0.000000000032081
 30
0.0
  0
SPLINE
  5
3CC4
330
1F
100
AcDbEntity
  8
AM_0
100
AcDbSpline
210
0.0
220
0.0
230
1.0
 70
     8
 71
     3
 72
     9
 73
     5
 74
     3
 42
0.0000000001
 43
0.0000000001
 44
0.0000000001
 12
-0.9430790451623916
 22
0.3325686614454102
 32
0.0
 13
-0.7408851562591448
 23
0.6716317333441465
 33
0.0
 40
0.0
 40
0.0
 40
0.0
 40
0.0
 40
2.682235943905457
 40
5.686368046158705
 40
5.686368046158705
 40
5.686368046158705
 40
5.686368046158705
 10
-39.99999999999655
 20
3.379088635704512
 30
0.0
 10
-40.84318683762275
 20
3.676431174886313
 30
0.0
 10
-42.64296768647741
 20
4.285186523052811
 30
0.0
 10
-44.25809437265606
 20
5.344104948795154
 30
0.0
 10
-44.99999999998973
 20
6.016661765805535
 30
0.0
 11
-39.99999999999655
 21
3.379088635704512
 31
0.0
 11
-42.49999999999655
 21
4.350885764110641
 31
0.0
 11
-44.99999999998973
 21
6.016661765805535
 31
0.0
  0
SPLINE
  5
3CC5
330
1F
100
AcDbEntity
  8
AM_0
100
AcDbSpline
210
0.0
220
0.0
230
1.0
 70
     8
 71
     3
 72
     9
 73
     5
 74
     3
 42
0.0000000001
 43
0.0000000001
 44
0.0000000001
 12
-0.7744171056884044
 22
0.6326753878705846
 32
0.0
 13
-0.9976643324497596
 23
-0.0683072452787833
 33
0.0
 40
0.0
 40
0.0
 40
0.0
 40
0.0
 40
3.152506259100539
 40
5.68190556850452
 40
5.68190556850452
 40
5.68190556850452
 40
5.68190556850452
 10
-39.99999999999655
 20
5.515850622739177
 30
0.0
 10
-40.81378492427562
 20
6.180688329486137
 30
0.0
 10
-42.14272179782307
 20
7.664562660155659
 30
0.0
 10
-44.15883617549141
 20
7.878463142846377
 30
0.0
 10
-44.99999999999655
 20
7.820871043167896
 30
0.0
 11
-39.99999999999655
 21
5.515850622739177
 31
0.0
 11
-42.49999999999655
 21
7.436344234722325
 31
0.0
 11
-44.99999999999655
 21
7.820871043167896
 31
0.0
  0
SPLINE
  5
3CC6
330
1F
100
AcDbEntity
  8
AM_0
100
AcDbSpline
210
0.0
220
0.0
230
1.0
 70
     8
 71
     3
 72
     8
 73
     4
 74
     0
 42
0.0000000001
 43
0.0000000001
 40
11.84940637128532
 40
11.84940637128532
 40
11.84940637128532
 40
11.84940637128532
 40
14.48999654934396
 40
14.48999654934396
 40
14.48999654934396
 40
14.48999654934396
 10
-39.99999999999655
 20
3.379088635704512
 30
0.0
 10
-37.99551145853452
 20
2.277942379962816
 30
0.0
 10
-35.99775572926542
 20
1.138971189965651
 30
0.0
 10
-33.99999999999632
 20
-0.000000000032081
 30
0.0
  0
SPLINE
  5
3CC7
330
1F
100
AcDbEntity
  8
AM_0
100
AcDbSpline
210
0.0
220
0.0
230
1.0
 70
     8
 71
     3
 72
     8
 73
     4
 74
     0
 42
0.0000000001
 43
0.0000000001
 40
9.911909440357588
 40
9.911909440357588
 40
9.911909440357588
 40
9.911909440357588
 40
11.54467281373877
 40
11.54467281373877
 40
11.54467281373877
 40
11.54467281373877
 10
-39.99999999999655
 20
5.515850622738609
 30
0.0
 10
-38.74630078633
 20
4.897658621577845
 30
0.0
 10
-37.49680628145707
 20
4.255159607649003
 30
0.0
 10
-36.24999999999655
 20
3.597120235504887
 30
0.0
  0
SPLINE
  5
3CC8
330
1F
100
AcDbEntity
  8
AM_0
100
AcDbSpline
210
0.0
220
0.0
230
1.0
 70
     8
 71
     3
 72
     9
 73
     5
 74
     3
 42
0.0000000001
 43
0.0000000001
 44
0.0000000001
 12
-0.9971207175624302
 22
0.0758305651290049
 32
0.0
 13
-0.7822668508322132
 23
0.6229434758379383
 33
0.0
 40
0.0
 40
0.0
 40
0.0
 40
0.0
 40
2.52439001991961
 40
5.531074037894953
 40
5.531074037894953
 40
5.531074037894953
 40
5.531074037894953
 10
-48.74999999999655
 20
7.800622115981097
 30
0.0
 10
-49.58904052935311
 20
7.864430756586605
 30
0.0
 10
-51.51877947884969
 20
7.882034436194792
 30
0.0
 10
-52.96599025393351
 20
9.196728804687182
 30
0.0
 10
-53.74999999999655
 20
9.821060202321829
 30
0.0
 11
-48.74999999999655
 21
7.800622115981097
 31
0.0
 11
-51.24999999999655
 21
8.150686356756606
 31
0.0
 11
-53.74999999999655
 21
9.821060202321829
 31
0.0
  0
SPLINE
  5
3CC9
330
1F
100
AcDbEntity
  8
AM_0
100
AcDbSpline
210
0.0
220
0.0
230
1.0
 70
     8
 71
     3
 72
     9
 73
     5
 74
     3
 42
0.0000000001
 43
0.0000000001
 44
0.0000000001
 12
-0.8872020512481601
 22
0.4613811008928056
 32
0.0
 13
-0.9856395606727488
 23
0.1688628332014792
 33
0.0
 40
0.0
 40
0.0
 40
0.0
 40
0.0
 40
2.697437508208313
 40
5.2519759014964
 40
5.2519759014964
 40
5.2519759014964
 40
5.2519759014964
 10
-48.74999999999655
 20
9.294090562384296
 30
0.0
 10
-49.5477240301286
 20
9.708939458093196
 30
0.0
 10
-51.1792409205967
 20
10.38903367577815
 30
0.0
 10
-52.91071530010251
 20
10.68834118322218
 30
0.0
 10
-53.74999999999655
 20
10.83213004675971
 30
0.0
 11
-48.74999999999655
 21
9.294090562384296
 31
0.0
 11
-51.24999999999655
 21
10.30709061701858
 31
0.0
 11
-53.74999999999655
 21
10.83213004675971
 31
0.0
  0
SPLINE
  5
3CCA
330
1F
100
AcDbEntity
  8
AM_0
100
AcDbSpline
210
0.0
220
0.0
230
1.0
 70
     8
 71
     3
 72
     8
 73
     4
 74
     0
 42
0.0000000001
 43
0.0000000001
 40
8.034594408064972
 40
8.034594408064972
 40
8.034594408064972
 40
8.034594408064972
 40
9.661611892530016
 40
9.661611892530016
 40
9.661611892530016
 40
9.661611892530016
 10
-48.74999999999655
 20
7.80062211597996
 30
0.0
 10
-47.49427612112864
 20
7.238125413455547
 30
0.0
 10
-46.24480110854616
 20
6.640522584446868
 30
0.0
 10
-44.99999999999769
 20
6.016661765809514
 30
0.0
  0
SPLINE
  5
3CCB
330
1F
100
AcDbEntity
  8
AM_0
100
AcDbSpline
210
0.0
220
0.0
230
1.0
 70
     8
 71
     3
 72
     8
 73
     4
 74
     0
 42
0.0000000001
 43
0.0000000001
 40
6.150480381241876
 40
6.150480381241876
 40
6.150480381241876
 40
6.150480381241876
 40
7.75241736749254
 40
7.75241736749254
 40
7.75241736749254
 40
7.75241736749254
 10
-48.74999999999655
 20
9.294090562383727
 30
0.0
 10
-47.49306707597494
 20
8.843095949093564
 30
0.0
 10
-46.24354447717902
 20
8.349262966070538
 30
0.0
 10
-44.99999999999655
 20
7.820871043167896
 30
0.0
  0
SPLINE
  5
3CCC
330
1F
100
AcDbEntity
  8
AM_0
100
AcDbSpline
210
0.0
220
0.0
230
1.0
 70
     8
 71
     3
 72
     9
 73
     5
 74
     3
 42
0.0000000001
 43
0.0000000001
 44
0.0000000001
 12
-0.981554829460477
 22
-0.1911808483159698
 32
0.0
 13
-0.8368779624517458
 23
0.5473895102782062
 33
0.0
 40
0.0
 40
0.0
 40
0.0
 40
0.0
 40
2.527696645120757
 40
5.414659456687827
 40
5.414659456687827
 40
5.414659456687827
 40
5.414659456687827
 10
-57.49999999999655
 20
11.00805344994316
 30
0.0
 10
-58.32702428313966
 20
10.84697105364328
 30
0.0
 10
-60.21349710208372
 20
10.1123218339139
 30
0.0
 10
-61.69465481485715
 20
11.55192501617932
 30
0.0
 10
-62.49999999999655
 20
12.07868940271768
 30
0.0
 11
-57.49999999999655
 21
11.00805344994316
 31
0.0
 11
-59.99999999999655
 21
10.63489084496413
 31
0.0
 11
-62.49999999999655
 21
12.07868940271768
 31
0.0
  0
SPLINE
  5
3CCD
330
1F
100
AcDbEntity
  8
AM_0
100
AcDbSpline
210
0.0
220
0.0
230
1.0
 70
     8
 71
     3
 72
     9
 73
     5
 74
     3
 42
0.0000000001
 43
0.0000000001
 44
0.0000000001
 12
-0.9980349569700281
 22
-0.0626595935658236
 32
0.0
 13
-0.9269020209125907
 23
0.3753034021004276
 33
0.0
 40
0.0
 40
0.0
 40
0.0
 40
0.0
 40
2.502472146055242
 40
5.074169514985318
 40
5.074169514985318
 40
5.074169514985318
 40
5.074169514985318
 10
-57.49999999999655
 20
11.61596685536241
 30
0.0
 10
-58.33251822686553
 20
11.56369889283521
 30
0.0
 10
-60.02704315376859
 20
11.33761563940704
 30
0.0
 10
-61.70542950385093
 20
11.78605351681986
 30
0.0
 10
-62.49999999999655
 20
12.10777577406392
 30
0.0
 11
-57.49999999999655
 21
11.61596685536241
 31
0.0
 11
-59.99999999999655
 21
11.50476055256294
 31
0.0
 11
-62.49999999999655
 21
12.10777577406392
 31
0.0
  0
SPLINE
  5
3CCE
330
1F
100
AcDbEntity
  8
AM_0
100
AcDbSpline
210
0.0
220
0.0
230
1.0
 70
     8
 71
     3
 72
     8
 73
     4
 74
     0
 42
0.0000000001
 43
0.0000000001
 40
4.306226182506206
 40
4.306226182506206
 40
4.306226182506206
 40
4.306226182506206
 40
5.890739774064351
 40
5.890739774064351
 40
5.890739774064351
 40
5.890739774064351
 10
-57.49999999999655
 20
11.00805344994316
 30
0.0
 10
-56.24113528747894
 20
10.66219098287692
 30
0.0
 10
-54.99162019636283
 20
10.26380234922416
 30
0.0
 10
-53.74999999999655
 20
9.821060202321829
 30
0.0
  0
SPLINE
  5
3CCF
330
1F
100
AcDbEntity
  8
AM_0
100
AcDbSpline
210
0.0
220
0.0
230
1.0
 70
     8
 71
     3
 72
     8
 73
     4
 74
     0
 42
0.0000000001
 43
0.0000000001
 40
2.489821994174631
 40
2.489821994174631
 40
2.489821994174631
 40
2.489821994174631
 40
4.043019649814397
 40
4.043019649814397
 40
4.043019649814397
 40
4.043019649814397
 10
-57.49999999999655
 20
11.61596685536241
 30
0.0
 10
-56.2412213960874
 20
11.41043971478583
 30
0.0
 10
-54.99248572667735
 20
11.14685534619783
 30
0.0
 10
-53.75248757658933
 20
10.83276022783397
 30
0.0
  0
SPLINE
  5
3CD0
330
1F
100
AcDbEntity
  8
AM_0
100
AcDbSpline
210
0.0
220
0.0
230
1.0
 70
     8
 71
     3
 72
     9
 73
     5
 74
     0
 42
0.0000000001
 43
0.0000000001
 40
0.0
 40
0.0
 40
0.0
 40
0.0
 40
1.173671883824386
 40
1.360226551015519
 40
1.360226551015519
 40
1.360226551015519
 40
1.360226551015519
 10
-9.374999999996553
 20
11.30231130974638
 30
0.0
 10
-9.984421022614906
 20
10.53732294943503
 30
0.0
 10
-11.04695734045547
 20
9.935837054875689
 30
0.0
 10
-12.1859995124373
 20
9.692889533823487
 30
0.0
 10
-12.34292369253237
 20
9.666722063871331
 30
0.0
  0
SPLINE
  5
3CD1
330
1F
100
AcDbEntity
  8
AM_0
100
AcDbSpline
210
0.0
220
0.0
230
1.0
 70
     8
 71
     3
 72
     9
 73
     5
 74
     3
 42
0.0000000001
 43
0.0000000001
 44
0.0000000001
 12
-0.9681805968441544
 22
0.2502525362398896
 32
0.0
 13
-0.8208259885173362
 23
0.5711783404283972
 33
0.0
 40
0.0
 40
0.0
 40
0.0
 40
0.0
 40
2.662451656888968
 40
5.673148356577431
 40
5.673148356577431
 40
5.673148356577431
 40
5.673148356577431
 10
-6.874999999996571
 20
3.856998900348314
 30
0.0
 10
-7.734244678075061
 20
4.079093993599167
 30
0.0
 10
-9.561503426286877
 20
4.67666966784072
 30
0.0
 10
-11.05124730178068
 20
5.877147650976455
 30
0.0
 10
-11.87499999999657
 20
6.450362565796892
 30
0.0
 11
-6.874999999996571
 21
3.856998900348314
 31
0.0
 11
-9.374999999996571
 21
4.772776616429466
 31
0.0
 11
-11.87499999999657
 21
6.450362565796892
 31
0.0
  0
SPLINE
  5
3CD2
330
1F
100
AcDbEntity
  8
AM_0
100
AcDbSpline
210
0.0
220
0.0
230
1.0
 70
     8
 71
     3
 72
     9
 73
     5
 74
     3
 42
0.0000000001
 43
0.0000000001
 44
0.0000000001
 12
-0.8176346168783078
 22
0.5757374690622999
 32
0.0
 13
-0.9964633055848636
 23
-0.0840290463047553
 33
0.0
 40
0.0
 40
0.0
 40
0.0
 40
0.0
 40
3.104984667671362
 40
5.637112340909202
 40
5.637112340909202
 40
5.637112340909202
 40
5.637112340909202
 10
-6.874999999996571
 20
5.942912126281241
 30
0.0
 10
-7.721247649718069
 20
6.53879746429536
 30
0.0
 10
-9.032193822785371
 20
8.002231595359731
 30
0.0
 10
-11.03394256285074
 20
8.257366728997475
 30
0.0
 10
-11.87499999999657
 20
8.186442637829456
 30
0.0
 11
-6.874999999996571
 21
5.942912126281241
 31
0.0
 11
-9.374999999996571
 21
7.784359868269659
 31
0.0
 11
-11.87499999999657
 21
8.186442637829456
 31
0.0
  0
SPLINE
  5
3CD3
330
1F
100
AcDbEntity
  8
AM_0
100
AcDbSpline
210
0.0
220
0.0
230
1.0
 70
     8
 71
     3
 72
     8
 73
     4
 74
     0
 42
0.0000000001
 43
0.0000000001
 40
11.46537929237052
 40
11.46537929237052
 40
11.46537929237052
 40
11.46537929237052
 40
14.48999654934396
 40
14.48999654934396
 40
14.48999654934396
 40
14.48999654934396
 10
-6.874999999997708
 20
3.856998900348882
 30
0.0
 10
-4.576587843254156
 20
2.609228758816772
 30
0.0
 10
-2.288293921625363
 20
1.304614379392052
 30
0.0
 10
0.0000000000034284
 20
-0.0000000000320988
 30
0.0
  0
SPLINE
  5
3CD4
330
1F
100
AcDbEntity
  8
AM_0
100
AcDbSpline
210
0.0
220
0.0
230
1.0
 70
     8
 71
     3
 72
     8
 73
     4
 74
     0
 42
0.0000000001
 43
0.0000000001
 40
9.532359626456116
 40
9.532359626456116
 40
9.532359626456116
 40
9.532359626456116
 40
12.40023413887867
 40
12.40023413887867
 40
12.40023413887867
 40
12.40023413887867
 10
-6.875000000018172
 20
5.942912126292041
 30
0.0
 10
-4.669356898054939
 20
4.877767347281034
 30
0.0
 10
-2.477773449729721
 20
3.731345077398229
 30
0.0
 10
-0.2920319809856941
 20
2.551150891489744
 30
0.0
  0
SPLINE
  5
3CD5
330
1F
100
AcDbEntity
  8
AM_0
100
AcDbSpline
210
0.0
220
0.0
230
1.0
 70
     8
 71
     3
 72
     9
 73
     5
 74
     3
 42
0.0000000001
 43
0.0000000001
 44
0.0000000001
 12
-0.998177010066545
 22
0.0603544246481782
 32
0.0
 13
-0.779635520695841
 23
0.6262335465857168
 33
0.0
 40
0.0
 40
0.0
 40
0.0
 40
0.0
 40
2.515797616816375
 40
5.515264165578107
 40
5.515264165578107
 40
5.515264165578107
 40
5.515264165578107
 10
-15.62499999999657
 20
8.186335255257146
 30
0.0
 10
-16.462070447692
 20
8.236948427821882
 30
0.0
 10
-18.39478156742857
 20
8.172990818251109
 30
0.0
 10
-19.84550311181201
 20
9.499052041350012
 30
0.0
 10
-20.62499999999655
 20
10.12517423291543
 30
0.0
 11
-15.62499999999657
 21
8.186335255257146
 31
0.0
 11
-18.12499999999657
 21
8.467827082454588
 31
0.0
 11
-20.62499999999655
 21
10.12517423291543
 31
0.0
  0
SPLINE
  5
3CD6
330
1F
100
AcDbEntity
  8
AM_0
100
AcDbSpline
210
0.0
220
0.0
230
1.0
 70
     8
 71
     3
 72
     9
 73
     5
 74
     3
 42
0.0000000001
 43
0.0000000001
 44
0.0000000001
 12
-0.8654492111584158
 22
0.5009966695550736
 32
0.0
 13
-0.9979873375911877
 23
0.0634135159698054
 33
0.0
 40
0.0
 40
0.0
 40
0.0
 40
0.0
 40
2.66042230732328
 40
5.216927930004977
 40
5.216927930004977
 40
5.216927930004977
 40
5.216927930004977
 10
-15.62499999999657
 20
9.600606952024888
 30
0.0
 10
-16.39248679573696
 20
10.04489452388455
 30
0.0
 10
-18.09912179948416
 20
10.48415147494518
 30
0.0
 10
-19.77454658669088
 20
10.99095760973247
 30
0.0
 10
-20.62499999999655
 20
11.04499661310941
 30
0.0
 11
-15.62499999999657
 21
9.600606952024888
 31
0.0
 11
-18.12499999999657
 21
10.51046784980175
 31
0.0
 11
-20.62499999999655
 21
11.04499661310941
 31
0.0
  0
SPLINE
  5
3CD7
330
1F
100
AcDbEntity
  8
AM_0
100
AcDbSpline
210
0.0
220
0.0
230
1.0
 70
     8
 71
     3
 72
     8
 73
     4
 74
     0
 42
0.0000000001
 43
0.0000000001
 40
7.657131739025505
 40
7.657131739025505
 40
7.657131739025505
 40
7.657131739025505
 40
9.280732515295124
 40
9.280732515295124
 40
9.280732515295124
 40
9.280732515295124
 10
-15.62499999999657
 20
8.186335255257146
 30
0.0
 10
-14.36893518510713
 20
7.64174981796688
 30
0.0
 10
-13.11945687207296
 20
7.060161417801706
 30
0.0
 10
-11.8749999999977
 20
6.45036256579746
 30
0.0
  0
SPLINE
  5
3CD8
330
1F
100
AcDbEntity
  8
AM_0
100
AcDbSpline
210
0.0
220
0.0
230
1.0
 70
     8
 71
     3
 72
     8
 73
     4
 74
     0
 42
0.0000000001
 43
0.0000000001
 40
5.779271486987545
 40
5.779271486987545
 40
5.779271486987545
 40
5.779271486987545
 40
7.377122246071414
 40
7.377122246071414
 40
7.377122246071414
 40
7.377122246071414
 10
-15.62499999999657
 20
9.600606952024888
 30
0.0
 10
-14.36777100189827
 20
9.171008982528148
 30
0.0
 10
-13.11824475914248
 20
8.69688213322294
 30
0.0
 10
-11.87499999999657
 20
8.186442637829456
 30
0.0
  0
SPLINE
  5
3CD9
330
1F
100
AcDbEntity
  8
AM_0
100
AcDbSpline
210
0.0
220
0.0
230
1.0
 70
     8
 71
     3
 72
     9
 73
     5
 74
     3
 42
0.0000000001
 43
0.0000000001
 44
0.0000000001
 12
-0.9326421945680836
 22
-0.36080262874767
 32
0.0
 13
-0.8816144343688888
 23
0.4719703265168522
 33
0.0
 40
0.0
 40
0.0
 40
0.0
 40
0.0
 40
2.540082477351409
 40
5.410637129257489
 40
5.410637129257489
 40
5.410637129257489
 40
5.410637129257489
 10
-24.37499999999655
 20
11.23950448641582
 30
0.0
 10
-25.16466269868354
 20
10.93401500806106
 30
0.0
 10
-27.10856355730815
 20
10.28434462882881
 30
0.0
 10
-28.53142586140816
 20
11.74913709306236
 30
0.0
 10
-29.37499999999655
 20
12.20074263184389
 30
0.0
 11
-24.37499999999655
 21
11.23950448641582
 31
0.0
 11
-26.87499999999655
 21
10.79003925778553
 31
0.0
 11
-29.37499999999655
 21
12.20074263184389
 31
0.0
  0
SPLINE
  5
3CDA
330
1F
100
AcDbEntity
  8
AM_0
100
AcDbSpline
210
0.0
220
0.0
230
1.0
 70
     8
 71
     3
 72
     9
 73
     5
 74
     0
 42
0.0000000001
 43
0.0000000001
 40
0.0
 40
0.0
 40
0.0
 40
0.0
 40
1.008936993267342
 40
1.777052715134862
 40
1.777052715134862
 40
1.777052715134862
 40
1.777052715134862
 10
-24.37499999999655
 20
11.74915728904326
 30
0.0
 10
-25.1901084898736
 20
11.54297642185016
 30
0.0
 10
-26.69108903104866
 20
11.22078548087844
 30
0.0
 10
-28.13158322566774
 20
11.63398880875123
 30
0.0
 10
-28.75140872501898
 20
11.81274499843115
 30
0.0
  0
SPLINE
  5
3CDB
330
1F
100
AcDbEntity
  8
AM_0
100
AcDbSpline
210
0.0
220
0.0
230
1.0
 70
     8
 71
     3
 72
     8
 73
     4
 74
     0
 42
0.0000000001
 43
0.0000000001
 40
3.939746932601999
 40
3.939746932601999
 40
3.939746932601999
 40
3.939746932601999
 40
5.519086939037594
 40
5.519086939037594
 40
5.519086939037594
 40
5.519086939037594
 10
-24.37499999999655
 20
11.23950448641582
 30
0.0
 10
-23.11585724075367
 20
10.91942508369387
 30
0.0
 10
-21.86633741531178
 20
10.54528404552715
 30
0.0
 10
-20.62499999999655
 20
10.12517423291487
 30
0.0
  0
SPLINE
  5
3CDC
330
1F
100
AcDbEntity
  8
AM_0
100
AcDbSpline
210
0.0
220
0.0
230
1.0
 70
     8
 71
     3
 72
     8
 73
     4
 74
     0
 42
0.0000000001
 43
0.0000000001
 40
2.130606102564619
 40
2.130606102564619
 40
2.130606102564619
 40
2.130606102564619
 40
3.679329335050426
 40
3.679329335050426
 40
3.679329335050426
 40
3.679329335050426
 10
-24.37499999999655
 20
11.74915728904383
 30
0.0
 10
-23.11514606073952
 20
11.57140172863111
 30
0.0
 10
-21.86557744934244
 20
11.3341876877624
 30
0.0
 10
-20.62500000000223
 20
11.04499661310941
 30
0.0
  0
SPLINE
  5
3CDD
330
1F
100
AcDbEntity
  8
AM_0
100
AcDbSpline
210
0.0
220
0.0
230
1.0
 70
     8
 71
     3
 72
     9
 73
     5
 74
     3
 42
0.0000000001
 43
0.0000000001
 44
0.0000000001
 12
0.9763857352009789
 22
-0.2160344789519577
 32
0.0
 13
0.7423022879960352
 23
0.6700651559630985
 33
0.0
 40
0.0
 40
0.0
 40
0.0
 40
0.0
 40
2.50573058616253
 40
5.434166379646658
 40
5.434166379646658
 40
5.434166379646658
 40
5.434166379646658
 10
-46.87499999999655
 20
10.29173905606145
 30
0.0
 10
-46.05948013313459
 20
10.11129765553625
 30
0.0
 10
-44.15024501183022
 20
9.756221892969172
 30
0.0
 10
-42.59959486324747
 20
10.99332584361022
 30
0.0
 10
-41.87499999999655
 20
11.64740677250651
 30
0.0
 11
-46.87499999999655
 21
10.29173905606145
 31
0.0
 11
-44.37499999999655
 21
10.12237031505409
 31
0.0
 11
-41.87499999999655
 21
11.64740677250651
 31
0.0
  0
SPLINE
  5
3CDE
330
1F
100
AcDbEntity
  8
AM_0
100
AcDbSpline
210
0.0
220
0.0
230
1.0
 70
     8
 71
     3
 72
     9
 73
     5
 74
     3
 42
0.0000000001
 43
0.0000000001
 44
0.0000000001
 12
0.912746472641685
 22
-0.4085264699871499
 32
0.0
 13
0.8865643338464938
 23
0.4626053198476242
 33
0.0
 40
0.0
 40
0.0
 40
0.0
 40
0.0
 40
2.672028878241172
 40
5.432689783275792
 40
5.432689783275792
 40
5.432689783275792
 40
5.432689783275792
 10
-38.12499999999655
 20
12.26135667545722
 30
0.0
 10
-37.3120383555261
 20
11.89749183368002
 30
0.0
 10
-35.56854840574687
 20
10.65810253307315
 30
0.0
 10
-33.94083449874591
 20
12.06340171131867
 30
0.0
 10
-33.12499999999655
 20
12.48910051830679
 30
0.0
 11
-38.12499999999655
 21
12.26135667545722
 31
0.0
 11
-35.62499999999655
 21
11.31809725930767
 31
0.0
 11
-33.12499999999655
 21
12.48910051830679
 31
0.0
  0
SPLINE
  5
3CDF
330
1F
100
AcDbEntity
  8
AM_0
100
AcDbSpline
210
0.0
220
0.0
230
1.0
 70
     8
 71
     3
 72
     8
 73
     4
 74
     0
 42
0.0000000001
 43
0.0000000001
 40
5.307227569610006
 40
5.307227569610006
 40
5.307227569610006
 40
5.307227569610006
 40
5.635889483499305
 40
5.635889483499305
 40
5.635889483499305
 40
5.635889483499305
 10
-46.87499999999655
 20
10.29173905606032
 30
0.0
 10
-47.13378553219282
 20
10.20691065950731
 30
0.0
 10
-47.39220834906287
 20
10.12004452849541
 30
0.0
 10
-47.65028143260675
 20
10.03121359589587
 30
0.0
  0
SPLINE
  5
3CE0
330
1F
100
AcDbEntity
  8
AM_0
100
AcDbSpline
210
0.0
220
0.0
230
1.0
 70
     8
 71
     3
 72
     9
 73
     5
 74
     3
 42
0.0000000001
 43
0.0000000001
 44
0.0000000001
 12
0.836272611117368
 22
0.5483138881105782
 32
0.0
 13
0.9001039467105618
 23
-0.4356752059918834
 33
0.0
 40
0.0
 40
0.0
 40
0.0
 40
0.0
 40
2.779524575561899
 40
5.428008472192118
 40
5.428008472192118
 40
5.428008472192118
 40
5.428008472192118
 10
-34.06249999999655
 20
-12.49994420020438
 30
0.0
 10
-33.2876865751732
 20
-11.99192689116264
 30
0.0
 10
-31.63544385523241
 20
-10.69143189458767
 30
0.0
 10
-29.85713693604862
 20
-11.77484861453861
 30
0.0
 10
-29.06249999999655
 20
-12.15947487028213
 30
0.0
 11
-34.06249999999655
 21
-12.49994420020438
 31
0.0
 11
-31.56249999999655
 21
-11.28513686315354
 31
0.0
 11
-29.06249999999655
 21
-12.15947487028213
 31
0.0
  0
SPLINE
  5
3CE1
330
1F
100
AcDbEntity
  8
AM_0
100
AcDbSpline
210
0.0
220
0.0
230
1.0
 70
     8
 71
     3
 72
     8
 73
     4
 74
     2
 42
0.0000000001
 43
0.0000000001
 44
0.0000000001
 12
0.8857418982387404
 22
0.4641780797328036
 32
0.0
 13
0.9626176208368644
 23
-0.2708640176442318
 33
0.0
 40
0.0
 40
0.0
 40
0.0
 40
0.0
 40
2.49737218607419
 40
2.49737218607419
 40
2.49737218607419
 40
2.49737218607419
 10
-34.06249999999655
 20
-11.85803140303701
 30
0.0
 10
-33.32515760642922
 20
-11.47162292780033
 30
0.0
 10
-32.43202863972557
 20
-11.06406794891686
 30
0.0
 10
-31.63069048235794
 20
-11.2895507035412
 30
0.0
 11
-34.06249999999655
 21
-11.85803140303701
 31
0.0
 11
-31.63069048235794
 21
-11.2895507035412
 31
0.0
  0
SPLINE
  5
3CE2
330
1F
100
AcDbEntity
  8
AM_0
100
AcDbSpline
210
0.0
220
0.0
230
1.0
 70
     8
 71
     3
 72
     9
 73
     5
 74
     3
 42
0.0000000001
 43
0.0000000001
 44
0.0000000001
 12
-0.8798907302369245
 22
0.4751760756215865
 32
0.0
 13
-0.9606681205777121
 23
-0.277699049522476
 33
0.0
 40
0.0
 40
0.0
 40
0.0
 40
0.0
 40
2.854901345125802
 40
5.408588809557096
 40
5.408588809557096
 40
5.408588809557096
 40
5.408588809557096
 10
-37.81249999999655
 20
-12.29583336713996
 30
0.0
 10
-38.64983374310226
 20
-11.84363976131874
 30
0.0
 10
-40.11578260248452
 20
-10.34391403898433
 30
0.0
 10
-41.99475128767523
 20
-11.20175904572199
 30
0.0
 10
-42.81250000000792
 20
-11.43814457293867
 30
0.0
 11
-37.81249999999655
 21
-12.29583336713996
 31
0.0
 11
-40.31249999999655
 21
-10.91726102939301
 31
0.0
 11
-42.81250000000792
 21
-11.43814457293867
 31
0.0
  0
SPLINE
  5
3CE3
330
1F
100
AcDbEntity
  8
AM_0
100
AcDbSpline
210
0.0
220
0.0
230
1.0
 70
     8
 71
     3
 72
     9
 73
     5
 74
     3
 42
0.0000000001
 43
0.0000000001
 44
0.0000000001
 12
-0.7007569881530845
 22
0.7134000585608455
 32
0.0
 13
-0.954040132710995
 23
-0.2996788700872767
 33
0.0
 40
0.0
 40
0.0
 40
0.0
 40
0.0
 40
3.088661603088433
 40
5.636106124516489
 40
5.636106124516489
 40
5.636106124516489
 40
5.636106124516489
 10
-37.81249999999655
 20
-11.20343073729682
 30
0.0
 10
-38.53396706746466
 20
-10.46894694779084
 30
0.0
 10
-40.02149214489029
 20
-8.802154952995115
 30
0.0
 10
-42.00237856356872
 20
-9.624530370939599
 30
0.0
 10
-42.8125000000011
 20
-9.87900213620346
 30
0.0
 11
-37.81249999999655
 21
-11.20343073729682
 31
0.0
 11
-40.31249999999655
 21
-9.389641747807466
 31
0.0
 11
-42.8125000000011
 21
-9.87900213620346
 31
0.0
  0
SPLINE
  5
3CE4
330
1F
100
AcDbEntity
  8
AM_0
100
AcDbSpline
210
0.0
220
0.0
230
1.0
 70
     8
 71
     3
 72
     8
 73
     4
 74
     0
 42
0.0000000001
 43
0.0000000001
 40
3.600603813281411
 40
3.600603813281411
 40
3.600603813281411
 40
3.600603813281411
 40
5.175009087017798
 40
5.175009087017798
 40
5.175009087017798
 40
5.175009087017798
 10
-42.81249999999769
 20
-11.43814457294094
 30
0.0
 10
-44.07189460942387
 20
-11.14258283513176
 30
0.0
 10
-45.32141892181126
 20
-10.79156977536253
 30
0.0
 10
-46.56249999999655
 20
-10.39312263167882
 30
0.0
  0
SPLINE
  5
3CE5
330
1F
100
AcDbEntity
  8
AM_0
100
AcDbSpline
210
0.0
220
0.0
230
1.0
 70
     8
 71
     3
 72
     8
 73
     4
 74
     0
 42
0.0000000001
 43
0.0000000001
 40
5.425905956994038
 40
5.425905956994038
 40
5.425905956994038
 40
5.425905956994038
 40
7.019702002723574
 40
7.019702002723574
 40
7.019702002723574
 40
7.019702002723574
 10
-42.81249999999655
 20
-9.879002136205166
 30
0.0
 10
-44.07000627387898
 20
-9.470540324164424
 30
0.0
 10
-45.31953611411491
 20
-9.015967524649362
 30
0.0
 10
-46.56249999999655
 20
-8.523437581313508
 30
0.0
  0
SPLINE
  5
3CE6
330
1F
100
AcDbEntity
  8
AM_0
100
AcDbSpline
210
0.0
220
0.0
230
1.0
 70
     8
 71
     3
 72
     9
 73
     5
 74
     3
 42
0.0000000001
 43
0.0000000001
 44
0.0000000001
 12
-0.8041147091497434
 22
0.594474166410134
 32
0.0
 13
-0.9870280271745954
 23
-0.1605480413204284
 33
0.0
 40
0.0
 40
0.0
 40
0.0
 40
0.0
 40
2.991664245188232
 40
5.501062023514721
 40
5.501062023514721
 40
5.501062023514721
 40
5.501062023514721
 10
-46.56249999999655
 20
-10.39312263168508
 30
0.0
 10
-47.36438040812763
 20
-9.800300262239321
 30
0.0
 10
-48.77660102620723
 20
-8.518804949688563
 30
0.0
 10
-50.73688468716195
 20
-8.39867243865733
 30
0.0
 10
-51.56250000000792
 20
-8.532965404725381
 30
0.0
 11
-46.56249999999655
 21
-10.39312263168508
 31
0.0
 11
-49.06249999999655
 21
-8.749938236695378
 31
0.0
 11
-51.56250000000792
 21
-8.532965404725381
 31
0.0
  0
SPLINE
  5
3CE7
330
1F
100
AcDbEntity
  8
AM_0
100
AcDbSpline
210
0.0
220
0.0
230
1.0
 70
     8
 71
     3
 72
     9
 73
     5
 74
     3
 42
0.0000000001
 43
0.0000000001
 44
0.0000000001
 12
-0.5352929995799658
 22
0.844666445764648
 32
0.0
 13
-0.9737293462750439
 23
-0.2277084983103959
 33
0.0
 40
0.0
 40
0.0
 40
0.0
 40
0.0
 40
3.545862281721773
 40
6.06671689139653
 40
6.06671689139653
 40
6.06671689139653
 40
6.06671689139653
 10
-46.56249999999655
 20
-8.532965404725381
 30
0.0
 10
-47.19519175228999
 20
-7.534608441167762
 30
0.0
 10
-48.54344905694453
 20
-5.386405683955691
 30
0.0
 10
-50.74428996300678
 20
-6.150626179002918
 30
0.0
 10
-51.56250000005112
 20
-6.341966184878877
 30
0.0
 11
-46.56249999999655
 21
-8.532965404725381
 31
0.0
 11
-49.06249999999655
 21
-6.018380086837531
 31
0.0
 11
-51.56250000005112
 21
-6.341966184878877
 31
0.0
  0
SPLINE
  5
3CE8
330
1F
100
AcDbEntity
  8
AM_0
100
AcDbSpline
210
0.0
220
0.0
230
1.0
 70
     8
 71
     3
 72
     8
 73
     4
 74
     0
 42
0.0000000001
 43
0.0000000001
 40
7.307451768075528
 40
7.307451768075528
 40
7.307451768075528
 40
7.307451768075528
 40
8.927702162744216
 40
8.927702162744216
 40
8.927702162744216
 40
8.927702162744216
 10
-51.56249999999655
 20
-8.532965404729928
 30
0.0
 10
-52.81887656505997
 20
-8.005816747641141
 30
0.0
 10
-54.06835810101593
 20
-7.439931821785101
 30
0.0
 10
-55.31249999999655
 20
-6.844048819079624
 30
0.0
  0
SPLINE
  5
3CE9
330
1F
100
AcDbEntity
  8
AM_0
100
AcDbSpline
210
0.0
220
0.0
230
1.0
 70
     8
 71
     3
 72
     8
 73
     4
 74
     0
 42
0.0000000001
 43
0.0000000001
 40
9.170645305362121
 40
9.170645305362121
 40
9.170645305362121
 40
9.170645305362121
 40
10.79891126818747
 40
10.79891126818747
 40
10.79891126818747
 40
10.79891126818747
 10
-51.56249999999655
 20
-6.341966184904457
 30
0.0
 10
-52.81686493481625
 20
-5.749288564024617
 30
0.0
 10
-54.06636360538069
 20
-5.128479542556441
 30
0.0
 10
-55.31250000017845
 20
-4.488233531744434
 30
0.0
  0
SPLINE
  5
3CEA
330
1F
100
AcDbEntity
  8
AM_0
100
AcDbSpline
210
0.0
220
0.0
230
1.0
 70
     8
 71
     3
 72
     9
 73
     5
 74
     3
 42
0.0000000001
 43
0.0000000001
 44
0.0000000001
 12
-0.6468728043913115
 22
0.7625979117063726
 32
0.0
 13
-0.9968429144675981
 23
0.0793990168436926
 33
0.0
 40
0.0
 40
0.0
 40
0.0
 40
0.0
 40
3.015546305935356
 40
5.660106258499491
 40
5.660106258499491
 40
5.660106258499491
 40
5.660106258499491
 10
-55.31249999999655
 20
-6.844048819079624
 30
0.0
 10
-55.96272496522731
 20
-6.077499047226234
 30
0.0
 10
-57.69925439905393
 20
-5.206259941303047
 30
0.0
 10
-59.43376304979711
 20
-4.365387895610343
 30
0.0
 10
-60.31249999999655
 20
-4.295396075537745
 30
0.0
 11
-55.31249999999655
 21
-6.844048819079624
 31
0.0
 11
-57.81249999999655
 21
-5.157774961356516
 31
0.0
 11
-60.31249999999655
 21
-4.295396075537745
 31
0.0
  0
SPLINE
  5
3CEB
330
1F
100
AcDbEntity
  8
AM_0
100
AcDbSpline
210
0.0
220
0.0
230
1.0
 70
     8
 71
     3
 72
     9
 73
     5
 74
     3
 42
0.0000000001
 43
0.0000000001
 44
0.0000000001
 12
-0.7092284403967371
 22
0.7049787367945305
 32
0.0
 13
-0.9773066838349791
 23
-0.2118292844048631
 33
0.0
 40
0.0
 40
0.0
 40
0.0
 40
0.0
 40
3.723482381788063
 40
6.223482381788063
 40
6.223482381788063
 40
6.223482381788063
 40
6.223482381788063
 10
-55.31249999999655
 20
-4.488233531838226
 30
0.0
 10
-56.19276653415664
 20
-3.613241563175013
 30
0.0
 10
-57.1010124330591
 20
-1.227673299462442
 30
0.0
 10
-59.49807776346741
 20
-1.552303205240235
 30
0.0
 10
-60.31249999999655
 20
-1.728827608910954
 30
0.0
 11
-55.31249999999655
 21
-4.488233531838226
 31
0.0
 11
-57.81249999999655
 21
-1.728827608910954
 31
0.0
 11
-60.31249999999655
 21
-1.728827608910954
 31
0.0
  0
SPLINE
  5
3CEC
330
1F
100
AcDbEntity
  8
AM_0
100
AcDbSpline
210
0.0
220
0.0
230
1.0
 70
     8
 71
     3
 72
     8
 73
     4
 74
     0
 42
0.0000000001
 43
0.0000000001
 40
11.10916553453163
 40
11.10916553453163
 40
11.10916553453163
 40
11.10916553453163
 40
13.42219740580175
 40
13.42219740580175
 40
13.42219740580175
 40
13.42219740580175
 10
-60.31249999999655
 20
-4.295396075409279
 30
0.0
 10
-62.07210702974403
 20
-3.352024273755453
 30
0.0
 10
-63.82509981586618
 20
-2.37149365598011
 30
0.0
 10
-65.57600356422082
 20
-1.379226825463568
 30
0.0
  0
SPLINE
  5
3CED
330
1F
100
AcDbEntity
  8
AM_0
100
AcDbSpline
210
0.0
220
0.0
230
1.0
 70
     8
 71
     3
 72
     8
 73
     4
 74
     0
 42
0.0000000001
 43
0.0000000001
 40
12.98298737538389
 40
12.98298737538389
 40
12.98298737538389
 40
12.98298737538389
 40
14.43901837670148
 40
14.43901837670148
 40
14.43901837670148
 40
14.43901837670148
 10
-60.31249999992265
 20
-1.827918328516737
 30
0.0
 10
-61.42117629864284
 20
-1.222756839338465
 30
0.0
 10
-62.52877717182624
 20
-0.6113784196852734
 30
0.0
 10
-63.63637804501077
 20
-0.000000000032081
 30
0.0
  0
SPLINE
  5
3CEE
330
1F
100
AcDbEntity
  8
AM_0
100
AcDbSpline
210
0.0
220
0.0
230
1.0
 70
     8
 71
     3
 72
     8
 73
     4
 74
     0
 42
0.0000000001
 43
0.0000000001
 40
0.0
 40
0.0
 40
0.0
 40
0.0
 40
1.52449656382363
 40
1.52449656382363
 40
1.52449656382363
 40
1.52449656382363
 10
-64.06249999999656
 20
0.2351983142628811
 30
0.0
 10
-64.37110373801701
 20
0.6389258583963401
 30
0.0
 10
-64.67257862144046
 20
1.075818939195628
 30
0.0
 10
-64.99999999999658
 20
1.483050290847467
 30
0.0
  0
SPLINE
  5
3CEF
330
1F
100
AcDbEntity
  8
AM_0
100
AcDbSpline
210
0.0
220
0.0
230
1.0
 70
     8
 71
     3
 72
     8
 73
     4
 74
     0
 42
0.0000000001
 43
0.0000000001
 40
14.25229543663493
 40
14.25229543663493
 40
14.25229543663493
 40
14.25229543663493
 40
14.43901837670146
 40
14.43901837670146
 40
14.43901837670146
 40
14.43901837670146
 10
-64.06249999999656
 20
0.2351983142628811
 30
0.0
 10
-63.9204578362705
 20
0.1568076172609167
 30
0.0
 10
-63.77841794064007
 20
0.0784038086144179
 30
0.0
 10
-63.63637804501077
 20
-0.000000000032081
 30
0.0
  0
LINE
  5
3CF1
330
1F
100
AcDbEntity
  8
AM_11
100
AcDbLine
 10
0.0000000000011724
 20
12.49999999996734
 30
0.0
 11
-64.99999999999656
 21
12.49999999996733
 31
0.0
  0
LINE
  5
3CF2
330
1F
100
AcDbEntity
  8
AM_7
  6
AM_ISO08W050X2
100
AcDbLine
 10
4.557768030856557
 20
-0.0000000000130669
 30
0.0
 11
-142.7536986173885
 21
-0.0000000000131202
 31
0.0
1001
GENIUS_GENODEF_13
1002
{
1000
HIER
1070
     0
1002
}
1002
{
1000
MANEDIT
1070
     0
1002
}
1002
{
1000
NOSEL
1070
     0
1002
}
1002
{
1000
BEHIND
1070
     0
1002
}
1002
{
1000
REACTOR
1002
}
1001
GENIUS_GENOBJ-N-CEN_13
1002
{
1000
OWNER
1000
GEN
1002
}
  0
LINE
  5
3CF3
330
1F
100
AcDbEntity
  8
AM_11
100
AcDbLine
 10
-64.99999999999656
 20
-12.50000000003264
 30
0.0
 11
0.0000000000034284
 21
-12.50000000003266
 31
0.0
  0
LINE
  5
3CF4
330
1F
100
AcDbEntity
  8
AM_0
100
AcDbLine
 10
0.0000000000034284
 20
-0.0000000000326672
 30
0.0
 11
0.0000000000034461
 21
12.49999999996734
 31
0.0
  0
ARC
  5
3CF5
330
1F
100
AcDbEntity
  8
AM_0
100
AcDbCircle
 10
4.964182955071692
 20
-6.359700411827278
 30
0.0
 40
7.601745288790126
100
AcDbArc
 50
159.3923269732576
 51
208.5609268810303
  0
LINE
  5
3CF6
330
1F
100
AcDbEntity
  8
AM_0
100
AcDbLine
 10
0.0000000000034284
 20
-12.50000000003266
 30
0.0
 11
0.0000000000034284
 21
-2.500000000032667
 31
0.0
  0
LINE
  5
3CF7
330
1F
100
AcDbEntity
  8
AM_0
100
AcDbLine
 10
-0.2624999999966171
 20
-11.8336028940868
 30
0.0
 11
-0.2624999999966171
 21
-3.317244636440062
 31
0.0
  0
LINE
  5
3CF8
330
1F
100
AcDbEntity
  8
AM_0
100
AcDbLine
 10
0.0000000000034284
 20
-0.0000000000326672
 30
0.0
 11
-0.2221065228559205
 21
-2.11530021774676
 31
0.0
  0
LINE
  5
3CF9
330
1F
100
AcDbEntity
  8
AM_0
100
AcDbLine
 10
-2.668810494361633
 20
6.667852034993613
 30
0.0
 11
-5.891430577551073
 21
7.52113355628782
 31
0.0
  0
LINE
  5
3CFA
330
1F
100
AcDbEntity
  8
AM_0
100
AcDbLine
 10
-0.2624999999966171
 20
2.499999999967901
 30
0.0
 11
-2.668810494361633
 21
6.667852034993613
 31
0.0
  0
LINE
  5
3CFB
330
1F
100
AcDbEntity
  8
AM_0
100
AcDbLine
 10
0.0000000000034284
 20
-0.0000000000326672
 30
0.0
 11
-0.2624999999966171
 21
2.499999999967901
 31
0.0
  0
LINE
  5
3CFC
330
1F
100
AcDbEntity
  8
AM_0
100
AcDbLine
 10
0.0000000000034284
 20
-2.500000000032667
 30
0.0
 11
-1.443375672970415
 21
-0.0000000000320988
 31
0.0
  0
LINE
  5
3CFD
330
1F
100
AcDbEntity
  8
AM_0
100
AcDbLine
 10
-0.2624999999966171
 20
-3.317244636440062
 30
0.0
 11
0.0000000000034284
 21
-2.500000000032667
 31
0.0
  0
LINE
  5
3CFE
330
1F
100
AcDbEntity
  8
AM_0
100
AcDbLine
 10
-2.15114496422414
 20
-3.684136912948741
 30
0.0
 11
-0.2624999999966171
 21
-3.317244636440062
 31
0.0
  0
LINE
  5
3CFF
330
1F
100
AcDbEntity
  8
AM_0
100
AcDbLine
 10
-5.891430577551073
 20
-2.000000000032553
 30
0.0
 11
-0.2886751345908855
 21
-2.000000000032553
 31
0.0
  0
LINE
  5
3D00
330
1F
100
AcDbEntity
  8
AM_0
100
AcDbLine
 10
-5.891430577551073
 20
-2.000000000032553
 30
0.0
 11
-2.15114496422414
 21
-3.684136912948741
 31
0.0
  0
LINE
  5
3D01
330
1F
100
AcDbEntity
  8
AM_0
100
AcDbLine
 10
-5.891430577551073
 20
-0.0000000000326672
 30
0.0
 11
-5.891430577551073
 21
-2.000000000032553
 31
0.0
  0
LINE
  5
3D02
330
1F
100
AcDbEntity
  8
AM_0
100
AcDbLine
 10
0.0000000000034284
 20
-0.0000000000326672
 30
0.0
 11
-5.891430577551073
 21
-0.0000000000326672
 31
0.0
  0
LINE
  5
3D03
330
1F
100
AcDbEntity
  8
AM_0
100
AcDbLine
 10
-6.874999999996571
 20
3.856998900348314
 30
0.0
 11
-6.874999999996571
 21
5.942912126281241
 31
0.0
  0
LINE
  5
3D04
330
1F
100
AcDbEntity
  8
AM_0
100
AcDbLine
 10
-0.2624999999966171
 20
-11.8336028940868
 30
0.0
 11
-1.712499999996435
 21
-9.994041638687161
 31
0.0
  0
LINE
  5
3D05
330
1F
100
AcDbEntity
  8
AM_0
100
AcDbLine
 10
0.0000000000034284
 20
-12.50000000003266
 30
0.0
 11
-0.2624999999966171
 21
-11.8336028940868
 31
0.0
  0
LINE
  5
3D06
330
1F
100
AcDbEntity
  8
AM_0
100
AcDbLine
 10
-4.999999999996571
 20
-12.15091064055881
 30
0.0
 11
-4.999999999996571
 21
-10.96143653219227
 31
0.0
  0
LINE
  5
3D07
330
1F
100
AcDbEntity
  8
AM_0
100
AcDbLine
 10
-15.62499999999657
 20
8.186335255257146
 30
0.0
 11
-15.62499999999657
 21
9.600606952024888
 31
0.0
  0
LINE
  5
3D08
330
1F
100
AcDbEntity
  8
AM_0
100
AcDbLine
 10
-20.62499999999655
 20
10.12517423291543
 30
0.0
 11
-20.62499999999655
 21
11.04499661310941
 31
0.0
  0
LINE
  5
3D09
330
1F
100
AcDbEntity
  8
AM_0
100
AcDbLine
 10
-24.37499999999655
 20
11.23950448641582
 30
0.0
 11
-24.37499999999655
 21
11.74915728904326
 31
0.0
  0
LINE
  5
3D0A
330
1F
100
AcDbEntity
  8
AM_0
100
AcDbLine
 10
-18.74999999999657
 20
-8.022572352623722
 30
0.0
 11
-18.74999999999657
 21
-5.772065765423501
 31
0.0
  0
LINE
  5
3D0B
330
1F
100
AcDbEntity
  8
AM_0
100
AcDbLine
 10
-22.49999999999086
 20
-6.265688658613424
 30
0.0
 11
-22.49999999999655
 21
-3.872001183432001
 31
0.0
  0
LINE
  5
3D0C
330
1F
100
AcDbEntity
  8
AM_0
100
AcDbLine
 10
-11.87499999999657
 20
6.450362565796892
 30
0.0
 11
-11.87499999999657
 21
8.186442637829456
 31
0.0
  0
LINE
  5
3D0D
330
1F
100
AcDbEntity
  8
AM_0
100
AcDbLine
 10
-9.999999999996571
 20
-11.14251296602644
 30
0.0
 11
-9.999999999996571
 21
-9.479016100229653
 31
0.0
  0
LINE
  5
3D0E
330
1F
100
AcDbEntity
  8
AM_0
100
AcDbLine
 10
-13.74999999999657
 20
-9.996785978840687
 30
0.0
 11
-13.74999999999657
 21
-8.040787491933922
 31
0.0
  0
LINE
  5
3D0F
330
1F
100
AcDbEntity
  8
AM_0
100
AcDbLine
 10
-37.81249999999655
 20
-12.29583336713996
 30
0.0
 11
-37.81249999999655
 21
-11.23147187849522
 31
0.0
  0
LINE
  5
3D10
330
1F
100
AcDbEntity
  8
AM_0
100
AcDbLine
 10
-39.99999999999655
 20
3.37908863570508
 30
0.0
 11
-40.00000000002611
 21
5.515850622753388
 31
0.0
  0
LINE
  5
3D11
330
1F
100
AcDbEntity
  8
AM_0
100
AcDbLine
 10
-42.81249999999655
 20
-11.43814457295516
 30
0.0
 11
-42.81249999999655
 21
-9.879002136205734
 31
0.0
  0
LINE
  5
3D12
330
1F
100
AcDbEntity
  8
AM_0
100
AcDbLine
 10
-27.49999999999655
 20
-3.652874207507146
 30
0.0
 11
-27.49999999999655
 21
-1.177438009921409
 31
0.0
  0
LINE
  5
3D13
330
1F
100
AcDbEntity
  8
AM_0
100
AcDbLine
 10
-36.24999999999655
 20
1.280578579694839
 30
0.0
 11
-36.24999999999655
 21
3.597120235504887
 31
0.0
  0
LINE
  5
3D14
330
1F
100
AcDbEntity
  8
AM_0
100
AcDbLine
 10
-31.24999999999655
 20
-1.563822602929256
 30
0.0
 11
-31.24999999999655
 21
0.8899143860768177
 31
0.0
  0
LINE
  5
3D15
330
1F
100
AcDbEntity
  8
AM_0
100
AcDbLine
 10
-34.06249999999428
 20
-12.49994420020268
 30
0.0
 11
-34.06250000005453
 21
-11.85803140303018
 31
0.0
  0
LINE
  5
3D18
330
1F
100
AcDbEntity
  8
AM_0
100
AcDbLine
 10
-57.49999999999655
 20
11.00805344994316
 30
0.0
 11
-57.49999999999655
 21
11.61596685536241
 31
0.0
  0
LINE
  5
3D19
330
1F
100
AcDbEntity
  8
AM_0
100
AcDbLine
 10
-53.74999999999655
 20
9.821060202321829
 30
0.0
 11
-53.74999999999655
 21
10.83213004675971
 31
0.0
  0
ARC
  5
3D1B
330
1F
100
AcDbEntity
  8
AM_0
100
AcDbCircle
 10
-65.18798310087915
 20
-0.0365267755780114
 30
0.0
 40
12.47230803623488
100
AcDbArc
 50
91.78279133831138
 51
127.0020341618538
  0
LINE
  5
3D1D
330
1F
100
AcDbEntity
  8
AM_0
100
AcDbLine
 10
-60.31249999999655
 20
-4.295396075537745
 30
0.0
 11
-60.31249999999655
 21
-1.827918328476378
 31
0.0
  0
LINE
  5
3D1E
330
1F
100
AcDbEntity
  8
AM_0
100
AcDbLine
 10
-44.99999999999655
 20
6.016661765811219
 30
0.0
 11
-44.99999999999655
 21
7.820871043167896
 31
0.0
  0
LINE
  5
3D1F
330
1F
100
AcDbEntity
  8
AM_0
100
AcDbLine
 10
-48.74999999999655
 20
7.800622115981097
 30
0.0
 11
-48.74999999999541
 21
9.294090562383727
 31
0.0
  0
LINE
  5
3D20
330
1F
100
AcDbEntity
  8
AM_0
100
AcDbLine
 10
-46.56249999999655
 20
-10.39312263167882
 30
0.0
 11
-46.56249999999655
 21
-8.523437581313508
 31
0.0
  0
LINE
  5
3D21
330
1F
100
AcDbEntity
  8
AM_0
100
AcDbLine
 10
-51.56249999999655
 20
-8.532965404729928
 30
0.0
 11
-51.56249999999655
 21
-6.341966184904457
 31
0.0
  0
LINE
  5
3D22
330
1F
100
AcDbEntity
  8
AM_0
100
AcDbLine
 10
-55.31249999999655
 20
-6.844048819079624
 30
0.0
 11
-55.31249999999655
 21
-4.488233531838226
 31
0.0
  0
LINE
  5
3D23
330
1F
100
AcDbEntity
  8
AM_0
100
AcDbLine
 10
-64.99999999999656
 20
-9.714188353971652
 30
0.0
 11
-64.99999999999656
 21
-12.35437899026508
 31
0.0
  0
LINE
  5
3D24
330
1F
100
AcDbEntity
  8
AM_0
100
AcDbLine
 10
-64.99999999999656
 20
-1.711782638323194
 30
0.0
 11
-64.99999999999656
 21
3.258021472371245
 31
0.0
  0
ARC
  5
3D25
330
1F
100
AcDbEntity
  8
AM_0
100
AcDbCircle
 10
-68.00923531595003
 20
-6.62895431490508
 30
0.0
 40
5.765958544904297
100
AcDbArc
 50
58.12807221084369
 51
123.1111187167376
  0
LINE
  5
3D26
330
1F
100
AcDbEntity
  8
AM_0
100
AcDbLine
 10
-72.59525561197958
 20
-2.628551711690896
 30
0.0
 11
-70.61695718454299
 21
-1.486380582072932
 31
0.0
  0
ARC
  5
3D27
330
1F
100
AcDbEntity
  8
AM_0
100
AcDbCircle
 10
-70.02709115791958
 20
-5.901263709331168
 30
0.0
 40
4.160061596009528
100
AcDbArc
 50
128.1220067564492
 51
261.8484093491677
  0
LINE
  5
3D28
330
1F
100
AcDbEntity
  8
AM_0
100
AcDbLine
 10
-64.06249999999656
 20
-2.233070931307246
 30
0.0
 11
-64.06249999999656
 21
0.2351983142628811
 31
0.0
  0
LINE
  5
3D90
330
1F
100
AcDbEntity
  8
AM_11
100
AcDbLine
 10
0.0000000000034461
 20
-12.50000000003265
 30
0.0
 11
0.0000000000034461
 21
12.49999999996735
 31
0.0
  0
DIMENSION
  5
3EBC
330
1F
100
AcDbEntity
  8
AM_5
100
AcDbDimension
  2
*D5
 10
0.0000000000034453
 20
-26.50000100003261
 30
0.0
 11
-32.49999999999656
 21
-23.4000010000326
 31
0.0
 70
    32
  1
<>
  3
AM_JIS
100
AcDbAlignedDimension
 13
-64.99999999999656
 23
-12.50000000001306
 33
0.0
 14
0.0000000000034461
 24
-12.50000000003271
 34
0.0
 50
0.0000000000001641
100
AcDbRotatedDimension
1001
GENIUS_GENDTOL_13
1000

1000
h7
1000

1040
0.0
  0
DIMENSION
  5
3F4C
330
1F
100
AcDbEntity
  8
AM_5
100
AcDbDimension
  2
*D6
 10
-140.0
 20
-38.50000100003294
 30
0.0
 11
-69.99999999999828
 21
-35.40000100003294
 31
0.0
 70
    32
  1
<>
  3
AM_JIS
100
AcDbAlignedDimension
 13
0.0000000000034461
 23
-12.50000000003271
 33
0.0
 14
-140.0
 24
-11.2500000000132
 34
0.0
 50
0.0000000000001132
100
AcDbRotatedDimension
1001
GENIUS_GENDTOL_13
1000

1000
h7
1000

1040
0.0
  0
DIMENSION
  5
406D
330
1F
100
AcDbEntity
  8
AM_5
100
AcDbDimension
  2
*D7
 10
18.55776903085653
 20
-12.50000000003267
 30
0.0
 11
15.45776903085653
 21
-0.0000000000326609
 31
0.0
 70
    32
  1
%%c<>
  3
AM_JIS
100
AcDbAlignedDimension
 13
0.0000000000034461
 23
12.49999999996735
 33
0.0
 14
0.00000000000135
 24
-12.50000000003266
 34
0.0
 50
90.0
100
AcDbRotatedDimension
1001
GENIUS_GENDTOL_13
1000

1000
h7
1000

1040
0.0
  0
LINE
  5
4151
330
1F
100
AcDbEntity
  8
AM_0
100
AcDbLine
 10
-66.49840633056735
 20
12.49999999998694
 30
0.0
 11
-138.7499999999999
 21
12.49999999998678
 31
0.0
  0
LINE
  5
4152
330
1F
100
AcDbEntity
  8
AM_0
100
AcDbLine
 10
-67.97118137881963
 20
-12.50000000001307
 30
0.0
 11
-138.7499999999999
 21
-12.50000000001322
 31
0.0
  0
LINE
  5
4155
330
1F
100
AcDbEntity
  8
AM_0
100
AcDbLine
 10
-138.7499999999999
 20
12.49999999998678
 30
0.0
 11
-138.7499999999999
 21
-12.50000000001326
 31
0.0
  0
LINE
  5
4156
330
1F
100
AcDbEntity
  8
AM_0
100
AcDbLine
 10
-139.9999999999999
 20
-11.25000000001322
 30
0.0
 11
-140.0
 21
11.24999999998678
 31
0.0
  0
DIMENSION
  5
4157
330
1F
100
AcDbEntity
  8
AM_5
100
AcDbDimension
  2
*D8
 10
-156.7536996173885
 20
-12.50000000001321
 30
0.0
 11
-159.8536996173885
 21
-0.0000000000132381
 31
0.0
 70
    32
  1
%%c<>
  3
AM_JIS
100
AcDbAlignedDimension
 13
-138.7499999999999
 23
12.49999999998678
 33
0.0
 14
-138.7499999999999
 24
-12.50000000001322
 34
0.0
 50
270.0
100
AcDbRotatedDimension
1001
GENIUS_GENDTOL_13
1000

1000
h7
1000

1040
0.0
  0
LINE
  5
416F
330
1F
100
AcDbEntity
  8
AM_0
100
AcDbLine
 10
-138.7499999999999
 20
12.49999999998678
 30
0.0
 11
-140.0
 21
11.24999999998678
 31
0.0
1001
GENIUS_GENFIL_13
1070
     0
1040
1.25
1040
1.25
1040
20.0
1040
0.0
1002
{
1002
}
1001
GENIUS_GENODEF_13
1002
{
1000
HIER
1070
     0
1002
}
1002
{
1000
MANEDIT
1070
     0
1002
}
1002
{
1000
NOSEL
1070
     0
1002
}
1002
{
1000
BEHIND
1070
     0
1002
}
1002
{
1000
REACTOR
1002
}
1001
GENIUS_GENOBJ-N-CHA_13
1002
{
1000
OWNER
1000
GEN
1002
}
  0
LINE
  5
4172
330
1F
100
AcDbEntity
  8
AM_0
100
AcDbLine
 10
-139.9999999999999
 20
-11.25000000001322
 30
0.0
 11
-138.7499999999999
 21
-12.50000000001322
 31
0.0
1001
GENIUS_GENFIL_13
1070
     0
1040
1.25
1040
1.25
1040
20.0
1040
0.0
1002
{
1002
}
1001
GENIUS_GENODEF_13
1002
{
1000
HIER
1070
     0
1002
}
1002
{
1000
MANEDIT
1070
     0
1002
}
1002
{
1000
NOSEL
1070
     0
1002
}
1002
{
1000
BEHIND
1070
     0
1002
}
1002
{
1000
REACTOR
1002
}
1001
GENIUS_GENOBJ-N-CHA_13
1002
{
1000
OWNER
1000
GEN
1002
}
  0
LINE
  5
4214
330
1F
100
AcDbEntity
  8
AM_11
100
AcDbLine
 10
-64.99999999999656
 20
-12.50000000003266
 30
0.0
 11
-64.99999999999656
 21
12.49999999996735
 31
0.0
  0
ARC
  5
427E
330
1F
100
AcDbEntity
  8
AM_0
100
AcDbCircle
 10
-71.18776398533767
 20
7.88982870257211
 30
0.0
 40
2.53136787726368
100
AcDbArc
 50
126.5247767030217
 51
251.9835492334097
  0
ARC
  5
427F
330
1F
100
AcDbEntity
  8
AM_0
100
AcDbCircle
 10
11.36285069197549
 20
259.6542065895381
 30
0.0
 40
267.4840091990178
100
AcDbArc
 50
251.8475827629275
 51
253.4121186022316
  0
VIEWPORT
  5
110
330
101
100
AcDbEntity
 67
     1
  8
0
100
AcDbViewport
 10
420.5
 20
297.0
 30
0.0
 40
948.9782706766916
 41
628.452
 68
     1
 69
     1
1001
ACAD
1000
MVIEW
1002
{
1070
    16
1010
0.0
1020
0.0
1030
0.0
1010
0.0
1020
0.0
1030
1.0
1040
0.0
1040
628.452
1040
420.5
1040
297.0
1040
50.0
1040
0.0
1040
0.0
1070
     0
1070
   100
1070
     1
1070
     1
1070
     0
1070
     0
1070
     0
1070
     0
1040
0.0
1040
0.0
1040
0.0
1040
10.0
1040
10.0
1040
10.0
1040
10.0
1070
     0
1002
{
1002
}
1002
}
  0
ENDSEC
  0
SECTION
  2
OBJECTS
  0
DICTIONARY
  5
C
330
0
100
AcDbDictionary
  3
ACAD_GROUP
350
D
  3
ACAD_LAYOUT
350
1A
  3
ACAD_MLINESTYLE
350
17
  3
ACAD_PLOTSETTINGS
350
19
  3
ACAD_PLOTSTYLENAME
350
E
  3
ACDBVARIABLEDICTIONARY
350
34
  3
ACMDICTIONARY
350
43
  3
AMG
350
2B
  3
AMGSNAPSETTINGS
350
6E
  3
ASE_INDEX_DICTIONARY
350
151A
  3
DWGPROPS
350
4296
  3
ACDBHEADERROUNDTRIPXREC
350
42A2
  0
DICTIONARY
  5
74
330
1F
100
AcDbDictionary
280
     1
  3
ACAD_INDEX
360
4298
  3
ACAD_LAYOUTSELFREF
360
42C5
  0
DICTIONARY
  5
42CA
330
101
100
AcDbDictionary
280
     1
  3
ACAD_LAYOUTSELFREF
360
42CB
  0
DICTIONARY
  5
D
102
{ACAD_REACTORS
330
C
102
}
330
C
100
AcDbDictionary
  0
DICTIONARY
  5
1A
102
{ACAD_REACTORS
330
C
102
}
330
C
100
AcDbDictionary
  0
DICTIONARY
  5
17
102
{ACAD_REACTORS
330
C
102
}
330
C
100
AcDbDictionary
  3
STANDARD
350
18
  0
DICTIONARY
  5
19
102
{ACAD_REACTORS
330
C
102
}
330
C
100
AcDbDictionary
  0
ACDBDICTIONARYWDFLT
  5
E
102
{ACAD_REACTORS
330
C
102
}
330
C
100
AcDbDictionary
281
     1
  3
Normal
350
F
100
AcDbDictionaryWithDefault
340
F
  0
DICTIONARY
  5
34
102
{ACAD_REACTORS
330
C
102
}
330
C
100
AcDbDictionary
  3
INDEXCTL
350
35
  3
SORTENTS
350
B5E
  0
DICTIONARY
  5
43
102
{ACAD_REACTORS
330
C
102
}
330
C
100
AcDbDictionary
  3
ACMSTDDICTIONARY
350
260
  0
DICTIONARY
  5
2B
102
{ACAD_REACTORS
330
C
102
}
330
C
100
AcDbDictionary
  3
ACMGSETTINGS
350
2C
  0
DICTIONARY
  5
6E
102
{ACAD_REACTORS
330
C
102
}
330
C
100
AcDbDictionary
  0
DICTIONARY
  5
151A
102
{ACAD_REACTORS
330
C
102
}
330
C
100
AcDbDictionary
  3
ASEBLOCKHIERARCHYINDEXRECORD
350
151C
1001
DCO15
1040
1471862535.906
  0
XRECORD
  5
4296
102
{ACAD_REACTORS
330
C
102
}
330
C
100
AcDbXrecord
  1
DWGPROPS COOKIE
  2

  3

  4

  6

  7

  8

  9

300
AmdtFileType=82
301
=
302
=
303
=
304
=
305
=
306
=
307
=
308
=
309
=
 40
0.1377158101851852
 41
2452838.430434386
 42
2453045.550550949
  1

 90
        1
  0
DICTIONARY
  5
42A2
102
{ACAD_REACTORS
330
C
102
}
330
C
100
AcDbDictionary
  3
TSTACKALIGN
350
42A3
  3
TSTACKSIZE
350
42A4
  3
HYPERLINKBASE
350
42A5
  3
STYLESHEET
350
42A6
  3
LAYOUTDICT
350
42A7
  3
PLOTSETDICT
350
42A8
  3
PLOTSTYLNAMDICT
350
42A9
  3
LWETCUNION
350
42AA
  3
INSUNITS
350
42AB
  3
CEPSNTYPE
350
42AC
  3
FINGERPRINTGUID
350
42AD
  3
VERSIONGUID
350
42AE
  3
PSVPSCALE
350
42AF
  3
DIMSTYLEDATA
350
42B0
  3
PUCSORTHOREF
350
42B1
  3
PUCSORTHOVIEW
350
42B2
  3
PUCSBASE
350
42B3
  3
PUCSORGTOP
350
42B4
  3
PUCSORGBOTTOM
350
42B5
  3
PUCSORGLEFT
350
42B6
  3
PUCSORGRIGHT
350
42B7
  3
PUCSORGFRONT
350
42B8
  3
PUCSORGBACK
350
42B9
  3
UCSORTHOREF
350
42BA
  3
UCSORTHOVIEW
350
42BB
  3
UCSBASE
350
42BC
  3
UCSORGTOP
350
42BD
  3
UCSORGBOTTOM
350
42BE
  3
UCSORGLEFT
350
42BF
  3
UCSORGRIGHT
350
42C0
  3
UCSORGFRONT
350
42C1
  3
UCSORGBACK
350
42C2
  0
DICTIONARY
  5
4298
102
{ACAD_REACTORS
330
74
102
}
330
74
100
AcDbDictionary
  3
*A1
350
4299
  0
XRECORD
  5
42C5
102
{ACAD_REACTORS
330
74
102
}
330
74
100
AcDbXrecord
340
1F
  0
XRECORD
  5
42CB
102
{ACAD_REACTORS
330
42CA
102
}
330
42CA
100
AcDbXrecord
340
101
  0
MLINESTYLE
  5
18
102
{ACAD_REACTORS
330
17
102
}
330
17
100
AcDbMlineStyle
  2
STANDARD
 70
     0
  3

 62
   256
 51
90.0
 52
90.0
 71
     2
 49
0.5
 62
   256
  6
BYLAYER
 49
-0.5
 62
   256
  6
BYLAYER
  0
ACDBPLACEHOLDER
  5
F
102
{ACAD_REACTORS
330
E
102
}
330
E
100
AcDbPlaceHolder
280
     0
  0
DICTIONARYVAR
  5
35
102
{ACAD_REACTORS
330
34
102
}
330
34
100
DictionaryVariables
280
     0
  1
1
  0
DICTIONARYVAR
  5
B5E
102
{ACAD_REACTORS
330
34
102
}
330
34
100
DictionaryVariables
280
     0
  1
96
  0
DICTIONARY
  5
260
102
{ACAD_REACTORS
330
43
102
}
330
43
100
AcDbDictionary
  0
DICTIONARY
  5
2C
102
{ACAD_REACTORS
330
2B
102
}
330
2B
100
AcDbDictionary
  3
DWGSETTINGS
350
2D
  0
XRECORD
  5
151C
102
{ACAD_REACTORS
330
151A
102
}
330
151A
100
AcDbXrecord
330
0
330
0
330
0
330
0
330
0
330
0
330
0
330
0
  0
XRECORD
  5
42A3
102
{ACAD_REACTORS
330
42A2
102
}
330
42A2
100
AcDbXrecord
 90
        1
  0
XRECORD
  5
42A4
102
{ACAD_REACTORS
330
42A2
102
}
330
42A2
100
AcDbXrecord
 90
       70
  0
XRECORD
  5
42A5
102
{ACAD_REACTORS
330
42A2
102
}
330
42A2
100
AcDbXrecord
  1

  0
XRECORD
  5
42A6
102
{ACAD_REACTORS
330
42A2
102
}
330
42A2
100
AcDbXrecord
  1
ASAMI.ctb
  0
XRECORD
  5
42A7
102
{ACAD_REACTORS
330
42A2
102
}
330
42A2
100
AcDbXrecord
340
1A
  0
XRECORD
  5
42A8
102
{ACAD_REACTORS
330
42A2
102
}
330
42A2
100
AcDbXrecord
340
19
  0
XRECORD
  5
42A9
102
{ACAD_REACTORS
330
42A2
102
}
330
42A2
100
AcDbXrecord
340
E
  0
XRECORD
  5
42AA
102
{ACAD_REACTORS
330
42A2
102
}
330
42A2
100
AcDbXrecord
 90
    10781
  0
XRECORD
  5
42AB
102
{ACAD_REACTORS
330
42A2
102
}
330
42A2
100
AcDbXrecord
 90
        4
  0
XRECORD
  5
42AC
102
{ACAD_REACTORS
330
42A2
102
}
330
42A2
100
AcDbXrecord
 90
        0
  0
XRECORD
  5
42AD
102
{ACAD_REACTORS
330
42A2
102
}
330
42A2
100
AcDbXrecord
  1
{AFB28963-8C59-40AE-9337-C84526B81ACE}
  0
XRECORD
  5
42AE
102
{ACAD_REACTORS
330
42A2
102
}
330
42A2
100
AcDbXrecord
  1
{26987BD7-9A37-4477-A164-5E5CB7A35440}
  0
XRECORD
  5
42AF
102
{ACAD_REACTORS
330
42A2
102
}
330
42A2
100
AcDbXrecord
 40
0.0
  0
XRECORD
  5
42B0
102
{ACAD_REACTORS
330
42A2
102
}
330
42A2
100
AcDbXrecord
1000
DSTYLE
1002
{
1070
    79
 70
     2
1070
   341
340
59
1070
   342
340
59
1070
   371
 70
    -1
1070
   372
 70
    -1
1002
}
  0
XRECORD
  5
42B1
102
{ACAD_REACTORS
330
42A2
102
}
330
42A2
100
AcDbXrecord
340
0
  0
XRECORD
  5
42B2
102
{ACAD_REACTORS
330
42A2
102
}
330
42A2
100
AcDbXrecord
 70
     0
  0
XRECORD
  5
42B3
102
{ACAD_REACTORS
330
42A2
102
}
330
42A2
100
AcDbXrecord
340
0
  0
XRECORD
  5
42B4
102
{ACAD_REACTORS
330
42A2
102
}
330
42A2
100
AcDbXrecord
 10
0.0
 20
0.0
 30
0.0
  0
XRECORD
  5
42B5
102
{ACAD_REACTORS
330
42A2
102
}
330
42A2
100
AcDbXrecord
 10
0.0
 20
0.0
 30
0.0
  0
XRECORD
  5
42B6
102
{ACAD_REACTORS
330
42A2
102
}
330
42A2
100
AcDbXrecord
 10
0.0
 20
0.0
 30
0.0
  0
XRECORD
  5
42B7
102
{ACAD_REACTORS
330
42A2
102
}
330
42A2
100
AcDbXrecord
 10
0.0
 20
0.0
 30
0.0
  0
XRECORD
  5
42B8
102
{ACAD_REACTORS
330
42A2
102
}
330
42A2
100
AcDbXrecord
 10
0.0
 20
0.0
 30
0.0
  0
XRECORD
  5
42B9
102
{ACAD_REACTORS
330
42A2
102
}
330
42A2
100
AcDbXrecord
 10
0.0
 20
0.0
 30
0.0
  0
XRECORD
  5
42BA
102
{ACAD_REACTORS
330
42A2
102
}
330
42A2
100
AcDbXrecord
340
0
  0
XRECORD
  5
42BB
102
{ACAD_REACTORS
330
42A2
102
}
330
42A2
100
AcDbXrecord
 70
     0
  0
XRECORD
  5
42BC
102
{ACAD_REACTORS
330
42A2
102
}
330
42A2
100
AcDbXrecord
340
0
  0
XRECORD
  5
42BD
102
{ACAD_REACTORS
330
42A2
102
}
330
42A2
100
AcDbXrecord
 10
0.0
 20
0.0
 30
0.0
  0
XRECORD
  5
42BE
102
{ACAD_REACTORS
330
42A2
102
}
330
42A2
100
AcDbXrecord
 10
0.0
 20
0.0
 30
0.0
  0
XRECORD
  5
42BF
102
{ACAD_REACTORS
330
42A2
102
}
330
42A2
100
AcDbXrecord
 10
0.0
 20
0.0
 30
0.0
  0
XRECORD
  5
42C0
102
{ACAD_REACTORS
330
42A2
102
}
330
42A2
100
AcDbXrecord
 10
0.0
 20
0.0
 30
0.0
  0
XRECORD
  5
42C1
102
{ACAD_REACTORS
330
42A2
102
}
330
42A2
100
AcDbXrecord
 10
0.0
 20
0.0
 30
0.0
  0
XRECORD
  5
42C2
102
{ACAD_REACTORS
330
42A2
102
}
330
42A2
100
AcDbXrecord
 10
0.0
 20
0.0
 30
0.0
  0
LAYER_INDEX
  5
4299
102
{ACAD_REACTORS
330
4298
102
}
330
4298
100
AcDbIndex
 40
2453151.883384109
100
AcDbLayerIndex
  8
0
360
429A
 90
        0
  8
AM_0
360
429B
 90
      138
  8
AM_11
360
429C
 90
        4
  8
AM_7
360
429D
 90
        1
  8
AM_5
360
429E
 90
        4
  8
Defpoints
360
429F
 90
        0
  8
AM_6
360
42A0
 90
        1
  0
XRECORD
  5
2D
102
{ACAD_REACTORS
330
2C
102
}
330
2C
100
AcDbXrecord
  1
VERSION
140
15.0
  1
PRODUCT
  2
AutoCAD Mechanical 2000
  0
IDBUFFER
  5
429A
330
0
100
AcDbIdBuffer
  0
IDBUFFER
  5
429B
330
0
100
AcDbIdBuffer
330
3D13
330
3D14
330
3D15
330
3D18
330
3D19
330
3D1B
330
3D1D
330
3D1E
330
3D1F
330
3D20
330
3D21
330
3D22
330
3D23
330
3D24
330
3D25
330
3D26
330
3D27
330
3D28
330
4151
330
4152
330
4155
330
4156
330
416F
330
4172
330
427E
330
427F
330
3C9E
330
3C9F
330
3CA0
330
3CA1
330
3CA3
330
3CA4
330
3CA5
330
3CA6
330
3CA7
330
3CA8
330
3CA9
330
3CAA
330
3CAB
330
3CAC
330
3CAD
330
3CAE
330
3CAF
330
3CB0
330
3CB1
330
3CB2
330
3CB3
330
3CB4
330
3CB5
330
3CB6
330
3CB7
330
3CB8
330
3CB9
330
3CBA
330
3CBB
330
3CBC
330
3CBD
330
3CBE
330
3CBF
330
3CC0
330
3CC1
330
3CC2
330
3CC3
330
3CC4
330
3CC5
330
3CC6
330
3CC7
330
3CC8
330
3CC9
330
3CCA
330
3CCB
330
3CCC
330
3CCD
330
3CCE
330
3CCF
330
3CD0
330
3CD1
330
3CD2
330
3CD3
330
3CD4
330
3CD5
330
3CD6
330
3CD7
330
3CD8
330
3CD9
330
3CDA
330
3CDB
330
3CDC
330
3CDD
330
3CDE
330
3CDF
330
3CE0
330
3CE1
330
3CE2
330
3CE3
330
3CE4
330
3CE5
330
3CE6
330
3CE7
330
3CE8
330
3CE9
330
3CEA
330
3CEB
330
3CEC
330
3CED
330
3CEE
330
3CEF
330
3CF4
330
3CF5
330
3CF6
330
3CF7
330
3CF8
330
3CF9
330
3CFA
330
3CFB
330
3CFC
330
3CFD
330
3CFE
330
3CFF
330
3D00
330
3D01
330
3D02
330
3D03
330
3D04
330
3D05
330
3D06
330
3D07
330
3D08
330
3D09
330
3D0A
330
3D0B
330
3D0C
330
3D0D
330
3D0E
330
3D0F
330
3D10
330
3D11
330
3D12
  0
IDBUFFER
  5
429C
330
0
100
AcDbIdBuffer
330
3CF1
330
3CF3
330
3D90
330
4214
  0
IDBUFFER
  5
429D
330
0
100
AcDbIdBuffer
330
3CF2
  0
IDBUFFER
  5
429E
330
0
100
AcDbIdBuffer
330
3EBC
330
3F4C
330
406D
330
4157
  0
IDBUFFER
  5
429F
330
0
100
AcDbIdBuffer
  0
IDBUFFER
  5
42A0
330
0
100
AcDbIdBuffer
330
1500
  0
ENDSEC
  0
EOF
