  0
SECTION
  2
HEADER
  9
$ACADVER
  1
AC1014
  9
$ACADMAINTVER
 70
     9
  9
$DWGCODEPAGE
  3
ANSI_932
  9
$INSBASE
 10
0.0
 20
0.0
 30
0.0
  9
$EXTMIN
 10
-48.90723829529715
 20
-25.75000100000006
 30
-0.00000001
  9
$EXTMAX
 10
8.087748996814756
 20
9.686980700808307
 30
0.00000001
  9
$LIMMIN
 10
-53.56804813336572
 20
-30.7562657517051
  9
$LIMMAX
 10
12.81996868327937
 20
20.01676265232234
  9
$ORTHOMODE
 70
     0
  9
$REGENMODE
 70
     1
  9
$FILLMODE
 70
     1
  9
$QTEXTMODE
 70
     0
  9
$MIRRTEXT
 70
     0
  9
$DRAGMODE
 70
     2
  9
$LTSCALE
 40
1.0
  9
$OSMODE
 70
  2103
  9
$ATTMODE
 70
     1
  9
$TEXTSIZE
 40
2.5
  9
$TRACEWID
 40
1.0
  9
$TEXTSTYLE
  7
STANDARD
  9
$CLAYER
  8
AM_0
  9
$CELTYPE
  6
BYLAYER
  9
$CECOLOR
 62
   256
  9
$CELTSCALE
 40
1.0
  9
$DELOBJ
 70
     1
  9
$DISPSILH
 70
     0
  9
$DIMSCALE
 40
0.5
  9
$DIMASZ
 40
2.5
  9
$DIMEXO
 40
1.0
  9
$DIMDLI
 40
12.0
  9
$DIMRND
 40
0.0
  9
$DIMDLE
 40
0.0
  9
$DIMEXE
 40
1.0
  9
$DIMTP
 40
0.1
  9
$DIMTM
 40
0.1
  9
$DIMTXT
 40
3.2
  9
$DIMCEN
 40
0.0
  9
$DIMTSZ
 40
0.0
  9
$DIMTOL
 70
     0
  9
$DIMLIM
 70
     0
  9
$DIMTIH
 70
     0
  9
$DIMTOH
 70
     0
  9
$DIMSE1
 70
     0
  9
$DIMSE2
 70
     0
  9
$DIMTAD
 70
     3
  9
$DIMZIN
 70
     8
  9
$DIMBLK
  1
OPEN30
  9
$DIMASO
 70
     1
  9
$DIMSHO
 70
     1
  9
$DIMPOST
  1

  9
$DIMAPOST
  1
"
  9
$DIMALT
 70
     0
  9
$DIMALTD
 70
     2
  9
$DIMALTF
 40
0.0393701
  9
$DIMLFAC
 40
1.0
  9
$DIMTOFL
 70
     1
  9
$DIMTVP
 40
0.0
  9
$DIMTIX
 70
     0
  9
$DIMSOXD
 70
     0
  9
$DIMSAH
 70
     0
  9
$DIMBLK1
  1

  9
$DIMBLK2
  1

  9
$DIMSTYLE
  2
AM_JIS
  9
$DIMCLRD
 70
   256
  9
$DIMCLRE
 70
   256
  9
$DIMCLRT
 70
     2
  9
$DIMTFAC
 40
0.71
  9
$DIMGAP
 40
1.5
  9
$DIMJUST
 70
     0
  9
$DIMSD1
 70
     0
  9
$DIMSD2
 70
     0
  9
$DIMTOLJ
 70
     0
  9
$DIMTZIN
 70
     0
  9
$DIMALTZ
 70
     0
  9
$DIMALTTZ
 70
     0
  9
$DIMFIT
 70
     3
  9
$DIMUPT
 70
     0
  9
$DIMUNIT
 70
     2
  9
$DIMDEC
 70
     3
  9
$DIMTDEC
 70
     3
  9
$DIMALTU
 70
     2
  9
$DIMALTTD
 70
     2
  9
$DIMTXSTY
  7
ASAMI
  9
$DIMAUNIT
 70
     0
  9
$LUNITS
 70
     2
  9
$LUPREC
 70
     2
  9
$SKETCHINC
 40
1.0
  9
$FILLETRAD
 40
2.5
  9
$AUNITS
 70
     0
  9
$AUPREC
 70
     0
  9
$MENU
  1
.
  9
$ELEVATION
 40
0.0
  9
$PELEVATION
 40
0.0
  9
$THICKNESS
 40
0.0
  9
$LIMCHECK
 70
     0
  9
$BLIPMODE
 70
     0
  9
$CHAMFERA
 40
0.2
  9
$CHAMFERB
 40
0.2
  9
$CHAMFERC
 40
20.0
  9
$CHAMFERD
 40
0.0
  9
$SKPOLY
 70
     0
  9
$TDCREATE
 40
2452810.397252777
  9
$TDUPDATE
 40
2452839.679894919
  9
$TDINDWG
 40
0.0548066782
  9
$TDUSRTIMER
 40
0.0548066782
  9
$USRTIMER
 70
     1
  9
$ANGBASE
 50
0.0
  9
$ANGDIR
 70
     0
  9
$PDMODE
 70
     0
  9
$PDSIZE
 40
0.0
  9
$PLINEWID
 40
0.0
  9
$COORDS
 70
     2
  9
$SPLFRAME
 70
     0
  9
$SPLINETYPE
 70
     6
  9
$SPLINESEGS
 70
     8
  9
$ATTDIA
 70
     1
  9
$ATTREQ
 70
     1
  9
$HANDLING
 70
 12289
  9
$HANDSEED
  5
2A62
  9
$SURFTAB1
 70
     6
  9
$SURFTAB2
 70
     6
  9
$SURFTYPE
 70
     6
  9
$SURFU
 70
     6
  9
$SURFV
 70
     6
  9
$UCSNAME
  2

  9
$UCSORG
 10
0.0
 20
0.0
 30
0.0
  9
$UCSXDIR
 10
1.0
 20
0.0
 30
0.0
  9
$UCSYDIR
 10
0.0
 20
1.0
 30
0.0
  9
$PUCSNAME
  2

  9
$PUCSORG
 10
0.0
 20
0.0
 30
0.0
  9
$PUCSXDIR
 10
1.0
 20
0.0
 30
0.0
  9
$PUCSYDIR
 10
0.0
 20
1.0
 30
0.0
  9
$USERI1
 70
     0
  9
$USERI2
 70
     0
  9
$USERI3
 70
     0
  9
$USERI4
 70
     0
  9
$USERI5
 70
     0
  9
$USERR1
 40
0.0
  9
$USERR2
 40
0.0
  9
$USERR3
 40
0.0
  9
$USERR4
 40
0.0
  9
$USERR5
 40
0.0
  9
$WORLDVIEW
 70
     1
  9
$SHADEDGE
 70
     3
  9
$SHADEDIF
 70
    70
  9
$TILEMODE
 70
     1
  9
$MAXACTVP
 70
    64
  9
$PINSBASE
 10
0.0
 20
0.0
 30
0.0
  9
$PLIMCHECK
 70
     0
  9
$PEXTMIN
 10
1.000000000000000E+20
 20
1.000000000000000E+20
 30
1.000000000000000E+20
  9
$PEXTMAX
 10
-1.000000000000000E+20
 20
-1.000000000000000E+20
 30
-1.000000000000000E+20
  9
$PLIMMIN
 10
0.0
 20
0.0
  9
$PLIMMAX
 10
841.0
 20
594.0
  9
$UNITMODE
 70
     0
  9
$VISRETAIN
 70
     1
  9
$PLINEGEN
 70
     0
  9
$PSLTSCALE
 70
     0
  9
$TREEDEPTH
 70
  3020
  9
$PICKSTYLE
 70
     0
  9
$CMLSTYLE
  2
STANDARD
  9
$CMLJUST
 70
     0
  9
$CMLSCALE
 40
20.0
  9
$PROXYGRAPHICS
 70
     1
  9
$MEASUREMENT
 70
     1
  0
ENDSEC
  0
SECTION
  2
CLASSES
  0
CLASS
  1
ACDBDICTIONARYWDFLT
  2
AcDbDictionaryWithDefault
  3
AutoCAD 2000
 90
        0
280
     0
281
     0
  0
CLASS
  1
ACDBPLACEHOLDER
  2
AcDbPlaceHolder
  3
AutoCAD 2000
 90
        0
280
     0
281
     0
  0
CLASS
  1
LAYOUT
  2
AcDbLayout
  3
AutoCAD 2000
 90
        0
280
     0
281
     0
  0
CLASS
  1
AMGSETTINGSOBJ
  2
AmgSettingsObj
  3
"AcadM|Product Description: AutoCAD Mechanical 2000|Company: Autodesk"
 90
        0
280
     0
281
     0
  0
CLASS
  1
ACME_DOCUMENT
  2
AcMeDbDoc
  3
AcMeServices
 90
        0
280
     0
281
     0
  0
CLASS
  1
ACMESCOPE
  2
AcMeScope
  3
AcMeServices
 90
        0
280
     0
281
     0
  0
CLASS
  1
ACMECOMMANDHISTORY
  2
AcMeCommandHistory
  3
AcMeServices
 90
        0
280
     0
281
     0
  0
CLASS
  1
DICTIONARYVAR
  2
AcDbDictionaryVar
  3
AutoCAD 2000
 90
        0
280
     0
281
     0
  0
CLASS
  1
ACIMSYSVARMAN
  2
AcImSysVarManager
  3
AcMeServices
 90
        0
280
     0
281
     0
  0
CLASS
  1
ACIMREALSYSVAR
  2
AcImRealSysVar
  3
AcMeServices
 90
        0
280
     0
281
     0
  0
CLASS
  1
ACIMINTSYSVAR
  2
AcImIntSysVar
  3
AcMeServices
 90
        0
280
     0
281
     0
  0
CLASS
  1
ACMEDRAWINGMAN
  2
AcMeDrawingMan
  3
AcMeServices
 90
        0
280
     0
281
     0
  0
CLASS
  1
ACMEVIEW
  2
AcMeView
  3
AcMeServices
 90
        0
280
     0
281
     0
  0
CLASS
  1
ACDBENTITYCACHE
  2
AcMeEntityCache
  3
AcMeServices
 90
        0
280
     0
281
     0
  0
CLASS
  1
GSMANAGER
  2
AcMeGSManager
  3
AcMeServices
 90
        0
280
     0
281
     0
  0
CLASS
  1
AmdtInternalReactor
  2
AmdtInternalReactor
  3
AcMeServices
 90
        0
280
     0
281
     0
  0
CLASS
  1
ACMESTATEMGR
  2
AcMeStateMgr
  3
AcMeServices
 90
        0
280
     0
281
     0
  0
CLASS
  1
ACME_DATABASE
  2
AcMeDbDatabase
  3
AcMeServices
 90
        0
280
     0
281
     0
  0
CLASS
  1
ACRFINSADJUSTERMGR
  2
AcRfInsAdjusterMgr
  3
AcMeServices
 90
        0
280
     0
281
     0
  0
CLASS
  1
ACMDATADICTIONARY
  2
AcmDataDictionary
  3
"AcmSymBB|Product Description: AutoCAD Mechanical 2000|Company: Autodesk"
 90
        0
280
     0
281
     0
  0
CLASS
  1
ACMDATAENTRYBLOCK
  2
AcmDataEntryBlock
  3
"AcmSymBB|Product Description: AutoCAD Mechanical 2000|Company: Autodesk"
 90
        0
280
     0
281
     0
  0
CLASS
  1
AMGOBJPROPCFG
  2
AmgObjPropCfg
  3
"AmgLay|Product Description: AutoCAD Mechanical 2000|Company: Autodesk"
 90
        1
280
     0
281
     0
  0
CLASS
  1
ACAMGFILTERDAT
  2
AcAmgFilterDat
  3
"AcadM|Product Description: AutoCAD Mechanical 2000|Company: Autodesk"
 90
        0
280
     0
281
     0
  0
CLASS
  1
LAYER_INDEX
  2
AcDbLayerIndex
  3
AutoCAD 2000
 90
        0
280
     0
281
     0
  0
CLASS
  1
IDBUFFER
  2
AcDbIdBuffer
  3
AutoCAD 2000
 90
        0
280
     0
281
     0
  0
CLASS
  1
ACIMSTRSYSVAR
  2
AcImStrSysVar
  3
AcMeServices
 90
        0
280
     0
281
     0
  0
CLASS
  1
ACMSTANDARDJIS
  2
AcmStandardJIS
  3
"AcmSymBB|Product Description: AutoCAD Mechanical 2000|Company: Autodesk"
 90
        0
280
     0
281
     0
  0
CLASS
  1
ACMSURFSTANDARDJIS
  2
AcmSurfTextStdJIS
  3
"AcmSymBB|Product Description: AutoCAD Mechanical 2000|Company: Autodesk"
 90
        0
280
     0
281
     0
  0
CLASS
  1
ACMFCFSTANDARDJIS
  2
AcmFCFStdJIS
  3
"AcmSymBB|Product Description: AutoCAD Mechanical 2000|Company: Autodesk"
 90
        0
280
     0
281
     0
  0
CLASS
  1
ACMWELDSTANDARDJIS
  2
AcmWeldingStdJIS
  3
"AcmSymBB|Product Description: AutoCAD Mechanical 2000|Company: Autodesk"
 90
        0
280
     0
281
     0
  0
CLASS
  1
ACMIDSTANDARDJIS
  2
AcmIdStdJIS
  3
"AcmSymBB|Product Description: AutoCAD Mechanical 2000|Company: Autodesk"
 90
        0
280
     0
281
     0
  0
CLASS
  1
ACMDATUMSTANDARDJIS
  2
AcmDatumStdJIS
  3
"AcmSymBB|Product Description: AutoCAD Mechanical 2000|Company: Autodesk"
 90
        0
280
     0
281
     0
  0
CLASS
  1
ACMBOMSTANDARDJIS
  2
AcmBOMStdJIS
  3
"AcmSymBB|Product Description: AutoCAD Mechanical 2000|Company: Autodesk"
 90
        0
280
     0
281
     0
  0
CLASS
  1
ACMSTANDARDANSI
  2
AcmStandardANSI
  3
"AcmSymBB|Product Description: AutoCAD Mechanical 2000|Company: Autodesk"
 90
        0
280
     0
281
     0
  0
CLASS
  1
ACMSURFSTANDARDANSI
  2
AcmSurfTextStdANSI
  3
"AcmSymBB|Product Description: AutoCAD Mechanical 2000|Company: Autodesk"
 90
        0
280
     0
281
     0
  0
CLASS
  1
ACMFCFSTANDARDANSI
  2
AcmFCFStdANSI
  3
"AcmSymBB|Product Description: AutoCAD Mechanical 2000|Company: Autodesk"
 90
        0
280
     0
281
     0
  0
CLASS
  1
ACMWELDSTANDARDANSI
  2
AcmWeldingStdANSI
  3
"AcmSymBB|Product Description: AutoCAD Mechanical 2000|Company: Autodesk"
 90
        0
280
     0
281
     0
  0
CLASS
  1
ACMIDSTANDARDANSI
  2
AcmIdStdANSI
  3
"AcmSymBB|Product Description: AutoCAD Mechanical 2000|Company: Autodesk"
 90
        0
280
     0
281
     0
  0
CLASS
  1
ACMDATUMSTANDARDANSI
  2
AcmDatumStdANSI
  3
"AcmSymBB|Product Description: AutoCAD Mechanical 2000|Company: Autodesk"
 90
        0
280
     0
281
     0
  0
CLASS
  1
ACMBOMSTANDARDANSI
  2
AcmBOMStdANSI
  3
"AcmSymBB|Product Description: AutoCAD Mechanical 2000|Company: Autodesk"
 90
        0
280
     0
281
     0
  0
CLASS
  1
ACMSTANDARDBSI
  2
AcmStandardBSI
  3
"AcmSymBB|Product Description: AutoCAD Mechanical 2000|Company: Autodesk"
 90
        0
280
     0
281
     0
  0
CLASS
  1
ACMSURFSTANDARDBSI
  2
AcmSurfTextStdBSI
  3
"AcmSymBB|Product Description: AutoCAD Mechanical 2000|Company: Autodesk"
 90
        0
280
     0
281
     0
  0
CLASS
  1
ACMFCFSTANDARDBSI
  2
AcmFCFStdBSI
  3
"AcmSymBB|Product Description: AutoCAD Mechanical 2000|Company: Autodesk"
 90
        0
280
     0
281
     0
  0
CLASS
  1
ACMWELDSTANDARDBSI
  2
AcmWeldingStdBSI
  3
"AcmSymBB|Product Description: AutoCAD Mechanical 2000|Company: Autodesk"
 90
        0
280
     0
281
     0
  0
CLASS
  1
ACMIDSTANDARDBSI
  2
AcmIdStdBSI
  3
"AcmSymBB|Product Description: AutoCAD Mechanical 2000|Company: Autodesk"
 90
        0
280
     0
281
     0
  0
CLASS
  1
ACMDATUMSTANDARDBSI
  2
AcmDatumStdBSI
  3
"AcmSymBB|Product Description: AutoCAD Mechanical 2000|Company: Autodesk"
 90
        0
280
     0
281
     0
  0
CLASS
  1
ACMBOMSTANDARDBSI
  2
AcmBOMStdBSI
  3
"AcmSymBB|Product Description: AutoCAD Mechanical 2000|Company: Autodesk"
 90
        0
280
     0
281
     0
  0
CLASS
  1
LONG_TRANSACTION
  2
AcDbLongTransaction
  3
AutoCAD 2000
 90
        0
280
     0
281
     0
  0
CLASS
  1
LWPOLYLINE
  2
AcDbPolyline
  3
AutoCAD 2000
 90
        0
280
     0
281
     1
  0
CLASS
  1
HATCH
  2
AcDbHatch
  3
AutoCAD 2000
 90
        0
280
     0
281
     1
  0
CLASS
  1
XRECORD
  2
AcDbXrecord
  3
AutoCAD 2000
 90
        0
280
     0
281
     0
  0
ENDSEC
  0
SECTION
  2
TABLES
  0
TABLE
  2
VPORT
  5
8
330
0
100
AcDbSymbolTable
 70
     3
  0
VPORT
  5
2A37
330
8
100
AcDbSymbolTableRecord
100
AcDbViewportTableRecord
  2
*ACTIVE
 70
     0
 10
0.0
 20
0.0
 11
1.0
 21
1.0
 12
-20.40949459658372
 22
-8.032902758106267
 13
0.0
 23
0.0
 14
2.5
 24
2.5
 15
10.0
 25
10.0
 16
0.0
 26
0.0
 36
1.0
 17
0.0
 27
0.0
 37
0.0
 40
36.54932782837018
 41
1.56570841889117
 42
50.0
 43
0.0
 44
0.0
 50
0.0
 51
0.0
 71
     0
 72
   100
 73
     1
 74
     3
 75
     0
 76
     0
 77
     0
 78
     0
  0
ENDTAB
  0
TABLE
  2
LTYPE
  5
5
330
0
100
AcDbSymbolTable
 70
    10
  0
LTYPE
  5
14
330
5
100
AcDbSymbolTableRecord
100
AcDbLinetypeTableRecord
  2
BYBLOCK
 70
     0
  3

 72
    65
 73
     0
 40
0.0
  0
LTYPE
  5
15
330
5
100
AcDbSymbolTableRecord
100
AcDbLinetypeTableRecord
  2
BYLAYER
 70
     0
  3

 72
    65
 73
     0
 40
0.0
  0
LTYPE
  5
16
330
5
100
AcDbSymbolTableRecord
100
AcDbLinetypeTableRecord
  2
CONTINUOUS
 70
     0
  3
Solid line
 72
    65
 73
     0
 40
0.0
  0
LTYPE
  5
4B
330
5
100
AcDbSymbolTableRecord
100
AcDbLinetypeTableRecord
  2
AM_ISO02W050
 70
     0
  3
__ __ __ __ __ __ __ __ __ __ __ __ __ __ __
 72
    65
 73
     2
 40
7.5
 49
6.0
 74
     0
 49
-1.5
 74
     0
  0
LTYPE
  5
4C
330
5
100
AcDbSymbolTableRecord
100
AcDbLinetypeTableRecord
  2
AM_ISO08W050
 70
     0
  3
____ . ____ . ____ . ____ . ____ . ____ . ____
 72
    65
 73
     4
 40
18.0
 49
12.0
 74
     0
 49
-1.5
 74
     0
 49
3.0
 74
     0
 49
-1.5
 74
     0
  0
LTYPE
  5
4D
330
5
100
AcDbSymbolTableRecord
100
AcDbLinetypeTableRecord
  2
AM_ISO09W050
 70
     0
  3
_____ . . _____ . . _____ . . ____ .. ____
 72
    65
 73
     6
 40
22.5
 49
12.0
 74
     0
 49
-1.5
 74
     0
 49
3.0
 74
     0
 49
-1.5
 74
     0
 49
3.0
 74
     0
 49
-1.5
 74
     0
  0
LTYPE
  5
4E
330
5
100
AcDbSymbolTableRecord
100
AcDbLinetypeTableRecord
  2
AMCONSTR
 70
     0
  3
_______________________
 72
    65
 73
     2
 40
9999.0
 49
9999.0
 74
     0
 49
0.0
 74
     0
  0
LTYPE
  5
4F
330
5
100
AcDbSymbolTableRecord
100
AcDbLinetypeTableRecord
  2
AM_ISO02W050X2
 70
     0
  3
 _ _ _ _ _ _ _ _ _ _ _ _
 72
    65
 73
     2
 40
3.75
 49
3.0
 74
     0
 49
-0.75
 74
     0
  0
LTYPE
  5
50
330
5
100
AcDbSymbolTableRecord
100
AcDbLinetypeTableRecord
  2
AM_ISO08W050X2
 70
     0
  3
__ . __ . __ . __ . __ . __
 72
    65
 73
     4
 40
9.0
 49
6.0
 74
     0
 49
-0.75
 74
     0
 49
1.5
 74
     0
 49
-0.75
 74
     0
  0
LTYPE
  5
53
330
5
100
AcDbSymbolTableRecord
100
AcDbLinetypeTableRecord
  2
AMZIGZAG
 70
     0
  3
/\/-/\/-/\/-/\/-/\/-/\/
 72
    65
 73
     2
 40
11.00009999999999
 49
0.0001
 74
     4
 75
   135
340
52
 46
0.04
 50
0.0
 44
0.0
 45
0.0
 49
-11.0
 74
     0
  0
LTYPE
  5
166
330
5
100
AcDbSymbolTableRecord
100
AcDbLinetypeTableRecord
  2
ACJISTGL
 70
     0
  3
_ _ _ _ _
 72
    65
 73
     2
 40
3.0
 49
2.0
 74
     0
 49
-1.0
 74
     0
  0
LTYPE
  5
26A
330
5
100
AcDbSymbolTableRecord
100
AcDbLinetypeTableRecord
  2
ACJISTGB
 70
     0
  3
__ . . __ . .
 72
    65
 73
     6
 40
9.0
 49
4.0
 74
     0
 49
-1.0
 74
     0
 49
1.0
 74
     0
 49
-1.0
 74
     0
 49
1.0
 74
     0
 49
-1.0
 74
     0
  0
ENDTAB
  0
TABLE
  2
LAYER
  5
2
330
0
100
AcDbSymbolTable
 70
     7
  0
LAYER
  5
10
330
2
100
AcDbSymbolTableRecord
100
AcDbLayerTableRecord
  2
0
 70
     0
 62
     7
  6
CONTINUOUS
  0
LAYER
  5
3F9
330
2
100
AcDbSymbolTableRecord
100
AcDbLayerTableRecord
  2
AM_0
 70
     0
 62
     7
  6
CONTINUOUS
  0
LAYER
  5
BA4
330
2
100
AcDbSymbolTableRecord
100
AcDbLayerTableRecord
  2
AM_11
 70
     0
 62
     3
  6
AM_ISO09W050
  0
LAYER
  5
BA5
330
2
100
AcDbSymbolTableRecord
100
AcDbLayerTableRecord
  2
AM_7
 70
     0
 62
     4
  6
AM_ISO08W050
  0
LAYER
  5
C84
330
2
100
AcDbSymbolTableRecord
100
AcDbLayerTableRecord
  2
AM_5
 70
     0
 62
     3
  6
CONTINUOUS
  0
LAYER
  5
F05
330
2
100
AcDbSymbolTableRecord
100
AcDbLayerTableRecord
  2
AM_6
 70
     0
 62
     2
  6
CONTINUOUS
  0
LAYER
  5
F0F
330
2
100
AcDbSymbolTableRecord
100
AcDbLayerTableRecord
  2
DEFPOINTS
 70
     0
 62
     7
  6
CONTINUOUS
  0
ENDTAB
  0
TABLE
  2
STYLE
  5
3
330
0
100
AcDbSymbolTable
 70
     5
  0
STYLE
  5
11
330
3
100
AcDbSymbolTableRecord
100
AcDbTextStyleTableRecord
  2
STANDARD
 70
     0
 40
0.0
 41
1.0
 50
0.0
 71
     0
 42
2.5
  3
simplex.shx
  4
EXTFONT.SHX
  0
STYLE
  5
52
330
3
100
AcDbSymbolTableRecord
100
AcDbTextStyleTableRecord
  2

 70
     1
 40
0.0
 41
1.0
 50
0.0
 71
     0
 42
2.5
  3
ltypeshp.shx
  4

  0
STYLE
  5
6B
330
3
100
AcDbSymbolTableRecord
100
AcDbTextStyleTableRecord
  2
ASAMI
 70
     0
 40
0.0
 41
1.0
 50
0.0
 71
     0
 42
2.5
  3
simplex.shx
  4
EXTFONT.SHX
  0
STYLE
  5
262
330
3
100
AcDbSymbolTableRecord
100
AcDbTextStyleTableRecord
  2
ACJISTS
 70
     0
 40
1.0
 41
1.0
 50
0.0
 71
     0
 42
2.5
  3
simplex.shx
  4
bigfont.shx
  0
STYLE
  5
269
330
3
100
AcDbSymbolTableRecord
100
AcDbTextStyleTableRecord
  2
ACJISGDT
 70
     0
 40
0.0
 41
1.0
 50
0.0
 71
     0
 42
2.5
  3
amgdtans.shx
  4

  0
ENDTAB
  0
TABLE
  2
VIEW
  5
6
330
0
100
AcDbSymbolTable
 70
     0
  0
ENDTAB
  0
TABLE
  2
UCS
  5
7
330
0
100
AcDbSymbolTable
 70
     0
  0
ENDTAB
  0
TABLE
  2
APPID
  5
9
330
0
100
AcDbSymbolTable
 70
    13
  0
APPID
  5
12
330
9
100
AcDbSymbolTableRecord
100
AcDbRegAppTableRecord
  2
ACAD
 70
     0
  0
APPID
  5
30
330
9
100
AcDbSymbolTableRecord
100
AcDbRegAppTableRecord
  2
MCAD_NO_VIS
 70
     0
  0
APPID
  5
31
330
9
100
AcDbSymbolTableRecord
100
AcDbRegAppTableRecord
  2
ACAD_TEMP_GRAPHIC
 70
     0
  0
APPID
  5
2C2
330
9
100
AcDbSymbolTableRecord
100
AcDbRegAppTableRecord
  2
GENIUS_GENDTOL_13
 70
     0
  0
APPID
  5
339
330
9
100
AcDbSymbolTableRecord
100
AcDbRegAppTableRecord
  2
GENIUS_GENODEF_13
 70
     0
  0
APPID
  5
33A
330
9
100
AcDbSymbolTableRecord
100
AcDbRegAppTableRecord
  2
GENIUS_GENOBJ-N-RSBK_13
 70
     0
  0
APPID
  5
33B
330
9
100
AcDbSymbolTableRecord
100
AcDbRegAppTableRecord
  2
GENIUS_GENOBJ-N-LIB_13
 70
     0
  0
APPID
  5
33C
330
9
100
AcDbSymbolTableRecord
100
AcDbRegAppTableRecord
  2
GENIUS_GENSCALE_13
 70
     0
  0
APPID
  5
378
330
9
100
AcDbSymbolTableRecord
100
AcDbRegAppTableRecord
  2
GENIUS_GENDIMSH_14
 70
     0
  0
APPID
  5
BA6
330
9
100
AcDbSymbolTableRecord
100
AcDbRegAppTableRecord
  2
GENIUS_GENOBJ-N-CEN_13
 70
     0
  0
APPID
  5
BEC
330
9
100
AcDbSymbolTableRecord
100
AcDbRegAppTableRecord
  2
GENIUS_GENOREF_13
 70
     0
  0
APPID
  5
EEE
330
9
100
AcDbSymbolTableRecord
100
AcDbRegAppTableRecord
  2
GENIUS_GENFIL_13
 70
     0
  0
APPID
  5
EEF
330
9
100
AcDbSymbolTableRecord
100
AcDbRegAppTableRecord
  2
GENIUS_GENOBJ-N-CHA_13
 70
     0
  0
ENDTAB
  0
TABLE
  2
DIMSTYLE
  5
A
330
0
100
AcDbSymbolTable
 70
     8
  0
DIMSTYLE
105
58
102
{ACAD_REACTORS
330
2664
330
2671
330
2672
330
268A
102
}
330
A
100
AcDbSymbolTableRecord
100
AcDbDimStyleTableRecord
  2
AM_JIS
 70
     0
  3

  4
"
  5
OPEN30
  6

  7

 40
0.5
 41
2.5
 42
1.0
 43
12.0
 44
1.0
 45
0.0
 46
0.0
 47
0.1
 48
0.1
140
3.2
141
0.0
142
0.0
143
0.0393701
144
1.0
145
0.0
146
0.71
147
1.5
 71
     0
 72
     0
 73
     0
 74
     0
 75
     0
 76
     0
 77
     3
 78
     8
170
     0
171
     2
172
     1
173
     0
174
     0
175
     0
176
   256
177
   256
178
     2
270
     2
271
     3
272
     3
273
     2
274
     2
340
6B
275
     0
280
     0
281
     0
282
     0
283
     0
284
     0
285
     0
286
     0
287
     3
288
     0
  0
DIMSTYLE
105
5F
330
A
100
AcDbSymbolTableRecord
100
AcDbDimStyleTableRecord
  2
AM_JIS$3
 70
     0
  3

  4
"
  5
OPEN30
  6

  7

 40
0.5
 41
2.5
 42
1.0
 43
10.0
 44
1.0
 45
0.0
 46
0.0
 47
0.1
 48
0.1
140
3.2
141
0.0
142
0.0
143
0.0393701
144
1.0
145
0.0
146
0.71
147
1.5
 71
     0
 72
     0
 73
     0
 74
     1
 75
     0
 76
     0
 77
     3
 78
     8
170
     0
171
     2
172
     0
173
     0
174
     0
175
     0
176
   256
177
   256
178
     2
270
     2
271
     2
272
     3
273
     2
274
     2
340
6B
275
     0
280
     0
281
     0
282
     0
283
     0
284
     0
285
     0
286
     0
287
     0
288
     1
  0
DIMSTYLE
105
60
330
A
100
AcDbSymbolTableRecord
100
AcDbDimStyleTableRecord
  2
AM_JIS$4
 70
     0
  3

  4
"
  5
OPEN30
  6

  7

 40
0.5
 41
2.5
 42
1.0
 43
10.0
 44
1.0
 45
0.0
 46
0.0
 47
0.1
 48
0.1
140
3.2
141
0.0
142
0.0
143
0.0393701
144
1.0
145
0.0
146
0.71
147
1.5
 71
     0
 72
     0
 73
     0
 74
     1
 75
     0
 76
     0
 77
     3
 78
     8
170
     0
171
     2
172
     0
173
     0
174
     0
175
     0
176
   256
177
   256
178
     2
270
     2
271
     2
272
     3
273
     2
274
     2
340
6B
275
     0
280
     0
281
     0
282
     0
283
     0
284
     0
285
     0
286
     0
287
     0
288
     1
  0
DIMSTYLE
105
61
330
A
100
AcDbSymbolTableRecord
100
AcDbDimStyleTableRecord
  2
AM_JIS$6
 70
     0
  3

  4
"
  5
OPEN30
  6

  7

 40
0.5
 41
2.5
 42
1.0
 43
10.0
 44
1.0
 45
0.0
 46
0.0
 47
0.1
 48
0.1
140
3.2
141
0.0
142
0.0
143
0.0393701
144
1.0
145
0.0
146
0.71
147
1.5
 71
     0
 72
     0
 73
     0
 74
     0
 75
     0
 76
     0
 77
     0
 78
     8
170
     0
171
     2
172
     1
173
     0
174
     0
175
     0
176
   256
177
   256
178
     2
270
     2
271
     2
272
     2
273
     2
274
     2
340
6B
275
     0
280
     0
281
     0
282
     0
283
     0
284
     0
285
     0
286
     0
287
     3
288
     0
  0
DIMSTYLE
105
62
330
A
100
AcDbSymbolTableRecord
100
AcDbDimStyleTableRecord
  2
AM_JIS$7
 70
     0
  3

  4
"
  5
OPEN30
  6

  7

 40
0.5
 41
2.5
 42
1.0
 43
10.0
 44
1.0
 45
0.0
 46
0.0
 47
0.1
 48
0.1
140
3.2
141
0.0
142
0.0
143
0.0393701
144
1.0
145
0.0
146
0.71
147
1.5
 71
     0
 72
     0
 73
     0
 74
     0
 75
     0
 76
     0
 77
     3
 78
     8
170
     0
171
     2
172
     1
173
     0
174
     0
175
     0
176
   256
177
   256
178
     2
270
     2
271
     2
272
     3
273
     2
274
     2
340
6B
275
     0
280
     0
281
     0
282
     0
283
     0
284
     0
285
     0
286
     0
287
     3
288
     0
  0
DIMSTYLE
105
63
330
A
100
AcDbSymbolTableRecord
100
AcDbDimStyleTableRecord
  2
AM_JIS$SF
 70
     0
  3

  4
"
  5
OPEN30
  6

  7

 40
0.5
 41
2.5
 42
1.0
 43
10.0
 44
1.0
 45
0.0
 46
0.0
 47
0.1
 48
0.1
140
3.2
141
0.0
142
0.0
143
0.0393701
144
1.0
145
0.0
146
0.71
147
1.5
 71
     0
 72
     0
 73
     0
 74
     0
 75
     1
 76
     1
 77
     3
 78
     8
170
     0
171
     2
172
     1
173
     0
174
     0
175
     0
176
   256
177
   256
178
     2
270
     2
271
     2
272
     2
273
     2
274
     2
340
6B
275
     0
280
     0
281
     0
282
     0
283
     0
284
     0
285
     0
286
     0
287
     3
288
     0
  0
DIMSTYLE
105
68
330
A
100
AcDbSymbolTableRecord
100
AcDbDimStyleTableRecord
  2
AM_JIS$SH
 70
     0
  3

  4
"
  5

  6
GENAXEH
  7
OPEN30
 40
0.5
 41
2.5
 42
1.0
 43
10.0
 44
1.0
 45
0.0
 46
0.0
 47
0.1
 48
0.1
140
3.2
141
0.0
142
0.0
143
0.0393701
144
2.0
145
0.0
146
0.71
147
1.5
 71
     0
 72
     0
 73
     0
 74
     0
 75
     1
 76
     1
 77
     3
 78
     8
170
     0
171
     2
172
     1
173
     1
174
     0
175
     0
176
   256
177
   256
178
     2
270
     2
271
     2
272
     2
273
     2
274
     2
340
6B
275
     0
280
     0
281
     0
282
     0
283
     0
284
     0
285
     0
286
     0
287
     3
288
     0
  0
DIMSTYLE
105
B34
330
A
100
AcDbSymbolTableRecord
100
AcDbDimStyleTableRecord
  2
AM_JIS$2
 70
     0
  3

  4
"
  5
OPEN30
  6

  7

 40
0.5
 41
2.5
 42
1.0
 43
12.0
 44
1.0
 45
0.0
 46
0.0
 47
0.1
 48
0.1
140
3.2
141
0.0
142
0.0
143
0.0393701
144
1.0
145
0.0
146
0.71
147
1.5
 71
     0
 72
     0
 73
     0
 74
     0
 75
     0
 76
     0
 77
     3
 78
     8
170
     0
171
     2
172
     1
173
     0
174
     0
175
     0
176
   256
177
   256
178
     2
270
     2
271
     3
272
     3
273
     2
274
     2
340
6B
275
     0
280
     0
281
     0
282
     0
283
     0
284
     0
285
     0
286
     0
287
     3
288
     0
  0
ENDTAB
  0
TABLE
  2
BLOCK_RECORD
  5
1
330
0
100
AcDbSymbolTable
 70
    12
  0
BLOCK_RECORD
  5
1F
102
{ACAD_XDICTIONARY
360
74
102
}
330
1
100
AcDbSymbolTableRecord
100
AcDbBlockTableRecord
  2
*MODEL_SPACE
  0
BLOCK_RECORD
  5
101
102
{ACAD_XDICTIONARY
360
2A60
102
}
330
1
100
AcDbSymbolTableRecord
100
AcDbBlockTableRecord
  2
*PAPER_SPACE
  0
BLOCK_RECORD
  5
59
330
1
100
AcDbSymbolTableRecord
100
AcDbBlockTableRecord
  2
_OPEN30
  0
BLOCK_RECORD
  5
64
330
1
100
AcDbSymbolTableRecord
100
AcDbBlockTableRecord
  2
GENAXEH
  0
BLOCK_RECORD
  5
268B
330
1
100
AcDbSymbolTableRecord
100
AcDbBlockTableRecord
  2
*D5
  0
BLOCK_RECORD
  5
2699
330
1
100
AcDbSymbolTableRecord
100
AcDbBlockTableRecord
  2
*D6
  0
BLOCK_RECORD
  5
26A7
330
1
100
AcDbSymbolTableRecord
100
AcDbBlockTableRecord
  2
*D7
  0
BLOCK_RECORD
  5
26B5
330
1
100
AcDbSymbolTableRecord
100
AcDbBlockTableRecord
  2
*D8
  0
BLOCK_RECORD
  5
27D5
330
1
100
AcDbSymbolTableRecord
100
AcDbBlockTableRecord
  2
A$C1FF272F0
  0
BLOCK_RECORD
  5
27FD
330
1
100
AcDbSymbolTableRecord
100
AcDbBlockTableRecord
  2
A$C41E84228
  0
BLOCK_RECORD
  5
2828
330
1
100
AcDbSymbolTableRecord
100
AcDbBlockTableRecord
  2
A$C2BBB2EFA
  0
ENDTAB
  0
ENDSEC
  0
SECTION
  2
BLOCKS
  0
BLOCK
  5
20
330
1F
100
AcDbEntity
  8
0
100
AcDbBlockBegin
  2
*MODEL_SPACE
 70
     0
 10
0.0
 20
0.0
 30
0.0
  3
*MODEL_SPACE
  1

  0
ENDBLK
  5
21
330
1F
100
AcDbEntity
  8
0
100
AcDbBlockEnd
  0
BLOCK
  5
103
330
101
100
AcDbEntity
 67
     1
  8
0
100
AcDbBlockBegin
  2
*PAPER_SPACE
 70
     0
 10
0.0
 20
0.0
 30
0.0
  3
*PAPER_SPACE
  1

  0
ENDBLK
  5
104
330
101
100
AcDbEntity
 67
     1
  8
0
100
AcDbBlockEnd
  0
BLOCK
  5
5D
330
59
100
AcDbEntity
  8
0
100
AcDbBlockBegin
  2
_OPEN30
 70
     0
 10
0.0
 20
0.0
 30
0.0
  3
_OPEN30
  1

  0
LINE
  5
5A
330
59
100
AcDbEntity
  8
0
 62
     0
100
AcDbLine
 10
-1.0
 20
0.26794919
 30
0.0
 11
0.0
 21
0.0
 31
0.0
  0
LINE
  5
5B
330
59
100
AcDbEntity
  8
0
 62
     0
100
AcDbLine
 10
0.0
 20
0.0
 30
0.0
 11
-1.0
 21
-0.26794919
 31
0.0
  0
LINE
  5
5C
330
59
100
AcDbEntity
  8
0
 62
     0
100
AcDbLine
 10
0.0
 20
0.0
 30
0.0
 11
-1.0
 21
0.0
 31
0.0
  0
ENDBLK
  5
5E
330
59
100
AcDbEntity
  8
0
100
AcDbBlockEnd
  0
BLOCK
  5
66
330
64
100
AcDbEntity
  8
0
100
AcDbBlockBegin
  2
GENAXEH
 70
     0
 10
0.0
 20
0.0
 30
0.0
  3
GENAXEH
  1

  0
LINE
  5
65
330
64
100
AcDbEntity
  8
0
100
AcDbLine
 10
-1.0
 20
0.0
 30
0.0
 11
1.0
 21
0.0
 31
0.0
  0
ENDBLK
  5
67
330
64
100
AcDbEntity
  8
0
100
AcDbBlockEnd
  0
BLOCK
  5
2697
330
268B
100
AcDbEntity
  8
0
100
AcDbBlockBegin
  2
*D5
 70
     1
 10
0.0
 20
0.0
 30
0.0
  3
*D5
  1

  0
LINE
  5
26C1
330
268B
100
AcDbEntity
  8
AM_5
100
AcDbLine
 10
-38.29999999999996
 20
-1.500338943438937
 30
0.0
 11
-47.05723829529715
 21
-1.500338943438935
 31
0.0
  0
LINE
  5
26C2
330
268B
100
AcDbEntity
  8
AM_5
100
AcDbLine
 10
-38.29999999999997
 20
1.499661056561062
 30
0.0
 11
-47.05723829529715
 21
1.499661056561064
 31
0.0
  0
LINE
  5
26C3
330
268B
100
AcDbEntity
  8
AM_5
100
AcDbLine
 10
-46.55723829529715
 20
-2.750338943438935
 30
0.0
 11
-46.55723829529715
 21
-4.000338943438935
 31
0.0
  0
LINE
  5
26C4
330
268B
100
AcDbEntity
  8
AM_5
100
AcDbLine
 10
-46.55723829529715
 20
2.749661056561064
 30
0.0
 11
-46.55723829529715
 21
8.013946770846779
 31
0.0
  0
LINE
  5
26C5
330
268B
100
AcDbEntity
  8
AM_5
100
AcDbLine
 10
-46.55723829529715
 20
-1.500338943438935
 30
0.0
 11
-46.55723829529715
 21
1.499661056561064
 31
0.0
  0
INSERT
  5
26C6
330
268B
100
AcDbEntity
  8
AM_5
100
AcDbBlockReference
  2
_OPEN30
 10
-46.55723829529715
 20
-1.500338943438935
 30
0.0
 41
1.25
 42
1.25
 43
1.25
 50
90.0
  0
INSERT
  5
26C7
330
268B
100
AcDbEntity
  8
AM_5
100
AcDbBlockReference
  2
_OPEN30
 10
-46.55723829529715
 20
1.499661056561064
 30
0.0
 41
1.25
 42
1.25
 43
1.25
 50
270.0
  0
MTEXT
  5
26C8
330
268B
100
AcDbEntity
  8
AM_5
 62
     2
100
AcDbMText
 10
-48.10723829529714
 20
6.006803913703913
 30
0.0
 40
1.6
 41
0.0
 71
     5
 72
     1
  1
%%c3
  7
ASAMI
 11
0.0000000000000001
 21
1.0
 31
0.0
1001
ACAD
1000
MTEXTBEGIN
1070
    73
1070
     1
1070
    44
1040
1.0
1070
    74
1070
     0
1000
MTEXTEND
  0
POINT
  5
26C9
330
268B
100
AcDbEntity
  8
DEFPOINTS
 62
     0
100
AcDbPoint
 10
-37.79999999999997
 20
-1.500338943438937
 30
0.0
  0
POINT
  5
26CA
330
268B
100
AcDbEntity
  8
DEFPOINTS
 62
     0
100
AcDbPoint
 10
-37.79999999999997
 20
1.499661056561062
 30
0.0
  0
POINT
  5
26CB
330
268B
100
AcDbEntity
  8
DEFPOINTS
 62
     0
100
AcDbPoint
 10
-46.55723829529715
 20
1.499661056561064
 30
0.0
  0
ENDBLK
  5
2698
330
268B
100
AcDbEntity
  8
0
100
AcDbBlockEnd
  0
BLOCK
  5
26A5
330
2699
100
AcDbEntity
  8
0
100
AcDbBlockBegin
  2
*D6
 70
     1
 10
0.0
 20
0.0
 30
0.0
  3
*D6
  1

  0
LINE
  5
281D
330
2699
100
AcDbEntity
  8
AM_5
100
AcDbLine
 10
-0.0000000000000441
 20
-1.24997008149465
 30
0.0
 11
-0.0000000000000445
 21
-9.000339943438936
 31
0.0
  0
LINE
  5
281E
330
2699
100
AcDbEntity
  8
AM_5
100
AcDbLine
 10
-3.0
 20
-1.498733584905991
 30
0.0
 11
-3.0
 21
-9.000339943438936
 31
0.0
  0
LINE
  5
281F
330
2699
100
AcDbEntity
  8
AM_5
100
AcDbLine
 10
1.249999999999955
 20
-8.500339943438936
 30
0.0
 11
2.499999999999955
 21
-8.500339943438936
 31
0.0
  0
LINE
  5
2820
330
2699
100
AcDbEntity
  8
AM_5
100
AcDbLine
 10
-4.25
 20
-8.500339943438936
 30
0.0
 11
-5.5
 21
-8.500339943438936
 31
0.0
  0
LINE
  5
2821
330
2699
100
AcDbEntity
  8
AM_5
100
AcDbLine
 10
-0.0000000000000445
 20
-8.500339943438936
 30
0.0
 11
-3.0
 21
-8.500339943438936
 31
0.0
  0
INSERT
  5
2822
330
2699
100
AcDbEntity
  8
AM_5
100
AcDbBlockReference
  2
_OPEN30
 10
-0.0000000000000445
 20
-8.500339943438936
 30
0.0
 41
1.25
 42
1.25
 43
1.25
 50
180.0
  0
INSERT
  5
2823
330
2699
100
AcDbEntity
  8
AM_5
100
AcDbBlockReference
  2
_OPEN30
 10
-3.0
 20
-8.500339943438936
 30
0.0
 41
1.25
 42
1.25
 43
1.25
  0
MTEXT
  5
2824
330
2699
100
AcDbEntity
  8
AM_5
 62
     2
100
AcDbMText
 10
-1.500000000000022
 20
-6.950339943438936
 30
0.0
 40
1.6
 41
0.0
 71
     5
 72
     1
  1
3
  7
ASAMI
1001
ACAD
1000
MTEXTBEGIN
1070
    73
1070
     1
1070
    44
1040
1.0
1070
    74
1070
     0
1000
MTEXTEND
  0
POINT
  5
2825
330
2699
100
AcDbEntity
  8
DEFPOINTS
 62
     0
100
AcDbPoint
 10
-0.000000000000044
 20
-0.7499700814946503
 30
0.0
  0
POINT
  5
2826
330
2699
100
AcDbEntity
  8
DEFPOINTS
 62
     0
100
AcDbPoint
 10
-3.0
 20
-0.9987335849059917
 30
0.0
  0
POINT
  5
2827
330
2699
100
AcDbEntity
  8
DEFPOINTS
 62
     0
100
AcDbPoint
 10
-3.0
 20
-8.500339943438936
 30
0.0
  0
ENDBLK
  5
26A6
330
2699
100
AcDbEntity
  8
0
100
AcDbBlockEnd
  0
BLOCK
  5
26B3
330
26A7
100
AcDbEntity
  8
0
100
AcDbBlockBegin
  2
*D7
 70
     1
 10
0.0
 20
0.0
 30
0.0
  3
*D7
  1

  0
LINE
  5
291A
330
26A7
100
AcDbEntity
  8
AM_5
100
AcDbLine
 10
0.5
 20
1.001266415094022
 30
0.0
 11
8.087748996814756
 21
1.00126641509402
 31
0.0
  0
LINE
  5
291B
330
26A7
100
AcDbEntity
  8
AM_5
100
AcDbLine
 10
0.5
 20
-0.9987335849060345
 30
0.0
 11
8.087748996814756
 21
-0.9987335849060364
 31
0.0
  0
LINE
  5
291C
330
26A7
100
AcDbEntity
  8
AM_5
100
AcDbLine
 10
7.587748996814754
 20
-2.248733584906036
 30
0.0
 11
7.587748996814754
 21
-3.498733584906036
 31
0.0
  0
LINE
  5
291D
330
26A7
100
AcDbEntity
  8
AM_5
100
AcDbLine
 10
7.587748996814756
 20
2.25126641509402
 30
0.0
 11
7.587748996814757
 21
9.686980700808307
 31
0.0
  0
LINE
  5
291E
330
26A7
100
AcDbEntity
  8
AM_5
100
AcDbLine
 10
7.587748996814755
 20
-0.9987335849060364
 30
0.0
 11
7.587748996814755
 21
1.00126641509402
 31
0.0
  0
INSERT
  5
291F
330
26A7
100
AcDbEntity
  8
AM_5
100
AcDbBlockReference
  2
_OPEN30
 10
7.587748996814755
 20
-0.9987335849060364
 30
0.0
 41
1.25
 42
1.25
 43
1.25
 50
90.0
  0
INSERT
  5
2920
330
26A7
100
AcDbEntity
  8
AM_5
100
AcDbBlockReference
  2
_OPEN30
 10
7.587748996814755
 20
1.00126641509402
 30
0.0
 41
1.25
 42
1.25
 43
1.25
 50
270.0
  0
MTEXT
  5
2921
330
26A7
100
AcDbEntity
  8
AM_5
 62
     2
100
AcDbMText
 10
6.037748996814756
 20
7.679837843665451
 30
0.0
 40
1.6
 41
0.0
 71
     5
 72
     1
  1
%%c2
  7
ASAMI
 11
0.0000000000000001
 21
1.0
 31
0.0
1001
ACAD
1000
MTEXTBEGIN
1070
    73
1070
     1
1070
    44
1040
1.0
1070
    74
1070
     0
1000
MTEXTEND
  0
POINT
  5
2922
330
26A7
100
AcDbEntity
  8
DEFPOINTS
 62
     0
100
AcDbPoint
 10
0.0
 20
1.001266415094022
 30
0.0
  0
POINT
  5
2923
330
26A7
100
AcDbEntity
  8
DEFPOINTS
 62
     0
100
AcDbPoint
 10
0.0
 20
-0.9987335849060343
 30
0.0
  0
POINT
  5
2924
330
26A7
100
AcDbEntity
  8
DEFPOINTS
 62
     0
100
AcDbPoint
 10
7.587748996814755
 20
-0.9987335849060364
 30
0.0
  0
ENDBLK
  5
26B4
330
26A7
100
AcDbEntity
  8
0
100
AcDbBlockEnd
  0
BLOCK
  5
26BF
330
26B5
100
AcDbEntity
  8
0
100
AcDbBlockBegin
  2
*D8
 70
     1
 10
0.0
 20
0.0
 30
0.0
  3
*D8
  1

  0
LINE
  5
26E2
330
26B5
100
AcDbEntity
  8
AM_5
100
AcDbLine
 10
-0.0000000000000001
 20
-1.100000065198328
 30
0.0
 11
-0.000000000000001
 21
-15.000339943439
 31
0.0
  0
LINE
  5
26E3
330
26B5
100
AcDbEntity
  8
AM_5
100
AcDbLine
 10
-37.99999999999997
 20
-1.800338943438937
 30
0.0
 11
-37.99999999999997
 21
-15.000339943439
 31
0.0
  0
LINE
  5
26E4
330
26B5
100
AcDbEntity
  8
AM_5
100
AcDbLine
 10
-1.25
 20
-14.500339943439
 30
0.0
 11
-36.74999999999997
 21
-14.500339943439
 31
0.0
  0
INSERT
  5
26E5
330
26B5
100
AcDbEntity
  8
AM_5
100
AcDbBlockReference
  2
_OPEN30
 10
-0.0000000000000009
 20
-14.500339943439
 30
0.0
 41
1.25
 42
1.25
 43
1.25
  0
INSERT
  5
26E6
330
26B5
100
AcDbEntity
  8
AM_5
100
AcDbBlockReference
  2
_OPEN30
 10
-37.99999999999997
 20
-14.500339943439
 30
0.0
 41
1.25
 42
1.25
 43
1.25
 50
180.0
  0
MTEXT
  5
26E7
330
26B5
100
AcDbEntity
  8
AM_5
 62
     2
100
AcDbMText
 10
-18.99999999999998
 20
-12.950339943439
 30
0.0
 40
1.6
 41
0.0
 71
     5
 72
     1
  1
38
  7
ASAMI
1001
ACAD
1000
MTEXTBEGIN
1070
    73
1070
     1
1070
    44
1040
1.0
1070
    74
1070
     0
1000
MTEXTEND
  0
POINT
  5
26E8
330
26B5
100
AcDbEntity
  8
DEFPOINTS
 62
     0
100
AcDbPoint
 10
-0.0000000000000001
 20
-0.6000000651983282
 30
0.0
  0
POINT
  5
26E9
330
26B5
100
AcDbEntity
  8
DEFPOINTS
 62
     0
100
AcDbPoint
 10
-37.99999999999997
 20
-1.300338943438937
 30
0.0
  0
POINT
  5
26EA
330
26B5
100
AcDbEntity
  8
DEFPOINTS
 62
     0
100
AcDbPoint
 10
-37.99999999999997
 20
-14.500339943439
 30
0.0
  0
ENDBLK
  5
26C0
330
26B5
100
AcDbEntity
  8
0
100
AcDbBlockEnd
  0
BLOCK
  5
27F2
330
27D5
100
AcDbEntity
  8
0
100
AcDbBlockBegin
  2
A$C1FF272F0
 70
     0
 10
0.0
 20
0.0
 30
0.0
  3
A$C1FF272F0
  1

  0
SPLINE
  5
27D6
330
27D5
100
AcDbEntity
  8
AM_0
100
AcDbSpline
210
0.0
220
0.0
230
1.0
 70
     8
 71
     3
 72
     8
 73
     4
 74
     0
 42
0.0000000001
 43
0.0000000001
 40
0.0
 40
0.0
 40
0.0
 40
0.0
 40
4.607356481513744
 40
4.607356481513744
 40
4.607356481513744
 40
4.607356481513744
 10
23.38621775935689
 20
4.591487532509745
 30
0.0
 10
21.85043226551897
 20
4.591487532509745
 30
0.0
 10
20.35348342551378
 20
4.354999451121784
 30
0.0
 10
18.88290532780411
 20
3.957931977980024
 30
0.0
  0
SPLINE
  5
27D7
330
27D5
100
AcDbEntity
  8
AM_0
100
AcDbSpline
210
0.0
220
0.0
230
1.0
 70
     8
 71
     3
 72
     8
 73
     4
 74
     0
 42
0.0000000001
 43
0.0000000001
 40
1.53702008085691
 40
1.53702008085691
 40
1.53702008085691
 40
1.53702008085691
 40
1.900993527181806
 40
1.900993527181806
 40
1.900993527181806
 40
1.900993527181806
 10
23.91186301911375
 20
4.631360334945838
 30
0.0
 10
23.79264309009022
 20
4.619109131306231
 30
0.0
 10
23.67365832446421
 20
4.605488974472109
 30
0.0
 10
23.5549020819767
 20
4.590538519281153
 30
0.0
  0
SPLINE
  5
27D8
330
27D5
100
AcDbEntity
  8
AM_0
100
AcDbSpline
210
0.0
220
0.0
230
1.0
 70
     8
 71
     3
 72
     8
 73
     4
 74
     0
 42
0.0000000001
 43
0.0000000001
 40
0.0
 40
0.0
 40
0.0
 40
0.0
 40
3.347564375695247
 40
3.347564375695247
 40
3.347564375695247
 40
3.347564375695247
 10
27.19366183323927
 20
5.00083121445914
 30
0.0
 10
26.0778070413412
 20
5.00083121445914
 30
0.0
 10
24.98570312576021
 20
4.867398807698009
 30
0.0
 10
23.91186301911329
 20
4.631360334949249
 30
0.0
  0
SPLINE
  5
27D9
330
27D5
100
AcDbEntity
  8
AM_0
100
AcDbSpline
210
0.0
220
0.0
230
1.0
 70
     8
 71
     3
 72
     8
 73
     4
 74
     0
 42
0.0000000001
 43
0.0000000001
 40
0.0
 40
0.0
 40
0.0
 40
0.0
 40
10.49953388088627
 40
10.49953388088627
 40
10.49953388088627
 40
10.49953388088627
 10
23.38621775935689
 20
4.591487532509745
 30
0.0
 10
26.88606238631928
 20
4.591487532509745
 30
0.0
 10
30.18421987174585
 20
3.36335378680269
 30
0.0
 10
33.42821964103674
 20
1.805437397190416
 30
0.0
  0
SPLINE
  5
27DA
330
27D5
100
AcDbEntity
  8
AM_0
100
AcDbSpline
210
0.0
220
0.0
230
1.0
 70
     8
 71
     3
 72
     8
 73
     4
 74
     2
 42
0.0000000001
 43
0.0000000001
 44
0.0000000001
 12
1.0
 22
0.0000000000000157
 32
0.0
 40
0.0
 40
0.0
 40
0.0
 40
0.0
 40
14.49218571129455
 40
14.49218571129455
 40
14.49218571129455
 40
14.49218571129455
 10
0.0
 20
5.000000543319401
 30
0.0
 10
4.830728570431517
 20
5.000000543319477
 30
0.0
 10
9.215364285215713
 20
2.496830218978099
 30
0.0
 10
13.5999999999999
 20
-0.0063401053632788
 30
0.0
 11
0.0
 21
5.000000543319401
 31
0.0
 11
13.5999999999999
 21
-0.0063401053632788
 31
0.0
  0
SPLINE
  5
27DB
330
27D5
100
AcDbEntity
  8
AM_0
100
AcDbSpline
210
0.0
220
0.0
230
1.0
 70
     8
 71
     3
 72
     8
 73
     4
 74
     0
 42
0.0000000001
 43
0.0000000001
 40
8.518178729170251
 40
8.518178729170251
 40
8.518178729170251
 40
8.518178729170251
 40
28.64502702023054
 40
28.64502702023054
 40
28.64502702023054
 40
28.64502702023054
 10
0.2726170000387356
 20
3.948526290258314
 30
0.0
 10
3.498574814401308
 20
3.149585651013694
 30
0.0
 10
6.599219784609431
 20
1.571622772825321
 30
0.0
 10
9.699864754817099
 20
-0.0063401053632788
 30
0.0
  0
SPLINE
  5
27DC
330
27D5
100
AcDbEntity
  8
AM_0
100
AcDbSpline
210
0.0
220
0.0
230
1.0
 70
     8
 71
     3
 72
     8
 73
     4
 74
     0
 42
0.0000000001
 43
0.0000000001
 40
0.0
 40
0.0
 40
0.0
 40
0.0
 40
13.74270749910732
 40
13.74270749910732
 40
13.74270749910732
 40
13.74270749910732
 10
0.0
 20
-5.012680754045732
 30
0.0
 10
2.29045124985123
 20
-5.012680754046186
 30
0.0
 10
4.480616085938891
 20
-4.449941468516499
 30
0.0
 10
6.618044507895774
 20
-3.591281221254348
 30
0.0
  0
SPLINE
  5
27DD
330
27D5
100
AcDbEntity
  8
AM_0
100
AcDbSpline
210
0.0
220
0.0
230
1.0
 70
     8
 71
     3
 72
     8
 73
     4
 74
     2
 42
0.0000000001
 43
0.0000000001
 44
0.0000000001
 12
-1.0
 22
-0.0000000000000156
 32
0.0
 40
0.0
 40
0.0
 40
0.0
 40
0.0
 40
14.49218571129498
 40
14.49218571129498
 40
14.49218571129498
 40
14.49218571129498
 10
27.20000000000027
 20
-5.012680754045732
 30
0.0
 10
22.36927142956861
 20
-5.012680754045807
 30
0.0
 10
17.98463571478426
 20
-2.509510429704429
 30
0.0
 10
13.5999999999999
 20
-0.0063401053630514
 30
0.0
 11
27.20000000000027
 21
-5.012680754045732
 31
0.0
 11
13.5999999999999
 21
-0.0063401053630514
 31
0.0
  0
SPLINE
  5
27DE
330
27D5
100
AcDbEntity
  8
AM_0
100
AcDbSpline
210
0.0
220
0.0
230
1.0
 70
     8
 71
     3
 72
     8
 73
     4
 74
     2
 42
0.0000000001
 43
0.0000000001
 44
0.0000000001
 12
-1.0
 22
0.0000000000000001
 32
0.0
 40
0.0
 40
0.0
 40
0.0
 40
0.0
 40
14.32251351011555
 40
14.32251351011555
 40
14.32251351011555
 40
14.32251351011555
 10
23.29986475481746
 20
-4.497931499004607
 30
0.0
 10
18.52569358477894
 20
-4.497931499004606
 30
0.0
 10
14.11277916979802
 20
-2.252135802183943
 30
0.0
 10
9.699864754817099
 20
-0.0063401053632788
 30
0.0
 11
23.29986475481746
 21
-4.497931499004607
 31
0.0
 11
9.699864754817099
 21
-0.0063401053632788
 31
0.0
  0
SPLINE
  5
27DF
330
27D5
100
AcDbEntity
  8
AM_0
100
AcDbSpline
210
0.0
220
0.0
230
1.0
 70
     8
 71
     3
 72
     8
 73
     4
 74
     2
 42
0.0000000001
 43
0.0000000001
 44
0.0000000001
 12
0.7536206988063688
 22
0.6573095483336602
 32
0.0
 40
0.0
 40
0.0
 40
0.0
 40
0.0
 40
3.809838349731673
 40
3.809838349731673
 40
3.809838349731673
 40
3.809838349731673
 10
0.0
 20
-4.223234434977257
 30
0.0
 10
0.957057679821362
 20
-3.388486726681796
 30
0.0
 10
2.342779532107628
 20
-3.414342484932613
 30
0.0
 10
3.728501384393894
 20
-3.440198243183431
 30
0.0
 11
0.0
 21
-4.223234434977257
 31
0.0
 11
3.728501384393894
 21
-3.440198243183431
 31
0.0
  0
SPLINE
  5
27E0
330
27D5
100
AcDbEntity
  8
AM_0
100
AcDbSpline
210
0.0
220
0.0
230
1.0
 70
     8
 71
     3
 72
     8
 73
     4
 74
     0
 42
0.0000000001
 43
0.0000000001
 40
0.0
 40
0.0
 40
0.0
 40
0.0
 40
9.827178345168029
 40
9.827178345168029
 40
9.827178345168029
 40
9.827178345168029
 10
0.4349999999999455
 20
1.159482969876307
 30
0.0
 10
1.729258556664717
 20
0.1557448647336059
 30
0.0
 10
4.599668366413425
 20
-3.052305716378441
 30
0.0
 10
4.168197552774017
 20
-3.463188246698109
 30
0.0
  0
LINE
  5
27E1
330
27D5
100
AcDbEntity
  8
AM_0
100
AcDbLine
 10
33.42821964103674
 20
-3.328624055775662
 30
0.0
 11
27.19366183322108
 21
-4.999168785544952
 31
0.0
  0
ARC
  5
27E2
330
27D5
100
AcDbEntity
  8
AM_0
100
AcDbCircle
 10
28.78368098539382
 20
2.967710119222829
 30
0.0
 40
2.350096248871782
100
AcDbArc
 50
240.3606710332499
 51
293.4201532542815
  0
ARC
  5
27E3
330
27D5
100
AcDbEntity
  8
AM_0
100
AcDbCircle
 10
16.003548044343
 20
-21.02470471353535
 30
0.0
 40
24.83486361747464
100
AcDbArc
 50
45.44276626131396
 51
73.65241481446703
  0
LINE
  5
27E4
330
27D5
100
AcDbEntity
  8
AM_0
100
AcDbLine
 10
29.99999999999997
 20
5.004750601259729
 30
0.0
 11
27.20466184167253
 21
4.987318159315691
 31
0.0
  0
LINE
  5
27E5
330
27D5
100
AcDbEntity
  8
AM_0
100
AcDbLine
 10
29.99956407948818
 20
-5.013986050889116
 30
0.0
 11
27.19348696107909
 21
-5.012679237406928
 31
0.0
  0
LINE
  5
27E6
330
27D5
100
AcDbEntity
  8
AM_11
100
AcDbLine
 10
0.0000000000009095
 20
-5.0
 30
0.0
 11
40.80000000000015
 21
-5.0
 31
0.0
  0
LINE
  5
27E7
330
27D5
100
AcDbEntity
  8
AM_11
100
AcDbLine
 10
40.80000000000015
 20
5.0
 30
0.0
 11
0.0
 21
5.0
 31
0.0
  0
LINE
  5
27E8
330
27D5
100
AcDbEntity
  8
AM_0
100
AcDbLine
 10
0.0
 20
5.000000543319174
 30
0.0
 11
0.0
 21
-5.000000543319174
 31
0.0
  0
LINE
  5
27E9
330
27D5
100
AcDbEntity
  8
AM_0
100
AcDbLine
 10
0.0
 20
1.003256676660157
 30
0.0
 11
3.728501384393439
 21
-3.440198243183431
 31
0.0
  0
LINE
  5
27EA
330
27D5
100
AcDbEntity
  8
AM_0
100
AcDbLine
 10
3.728501384393439
 20
-3.440198243183431
 30
0.0
 11
21.1559036801118
 21
-4.351409367690848
 31
0.0
  0
LINE
  5
27EB
330
27D5
100
AcDbEntity
  8
AM_0
100
AcDbLine
 10
18.88290532780411
 20
3.957931977980024
 30
0.0
 11
6.980493310874862
 21
3.429999999999836
 31
0.0
  0
ARC
  5
27EC
330
27D5
100
AcDbEntity
  8
AM_0
100
AcDbCircle
 10
-17.19198354722084
 20
1.532457804850537
 30
0.0
 40
17.63092905100332
100
AcDbArc
 50
358.7878416354358
 51
7.097300456475285
  0
LINE
  5
27ED
330
27D5
100
AcDbEntity
  8
AM_0
100
AcDbLine
 10
0.0
 20
1.003256676660157
 30
0.0
 11
0.4349999999999455
 21
1.15948296987608
 31
0.0
  0
ARC
  5
27EE
330
27D5
100
AcDbEntity
  8
AM_0
100
AcDbCircle
 10
0.6085689393180474
 20
3.871782159253143
 30
0.0
 40
0.3446061043415196
100
AcDbArc
 50
167.1322733865255
 51
207.8413839904459
  0
ARC
  5
27EF
330
27D5
100
AcDbEntity
  8
AM_0
100
AcDbCircle
 10
-3.417406323007071
 20
3.552887554106519
 30
0.0
 40
3.711172609050018
100
AcDbArc
 50
6.119787907325062
 51
22.95040296333334
  0
ARC
  5
27F0
330
27D5
100
AcDbEntity
  8
AM_0
100
AcDbCircle
 10
13.19537580085443
 20
-17.73009901625619
 30
0.0
 40
24.83486361747464
100
AcDbArc
 50
35.44276626131846
 51
48.29538221794834
  0
LINE
  5
27F1
330
27D5
100
AcDbEntity
  8
AM_0
100
AcDbLine
 10
33.42821964105993
 20
1.805437397179503
 30
0.0
 11
29.71777533400333
 21
0.8112268415559356
 31
0.0
  0
ENDBLK
  5
27F3
330
27D5
100
AcDbEntity
  8
0
100
AcDbBlockEnd
  0
BLOCK
  5
281A
330
27FD
100
AcDbEntity
  8
0
100
AcDbBlockBegin
  2
A$C41E84228
 70
     0
 10
0.0
 20
0.0
 30
0.0
  3
A$C41E84228
  1

  0
SPLINE
  5
27FE
330
27FD
100
AcDbEntity
  8
AM_0
100
AcDbSpline
210
0.0
220
0.0
230
1.0
 70
     8
 71
     3
 72
     8
 73
     4
 74
     0
 42
0.0000000001
 43
0.0000000001
 40
7.277673710817288
 40
7.277673710817288
 40
7.277673710817288
 40
7.277673710817288
 40
14.32251351011555
 40
14.32251351011555
 40
14.32251351011555
 40
14.32251351011555
 10
-1.623403213043225
 20
0.3049148744253642
 30
0.0
 10
-1.402325732603891
 20
0.221282088507607
 30
0.0
 10
-1.185541848651556
 20
0.1109576480273091
 30
0.0
 10
-0.9687579646992183
 20
0.0006332075470041
 30
0.0
  0
SPLINE
  5
27FF
330
27FD
100
AcDbEntity
  8
AM_0
100
AcDbSpline
210
0.0
220
0.0
230
1.0
 70
     8
 71
     3
 72
     8
 73
     4
 74
     0
 42
0.0000000001
 43
0.0000000001
 40
12.92940876879691
 40
12.92940876879691
 40
12.92940876879691
 40
12.92940876879691
 40
14.49218571129498
 40
14.49218571129498
 40
14.49218571129498
 40
14.49218571129498
 10
-1.500000000000007
 20
0.0811965894924782
 30
0.0
 10
-1.452721930534313
 20
0.0545511248864017
 30
0.0
 10
-1.405499729205402
 20
0.0275921662166923
 30
0.0
 10
-1.358277527876492
 20
0.0006332075469828
 30
0.0
  0
SPLINE
  5
2800
330
27FD
100
AcDbEntity
  8
AM_0
100
AcDbSpline
210
0.0
220
0.0
230
1.0
 70
     8
 71
     3
 72
     8
 73
     4
 74
     2
 42
0.0000000001
 43
0.0000000001
 44
0.0000000001
 12
-1.0
 22
-0.0000000000000156
 32
0.0
 40
0.0
 40
0.0
 40
0.0
 40
0.0
 40
1.447383101578257
 40
1.447383101578257
 40
1.447383101578257
 40
1.447383101578257
 10
0.0
 20
-0.4993667924530172
 30
0.0
 10
-0.4824610338594191
 20
-0.4993667924530248
 30
0.0
 10
-0.9203692808679555
 20
-0.2493667924530103
 30
0.0
 10
-1.358277527876492
 20
0.0006332075470041
 30
0.0
 11
0.0
 21
-0.4993667924530172
 31
0.0
 11
-1.358277527876492
 21
0.0006332075470041
 31
0.0
  0
SPLINE
  5
2801
330
27FD
100
AcDbEntity
  8
AM_0
100
AcDbSpline
210
0.0
220
0.0
230
1.0
 70
     8
 71
     3
 72
     8
 73
     4
 74
     0
 42
0.0000000001
 43
0.0000000001
 40
8.518178729170251
 40
8.518178729170251
 40
8.518178729170251
 40
8.518178729170251
 40
28.64502702023054
 40
28.64502702023054
 40
28.64502702023054
 40
28.64502702023054
 10
-0.0272271724168931
 20
-0.3943525388446645
 30
0.0
 10
-0.3494143786761761
 20
-0.3145596626392759
 30
0.0
 10
-0.6590861716877221
 20
-0.1569632275461501
 30
0.0
 10
-0.9687579646992183
 20
0.0006332075470041
 30
0.0
  0
SPLINE
  5
2802
330
27FD
100
AcDbEntity
  8
AM_0
100
AcDbSpline
210
0.0
220
0.0
230
1.0
 70
     8
 71
     3
 72
     8
 73
     4
 74
     0
 42
0.0000000001
 43
0.0000000001
 40
0.0
 40
0.0
 40
0.0
 40
0.0
 40
13.74270749910732
 40
13.74270749910732
 40
13.74270749910732
 40
13.74270749910732
 10
0.0
 20
0.5006332075470113
 30
0.0
 10
-0.2287550339242337
 20
0.5006332075470539
 30
0.0
 10
-0.4474941279832905
 20
0.4444305512538023
 30
0.0
 10
-0.6609662598206861
 20
0.358673277876079
 30
0.0
  0
SPLINE
  5
2803
330
27FD
100
AcDbEntity
  8
AM_0
100
AcDbSpline
210
0.0
220
0.0
230
1.0
 70
     8
 71
     3
 72
     8
 73
     4
 74
     2
 42
0.0000000001
 43
0.0000000001
 44
0.0000000001
 12
-0.753620698806369
 22
-0.6573095483336601
 32
0.0
 40
0.0
 40
0.0
 40
0.0
 40
0.0
 40
0.3805013099472519
 40
0.3805013099472519
 40
0.3805013099472519
 40
0.3805013099472519
 10
0.0
 20
0.4217885608811614
 30
0.0
 10
-0.0955845543663956
 20
0.3384195128205633
 30
0.0
 10
-0.2339812346493251
 20
0.3410018139527928
 30
0.0
 10
-0.3723779149322546
 20
0.3435841150850223
 30
0.0
 11
0.0
 21
0.4217885608811614
 31
0.0
 11
-0.3723779149322546
 21
0.3435841150850223
 31
0.0
  0
SPLINE
  5
2804
330
27FD
100
AcDbEntity
  8
AM_0
100
AcDbSpline
210
0.0
220
0.0
230
1.0
 70
     8
 71
     3
 72
     8
 73
     4
 74
     0
 42
0.0000000001
 43
0.0000000001
 40
0.0
 40
0.0
 40
0.0
 40
0.0
 40
9.827178345168029
 40
9.827178345168029
 40
9.827178345168029
 40
9.827178345168029
 10
-0.0434449062225149
 20
-0.1158014457307743
 30
0.0
 10
-0.1727068409857253
 20
-0.0155547610183717
 30
0.0
 10
-0.45938427777822
 20
0.3048439899092514
 30
0.0
 10
-0.4162918432119689
 20
0.3458802036982362
 30
0.0
  0
SPLINE
  5
2805
330
27FD
100
AcDbEntity
  8
AM_0
100
AcDbSpline
210
0.0
220
0.0
230
1.0
 70
     8
 71
     3
 72
     8
 73
     4
 74
     0
 42
0.0000000001
 43
0.0000000001
 40
0.0
 40
0.0
 40
0.0
 40
0.0
 40
4.607356481513744
 40
4.607356481513744
 40
4.607356481513744
 40
4.607356481513744
 10
-2.335659856217706
 20
-0.4999800000000003
 30
0.0
 10
-2.182275817694268
 20
-0.4859964672438782
 30
0.0
 10
-2.01871759969145
 20
-0.4592887561603921
 30
0.0
 10
-1.885898968218807
 20
-0.3952919163642683
 30
0.0
  0
ARC
  5
2806
330
27FD
100
AcDbEntity
  8
AM_0
100
AcDbCircle
 10
1.717020949397983
 20
-0.1530516910843715
 30
0.0
 40
1.76085990629138
100
AcDbArc
 50
178.7878416354358
 51
187.0973004564752
  0
ARC
  5
2807
330
27FD
100
AcDbEntity
  8
AM_0
100
AcDbCircle
 10
-1.778893189586022
 20
0.5425661272954248
 30
0.0
 40
0.9323148629750958
100
AcDbArc
 50
228.2256592536914
 51
273.4574498611766
  0
ARC
  5
2808
330
27FD
100
AcDbEntity
  8
AM_0
100
AcDbCircle
 10
-1.667569367859722
 20
0.8620402007692092
 30
0.0
 40
1.251484761991636
100
AcDbArc
 50
234.1793932422927
 51
267.3845722478232
  0
LINE
  5
2809
330
27FD
100
AcDbEntity
  8
AM_11
100
AcDbLine
 10
-1.5
 20
-0.4993667924529959
 30
0.0
 11
-1.5
 21
0.4993667924529959
 31
0.0
  0
LINE
  5
280A
330
27FD
100
AcDbEntity
  8
AM_0
100
AcDbLine
 10
0.0
 20
-0.4993667924529959
 30
0.0
 11
0.0
 21
0.4993667924529959
 31
0.0
  0
LINE
  5
280B
330
27FD
100
AcDbEntity
  8
AM_0
100
AcDbLine
 10
-2.500000000000059
 20
0.49998
 30
0.0
 11
-2.500000000000059
 21
-0.4999800000000004
 31
0.0
  0
LINE
  5
280C
330
27FD
100
AcDbEntity
  8
AM_11
100
AcDbLine
 10
-1.5
 20
-0.4993667924529959
 30
0.0
 11
-0.0000000000006253
 21
-0.4993667924529959
 31
0.0
  0
LINE
  5
280D
330
27FD
100
AcDbEntity
  8
AM_0
100
AcDbLine
 10
-1.885898968218807
 20
-0.3952919163642683
 30
0.0
 11
-0.6971652351215845
 21
-0.342565582398251
 31
0.0
  0
LINE
  5
280E
330
27FD
100
AcDbEntity
  8
AM_0
100
AcDbLine
 10
-2.335659856217706
 20
-0.4999800000000003
 30
0.0
 11
-2.500000000000059
 21
-0.4999800000000004
 31
0.0
  0
ARC
  5
280F
330
27FD
100
AcDbEntity
  8
AM_0
100
AcDbCircle
 10
-0.0607798172381884
 20
-0.386687845569611
 30
0.0
 40
0.0344169652570699
100
AcDbArc
 50
347.1322733865255
 51
27.84138399044579
  0
ARC
  5
2810
330
27FD
100
AcDbEntity
  8
AM_0
100
AcDbCircle
 10
0.341307809717911
 20
-0.3548387738099237
 30
0.0
 40
0.3706472321281943
100
AcDbArc
 50
186.119787907325
 51
202.9504029633334
  0
LINE
  5
2811
330
27FD
100
AcDbEntity
  8
AM_11
100
AcDbLine
 10
0.0
 20
0.5006332075470113
 30
0.0
 11
-1.5
 21
0.4993667924529959
 31
0.0
  0
LINE
  5
2812
330
27FD
100
AcDbEntity
  8
AM_0
100
AcDbLine
 10
-0.3723779149322084
 20
0.3435841150850223
 30
0.0
 11
-2.4
 21
0.4999800000000001
 31
0.0
  0
ARC
  5
2813
330
27FD
100
AcDbEntity
  8
AM_0
100
AcDbCircle
 10
-20.38741253726191
 20
-46.17293198258302
 30
0.0
 40
50.12263255639004
100
AcDbArc
 50
68.01511352666364
 51
68.53270079618944
  0
LINE
  5
2814
330
27FD
100
AcDbEntity
  8
AM_0
100
AcDbLine
 10
-2.399999999999999
 20
-0.1527304524327135
 30
0.0
 11
-1.499366986065872
 21
0.0798471039651361
 31
0.0
  0
LINE
  5
2815
330
27FD
100
AcDbEntity
  8
AM_0
100
AcDbLine
 10
-2.500000000000059
 20
0.49998
 30
0.0
 11
-2.4
 21
0.4999800000000001
 31
0.0
  0
LINE
  5
2816
330
27FD
100
AcDbEntity
  8
AM_0
100
AcDbLine
 10
-2.399999999999999
 20
0.4999800000000001
 30
0.0
 11
-2.39999999999999
 21
0.4999799999999995
 31
0.0
  0
LINE
  5
2817
330
27FD
100
AcDbEntity
  8
AM_0
100
AcDbLine
 10
-1.5
 20
0.0811965894924854
 30
0.0
 11
-1.5
 21
0.2554552140333186
 31
0.0
  0
LINE
  5
2818
330
27FD
100
AcDbEntity
  8
AM_0
100
AcDbLine
 10
0.0
 20
-0.1001986028382049
 30
0.0
 11
-0.0434449062225149
 21
-0.1158014457307459
 31
0.0
  0
LINE
  5
2819
330
27FD
100
AcDbEntity
  8
AM_0
100
AcDbLine
 10
0.0
 20
-0.1001986028382049
 30
0.0
 11
-0.3723779149322084
 21
0.3435841150850223
 31
0.0
  0
ENDBLK
  5
281B
330
27FD
100
AcDbEntity
  8
0
100
AcDbBlockEnd
  0
BLOCK
  5
2845
330
2828
100
AcDbEntity
  8
0
100
AcDbBlockBegin
  2
A$C2BBB2EFA
 70
     0
 10
0.0
 20
0.0
 30
0.0
  3
A$C2BBB2EFA
  1

  0
SPLINE
  5
2829
330
2828
100
AcDbEntity
  8
AM_0
100
AcDbSpline
210
0.0
220
0.0
230
1.0
 70
     8
 71
     3
 72
     8
 73
     4
 74
     0
 42
0.0000000001
 43
0.0000000001
 40
0.0
 40
0.0
 40
0.0
 40
0.0
 40
4.607356481513744
 40
4.607356481513744
 40
4.607356481513744
 40
4.607356481513744
 10
23.38621775935689
 20
4.591487532509745
 30
0.0
 10
21.85043226551897
 20
4.591487532509745
 30
0.0
 10
20.35348342551378
 20
4.354999451121784
 30
0.0
 10
18.88290532780411
 20
3.957931977980024
 30
0.0
  0
SPLINE
  5
282A
330
2828
100
AcDbEntity
  8
AM_0
100
AcDbSpline
210
0.0
220
0.0
230
1.0
 70
     8
 71
     3
 72
     8
 73
     4
 74
     0
 42
0.0000000001
 43
0.0000000001
 40
1.53702008085691
 40
1.53702008085691
 40
1.53702008085691
 40
1.53702008085691
 40
1.900993527181806
 40
1.900993527181806
 40
1.900993527181806
 40
1.900993527181806
 10
23.91186301911375
 20
4.631360334945838
 30
0.0
 10
23.79264309009022
 20
4.619109131306231
 30
0.0
 10
23.67365832446421
 20
4.605488974472109
 30
0.0
 10
23.5549020819767
 20
4.590538519281153
 30
0.0
  0
SPLINE
  5
282B
330
2828
100
AcDbEntity
  8
AM_0
100
AcDbSpline
210
0.0
220
0.0
230
1.0
 70
     8
 71
     3
 72
     8
 73
     4
 74
     0
 42
0.0000000001
 43
0.0000000001
 40
0.0
 40
0.0
 40
0.0
 40
0.0
 40
3.347564375695247
 40
3.347564375695247
 40
3.347564375695247
 40
3.347564375695247
 10
27.19366183323927
 20
5.00083121445914
 30
0.0
 10
26.0778070413412
 20
5.00083121445914
 30
0.0
 10
24.98570312576021
 20
4.867398807698009
 30
0.0
 10
23.91186301911329
 20
4.631360334949249
 30
0.0
  0
SPLINE
  5
282C
330
2828
100
AcDbEntity
  8
AM_0
100
AcDbSpline
210
0.0
220
0.0
230
1.0
 70
     8
 71
     3
 72
     8
 73
     4
 74
     0
 42
0.0000000001
 43
0.0000000001
 40
0.0
 40
0.0
 40
0.0
 40
0.0
 40
10.49953388088627
 40
10.49953388088627
 40
10.49953388088627
 40
10.49953388088627
 10
23.38621775935689
 20
4.591487532509745
 30
0.0
 10
26.88606238631928
 20
4.591487532509745
 30
0.0
 10
30.18421987174585
 20
3.36335378680269
 30
0.0
 10
33.42821964103674
 20
1.805437397190416
 30
0.0
  0
SPLINE
  5
282D
330
2828
100
AcDbEntity
  8
AM_0
100
AcDbSpline
210
0.0
220
0.0
230
1.0
 70
     8
 71
     3
 72
     8
 73
     4
 74
     2
 42
0.0000000001
 43
0.0000000001
 44
0.0000000001
 12
1.0
 22
0.0000000000000157
 32
0.0
 40
0.0
 40
0.0
 40
0.0
 40
0.0
 40
14.49218571129455
 40
14.49218571129455
 40
14.49218571129455
 40
14.49218571129455
 10
0.0
 20
5.000000543319401
 30
0.0
 10
4.830728570431517
 20
5.000000543319477
 30
0.0
 10
9.215364285215713
 20
2.496830218978099
 30
0.0
 10
13.5999999999999
 20
-0.0063401053632788
 30
0.0
 11
0.0
 21
5.000000543319401
 31
0.0
 11
13.5999999999999
 21
-0.0063401053632788
 31
0.0
  0
SPLINE
  5
282E
330
2828
100
AcDbEntity
  8
AM_0
100
AcDbSpline
210
0.0
220
0.0
230
1.0
 70
     8
 71
     3
 72
     8
 73
     4
 74
     0
 42
0.0000000001
 43
0.0000000001
 40
8.518178729170251
 40
8.518178729170251
 40
8.518178729170251
 40
8.518178729170251
 40
28.64502702023054
 40
28.64502702023054
 40
28.64502702023054
 40
28.64502702023054
 10
0.2726170000387356
 20
3.948526290258314
 30
0.0
 10
3.498574814401308
 20
3.149585651013694
 30
0.0
 10
6.599219784609431
 20
1.571622772825321
 30
0.0
 10
9.699864754817099
 20
-0.0063401053632788
 30
0.0
  0
SPLINE
  5
282F
330
2828
100
AcDbEntity
  8
AM_0
100
AcDbSpline
210
0.0
220
0.0
230
1.0
 70
     8
 71
     3
 72
     8
 73
     4
 74
     0
 42
0.0000000001
 43
0.0000000001
 40
0.0
 40
0.0
 40
0.0
 40
0.0
 40
13.74270749910732
 40
13.74270749910732
 40
13.74270749910732
 40
13.74270749910732
 10
0.0
 20
-5.012680754045732
 30
0.0
 10
2.29045124985123
 20
-5.012680754046186
 30
0.0
 10
4.480616085938891
 20
-4.449941468516499
 30
0.0
 10
6.618044507895774
 20
-3.591281221254348
 30
0.0
  0
SPLINE
  5
2830
330
2828
100
AcDbEntity
  8
AM_0
100
AcDbSpline
210
0.0
220
0.0
230
1.0
 70
     8
 71
     3
 72
     8
 73
     4
 74
     2
 42
0.0000000001
 43
0.0000000001
 44
0.0000000001
 12
-1.0
 22
-0.0000000000000156
 32
0.0
 40
0.0
 40
0.0
 40
0.0
 40
0.0
 40
14.49218571129498
 40
14.49218571129498
 40
14.49218571129498
 40
14.49218571129498
 10
27.20000000000027
 20
-5.012680754045732
 30
0.0
 10
22.36927142956861
 20
-5.012680754045807
 30
0.0
 10
17.98463571478426
 20
-2.509510429704429
 30
0.0
 10
13.5999999999999
 20
-0.0063401053630514
 30
0.0
 11
27.20000000000027
 21
-5.012680754045732
 31
0.0
 11
13.5999999999999
 21
-0.0063401053630514
 31
0.0
  0
SPLINE
  5
2831
330
2828
100
AcDbEntity
  8
AM_0
100
AcDbSpline
210
0.0
220
0.0
230
1.0
 70
     8
 71
     3
 72
     8
 73
     4
 74
     2
 42
0.0000000001
 43
0.0000000001
 44
0.0000000001
 12
-1.0
 22
0.0000000000000001
 32
0.0
 40
0.0
 40
0.0
 40
0.0
 40
0.0
 40
14.32251351011555
 40
14.32251351011555
 40
14.32251351011555
 40
14.32251351011555
 10
23.29986475481746
 20
-4.497931499004607
 30
0.0
 10
18.52569358477894
 20
-4.497931499004606
 30
0.0
 10
14.11277916979802
 20
-2.252135802183943
 30
0.0
 10
9.699864754817099
 20
-0.0063401053632788
 30
0.0
 11
23.29986475481746
 21
-4.497931499004607
 31
0.0
 11
9.699864754817099
 21
-0.0063401053632788
 31
0.0
  0
SPLINE
  5
2832
330
2828
100
AcDbEntity
  8
AM_0
100
AcDbSpline
210
0.0
220
0.0
230
1.0
 70
     8
 71
     3
 72
     8
 73
     4
 74
     2
 42
0.0000000001
 43
0.0000000001
 44
0.0000000001
 12
0.7536206988063688
 22
0.6573095483336602
 32
0.0
 40
0.0
 40
0.0
 40
0.0
 40
0.0
 40
3.809838349731673
 40
3.809838349731673
 40
3.809838349731673
 40
3.809838349731673
 10
0.0
 20
-4.223234434977257
 30
0.0
 10
0.957057679821362
 20
-3.388486726681796
 30
0.0
 10
2.342779532107628
 20
-3.414342484932613
 30
0.0
 10
3.728501384393894
 20
-3.440198243183431
 30
0.0
 11
0.0
 21
-4.223234434977257
 31
0.0
 11
3.728501384393894
 21
-3.440198243183431
 31
0.0
  0
SPLINE
  5
2833
330
2828
100
AcDbEntity
  8
AM_0
100
AcDbSpline
210
0.0
220
0.0
230
1.0
 70
     8
 71
     3
 72
     8
 73
     4
 74
     0
 42
0.0000000001
 43
0.0000000001
 40
0.0
 40
0.0
 40
0.0
 40
0.0
 40
9.827178345168029
 40
9.827178345168029
 40
9.827178345168029
 40
9.827178345168029
 10
0.4349999999999455
 20
1.159482969876307
 30
0.0
 10
1.729258556664717
 20
0.1557448647336059
 30
0.0
 10
4.599668366413425
 20
-3.052305716378441
 30
0.0
 10
4.168197552774017
 20
-3.463188246698109
 30
0.0
  0
LINE
  5
2834
330
2828
100
AcDbEntity
  8
AM_0
100
AcDbLine
 10
33.42821964103674
 20
-3.328624055775662
 30
0.0
 11
27.19366183322108
 21
-4.999168785544952
 31
0.0
  0
ARC
  5
2835
330
2828
100
AcDbEntity
  8
AM_0
100
AcDbCircle
 10
28.78368098539382
 20
2.967710119222829
 30
0.0
 40
2.350096248871782
100
AcDbArc
 50
240.3606710332499
 51
293.4201532542815
  0
ARC
  5
2836
330
2828
100
AcDbEntity
  8
AM_0
100
AcDbCircle
 10
16.003548044343
 20
-21.02470471353535
 30
0.0
 40
24.83486361747464
100
AcDbArc
 50
45.44276626131396
 51
73.65241481446703
  0
LINE
  5
2837
330
2828
100
AcDbEntity
  8
AM_0
100
AcDbLine
 10
29.99999999999997
 20
5.004750601259729
 30
0.0
 11
27.20466184167253
 21
4.987318159315691
 31
0.0
  0
LINE
  5
2838
330
2828
100
AcDbEntity
  8
AM_0
100
AcDbLine
 10
29.99956407948818
 20
-5.013986050889116
 30
0.0
 11
27.19348696107909
 21
-5.012679237406928
 31
0.0
  0
LINE
  5
2839
330
2828
100
AcDbEntity
  8
AM_11
100
AcDbLine
 10
0.0000000000009095
 20
-5.0
 30
0.0
 11
40.80000000000015
 21
-5.0
 31
0.0
  0
LINE
  5
283A
330
2828
100
AcDbEntity
  8
AM_11
100
AcDbLine
 10
40.80000000000015
 20
5.0
 30
0.0
 11
0.0
 21
5.0
 31
0.0
  0
LINE
  5
283B
330
2828
100
AcDbEntity
  8
AM_0
100
AcDbLine
 10
0.0
 20
5.000000543319174
 30
0.0
 11
0.0
 21
-5.000000543319174
 31
0.0
  0
LINE
  5
283C
330
2828
100
AcDbEntity
  8
AM_0
100
AcDbLine
 10
0.0
 20
1.003256676660157
 30
0.0
 11
3.728501384393439
 21
-3.440198243183431
 31
0.0
  0
LINE
  5
283D
330
2828
100
AcDbEntity
  8
AM_0
100
AcDbLine
 10
3.728501384393439
 20
-3.440198243183431
 30
0.0
 11
21.1559036801118
 21
-4.351409367690848
 31
0.0
  0
LINE
  5
283E
330
2828
100
AcDbEntity
  8
AM_0
100
AcDbLine
 10
18.88290532780411
 20
3.957931977980024
 30
0.0
 11
6.980493310874862
 21
3.429999999999836
 31
0.0
  0
ARC
  5
283F
330
2828
100
AcDbEntity
  8
AM_0
100
AcDbCircle
 10
-17.19198354722084
 20
1.532457804850537
 30
0.0
 40
17.63092905100332
100
AcDbArc
 50
358.7878416354358
 51
7.097300456475285
  0
LINE
  5
2840
330
2828
100
AcDbEntity
  8
AM_0
100
AcDbLine
 10
0.0
 20
1.003256676660157
 30
0.0
 11
0.4349999999999455
 21
1.15948296987608
 31
0.0
  0
ARC
  5
2841
330
2828
100
AcDbEntity
  8
AM_0
100
AcDbCircle
 10
0.6085689393180474
 20
3.871782159253143
 30
0.0
 40
0.3446061043415196
100
AcDbArc
 50
167.1322733865255
 51
207.8413839904459
  0
ARC
  5
2842
330
2828
100
AcDbEntity
  8
AM_0
100
AcDbCircle
 10
-3.417406323007071
 20
3.552887554106519
 30
0.0
 40
3.711172609050018
100
AcDbArc
 50
6.119787907325062
 51
22.95040296333334
  0
ARC
  5
2843
330
2828
100
AcDbEntity
  8
AM_0
100
AcDbCircle
 10
13.19537580085443
 20
-17.73009901625619
 30
0.0
 40
24.83486361747464
100
AcDbArc
 50
35.44276626131846
 51
48.29538221794834
  0
LINE
  5
2844
330
2828
100
AcDbEntity
  8
AM_0
100
AcDbLine
 10
33.42821964105993
 20
1.805437397179503
 30
0.0
 11
29.71777533400333
 21
0.8112268415559356
 31
0.0
  0
ENDBLK
  5
2846
330
2828
100
AcDbEntity
  8
0
100
AcDbBlockEnd
  0
ENDSEC
  0
SECTION
  2
ENTITIES
  0
TEXT
  5
F06
330
1F
100
AcDbEntity
  8
AM_6
100
AcDbText
 10
-31.26190476190477
 20
-25.75000100000005
 30
0.0
 40
2.5
  1
S-SIT2020ZX
 72
     4
 11
-19.00000000000001
 21
-24.50000100000005
 31
0.0
100
AcDbText
  0
LINE
  5
2661
330
1F
100
AcDbEntity
  8
AM_0
100
AcDbLine
 10
-5.864909731681854
 20
-1.500338943438942
 30
0.0
 11
-37.79999999999997
 21
-1.500338943438937
 31
0.0
  0
LINE
  5
2662
330
1F
100
AcDbEntity
  8
AM_0
100
AcDbLine
 10
-37.79999999999997
 20
1.499661056561062
 30
0.0
 11
-5.864909731681855
 21
1.499661056561062
 31
0.0
  0
LINE
  5
2663
330
1F
100
AcDbEntity
  8
AM_7
  6
AM_ISO08W050X2
100
AcDbLine
 10
0.5877479968147585
 20
0.0
 30
0.0
 11
-39.55723729529715
 21
0.0000000000000049
 31
0.0
1001
GENIUS_GENODEF_13
1002
{
1000
HIER
1070
     0
1002
}
1002
{
1000
MANEDIT
1070
     0
1002
}
1002
{
1000
NOSEL
1070
     0
1002
}
1002
{
1000
BEHIND
1070
     0
1002
}
1002
{
1000
REACTOR
1002
}
1001
GENIUS_GENOBJ-N-CEN_13
1002
{
1000
OWNER
1000
GEN
1002
}
  0
DIMENSION
  5
2664
330
1F
100
AcDbEntity
  8
AM_5
100
AcDbDimension
  2
*D5
 10
-46.55723829529715
 20
1.499661056561064
 30
0.0
 11
-48.10723829529714
 21
6.006803913703913
 31
0.0
 70
    32
  1
%%c<>
  3
AM_JIS
100
AcDbAlignedDimension
 13
-37.79999999999997
 23
-1.500338943438937
 33
0.0
 14
-37.79999999999997
 24
1.499661056561062
 34
0.0
 50
270.0
100
AcDbRotatedDimension
1001
GENIUS_GENDTOL_13
1000

1000
h7
1000

1040
0.0
  0
LINE
  5
2665
330
1F
100
AcDbEntity
  8
AM_0
100
AcDbLine
 10
-37.79999999999997
 20
1.499661056561062
 30
0.0
 11
-37.79999999999997
 21
-1.500338943438937
 31
0.0
  0
LINE
  5
2666
330
1F
100
AcDbEntity
  8
AM_0
100
AcDbLine
 10
-37.99999999999997
 20
-1.300338943438937
 30
0.0
 11
-37.99999999999998
 21
1.299661056561062
 31
0.0
  0
LINE
  5
2667
330
1F
100
AcDbEntity
  8
AM_0
100
AcDbLine
 10
-37.79999999999997
 20
-1.500338943438937
 30
0.0
 11
-37.99999999999997
 21
-1.300338943438937
 31
0.0
1001
GENIUS_GENFIL_13
1070
     0
1040
0.2
1040
0.2
1040
20.0
1040
0.0
1002
{
1002
}
1001
GENIUS_GENODEF_13
1002
{
1000
HIER
1070
     0
1002
}
1002
{
1000
MANEDIT
1070
     0
1002
}
1002
{
1000
NOSEL
1070
     0
1002
}
1002
{
1000
BEHIND
1070
     0
1002
}
1002
{
1000
REACTOR
1002
}
1001
GENIUS_GENOBJ-N-CHA_13
1002
{
1000
OWNER
1000
GEN
1002
}
  0
LINE
  5
2668
330
1F
100
AcDbEntity
  8
AM_0
100
AcDbLine
 10
-37.79999999999997
 20
1.499661056561062
 30
0.0
 11
-37.99999999999998
 21
1.299661056561062
 31
0.0
1001
GENIUS_GENFIL_13
1070
     0
1040
0.2
1040
0.2
1040
20.0
1040
0.0
1002
{
1002
}
1001
GENIUS_GENODEF_13
1002
{
1000
HIER
1070
     0
1002
}
1002
{
1000
MANEDIT
1070
     0
1002
}
1002
{
1000
NOSEL
1070
     0
1002
}
1002
{
1000
BEHIND
1070
     0
1002
}
1002
{
1000
REACTOR
1002
}
1001
GENIUS_GENOBJ-N-CHA_13
1002
{
1000
OWNER
1000
GEN
1002
}
  0
DIMENSION
  5
2671
330
1F
100
AcDbEntity
  8
AM_5
100
AcDbDimension
  2
*D6
 10
-3.0
 20
-8.500339943438936
 30
0.0
 11
-1.500000000000022
 21
-6.950339943438936
 31
0.0
 70
    32
  1
<>
  3
AM_JIS
100
AcDbAlignedDimension
 13
-0.000000000000044
 23
-0.7499700814946503
 33
0.0
 14
-3.0
 24
-0.9987335849059917
 34
0.0
 50
0.0000000000001886
100
AcDbRotatedDimension
1001
GENIUS_GENDTOL_13
1000

1000
h7
1000

1040
0.0
  0
DIMENSION
  5
2672
330
1F
100
AcDbEntity
  8
AM_5
100
AcDbDimension
  2
*D7
 10
7.587748996814755
 20
-0.9987335849060364
 30
0.0
 11
7.587748996814756
 21
7.67983784366545
 31
0.0
 70
   160
  1
%%c<>
  3
AM_JIS
100
AcDbAlignedDimension
 13
0.0
 23
1.001266415094022
 33
0.0
 14
0.0
 24
-0.9987335849060343
 34
0.0
 50
90.00000000000003
100
AcDbRotatedDimension
1001
GENIUS_GENDTOL_13
1000

1000
h7
1000

1040
0.0
  0
LINE
  5
2673
330
1F
100
AcDbEntity
  8
AM_0
100
AcDbLine
 10
-3.108857479556854
 20
-0.7611790813061925
 30
0.0
 11
-5.864909731681855
 21
-1.499661056561065
 31
0.0
  0
LINE
  5
2674
330
1F
100
AcDbEntity
  8
AM_0
100
AcDbLine
 10
-5.864909731681855
 20
1.499661056561062
 30
0.0
 11
-4.000000000000118
 21
0.9999599999999997
 31
0.0
  0
LINE
  5
2675
330
1F
100
AcDbEntity
  8
AM_0
100
AcDbLine
 10
-5.864909731681854
 20
1.499661056561062
 30
0.0
 11
-5.864909731681854
 21
-1.500338943438942
 31
0.0
  0
DIMENSION
  5
268A
330
1F
100
AcDbEntity
  8
AM_5
100
AcDbDimension
  2
*D8
 10
-37.99999999999997
 20
-14.500339943439
 30
0.0
 11
-18.99999999999998
 21
-12.950339943439
 31
0.0
 70
    32
  1
<>
  3
AM_JIS
100
AcDbAlignedDimension
 13
-0.0000000000000001
 23
-0.6000000651983282
 33
0.0
 14
-37.99999999999997
 24
-1.300338943438937
 34
0.0
 50
0.0000000000001132
100
AcDbRotatedDimension
1001
GENIUS_GENDTOL_13
1000

1000
h7
1000

1040
0.0
  0
SPLINE
  5
28D8
330
1F
100
AcDbEntity
  8
AM_0
100
AcDbSpline
210
0.0
220
0.0
230
1.0
 70
     8
 71
     3
 72
     8
 73
     4
 74
     0
 42
0.0000000001
 43
0.0000000001
 40
7.277673710817288
 40
7.277673710817288
 40
7.277673710817288
 40
7.277673710817288
 40
14.32251351011555
 40
14.32251351011555
 40
14.32251351011555
 40
14.32251351011555
 10
-3.24680642608645
 20
0.6098297488507285
 30
0.0
 10
-2.804651465207783
 20
0.4425641770152141
 30
0.0
 10
-2.371083697303113
 20
0.2219152960546183
 30
0.0
 10
-1.937515929398436
 20
0.0012664150940083
 30
0.0
  0
SPLINE
  5
28D9
330
1F
100
AcDbEntity
  8
AM_0
100
AcDbSpline
210
0.0
220
0.0
230
1.0
 70
     8
 71
     3
 72
     8
 73
     4
 74
     0
 42
0.0000000001
 43
0.0000000001
 40
12.92940876879691
 40
12.92940876879691
 40
12.92940876879691
 40
12.92940876879691
 40
14.49218571129498
 40
14.49218571129498
 40
14.49218571129498
 40
14.49218571129498
 10
-3.000000000000014
 20
0.1623931789849564
 30
0.0
 10
-2.905443861068626
 20
0.1091022497728034
 30
0.0
 10
-2.810999458410805
 20
0.0551843324333845
 30
0.0
 10
-2.716555055752984
 20
0.0012664150939657
 30
0.0
  0
SPLINE
  5
28DA
330
1F
100
AcDbEntity
  8
AM_0
100
AcDbSpline
210
0.0
220
0.0
230
1.0
 70
     8
 71
     3
 72
     8
 73
     4
 74
     2
 42
0.0000000001
 43
0.0000000001
 44
0.0000000001
 12
-1.0
 22
-0.0000000000000156
 32
0.0
 40
0.0
 40
0.0
 40
0.0
 40
0.0
 40
2.894766203156514
 40
2.894766203156514
 40
2.894766203156514
 40
2.894766203156514
 10
0.0
 20
-0.9987335849060343
 30
0.0
 10
-0.9649220677188381
 20
-0.9987335849060494
 30
0.0
 10
-1.840738561735911
 20
-0.4987335849060206
 30
0.0
 10
-2.716555055752984
 20
0.0012664150940083
 30
0.0
 11
0.0
 21
-0.9987335849060343
 31
0.0
 11
-2.716555055752984
 21
0.0012664150940083
 31
0.0
  0
SPLINE
  5
28DB
330
1F
100
AcDbEntity
  8
AM_0
100
AcDbSpline
210
0.0
220
0.0
230
1.0
 70
     8
 71
     3
 72
     8
 73
     4
 74
     0
 42
0.0000000001
 43
0.0000000001
 40
8.518178729170251
 40
8.518178729170251
 40
8.518178729170251
 40
8.518178729170251
 40
28.64502702023054
 40
28.64502702023054
 40
28.64502702023054
 40
28.64502702023054
 10
-0.0544543448337862
 20
-0.788705077689329
 30
0.0
 10
-0.6988287573523522
 20
-0.6291193252785519
 30
0.0
 10
-1.318172343375444
 20
-0.3139264550923002
 30
0.0
 10
-1.937515929398436
 20
0.0012664150940083
 30
0.0
  0
SPLINE
  5
28DC
330
1F
100
AcDbEntity
  8
AM_0
100
AcDbSpline
210
0.0
220
0.0
230
1.0
 70
     8
 71
     3
 72
     8
 73
     4
 74
     0
 42
0.0000000001
 43
0.0000000001
 40
0.0
 40
0.0
 40
0.0
 40
0.0
 40
13.19169203704478
 40
13.19169203704478
 40
13.19169203704478
 40
13.19169203704478
 10
0.0
 20
1.001266415094022
 30
0.0
 10
-0.4391661482496426
 20
1.001266415094104
 30
0.0
 10
-0.8598745742649564
 20
0.8976942059298934
 30
0.0
 10
-1.270525963500634
 20
0.737688732482148
 30
0.0
  0
SPLINE
  5
28DD
330
1F
100
AcDbEntity
  8
AM_0
100
AcDbSpline
210
0.0
220
0.0
230
1.0
 70
     8
 71
     3
 72
     8
 73
     4
 74
     2
 42
0.0000000001
 43
0.0000000001
 44
0.0000000001
 12
-0.753620698806369
 22
-0.6573095483336601
 32
0.0
 40
0.0
 40
0.0
 40
0.0
 40
0.0
 40
0.7610026198945038
 40
0.7610026198945038
 40
0.7610026198945038
 40
0.7610026198945038
 10
0.0
 20
0.8435771217623226
 30
0.0
 10
-0.1911691087327912
 20
0.6768390256411267
 30
0.0
 10
-0.4679624692986503
 20
0.6820036279055856
 30
0.0
 10
-0.7447558298645092
 20
0.6871682301700446
 30
0.0
 11
0.0
 21
0.8435771217623226
 31
0.0
 11
-0.7447558298645092
 21
0.6871682301700446
 31
0.0
  0
SPLINE
  5
28DE
330
1F
100
AcDbEntity
  8
AM_0
100
AcDbSpline
210
0.0
220
0.0
230
1.0
 70
     8
 71
     3
 72
     8
 73
     4
 74
     0
 42
0.0000000001
 43
0.0000000001
 40
0.0
 40
0.0
 40
0.0
 40
0.0
 40
9.827178345168029
 40
9.827178345168029
 40
9.827178345168029
 40
9.827178345168029
 10
-0.0868898124450297
 20
-0.2316028914615486
 30
0.0
 10
-0.3454136819714506
 20
-0.0311095220367434
 30
0.0
 10
-0.9187685555564399
 20
0.6096879798185029
 30
0.0
 10
-0.8325836864239377
 20
0.6917604073964725
 30
0.0
  0
ARC
  5
28E0
330
1F
100
AcDbEntity
  8
AM_0
100
AcDbCircle
 10
3.434041898795967
 20
-0.3061033821687431
 30
0.0
 40
3.52171981258276
100
AcDbArc
 50
178.7878416354358
 51
187.0973004564752
  0
ARC
  5
28E1
330
1F
100
AcDbEntity
  8
AM_0
100
AcDbCircle
 10
-3.557786379172044
 20
1.085132254590849
 30
0.0
 40
1.864629725950191
100
AcDbArc
 50
228.2256592536914
 51
273.4574498611766
  0
ARC
  5
28E2
330
1F
100
AcDbEntity
  8
AM_0
100
AcDbCircle
 10
-3.324314641271726
 20
1.744856193200694
 30
0.0
 40
2.526152703339066
100
AcDbArc
 50
234.2561065599268
 51
273.6107837015852
  0
LINE
  5
28E3
330
1F
100
AcDbEntity
  8
AM_11
100
AcDbLine
 10
-3.0
 20
-0.9987335849059917
 30
0.0
 11
-2.999999999999999
 21
1.001266415094008
 31
0.0
  0
LINE
  5
28E4
330
1F
100
AcDbEntity
  8
AM_0
100
AcDbLine
 10
0.0
 20
-0.9987335849059917
 30
0.0
 11
0.0
 21
0.9987335849059917
 31
0.0
  0
LINE
  5
28E5
330
1F
100
AcDbEntity
  8
AM_0
100
AcDbLine
 10
-4.00000000000012
 20
0.9103713130701578
 30
0.0
 11
-4.000000000000119
 21
-0.0988706042217728
 31
0.0
  0
LINE
  5
28E6
330
1F
100
AcDbEntity
  8
AM_11
100
AcDbLine
 10
-3.0
 20
-0.9987335849059917
 30
0.0
 11
-0.0000000000012506
 21
-0.9987335849059917
 31
0.0
  0
LINE
  5
28E7
330
1F
100
AcDbEntity
  8
AM_0
100
AcDbLine
 10
-3.108857479556853
 20
-0.7611790813061924
 30
0.0
 11
-1.394330470243168
 21
-0.685131164796502
 31
0.0
  0
ARC
  5
28E9
330
1F
100
AcDbEntity
  8
AM_0
100
AcDbCircle
 10
-0.1215596344763767
 20
-0.773375691139222
 30
0.0
 40
0.0688339305141398
100
AcDbArc
 50
347.1322733865255
 51
27.84138399044579
  0
ARC
  5
28EA
330
1F
100
AcDbEntity
  8
AM_0
100
AcDbCircle
 10
0.682615619435822
 20
-0.7096775476198474
 30
0.0
 40
0.7412944642563887
100
AcDbArc
 50
186.119787907325
 51
202.9504029633334
  0
LINE
  5
28EB
330
1F
100
AcDbEntity
  8
AM_11
100
AcDbLine
 10
0.0
 20
1.001266415094022
 30
0.0
 11
-2.999999999999999
 21
1.001266415094008
 31
0.0
  0
LINE
  5
28EC
330
1F
100
AcDbEntity
  8
AM_0
100
AcDbLine
 10
-0.7447558298644168
 20
0.6871682301700446
 30
0.0
 11
-4.000000000000118
 21
0.9999599999999997
 31
0.0
  0
ARC
  5
28ED
330
1F
100
AcDbEntity
  8
AM_0
100
AcDbCircle
 10
-40.77482507452383
 20
-92.34586396516604
 30
0.0
 40
100.24526511278
100
AcDbArc
 50
68.01511352666364
 51
68.92963503588788
  0
LINE
  5
28EE
330
1F
100
AcDbEntity
  8
AM_0
100
AcDbLine
 10
-4.799999999999999
 20
-0.305460904865427
 30
0.0
 11
-2.998733972131745
 21
0.1596942079302721
 31
0.0
  0
LINE
  5
28F1
330
1F
100
AcDbEntity
  8
AM_0
100
AcDbLine
 10
-3.0
 20
0.1623931789849707
 30
0.0
 11
-3.0
 21
0.5109104280666373
 31
0.0
  0
LINE
  5
28F2
330
1F
100
AcDbEntity
  8
AM_0
100
AcDbLine
 10
0.0
 20
-0.2003972056764098
 30
0.0
 11
-0.0868898124450297
 21
-0.2316028914614918
 31
0.0
  0
LINE
  5
28F3
330
1F
100
AcDbEntity
  8
AM_0
100
AcDbLine
 10
0.0
 20
-0.2003972056764098
 30
0.0
 11
-0.7447558298644168
 21
0.6871682301700446
 31
0.0
  0
LINE
  5
28F7
330
1F
100
AcDbEntity
  8
AM_0
100
AcDbLine
 10
-4.000000000000118
 20
-0.7263011911783324
 30
0.0
 11
-4.000000000000118
 21
-0.9999600000000006
 31
0.0
  0
VIEWPORT
  5
110
330
101
100
AcDbEntity
 67
     1
  8
0
100
AcDbViewport
 10
420.5
 20
297.0
 30
0.0
 40
948.9782706766916
 41
628.452
 68
     1
 69
     1
1001
ACAD
1000
MVIEW
1002
{
1070
    16
1010
0.0
1020
0.0
1030
0.0
1010
0.0
1020
0.0
1030
1.0
1040
0.0
1040
628.452
1040
420.5
1040
297.0
1040
50.0
1040
0.0
1040
0.0
1070
     0
1070
   100
1070
     1
1070
     1
1070
     0
1070
     0
1070
     0
1070
     0
1040
0.0
1040
0.0
1040
0.0
1040
10.0
1040
10.0
1040
10.0
1040
10.0
1070
     0
1002
{
1002
}
1002
}
  0
ENDSEC
  0
SECTION
  2
OBJECTS
  0
DICTIONARY
  5
C
330
0
100
AcDbDictionary
  3
ACAD_GROUP
350
D
  3
ACAD_LAYOUT
350
1A
  3
ACAD_MLINESTYLE
350
17
  3
ACAD_PLOTSETTINGS
350
19
  3
ACAD_PLOTSTYLENAME
350
E
  3
ACDBVARIABLEDICTIONARY
350
34
  3
ACMDICTIONARY
350
43
  3
AMG
350
2B
  3
AMGSNAPSETTINGS
350
6E
  3
DWGPROPS
350
2A2C
  3
ACDBHEADERROUNDTRIPXREC
350
2A38
  0
DICTIONARY
  5
74
330
1F
100
AcDbDictionary
280
     1
  3
ACAD_INDEX
360
2A2E
  3
ACAD_LAYOUTSELFREF
360
2A5B
  0
DICTIONARY
  5
2A60
330
101
100
AcDbDictionary
280
     1
  3
ACAD_LAYOUTSELFREF
360
2A61
  0
DICTIONARY
  5
D
102
{ACAD_REACTORS
330
C
102
}
330
C
100
AcDbDictionary
  0
DICTIONARY
  5
1A
102
{ACAD_REACTORS
330
C
102
}
330
C
100
AcDbDictionary
  0
DICTIONARY
  5
17
102
{ACAD_REACTORS
330
C
102
}
330
C
100
AcDbDictionary
  3
STANDARD
350
18
  0
DICTIONARY
  5
19
102
{ACAD_REACTORS
330
C
102
}
330
C
100
AcDbDictionary
  0
ACDBDICTIONARYWDFLT
  5
E
102
{ACAD_REACTORS
330
C
102
}
330
C
100
AcDbDictionary
281
     1
  3
Normal
350
F
100
AcDbDictionaryWithDefault
340
F
  0
DICTIONARY
  5
34
102
{ACAD_REACTORS
330
C
102
}
330
C
100
AcDbDictionary
  3
INDEXCTL
350
35
  3
SORTENTS
350
B5E
  0
DICTIONARY
  5
43
102
{ACAD_REACTORS
330
C
102
}
330
C
100
AcDbDictionary
  3
ACMSTDDICTIONARY
350
260
  0
DICTIONARY
  5
2B
102
{ACAD_REACTORS
330
C
102
}
330
C
100
AcDbDictionary
  3
ACMGSETTINGS
350
2C
  0
DICTIONARY
  5
6E
102
{ACAD_REACTORS
330
C
102
}
330
C
100
AcDbDictionary
  0
XRECORD
  5
2A2C
102
{ACAD_REACTORS
330
C
102
}
330
C
100
AcDbXrecord
  1
DWGPROPS COOKIE
  2

  3

  4

  6

  7

  8

  9

300
AmdtFileType=82
301
=
302
=
303
=
304
=
305
=
306
=
307
=
308
=
309
=
 40
0.0547582175925926
 41
2452810.397252777
 42
2452839.659701967
  1

 90
        1
  0
DICTIONARY
  5
2A38
102
{ACAD_REACTORS
330
C
102
}
330
C
100
AcDbDictionary
  3
TSTACKALIGN
350
2A39
  3
TSTACKSIZE
350
2A3A
  3
HYPERLINKBASE
350
2A3B
  3
STYLESHEET
350
2A3C
  3
LAYOUTDICT
350
2A3D
  3
PLOTSETDICT
350
2A3E
  3
PLOTSTYLNAMDICT
350
2A3F
  3
LWETCUNION
350
2A40
  3
INSUNITS
350
2A41
  3
CEPSNTYPE
350
2A42
  3
FINGERPRINTGUID
350
2A43
  3
VERSIONGUID
350
2A44
  3
PSVPSCALE
350
2A45
  3
DIMSTYLEDATA
350
2A46
  3
PUCSORTHOREF
350
2A47
  3
PUCSORTHOVIEW
350
2A48
  3
PUCSBASE
350
2A49
  3
PUCSORGTOP
350
2A4A
  3
PUCSORGBOTTOM
350
2A4B
  3
PUCSORGLEFT
350
2A4C
  3
PUCSORGRIGHT
350
2A4D
  3
PUCSORGFRONT
350
2A4E
  3
PUCSORGBACK
350
2A4F
  3
UCSORTHOREF
350
2A50
  3
UCSORTHOVIEW
350
2A51
  3
UCSBASE
350
2A52
  3
UCSORGTOP
350
2A53
  3
UCSORGBOTTOM
350
2A54
  3
UCSORGLEFT
350
2A55
  3
UCSORGRIGHT
350
2A56
  3
UCSORGFRONT
350
2A57
  3
UCSORGBACK
350
2A58
  0
DICTIONARY
  5
2A2E
102
{ACAD_REACTORS
330
74
102
}
330
74
100
AcDbDictionary
  3
*A1
350
2A2F
  0
XRECORD
  5
2A5B
102
{ACAD_REACTORS
330
74
102
}
330
74
100
AcDbXrecord
340
1F
  0
XRECORD
  5
2A61
102
{ACAD_REACTORS
330
2A60
102
}
330
2A60
100
AcDbXrecord
340
101
  0
MLINESTYLE
  5
18
102
{ACAD_REACTORS
330
17
102
}
330
17
100
AcDbMlineStyle
  2
STANDARD
 70
     0
  3

 62
   256
 51
90.0
 52
90.0
 71
     2
 49
0.5
 62
   256
  6
BYLAYER
 49
-0.5
 62
   256
  6
BYLAYER
  0
ACDBPLACEHOLDER
  5
F
102
{ACAD_REACTORS
330
E
102
}
330
E
100
AcDbPlaceHolder
280
     0
  0
DICTIONARYVAR
  5
35
102
{ACAD_REACTORS
330
34
102
}
330
34
100
DictionaryVariables
280
     0
  1
1
  0
DICTIONARYVAR
  5
B5E
102
{ACAD_REACTORS
330
34
102
}
330
34
100
DictionaryVariables
280
     0
  1
96
  0
DICTIONARY
  5
260
102
{ACAD_REACTORS
330
43
102
}
330
43
100
AcDbDictionary
  0
DICTIONARY
  5
2C
102
{ACAD_REACTORS
330
2B
102
}
330
2B
100
AcDbDictionary
  3
DWGSETTINGS
350
2D
  0
XRECORD
  5
2A39
102
{ACAD_REACTORS
330
2A38
102
}
330
2A38
100
AcDbXrecord
 90
        1
  0
XRECORD
  5
2A3A
102
{ACAD_REACTORS
330
2A38
102
}
330
2A38
100
AcDbXrecord
 90
       70
  0
XRECORD
  5
2A3B
102
{ACAD_REACTORS
330
2A38
102
}
330
2A38
100
AcDbXrecord
  1

  0
XRECORD
  5
2A3C
102
{ACAD_REACTORS
330
2A38
102
}
330
2A38
100
AcDbXrecord
  1
ASAMI.ctb
  0
XRECORD
  5
2A3D
102
{ACAD_REACTORS
330
2A38
102
}
330
2A38
100
AcDbXrecord
340
1A
  0
XRECORD
  5
2A3E
102
{ACAD_REACTORS
330
2A38
102
}
330
2A38
100
AcDbXrecord
340
19
  0
XRECORD
  5
2A3F
102
{ACAD_REACTORS
330
2A38
102
}
330
2A38
100
AcDbXrecord
340
E
  0
XRECORD
  5
2A40
102
{ACAD_REACTORS
330
2A38
102
}
330
2A38
100
AcDbXrecord
 90
    10781
  0
XRECORD
  5
2A41
102
{ACAD_REACTORS
330
2A38
102
}
330
2A38
100
AcDbXrecord
 90
        4
  0
XRECORD
  5
2A42
102
{ACAD_REACTORS
330
2A38
102
}
330
2A38
100
AcDbXrecord
 90
        0
  0
XRECORD
  5
2A43
102
{ACAD_REACTORS
330
2A38
102
}
330
2A38
100
AcDbXrecord
  1
{AFB28963-8C59-40AE-9337-C84526B81ACE}
  0
XRECORD
  5
2A44
102
{ACAD_REACTORS
330
2A38
102
}
330
2A38
100
AcDbXrecord
  1
{C931FC5E-5087-461D-8FA0-E068D5A1F548}
  0
XRECORD
  5
2A45
102
{ACAD_REACTORS
330
2A38
102
}
330
2A38
100
AcDbXrecord
 40
0.0
  0
XRECORD
  5
2A46
102
{ACAD_REACTORS
330
2A38
102
}
330
2A38
100
AcDbXrecord
1000
DSTYLE
1002
{
1070
    79
 70
     2
1070
   341
340
59
1070
   342
340
59
1070
   371
 70
    -1
1070
   372
 70
    -1
1002
}
  0
XRECORD
  5
2A47
102
{ACAD_REACTORS
330
2A38
102
}
330
2A38
100
AcDbXrecord
340
0
  0
XRECORD
  5
2A48
102
{ACAD_REACTORS
330
2A38
102
}
330
2A38
100
AcDbXrecord
 70
     0
  0
XRECORD
  5
2A49
102
{ACAD_REACTORS
330
2A38
102
}
330
2A38
100
AcDbXrecord
340
0
  0
XRECORD
  5
2A4A
102
{ACAD_REACTORS
330
2A38
102
}
330
2A38
100
AcDbXrecord
 10
0.0
 20
0.0
 30
0.0
  0
XRECORD
  5
2A4B
102
{ACAD_REACTORS
330
2A38
102
}
330
2A38
100
AcDbXrecord
 10
0.0
 20
0.0
 30
0.0
  0
XRECORD
  5
2A4C
102
{ACAD_REACTORS
330
2A38
102
}
330
2A38
100
AcDbXrecord
 10
0.0
 20
0.0
 30
0.0
  0
XRECORD
  5
2A4D
102
{ACAD_REACTORS
330
2A38
102
}
330
2A38
100
AcDbXrecord
 10
0.0
 20
0.0
 30
0.0
  0
XRECORD
  5
2A4E
102
{ACAD_REACTORS
330
2A38
102
}
330
2A38
100
AcDbXrecord
 10
0.0
 20
0.0
 30
0.0
  0
XRECORD
  5
2A4F
102
{ACAD_REACTORS
330
2A38
102
}
330
2A38
100
AcDbXrecord
 10
0.0
 20
0.0
 30
0.0
  0
XRECORD
  5
2A50
102
{ACAD_REACTORS
330
2A38
102
}
330
2A38
100
AcDbXrecord
340
0
  0
XRECORD
  5
2A51
102
{ACAD_REACTORS
330
2A38
102
}
330
2A38
100
AcDbXrecord
 70
     0
  0
XRECORD
  5
2A52
102
{ACAD_REACTORS
330
2A38
102
}
330
2A38
100
AcDbXrecord
340
0
  0
XRECORD
  5
2A53
102
{ACAD_REACTORS
330
2A38
102
}
330
2A38
100
AcDbXrecord
 10
0.0
 20
0.0
 30
0.0
  0
XRECORD
  5
2A54
102
{ACAD_REACTORS
330
2A38
102
}
330
2A38
100
AcDbXrecord
 10
0.0
 20
0.0
 30
0.0
  0
XRECORD
  5
2A55
102
{ACAD_REACTORS
330
2A38
102
}
330
2A38
100
AcDbXrecord
 10
0.0
 20
0.0
 30
0.0
  0
XRECORD
  5
2A56
102
{ACAD_REACTORS
330
2A38
102
}
330
2A38
100
AcDbXrecord
 10
0.0
 20
0.0
 30
0.0
  0
XRECORD
  5
2A57
102
{ACAD_REACTORS
330
2A38
102
}
330
2A38
100
AcDbXrecord
 10
0.0
 20
0.0
 30
0.0
  0
XRECORD
  5
2A58
102
{ACAD_REACTORS
330
2A38
102
}
330
2A38
100
AcDbXrecord
 10
0.0
 20
0.0
 30
0.0
  0
LAYER_INDEX
  5
2A2F
102
{ACAD_REACTORS
330
2A2E
102
}
330
2A2E
100
AcDbIndex
 40
2452839.679894919
100
AcDbLayerIndex
  8
0
360
2A30
 90
        0
  8
AM_0
360
2A31
 90
       31
  8
AM_11
360
2A32
 90
        3
  8
AM_7
360
2A33
 90
        1
  8
AM_5
360
2A34
 90
        4
  8
AM_6
360
2A35
 90
        1
  8
Defpoints
360
2A36
 90
        0
  0
XRECORD
  5
2D
102
{ACAD_REACTORS
330
2C
102
}
330
2C
100
AcDbXrecord
  1
VERSION
140
15.0
  1
PRODUCT
  2
AutoCAD Mechanical 2000
  0
IDBUFFER
  5
2A30
330
0
100
AcDbIdBuffer
  0
IDBUFFER
  5
2A31
330
0
100
AcDbIdBuffer
330
28E0
330
28E1
330
28E2
330
28E4
330
28E5
330
28E7
330
28E9
330
28EA
330
28EC
330
28ED
330
28EE
330
28F1
330
28F2
330
28F3
330
28F7
330
2661
330
2662
330
2665
330
2666
330
2667
330
2668
330
2673
330
2674
330
2675
330
28D8
330
28D9
330
28DA
330
28DB
330
28DC
330
28DD
330
28DE
  0
IDBUFFER
  5
2A32
330
0
100
AcDbIdBuffer
330
28E3
330
28E6
330
28EB
  0
IDBUFFER
  5
2A33
330
0
100
AcDbIdBuffer
330
2663
  0
IDBUFFER
  5
2A34
330
0
100
AcDbIdBuffer
330
2664
330
2671
330
2672
330
268A
  0
IDBUFFER
  5
2A35
330
0
100
AcDbIdBuffer
330
F06
  0
IDBUFFER
  5
2A36
330
0
100
AcDbIdBuffer
  0
ENDSEC
  0
EOF
