  0
SECTION
  2
HEADER
  9
$ACADVER
  1
AC1014
  9
$ACADMAINTVER
 70
     9
  9
$DWGCODEPAGE
  3
ANSI_932
  9
$INSBASE
 10
0.0
 20
0.0
 30
0.0
  9
$EXTMIN
 10
-47.35
 20
-24.85034000863719
 30
-0.00000001
  9
$EXTMAX
 10
7.499999999993897
 20
8.014285714285716
 30
0.00000001
  9
$LIMMIN
 10
-50.91679372108345
 20
-30.52402400633084
  9
$LIMMAX
 10
12.12522357501434
 20
13.97884090127771
  9
$ORTHOMODE
 70
     0
  9
$REGENMODE
 70
     1
  9
$FILLMODE
 70
     1
  9
$QTEXTMODE
 70
     0
  9
$MIRRTEXT
 70
     0
  9
$DRAGMODE
 70
     2
  9
$LTSCALE
 40
1.0
  9
$OSMODE
 70
  2103
  9
$ATTMODE
 70
     1
  9
$TEXTSIZE
 40
2.5
  9
$TRACEWID
 40
1.0
  9
$TEXTSTYLE
  7
ACJISGDT
  9
$CLAYER
  8
AM_0
  9
$CELTYPE
  6
BYLAYER
  9
$CECOLOR
 62
   256
  9
$CELTSCALE
 40
1.0
  9
$DELOBJ
 70
     1
  9
$DISPSILH
 70
     0
  9
$DIMSCALE
 40
0.5
  9
$DIMASZ
 40
2.5
  9
$DIMEXO
 40
1.0
  9
$DIMDLI
 40
12.0
  9
$DIMRND
 40
0.0
  9
$DIMDLE
 40
0.0
  9
$DIMEXE
 40
1.0
  9
$DIMTP
 40
0.1
  9
$DIMTM
 40
0.1
  9
$DIMTXT
 40
3.2
  9
$DIMCEN
 40
0.0
  9
$DIMTSZ
 40
0.0
  9
$DIMTOL
 70
     0
  9
$DIMLIM
 70
     0
  9
$DIMTIH
 70
     0
  9
$DIMTOH
 70
     0
  9
$DIMSE1
 70
     0
  9
$DIMSE2
 70
     0
  9
$DIMTAD
 70
     3
  9
$DIMZIN
 70
     8
  9
$DIMBLK
  1
OPEN30
  9
$DIMASO
 70
     1
  9
$DIMSHO
 70
     1
  9
$DIMPOST
  1

  9
$DIMAPOST
  1
"
  9
$DIMALT
 70
     0
  9
$DIMALTD
 70
     2
  9
$DIMALTF
 40
0.0393701
  9
$DIMLFAC
 40
1.0
  9
$DIMTOFL
 70
     1
  9
$DIMTVP
 40
0.0
  9
$DIMTIX
 70
     0
  9
$DIMSOXD
 70
     0
  9
$DIMSAH
 70
     0
  9
$DIMBLK1
  1

  9
$DIMBLK2
  1

  9
$DIMSTYLE
  2
AM_JIS
  9
$DIMCLRD
 70
   256
  9
$DIMCLRE
 70
   256
  9
$DIMCLRT
 70
     2
  9
$DIMTFAC
 40
0.71
  9
$DIMGAP
 40
1.5
  9
$DIMJUST
 70
     0
  9
$DIMSD1
 70
     0
  9
$DIMSD2
 70
     0
  9
$DIMTOLJ
 70
     0
  9
$DIMTZIN
 70
     0
  9
$DIMALTZ
 70
     0
  9
$DIMALTTZ
 70
     0
  9
$DIMFIT
 70
     3
  9
$DIMUPT
 70
     0
  9
$DIMUNIT
 70
     2
  9
$DIMDEC
 70
     3
  9
$DIMTDEC
 70
     3
  9
$DIMALTU
 70
     2
  9
$DIMALTTD
 70
     2
  9
$DIMTXSTY
  7
ASAMI
  9
$DIMAUNIT
 70
     0
  9
$LUNITS
 70
     2
  9
$LUPREC
 70
     2
  9
$SKETCHINC
 40
1.0
  9
$FILLETRAD
 40
2.5
  9
$AUNITS
 70
     0
  9
$AUPREC
 70
     0
  9
$MENU
  1
.
  9
$ELEVATION
 40
0.0
  9
$PELEVATION
 40
0.0
  9
$THICKNESS
 40
0.0
  9
$LIMCHECK
 70
     0
  9
$BLIPMODE
 70
     0
  9
$CHAMFERA
 40
0.5
  9
$CHAMFERB
 40
0.5
  9
$CHAMFERC
 40
20.0
  9
$CHAMFERD
 40
0.0
  9
$SKPOLY
 70
     0
  9
$TDCREATE
 40
2452828.754166667
  9
$TDUPDATE
 40
2452839.680422083
  9
$TDINDWG
 40
0.0303748958
  9
$TDUSRTIMER
 40
0.0303747106
  9
$USRTIMER
 70
     1
  9
$ANGBASE
 50
0.0
  9
$ANGDIR
 70
     0
  9
$PDMODE
 70
     0
  9
$PDSIZE
 40
0.0
  9
$PLINEWID
 40
0.0
  9
$COORDS
 70
     2
  9
$SPLFRAME
 70
     0
  9
$SPLINETYPE
 70
     6
  9
$SPLINESEGS
 70
     8
  9
$ATTDIA
 70
     1
  9
$ATTREQ
 70
     1
  9
$HANDLING
 70
 12289
  9
$HANDSEED
  5
157C
  9
$SURFTAB1
 70
     6
  9
$SURFTAB2
 70
     6
  9
$SURFTYPE
 70
     6
  9
$SURFU
 70
     6
  9
$SURFV
 70
     6
  9
$UCSNAME
  2

  9
$UCSORG
 10
0.0
 20
0.0
 30
0.0
  9
$UCSXDIR
 10
1.0
 20
0.0
 30
0.0
  9
$UCSYDIR
 10
0.0
 20
1.0
 30
0.0
  9
$PUCSNAME
  2

  9
$PUCSORG
 10
0.0
 20
0.0
 30
0.0
  9
$PUCSXDIR
 10
1.0
 20
0.0
 30
0.0
  9
$PUCSYDIR
 10
0.0
 20
1.0
 30
0.0
  9
$USERI1
 70
     0
  9
$USERI2
 70
     0
  9
$USERI3
 70
     0
  9
$USERI4
 70
     0
  9
$USERI5
 70
     0
  9
$USERR1
 40
0.0
  9
$USERR2
 40
0.0
  9
$USERR3
 40
0.0
  9
$USERR4
 40
0.0
  9
$USERR5
 40
0.0
  9
$WORLDVIEW
 70
     1
  9
$SHADEDGE
 70
     3
  9
$SHADEDIF
 70
    70
  9
$TILEMODE
 70
     1
  9
$MAXACTVP
 70
    64
  9
$PINSBASE
 10
0.0
 20
0.0
 30
0.0
  9
$PLIMCHECK
 70
     0
  9
$PEXTMIN
 10
1.000000000000000E+20
 20
1.000000000000000E+20
 30
1.000000000000000E+20
  9
$PEXTMAX
 10
-1.000000000000000E+20
 20
-1.000000000000000E+20
 30
-1.000000000000000E+20
  9
$PLIMMIN
 10
0.0
 20
0.0
  9
$PLIMMAX
 10
841.0
 20
594.0
  9
$UNITMODE
 70
     0
  9
$VISRETAIN
 70
     1
  9
$PLINEGEN
 70
     0
  9
$PSLTSCALE
 70
     0
  9
$TREEDEPTH
 70
  3020
  9
$PICKSTYLE
 70
     0
  9
$CMLSTYLE
  2
STANDARD
  9
$CMLJUST
 70
     0
  9
$CMLSCALE
 40
20.0
  9
$PROXYGRAPHICS
 70
     1
  9
$MEASUREMENT
 70
     1
  0
ENDSEC
  0
SECTION
  2
CLASSES
  0
CLASS
  1
ACDBDICTIONARYWDFLT
  2
AcDbDictionaryWithDefault
  3
AutoCAD 2000
 90
        0
280
     0
281
     0
  0
CLASS
  1
ACDBPLACEHOLDER
  2
AcDbPlaceHolder
  3
AutoCAD 2000
 90
        0
280
     0
281
     0
  0
CLASS
  1
LAYOUT
  2
AcDbLayout
  3
AutoCAD 2000
 90
        0
280
     0
281
     0
  0
CLASS
  1
AMGSETTINGSOBJ
  2
AmgSettingsObj
  3
"AcadM|Product Description: AutoCAD Mechanical 2000|Company: Autodesk"
 90
        0
280
     0
281
     0
  0
CLASS
  1
ACME_DOCUMENT
  2
AcMeDbDoc
  3
AcMeServices
 90
        0
280
     0
281
     0
  0
CLASS
  1
ACMESCOPE
  2
AcMeScope
  3
AcMeServices
 90
        0
280
     0
281
     0
  0
CLASS
  1
ACMECOMMANDHISTORY
  2
AcMeCommandHistory
  3
AcMeServices
 90
        0
280
     0
281
     0
  0
CLASS
  1
DICTIONARYVAR
  2
AcDbDictionaryVar
  3
AutoCAD 2000
 90
        0
280
     0
281
     0
  0
CLASS
  1
ACIMSYSVARMAN
  2
AcImSysVarManager
  3
AcMeServices
 90
        0
280
     0
281
     0
  0
CLASS
  1
ACIMREALSYSVAR
  2
AcImRealSysVar
  3
AcMeServices
 90
        0
280
     0
281
     0
  0
CLASS
  1
ACIMINTSYSVAR
  2
AcImIntSysVar
  3
AcMeServices
 90
        0
280
     0
281
     0
  0
CLASS
  1
ACMEDRAWINGMAN
  2
AcMeDrawingMan
  3
AcMeServices
 90
        0
280
     0
281
     0
  0
CLASS
  1
ACMEVIEW
  2
AcMeView
  3
AcMeServices
 90
        0
280
     0
281
     0
  0
CLASS
  1
ACDBENTITYCACHE
  2
AcMeEntityCache
  3
AcMeServices
 90
        0
280
     0
281
     0
  0
CLASS
  1
GSMANAGER
  2
AcMeGSManager
  3
AcMeServices
 90
        0
280
     0
281
     0
  0
CLASS
  1
AmdtInternalReactor
  2
AmdtInternalReactor
  3
AcMeServices
 90
        0
280
     0
281
     0
  0
CLASS
  1
ACMESTATEMGR
  2
AcMeStateMgr
  3
AcMeServices
 90
        0
280
     0
281
     0
  0
CLASS
  1
ACME_DATABASE
  2
AcMeDbDatabase
  3
AcMeServices
 90
        0
280
     0
281
     0
  0
CLASS
  1
ACRFINSADJUSTERMGR
  2
AcRfInsAdjusterMgr
  3
AcMeServices
 90
        0
280
     0
281
     0
  0
CLASS
  1
ACMDATADICTIONARY
  2
AcmDataDictionary
  3
"AcmSymBB|Product Description: AutoCAD Mechanical 2000|Company: Autodesk"
 90
        0
280
     0
281
     0
  0
CLASS
  1
ACMDATAENTRYBLOCK
  2
AcmDataEntryBlock
  3
"AcmSymBB|Product Description: AutoCAD Mechanical 2000|Company: Autodesk"
 90
        0
280
     0
281
     0
  0
CLASS
  1
AMGOBJPROPCFG
  2
AmgObjPropCfg
  3
"AmgLay|Product Description: AutoCAD Mechanical 2000|Company: Autodesk"
 90
        1
280
     0
281
     0
  0
CLASS
  1
ACAMGFILTERDAT
  2
AcAmgFilterDat
  3
"AcadM|Product Description: AutoCAD Mechanical 2000|Company: Autodesk"
 90
        0
280
     0
281
     0
  0
CLASS
  1
LAYER_INDEX
  2
AcDbLayerIndex
  3
AutoCAD 2000
 90
        0
280
     0
281
     0
  0
CLASS
  1
IDBUFFER
  2
AcDbIdBuffer
  3
AutoCAD 2000
 90
        0
280
     0
281
     0
  0
CLASS
  1
ACIMSTRSYSVAR
  2
AcImStrSysVar
  3
AcMeServices
 90
        0
280
     0
281
     0
  0
CLASS
  1
ACMSTANDARDJIS
  2
AcmStandardJIS
  3
"AcmSymBB|Product Description: AutoCAD Mechanical 2000|Company: Autodesk"
 90
        0
280
     0
281
     0
  0
CLASS
  1
ACMSURFSTANDARDJIS
  2
AcmSurfTextStdJIS
  3
"AcmSymBB|Product Description: AutoCAD Mechanical 2000|Company: Autodesk"
 90
        0
280
     0
281
     0
  0
CLASS
  1
ACMFCFSTANDARDJIS
  2
AcmFCFStdJIS
  3
"AcmSymBB|Product Description: AutoCAD Mechanical 2000|Company: Autodesk"
 90
        0
280
     0
281
     0
  0
CLASS
  1
ACMWELDSTANDARDJIS
  2
AcmWeldingStdJIS
  3
"AcmSymBB|Product Description: AutoCAD Mechanical 2000|Company: Autodesk"
 90
        0
280
     0
281
     0
  0
CLASS
  1
ACMIDSTANDARDJIS
  2
AcmIdStdJIS
  3
"AcmSymBB|Product Description: AutoCAD Mechanical 2000|Company: Autodesk"
 90
        0
280
     0
281
     0
  0
CLASS
  1
ACMDATUMSTANDARDJIS
  2
AcmDatumStdJIS
  3
"AcmSymBB|Product Description: AutoCAD Mechanical 2000|Company: Autodesk"
 90
        0
280
     0
281
     0
  0
CLASS
  1
ACMBOMSTANDARDJIS
  2
AcmBOMStdJIS
  3
"AcmSymBB|Product Description: AutoCAD Mechanical 2000|Company: Autodesk"
 90
        0
280
     0
281
     0
  0
CLASS
  1
ACMSTANDARDANSI
  2
AcmStandardANSI
  3
"AcmSymBB|Product Description: AutoCAD Mechanical 2000|Company: Autodesk"
 90
        0
280
     0
281
     0
  0
CLASS
  1
ACMSURFSTANDARDANSI
  2
AcmSurfTextStdANSI
  3
"AcmSymBB|Product Description: AutoCAD Mechanical 2000|Company: Autodesk"
 90
        0
280
     0
281
     0
  0
CLASS
  1
ACMFCFSTANDARDANSI
  2
AcmFCFStdANSI
  3
"AcmSymBB|Product Description: AutoCAD Mechanical 2000|Company: Autodesk"
 90
        0
280
     0
281
     0
  0
CLASS
  1
ACMWELDSTANDARDANSI
  2
AcmWeldingStdANSI
  3
"AcmSymBB|Product Description: AutoCAD Mechanical 2000|Company: Autodesk"
 90
        0
280
     0
281
     0
  0
CLASS
  1
ACMIDSTANDARDANSI
  2
AcmIdStdANSI
  3
"AcmSymBB|Product Description: AutoCAD Mechanical 2000|Company: Autodesk"
 90
        0
280
     0
281
     0
  0
CLASS
  1
ACMDATUMSTANDARDANSI
  2
AcmDatumStdANSI
  3
"AcmSymBB|Product Description: AutoCAD Mechanical 2000|Company: Autodesk"
 90
        0
280
     0
281
     0
  0
CLASS
  1
ACMBOMSTANDARDANSI
  2
AcmBOMStdANSI
  3
"AcmSymBB|Product Description: AutoCAD Mechanical 2000|Company: Autodesk"
 90
        0
280
     0
281
     0
  0
CLASS
  1
ACMSTANDARDBSI
  2
AcmStandardBSI
  3
"AcmSymBB|Product Description: AutoCAD Mechanical 2000|Company: Autodesk"
 90
        0
280
     0
281
     0
  0
CLASS
  1
ACMSURFSTANDARDBSI
  2
AcmSurfTextStdBSI
  3
"AcmSymBB|Product Description: AutoCAD Mechanical 2000|Company: Autodesk"
 90
        0
280
     0
281
     0
  0
CLASS
  1
ACMFCFSTANDARDBSI
  2
AcmFCFStdBSI
  3
"AcmSymBB|Product Description: AutoCAD Mechanical 2000|Company: Autodesk"
 90
        0
280
     0
281
     0
  0
CLASS
  1
ACMWELDSTANDARDBSI
  2
AcmWeldingStdBSI
  3
"AcmSymBB|Product Description: AutoCAD Mechanical 2000|Company: Autodesk"
 90
        0
280
     0
281
     0
  0
CLASS
  1
ACMIDSTANDARDBSI
  2
AcmIdStdBSI
  3
"AcmSymBB|Product Description: AutoCAD Mechanical 2000|Company: Autodesk"
 90
        0
280
     0
281
     0
  0
CLASS
  1
ACMDATUMSTANDARDBSI
  2
AcmDatumStdBSI
  3
"AcmSymBB|Product Description: AutoCAD Mechanical 2000|Company: Autodesk"
 90
        0
280
     0
281
     0
  0
CLASS
  1
ACMBOMSTANDARDBSI
  2
AcmBOMStdBSI
  3
"AcmSymBB|Product Description: AutoCAD Mechanical 2000|Company: Autodesk"
 90
        0
280
     0
281
     0
  0
CLASS
  1
LONG_TRANSACTION
  2
AcDbLongTransaction
  3
AutoCAD 2000
 90
        0
280
     0
281
     0
  0
CLASS
  1
LWPOLYLINE
  2
AcDbPolyline
  3
AutoCAD 2000
 90
        0
280
     0
281
     1
  0
CLASS
  1
HATCH
  2
AcDbHatch
  3
AutoCAD 2000
 90
        0
280
     0
281
     1
  0
CLASS
  1
XRECORD
  2
AcDbXrecord
  3
AutoCAD 2000
 90
        0
280
     0
281
     0
  0
ENDSEC
  0
SECTION
  2
TABLES
  0
TABLE
  2
VPORT
  5
8
330
0
100
AcDbSymbolTable
 70
     3
  0
VPORT
  5
1551
330
8
100
AcDbSymbolTableRecord
100
AcDbViewportTableRecord
  2
*ACTIVE
 70
     0
 10
0.0
 20
0.0
 11
1.0
 21
1.0
 12
-19.92725945317971
 22
-8.418589312165174
 13
0.0
 23
0.0
 14
2.5
 24
2.5
 15
10.0
 25
10.0
 16
0.0
 26
0.0
 36
1.0
 17
0.0
 27
0.0
 37
0.0
 40
35.17400042825531
 41
1.56570841889117
 42
50.0
 43
0.0
 44
0.0
 50
0.0
 51
0.0
 71
     0
 72
   100
 73
     1
 74
     3
 75
     0
 76
     0
 77
     0
 78
     0
  0
ENDTAB
  0
TABLE
  2
LTYPE
  5
5
330
0
100
AcDbSymbolTable
 70
    10
  0
LTYPE
  5
14
330
5
100
AcDbSymbolTableRecord
100
AcDbLinetypeTableRecord
  2
BYBLOCK
 70
     0
  3

 72
    65
 73
     0
 40
0.0
  0
LTYPE
  5
15
330
5
100
AcDbSymbolTableRecord
100
AcDbLinetypeTableRecord
  2
BYLAYER
 70
     0
  3

 72
    65
 73
     0
 40
0.0
  0
LTYPE
  5
16
330
5
100
AcDbSymbolTableRecord
100
AcDbLinetypeTableRecord
  2
CONTINUOUS
 70
     0
  3
Solid line
 72
    65
 73
     0
 40
0.0
  0
LTYPE
  5
4B
330
5
100
AcDbSymbolTableRecord
100
AcDbLinetypeTableRecord
  2
AM_ISO02W050
 70
     0
  3
__ __ __ __ __ __ __ __ __ __ __ __ __ __ __
 72
    65
 73
     2
 40
7.5
 49
6.0
 74
     0
 49
-1.5
 74
     0
  0
LTYPE
  5
4C
330
5
100
AcDbSymbolTableRecord
100
AcDbLinetypeTableRecord
  2
AM_ISO08W050
 70
     0
  3
____ . ____ . ____ . ____ . ____ . ____ . ____
 72
    65
 73
     4
 40
18.0
 49
12.0
 74
     0
 49
-1.5
 74
     0
 49
3.0
 74
     0
 49
-1.5
 74
     0
  0
LTYPE
  5
4D
330
5
100
AcDbSymbolTableRecord
100
AcDbLinetypeTableRecord
  2
AM_ISO09W050
 70
     0
  3
_____ . . _____ . . _____ . . ____ .. ____
 72
    65
 73
     6
 40
22.5
 49
12.0
 74
     0
 49
-1.5
 74
     0
 49
3.0
 74
     0
 49
-1.5
 74
     0
 49
3.0
 74
     0
 49
-1.5
 74
     0
  0
LTYPE
  5
4E
330
5
100
AcDbSymbolTableRecord
100
AcDbLinetypeTableRecord
  2
AMCONSTR
 70
     0
  3
_______________________
 72
    65
 73
     2
 40
9999.0
 49
9999.0
 74
     0
 49
0.0
 74
     0
  0
LTYPE
  5
4F
330
5
100
AcDbSymbolTableRecord
100
AcDbLinetypeTableRecord
  2
AM_ISO02W050X2
 70
     0
  3
 _ _ _ _ _ _ _ _ _ _ _ _
 72
    65
 73
     2
 40
3.75
 49
3.0
 74
     0
 49
-0.75
 74
     0
  0
LTYPE
  5
50
330
5
100
AcDbSymbolTableRecord
100
AcDbLinetypeTableRecord
  2
AM_ISO08W050X2
 70
     0
  3
__ . __ . __ . __ . __ . __
 72
    65
 73
     4
 40
9.0
 49
6.0
 74
     0
 49
-0.75
 74
     0
 49
1.5
 74
     0
 49
-0.75
 74
     0
  0
LTYPE
  5
53
330
5
100
AcDbSymbolTableRecord
100
AcDbLinetypeTableRecord
  2
AMZIGZAG
 70
     0
  3
/\/-/\/-/\/-/\/-/\/-/\/
 72
    65
 73
     2
 40
11.00009999999999
 49
0.0001
 74
     4
 75
   135
340
52
 46
0.04
 50
0.0
 44
0.0
 45
0.0
 49
-11.0
 74
     0
  0
LTYPE
  5
166
330
5
100
AcDbSymbolTableRecord
100
AcDbLinetypeTableRecord
  2
ACJISTGL
 70
     0
  3
_ _ _ _ _
 72
    65
 73
     2
 40
3.0
 49
2.0
 74
     0
 49
-1.0
 74
     0
  0
LTYPE
  5
26A
330
5
100
AcDbSymbolTableRecord
100
AcDbLinetypeTableRecord
  2
ACJISTGB
 70
     0
  3
__ . . __ . .
 72
    65
 73
     6
 40
9.0
 49
4.0
 74
     0
 49
-1.0
 74
     0
 49
1.0
 74
     0
 49
-1.0
 74
     0
 49
1.0
 74
     0
 49
-1.0
 74
     0
  0
ENDTAB
  0
TABLE
  2
LAYER
  5
2
330
0
100
AcDbSymbolTable
 70
     7
  0
LAYER
  5
10
330
2
100
AcDbSymbolTableRecord
100
AcDbLayerTableRecord
  2
0
 70
     0
 62
     7
  6
CONTINUOUS
  0
LAYER
  5
3F9
330
2
100
AcDbSymbolTableRecord
100
AcDbLayerTableRecord
  2
AM_0
 70
     0
 62
     7
  6
CONTINUOUS
  0
LAYER
  5
BF7
330
2
100
AcDbSymbolTableRecord
100
AcDbLayerTableRecord
  2
AM_5
 70
     0
 62
     3
  6
CONTINUOUS
  0
LAYER
  5
D37
330
2
100
AcDbSymbolTableRecord
100
AcDbLayerTableRecord
  2
AM_11
 70
     0
 62
     3
  6
AM_ISO09W050
  0
LAYER
  5
10FD
330
2
100
AcDbSymbolTableRecord
100
AcDbLayerTableRecord
  2
AM_7
 70
     0
 62
     4
  6
AM_ISO08W050
  0
LAYER
  5
1108
330
2
100
AcDbSymbolTableRecord
100
AcDbLayerTableRecord
  2
DEFPOINTS
 70
     0
 62
     7
  6
CONTINUOUS
  0
LAYER
  5
13C2
330
2
100
AcDbSymbolTableRecord
100
AcDbLayerTableRecord
  2
AM_6
 70
     0
 62
     2
  6
CONTINUOUS
  0
ENDTAB
  0
TABLE
  2
STYLE
  5
3
330
0
100
AcDbSymbolTable
 70
     5
  0
STYLE
  5
11
330
3
100
AcDbSymbolTableRecord
100
AcDbTextStyleTableRecord
  2
STANDARD
 70
     0
 40
0.0
 41
1.0
 50
0.0
 71
     0
 42
2.5
  3
simplex.shx
  4
EXTFONT.SHX
  0
STYLE
  5
52
330
3
100
AcDbSymbolTableRecord
100
AcDbTextStyleTableRecord
  2

 70
     1
 40
0.0
 41
1.0
 50
0.0
 71
     0
 42
2.5
  3
ltypeshp.shx
  4

  0
STYLE
  5
6B
330
3
100
AcDbSymbolTableRecord
100
AcDbTextStyleTableRecord
  2
ASAMI
 70
     0
 40
0.0
 41
1.0
 50
0.0
 71
     0
 42
2.5
  3
simplex.shx
  4
EXTFONT.SHX
  0
STYLE
  5
262
330
3
100
AcDbSymbolTableRecord
100
AcDbTextStyleTableRecord
  2
ACJISTS
 70
     0
 40
1.0
 41
1.0
 50
0.0
 71
     0
 42
2.5
  3
simplex.shx
  4
bigfont.shx
  0
STYLE
  5
269
330
3
100
AcDbSymbolTableRecord
100
AcDbTextStyleTableRecord
  2
ACJISGDT
 70
     0
 40
0.0
 41
1.0
 50
0.0
 71
     0
 42
2.5
  3
amgdtans.shx
  4

  0
ENDTAB
  0
TABLE
  2
VIEW
  5
6
330
0
100
AcDbSymbolTable
 70
     0
  0
ENDTAB
  0
TABLE
  2
UCS
  5
7
330
0
100
AcDbSymbolTable
 70
     0
  0
ENDTAB
  0
TABLE
  2
APPID
  5
9
330
0
100
AcDbSymbolTable
 70
    13
  0
APPID
  5
12
330
9
100
AcDbSymbolTableRecord
100
AcDbRegAppTableRecord
  2
ACAD
 70
     0
  0
APPID
  5
30
330
9
100
AcDbSymbolTableRecord
100
AcDbRegAppTableRecord
  2
MCAD_NO_VIS
 70
     0
  0
APPID
  5
31
330
9
100
AcDbSymbolTableRecord
100
AcDbRegAppTableRecord
  2
ACAD_TEMP_GRAPHIC
 70
     0
  0
APPID
  5
2C2
330
9
100
AcDbSymbolTableRecord
100
AcDbRegAppTableRecord
  2
GENIUS_GENDTOL_13
 70
     0
  0
APPID
  5
339
330
9
100
AcDbSymbolTableRecord
100
AcDbRegAppTableRecord
  2
GENIUS_GENODEF_13
 70
     0
  0
APPID
  5
33A
330
9
100
AcDbSymbolTableRecord
100
AcDbRegAppTableRecord
  2
GENIUS_GENOBJ-N-RSBK_13
 70
     0
  0
APPID
  5
33B
330
9
100
AcDbSymbolTableRecord
100
AcDbRegAppTableRecord
  2
GENIUS_GENOBJ-N-LIB_13
 70
     0
  0
APPID
  5
33C
330
9
100
AcDbSymbolTableRecord
100
AcDbRegAppTableRecord
  2
GENIUS_GENSCALE_13
 70
     0
  0
APPID
  5
378
330
9
100
AcDbSymbolTableRecord
100
AcDbRegAppTableRecord
  2
GENIUS_GENDIMSH_14
 70
     0
  0
APPID
  5
D38
330
9
100
AcDbSymbolTableRecord
100
AcDbRegAppTableRecord
  2
GENIUS_GENOBJ-N-FIL_13
 70
     0
  0
APPID
  5
10F0
330
9
100
AcDbSymbolTableRecord
100
AcDbRegAppTableRecord
  2
GENIUS_GENFIL_13
 70
     0
  0
APPID
  5
10F1
330
9
100
AcDbSymbolTableRecord
100
AcDbRegAppTableRecord
  2
GENIUS_GENOBJ-N-CHA_13
 70
     0
  0
APPID
  5
10FF
330
9
100
AcDbSymbolTableRecord
100
AcDbRegAppTableRecord
  2
GENIUS_GENOBJ-N-CEN_13
 70
     0
  0
ENDTAB
  0
TABLE
  2
DIMSTYLE
  5
A
330
0
100
AcDbSymbolTable
 70
     8
  0
DIMSTYLE
105
58
102
{ACAD_REACTORS
330
1107
330
11A1
330
1245
330
12F4
102
}
330
A
100
AcDbSymbolTableRecord
100
AcDbDimStyleTableRecord
  2
AM_JIS
 70
     0
  3

  4
"
  5
OPEN30
  6

  7

 40
0.5
 41
2.5
 42
1.0
 43
12.0
 44
1.0
 45
0.0
 46
0.0
 47
0.1
 48
0.1
140
3.2
141
0.0
142
0.0
143
0.0393701
144
1.0
145
0.0
146
0.71
147
1.5
 71
     0
 72
     0
 73
     0
 74
     0
 75
     0
 76
     0
 77
     3
 78
     8
170
     0
171
     2
172
     1
173
     0
174
     0
175
     0
176
   256
177
   256
178
     2
270
     2
271
     3
272
     3
273
     2
274
     2
340
6B
275
     0
280
     0
281
     0
282
     0
283
     0
284
     0
285
     0
286
     0
287
     3
288
     0
  0
DIMSTYLE
105
5F
330
A
100
AcDbSymbolTableRecord
100
AcDbDimStyleTableRecord
  2
AM_JIS$3
 70
     0
  3

  4
"
  5
OPEN30
  6

  7

 40
0.5
 41
2.5
 42
1.0
 43
10.0
 44
1.0
 45
0.0
 46
0.0
 47
0.1
 48
0.1
140
3.2
141
0.0
142
0.0
143
0.0393701
144
1.0
145
0.0
146
0.71
147
1.5
 71
     0
 72
     0
 73
     0
 74
     1
 75
     0
 76
     0
 77
     3
 78
     8
170
     0
171
     2
172
     0
173
     0
174
     0
175
     0
176
   256
177
   256
178
     2
270
     2
271
     2
272
     3
273
     2
274
     2
340
6B
275
     0
280
     0
281
     0
282
     0
283
     0
284
     0
285
     0
286
     0
287
     0
288
     1
  0
DIMSTYLE
105
60
330
A
100
AcDbSymbolTableRecord
100
AcDbDimStyleTableRecord
  2
AM_JIS$4
 70
     0
  3

  4
"
  5
OPEN30
  6

  7

 40
0.5
 41
2.5
 42
1.0
 43
10.0
 44
1.0
 45
0.0
 46
0.0
 47
0.1
 48
0.1
140
3.2
141
0.0
142
0.0
143
0.0393701
144
1.0
145
0.0
146
0.71
147
1.5
 71
     0
 72
     0
 73
     0
 74
     1
 75
     0
 76
     0
 77
     3
 78
     8
170
     0
171
     2
172
     0
173
     0
174
     0
175
     0
176
   256
177
   256
178
     2
270
     2
271
     2
272
     3
273
     2
274
     2
340
6B
275
     0
280
     0
281
     0
282
     0
283
     0
284
     0
285
     0
286
     0
287
     0
288
     1
  0
DIMSTYLE
105
61
330
A
100
AcDbSymbolTableRecord
100
AcDbDimStyleTableRecord
  2
AM_JIS$6
 70
     0
  3

  4
"
  5
OPEN30
  6

  7

 40
0.5
 41
2.5
 42
1.0
 43
10.0
 44
1.0
 45
0.0
 46
0.0
 47
0.1
 48
0.1
140
3.2
141
0.0
142
0.0
143
0.0393701
144
1.0
145
0.0
146
0.71
147
1.5
 71
     0
 72
     0
 73
     0
 74
     0
 75
     0
 76
     0
 77
     0
 78
     8
170
     0
171
     2
172
     1
173
     0
174
     0
175
     0
176
   256
177
   256
178
     2
270
     2
271
     2
272
     2
273
     2
274
     2
340
6B
275
     0
280
     0
281
     0
282
     0
283
     0
284
     0
285
     0
286
     0
287
     3
288
     0
  0
DIMSTYLE
105
62
330
A
100
AcDbSymbolTableRecord
100
AcDbDimStyleTableRecord
  2
AM_JIS$7
 70
     0
  3

  4
"
  5
OPEN30
  6

  7

 40
0.5
 41
2.5
 42
1.0
 43
10.0
 44
1.0
 45
0.0
 46
0.0
 47
0.1
 48
0.1
140
3.2
141
0.0
142
0.0
143
0.0393701
144
1.0
145
0.0
146
0.71
147
1.5
 71
     0
 72
     0
 73
     0
 74
     0
 75
     0
 76
     0
 77
     3
 78
     8
170
     0
171
     2
172
     1
173
     0
174
     0
175
     0
176
   256
177
   256
178
     2
270
     2
271
     2
272
     3
273
     2
274
     2
340
6B
275
     0
280
     0
281
     0
282
     0
283
     0
284
     0
285
     0
286
     0
287
     3
288
     0
  0
DIMSTYLE
105
63
330
A
100
AcDbSymbolTableRecord
100
AcDbDimStyleTableRecord
  2
AM_JIS$SF
 70
     0
  3

  4
"
  5
OPEN30
  6

  7

 40
0.5
 41
2.5
 42
1.0
 43
10.0
 44
1.0
 45
0.0
 46
0.0
 47
0.1
 48
0.1
140
3.2
141
0.0
142
0.0
143
0.0393701
144
1.0
145
0.0
146
0.71
147
1.5
 71
     0
 72
     0
 73
     0
 74
     0
 75
     1
 76
     1
 77
     3
 78
     8
170
     0
171
     2
172
     1
173
     0
174
     0
175
     0
176
   256
177
   256
178
     2
270
     2
271
     2
272
     2
273
     2
274
     2
340
6B
275
     0
280
     0
281
     0
282
     0
283
     0
284
     0
285
     0
286
     0
287
     3
288
     0
  0
DIMSTYLE
105
68
330
A
100
AcDbSymbolTableRecord
100
AcDbDimStyleTableRecord
  2
AM_JIS$SH
 70
     0
  3

  4
"
  5

  6
GENAXEH
  7
OPEN30
 40
0.5
 41
2.5
 42
1.0
 43
10.0
 44
1.0
 45
0.0
 46
0.0
 47
0.1
 48
0.1
140
3.2
141
0.0
142
0.0
143
0.0393701
144
2.0
145
0.0
146
0.71
147
1.5
 71
     0
 72
     0
 73
     0
 74
     0
 75
     1
 76
     1
 77
     3
 78
     8
170
     0
171
     2
172
     1
173
     1
174
     0
175
     0
176
   256
177
   256
178
     2
270
     2
271
     2
272
     2
273
     2
274
     2
340
6B
275
     0
280
     0
281
     0
282
     0
283
     0
284
     0
285
     0
286
     0
287
     3
288
     0
  0
DIMSTYLE
105
B34
330
A
100
AcDbSymbolTableRecord
100
AcDbDimStyleTableRecord
  2
AM_JIS$2
 70
     0
  3

  4
"
  5
OPEN30
  6

  7

 40
0.5
 41
2.5
 42
1.0
 43
12.0
 44
1.0
 45
0.0
 46
0.0
 47
0.1
 48
0.1
140
3.2
141
0.0
142
0.0
143
0.0393701
144
1.0
145
0.0
146
0.71
147
1.5
 71
     0
 72
     0
 73
     0
 74
     0
 75
     0
 76
     0
 77
     3
 78
     8
170
     0
171
     2
172
     1
173
     0
174
     0
175
     0
176
   256
177
   256
178
     2
270
     2
271
     3
272
     3
273
     2
274
     2
340
6B
275
     0
280
     0
281
     0
282
     0
283
     0
284
     0
285
     0
286
     0
287
     3
288
     0
  0
ENDTAB
  0
TABLE
  2
BLOCK_RECORD
  5
1
330
0
100
AcDbSymbolTable
 70
     9
  0
BLOCK_RECORD
  5
1F
102
{ACAD_XDICTIONARY
360
74
102
}
330
1
100
AcDbSymbolTableRecord
100
AcDbBlockTableRecord
  2
*MODEL_SPACE
  0
BLOCK_RECORD
  5
101
102
{ACAD_XDICTIONARY
360
157A
102
}
330
1
100
AcDbSymbolTableRecord
100
AcDbBlockTableRecord
  2
*PAPER_SPACE
  0
BLOCK_RECORD
  5
59
330
1
100
AcDbSymbolTableRecord
100
AcDbBlockTableRecord
  2
_OPEN30
  0
BLOCK_RECORD
  5
64
330
1
100
AcDbSymbolTableRecord
100
AcDbBlockTableRecord
  2
GENAXEH
  0
BLOCK_RECORD
  5
1109
330
1
100
AcDbSymbolTableRecord
100
AcDbBlockTableRecord
  2
*D5
  0
BLOCK_RECORD
  5
11A2
330
1
100
AcDbSymbolTableRecord
100
AcDbBlockTableRecord
  2
*D6
  0
BLOCK_RECORD
  5
1246
330
1
100
AcDbSymbolTableRecord
100
AcDbBlockTableRecord
  2
*D7
  0
BLOCK_RECORD
  5
12F5
330
1
100
AcDbSymbolTableRecord
100
AcDbBlockTableRecord
  2
*D8
  0
ENDTAB
  0
ENDSEC
  0
SECTION
  2
BLOCKS
  0
BLOCK
  5
20
330
1F
100
AcDbEntity
  8
0
100
AcDbBlockBegin
  2
*MODEL_SPACE
 70
     0
 10
0.0
 20
0.0
 30
0.0
  3
*MODEL_SPACE
  1

  0
ENDBLK
  5
21
330
1F
100
AcDbEntity
  8
0
100
AcDbBlockEnd
  0
BLOCK
  5
103
330
101
100
AcDbEntity
 67
     1
  8
0
100
AcDbBlockBegin
  2
*PAPER_SPACE
 70
     0
 10
0.0
 20
0.0
 30
0.0
  3
*PAPER_SPACE
  1

  0
ENDBLK
  5
104
330
101
100
AcDbEntity
 67
     1
  8
0
100
AcDbBlockEnd
  0
BLOCK
  5
5D
330
59
100
AcDbEntity
  8
0
100
AcDbBlockBegin
  2
_OPEN30
 70
     0
 10
0.0
 20
0.0
 30
0.0
  3
_OPEN30
  1

  0
LINE
  5
5A
330
59
100
AcDbEntity
  8
0
 62
     0
100
AcDbLine
 10
-1.0
 20
0.26794919
 30
0.0
 11
0.0
 21
0.0
 31
0.0
  0
LINE
  5
5B
330
59
100
AcDbEntity
  8
0
 62
     0
100
AcDbLine
 10
0.0
 20
0.0
 30
0.0
 11
-1.0
 21
-0.26794919
 31
0.0
  0
LINE
  5
5C
330
59
100
AcDbEntity
  8
0
 62
     0
100
AcDbLine
 10
0.0
 20
0.0
 30
0.0
 11
-1.0
 21
0.0
 31
0.0
  0
ENDBLK
  5
5E
330
59
100
AcDbEntity
  8
0
100
AcDbBlockEnd
  0
BLOCK
  5
66
330
64
100
AcDbEntity
  8
0
100
AcDbBlockBegin
  2
GENAXEH
 70
     0
 10
0.0
 20
0.0
 30
0.0
  3
GENAXEH
  1

  0
LINE
  5
65
330
64
100
AcDbEntity
  8
0
100
AcDbLine
 10
-1.0
 20
0.0
 30
0.0
 11
1.0
 21
0.0
 31
0.0
  0
ENDBLK
  5
67
330
64
100
AcDbEntity
  8
0
100
AcDbBlockEnd
  0
BLOCK
  5
1113
330
1109
100
AcDbEntity
  8
0
100
AcDbBlockBegin
  2
*D5
 70
     1
 10
0.0
 20
0.0
 30
0.0
  3
*D5
  1

  0
LINE
  5
1396
330
1109
100
AcDbEntity
  8
AM_5
100
AcDbLine
 10
-38.0
 20
-1.5
 30
0.0
 11
-38.0
 21
-14.99999999999998
 31
0.0
  0
LINE
  5
1397
330
1109
100
AcDbEntity
  8
AM_5
100
AcDbLine
 10
0.0000000000000457
 20
-1.0
 30
0.0
 11
0.0000000000000449
 21
-14.99999999999998
 31
0.0
  0
LINE
  5
1398
330
1109
100
AcDbEntity
  8
AM_5
100
AcDbLine
 10
-36.75
 20
-14.49999999999998
 30
0.0
 11
-1.249999999999955
 21
-14.49999999999998
 31
0.0
  0
INSERT
  5
1399
330
1109
100
AcDbEntity
  8
AM_5
100
AcDbBlockReference
  2
_OPEN30
 10
-38.0
 20
-14.49999999999998
 30
0.0
 41
1.25
 42
1.25
 43
1.25
 50
180.0
  0
INSERT
  5
139A
330
1109
100
AcDbEntity
  8
AM_5
100
AcDbBlockReference
  2
_OPEN30
 10
0.0000000000000449
 20
-14.49999999999998
 30
0.0
 41
1.25
 42
1.25
 43
1.25
  0
MTEXT
  5
139B
330
1109
100
AcDbEntity
  8
AM_5
 62
     2
100
AcDbMText
 10
-18.99999999999998
 20
-12.94999999999998
 30
0.0
 40
1.6
 41
0.0
 71
     5
 72
     1
  1
38
  7
ASAMI
1001
ACAD
1000
MTEXTBEGIN
1070
    73
1070
     1
1070
    44
1040
1.0
1070
    74
1070
     0
1000
MTEXTEND
  0
POINT
  5
139C
330
1109
100
AcDbEntity
  8
DEFPOINTS
 62
     0
100
AcDbPoint
 10
-38.0
 20
-1.0
 30
0.0
  0
POINT
  5
139D
330
1109
100
AcDbEntity
  8
DEFPOINTS
 62
     0
100
AcDbPoint
 10
0.0000000000000457
 20
-0.5
 30
0.0
  0
POINT
  5
139E
330
1109
100
AcDbEntity
  8
DEFPOINTS
 62
     0
100
AcDbPoint
 10
0.0000000000000449
 20
-14.49999999999998
 30
0.0
  0
ENDBLK
  5
1114
330
1109
100
AcDbEntity
  8
0
100
AcDbBlockEnd
  0
BLOCK
  5
11AE
330
11A2
100
AcDbEntity
  8
0
100
AcDbBlockBegin
  2
*D6
 70
     1
 10
0.0
 20
0.0
 30
0.0
  3
*D6
  1

  0
LINE
  5
1482
330
11A2
100
AcDbEntity
  8
AM_5
100
AcDbLine
 10
0.0000000000000464
 20
-0.9166666666660862
 30
0.0
 11
0.000000000000046
 21
-7.583333333332752
 31
0.0
  0
LINE
  5
1483
330
11A2
100
AcDbEntity
  8
AM_5
100
AcDbLine
 10
-1.499999999999954
 20
-1.000000000000229
 30
0.0
 11
-1.499999999999954
 21
-7.583333333332751
 31
0.0
  0
LINE
  5
1484
330
11A2
100
AcDbEntity
  8
AM_5
100
AcDbLine
 10
1.250000000000045
 20
-7.083333333332752
 30
0.0
 11
2.500000000000046
 21
-7.083333333332752
 31
0.0
  0
LINE
  5
1485
330
11A2
100
AcDbEntity
  8
AM_5
100
AcDbLine
 10
-2.749999999999954
 20
-7.083333333332752
 30
0.0
 11
-8.547619047619001
 21
-7.083333333332752
 31
0.0
  0
LINE
  5
1486
330
11A2
100
AcDbEntity
  8
AM_5
100
AcDbLine
 10
0.000000000000046
 20
-7.083333333332752
 30
0.0
 11
-1.499999999999954
 21
-7.083333333332752
 31
0.0
  0
INSERT
  5
1487
330
11A2
100
AcDbEntity
  8
AM_5
100
AcDbBlockReference
  2
_OPEN30
 10
0.000000000000046
 20
-7.083333333332752
 30
0.0
 41
1.25
 42
1.25
 43
1.25
 50
180.0
  0
INSERT
  5
1488
330
11A2
100
AcDbEntity
  8
AM_5
100
AcDbBlockReference
  2
_OPEN30
 10
-1.499999999999954
 20
-7.083333333332752
 30
0.0
 41
1.25
 42
1.25
 43
1.25
  0
MTEXT
  5
1489
330
11A2
100
AcDbEntity
  8
AM_5
 62
     2
100
AcDbMText
 10
-6.273809523809478
 20
-5.533333333332752
 30
0.0
 40
1.6
 41
0.0
 71
     5
 72
     1
  1
1.5
  7
ASAMI
1001
ACAD
1000
MTEXTBEGIN
1070
    73
1070
     1
1070
    44
1040
1.0
1070
    74
1070
     0
1000
MTEXTEND
  0
POINT
  5
148A
330
11A2
100
AcDbEntity
  8
DEFPOINTS
 62
     0
100
AcDbPoint
 10
0.0000000000000464
 20
-0.4166666666660863
 30
0.0
  0
POINT
  5
148B
330
11A2
100
AcDbEntity
  8
DEFPOINTS
 62
     0
100
AcDbPoint
 10
-1.499999999999954
 20
-0.5000000000002296
 30
0.0
  0
POINT
  5
148C
330
11A2
100
AcDbEntity
  8
DEFPOINTS
 62
     0
100
AcDbPoint
 10
-1.499999999999954
 20
-7.083333333332752
 30
0.0
  0
ENDBLK
  5
11AF
330
11A2
100
AcDbEntity
  8
0
100
AcDbBlockEnd
  0
BLOCK
  5
1252
330
1246
100
AcDbEntity
  8
0
100
AcDbBlockBegin
  2
*D7
 70
     1
 10
0.0
 20
0.0
 30
0.0
  3
*D7
  1

  0
LINE
  5
1477
330
1246
100
AcDbEntity
  8
AM_5
100
AcDbLine
 10
0.500000000000047
 20
-0.5000000000000006
 30
0.0
 11
7.499999999993897
 21
-0.5000000000000026
 31
0.0
  0
LINE
  5
1478
330
1246
100
AcDbEntity
  8
AM_5
100
AcDbLine
 10
0.4999999999999553
 20
0.5000000000000005
 30
0.0
 11
7.499999999993897
 21
0.4999999999999984
 31
0.0
  0
LINE
  5
1479
330
1246
100
AcDbEntity
  8
AM_5
100
AcDbLine
 10
6.999999999993897
 20
-1.750000000000002
 30
0.0
 11
6.999999999993896
 21
-3.000000000000002
 31
0.0
  0
LINE
  5
147A
330
1246
100
AcDbEntity
  8
AM_5
100
AcDbLine
 10
6.999999999993897
 20
1.749999999999998
 30
0.0
 11
6.999999999993899
 21
6.328571428571427
 31
0.0
  0
LINE
  5
147B
330
1246
100
AcDbEntity
  8
AM_5
100
AcDbLine
 10
6.999999999993897
 20
-0.5000000000000025
 30
0.0
 11
6.999999999993897
 21
0.4999999999999986
 31
0.0
  0
INSERT
  5
147C
330
1246
100
AcDbEntity
  8
AM_5
100
AcDbBlockReference
  2
_OPEN30
 10
6.999999999993897
 20
-0.5000000000000025
 30
0.0
 41
1.25
 42
1.25
 43
1.25
 50
90.0
  0
INSERT
  5
147D
330
1246
100
AcDbEntity
  8
AM_5
100
AcDbBlockReference
  2
_OPEN30
 10
6.999999999993897
 20
0.4999999999999986
 30
0.0
 41
1.25
 42
1.25
 43
1.25
 50
270.0
  0
MTEXT
  5
147E
330
1246
100
AcDbEntity
  8
AM_5
 62
     2
100
AcDbMText
 10
5.449999999993897
 20
4.664285714285714
 30
0.0
 40
1.6
 41
0.0
 71
     5
 72
     1
  1
%%c1
  7
ASAMI
 11
0.0000000000000001
 21
1.0
 31
0.0
1001
ACAD
1000
MTEXTBEGIN
1070
    73
1070
     1
1070
    44
1040
1.0
1070
    74
1070
     0
1000
MTEXTEND
  0
POINT
  5
147F
330
1246
100
AcDbEntity
  8
DEFPOINTS
 62
     0
100
AcDbPoint
 10
0.0000000000000469
 20
-0.5000000000000005
 30
0.0
  0
POINT
  5
1480
330
1246
100
AcDbEntity
  8
DEFPOINTS
 62
     0
100
AcDbPoint
 10
-0.0000000000000448
 20
0.5000000000000006
 30
0.0
  0
POINT
  5
1481
330
1246
100
AcDbEntity
  8
DEFPOINTS
 62
     0
100
AcDbPoint
 10
6.999999999993897
 20
0.4999999999999986
 30
0.0
  0
ENDBLK
  5
1253
330
1246
100
AcDbEntity
  8
0
100
AcDbBlockEnd
  0
BLOCK
  5
1301
330
12F5
100
AcDbEntity
  8
0
100
AcDbBlockBegin
  2
*D8
 70
     1
 10
0.0
 20
0.0
 30
0.0
  3
*D8
  1

  0
LINE
  5
13B7
330
12F5
100
AcDbEntity
  8
AM_5
100
AcDbLine
 10
-38.0
 20
-1.5
 30
0.0
 11
-45.49999999999999
 21
-1.499999999999998
 31
0.0
  0
LINE
  5
13B8
330
12F5
100
AcDbEntity
  8
AM_5
100
AcDbLine
 10
-38.0
 20
1.5
 30
0.0
 11
-45.49999999999999
 21
1.500000000000002
 31
0.0
  0
LINE
  5
13B9
330
12F5
100
AcDbEntity
  8
AM_5
100
AcDbLine
 10
-45.0
 20
-2.749999999999998
 30
0.0
 11
-45.0
 21
-3.999999999999998
 31
0.0
  0
LINE
  5
13BA
330
12F5
100
AcDbEntity
  8
AM_5
100
AcDbLine
 10
-45.0
 20
2.750000000000001
 30
0.0
 11
-45.0
 21
8.014285714285716
 31
0.0
  0
LINE
  5
13BB
330
12F5
100
AcDbEntity
  8
AM_5
100
AcDbLine
 10
-45.0
 20
-1.499999999999998
 30
0.0
 11
-45.0
 21
1.500000000000001
 31
0.0
  0
INSERT
  5
13BC
330
12F5
100
AcDbEntity
  8
AM_5
100
AcDbBlockReference
  2
_OPEN30
 10
-45.0
 20
-1.499999999999998
 30
0.0
 41
1.25
 42
1.25
 43
1.25
 50
90.0
  0
INSERT
  5
13BD
330
12F5
100
AcDbEntity
  8
AM_5
100
AcDbBlockReference
  2
_OPEN30
 10
-45.0
 20
1.500000000000001
 30
0.0
 41
1.25
 42
1.25
 43
1.25
 50
270.0
  0
MTEXT
  5
13BE
330
12F5
100
AcDbEntity
  8
AM_5
 62
     2
100
AcDbMText
 10
-46.55
 20
6.007142857142851
 30
0.0
 40
1.6
 41
0.0
 71
     5
 72
     1
  1
%%c3
  7
ASAMI
 11
0.0000000000000001
 21
1.0
 31
0.0
1001
ACAD
1000
MTEXTBEGIN
1070
    73
1070
     1
1070
    44
1040
1.0
1070
    74
1070
     0
1000
MTEXTEND
  0
POINT
  5
13BF
330
12F5
100
AcDbEntity
  8
DEFPOINTS
 62
     0
100
AcDbPoint
 10
-37.5
 20
-1.5
 30
0.0
  0
POINT
  5
13C0
330
12F5
100
AcDbEntity
  8
DEFPOINTS
 62
     0
100
AcDbPoint
 10
-37.5
 20
1.5
 30
0.0
  0
POINT
  5
13C1
330
12F5
100
AcDbEntity
  8
DEFPOINTS
 62
     0
100
AcDbPoint
 10
-45.0
 20
1.500000000000001
 30
0.0
  0
ENDBLK
  5
1302
330
12F5
100
AcDbEntity
  8
0
100
AcDbBlockEnd
  0
ENDSEC
  0
SECTION
  2
ENTITIES
  0
LINE
  5
BD1
330
1F
100
AcDbEntity
  8
AM_0
100
AcDbLine
 10
-6.229257065877299
 20
-1.5
 30
0.0
 11
-37.5
 21
-1.5
 31
0.0
  0
LINE
  5
BD2
330
1F
100
AcDbEntity
  8
AM_0
100
AcDbLine
 10
-38.0
 20
-1.0
 30
0.0
 11
-38.0
 21
1.0
 31
0.0
  0
LINE
  5
BD3
330
1F
100
AcDbEntity
  8
AM_0
100
AcDbLine
 10
-37.5
 20
1.5
 30
0.0
 11
-6.23205080755669
 21
1.5
 31
0.0
  0
LINE
  5
BD4
330
1F
100
AcDbEntity
  8
AM_0
100
AcDbLine
 10
-6.229257065877302
 20
1.5
 30
0.0
 11
-6.229257065877299
 21
-1.5
 31
0.0
  0
LINE
  5
BD5
330
1F
100
AcDbEntity
  8
AM_0
100
AcDbLine
 10
-6.23205080755669
 20
1.5
 30
0.0
 11
-2.499999999999953
 21
0.5000000000032545
 31
0.0
  0
LINE
  5
BD6
330
1F
100
AcDbEntity
  8
AM_0
100
AcDbLine
 10
-6.229257065877299
 20
-1.5
 30
0.0
 11
-2.499999999999952
 21
-0.4999999999967452
 31
0.0
  0
SPLINE
  5
DD2
330
1F
100
AcDbEntity
  8
AM_0
100
AcDbSpline
210
0.0
220
0.0
230
1.0
 70
     8
 71
     3
 72
     8
 73
     4
 74
     0
 42
0.0000000001
 43
0.0000000001
 40
0.0
 40
0.0
 40
0.0
 40
0.0
 40
5.964454022267601
 40
5.964454022267601
 40
5.964454022267601
 40
5.964454022267601
 10
-0.9687185760817552
 20
-0.448490624780244
 30
0.0
 10
-1.101094131135732
 20
-0.448490624780244
 30
0.0
 10
-1.230689865062777
 20
-0.4312058892644938
 30
0.0
 10
-1.358277545447981
 20
-0.4014352157018961
 30
0.0
  0
SPLINE
  5
DD3
330
1F
100
AcDbEntity
  8
AM_0
100
AcDbSpline
210
0.0
220
0.0
230
1.0
 70
     8
 71
     3
 72
     8
 73
     4
 74
     0
 42
0.0000000001
 43
0.0000000001
 40
0.0
 40
0.0
 40
0.0
 40
0.0
 40
5.945175151932629
 40
5.945175151932629
 40
5.945175151932629
 40
5.945175151932629
 10
-1.358277546607269
 20
-0.5000000000000013
 30
0.0
 10
-1.226329868296397
 20
-0.4994258982847684
 30
0.0
 10
-1.097708062802075
 20
-0.4807432242269
 30
0.0
 10
-0.9715024166566301
 20
-0.4484880775948579
 30
0.0
  0
SPLINE
  5
DD4
330
1F
100
AcDbEntity
  8
AM_0
100
AcDbSpline
210
0.0
220
0.0
230
1.0
 70
     8
 71
     3
 72
     8
 73
     4
 74
     0
 42
0.0000000001
 43
0.0000000001
 40
0.0
 40
0.0
 40
0.0
 40
0.0
 40
6.292897229749232
 40
6.292897229749232
 40
6.292897229749232
 40
6.292897229749232
 10
-0.9686519404255699
 20
-0.4484567220486508
 30
0.0
 10
-0.8289868913572258
 20
-0.4484567220486508
 30
0.0
 10
-0.6924162443352535
 20
-0.4292159441326486
 30
0.0
 10
-0.5580335858571737
 20
-0.396370404770824
 30
0.0
  0
SPLINE
  5
DD9
330
1F
100
AcDbEntity
  8
AM_0
100
AcDbSpline
210
0.0
220
0.0
230
1.0
 70
     8
 71
     3
 72
     8
 73
     4
 74
     0
 42
0.0000000001
 43
0.0000000001
 40
6.388373957087368
 40
6.388373957087368
 40
6.388373957087368
 40
6.388373957087368
 40
21.48330096007931
 40
21.48330096007931
 40
21.48330096007931
 40
21.48330096007931
 10
-1.358277545447981
 20
-0.4014352157018961
 30
0.0
 10
-1.707640261196275
 20
-0.3151253736641383
 30
0.0
 10
-2.017318190203696
 20
-0.1575626868320811
 30
0.0
 10
-2.326996119211118
 20
-0.0000000000000471
 30
0.0
  0
SPLINE
  5
DDA
330
1F
100
AcDbEntity
  8
AM_0
100
AcDbSpline
210
0.0
220
0.0
230
1.0
 70
     8
 71
     3
 72
     8
 73
     4
 74
     0
 42
0.0000000001
 43
0.0000000001
 40
1.290752519848677
 40
1.290752519848677
 40
1.290752519848677
 40
1.290752519848677
 40
1.446844374586205
 40
1.446844374586205
 40
1.446844374586205
 40
1.446844374586205
 10
-1.500000000000012
 20
0.0805993399148376
 30
0.0
 10
-1.45272187130754
 20
0.0539421714868418
 30
0.0
 10
-1.405499708377761
 20
0.0269710857433974
 30
0.0
 10
-1.358277545447982
 20
-0.0000000000000466
 30
0.0
  0
SPLINE
  5
DDB
330
1F
100
AcDbEntity
  8
AM_0
100
AcDbSpline
210
0.0
220
0.0
230
1.0
 70
     8
 71
     3
 72
     8
 73
     4
 74
     0
 42
0.0000000001
 43
0.0000000001
 40
6.292897230975928
 40
6.292897230975928
 40
6.292897230975928
 40
6.292897230975928
 40
14.57375042439464
 40
14.57375042439464
 40
14.57375042439464
 40
14.57375042439464
 10
-1.916311131226598
 20
0.3963704047515647
 30
0.0
 10
-1.739476356088317
 20
0.3531488043300744
 30
0.0
 10
-1.566430313384351
 20
0.2863691276595029
 30
0.0
 10
-1.395107624363937
 20
0.2088737569712286
 30
0.0
  0
SPLINE
  5
DDC
330
1F
100
AcDbEntity
  8
AM_0
100
AcDbSpline
210
0.0
220
0.0
230
1.0
 70
     8
 71
     3
 72
     8
 73
     4
 74
     0
 42
0.0000000001
 43
0.0000000001
 40
0.0
 40
0.0
 40
0.0
 40
0.0
 40
8.656655244422164
 40
8.656655244422164
 40
8.656655244422164
 40
8.656655244422164
 10
-1.358277544288649
 20
0.4994258982847435
 30
0.0
 10
-1.550404022020394
 20
0.499425898284721
 30
0.0
 10
-1.735479079911329
 20
0.4598154303570478
 30
0.0
 10
-1.916311131305156
 20
0.3963704047707769
 30
0.0
  0
SPLINE
  5
DDF
330
1F
100
AcDbEntity
  8
AM_0
100
AcDbSpline
210
0.0
220
0.0
230
1.0
 70
     8
 71
     3
 72
     8
 73
     4
 74
     0
 42
0.0000000001
 43
0.0000000001
 40
14.57482399616119
 40
14.57482399616119
 40
14.57482399616119
 40
14.57482399616119
 40
21.48330096007931
 40
21.48330096007931
 40
21.48330096007931
 40
21.48330096007931
 10
-1.395107624363937
 20
0.20887751848495
 30
0.0
 10
-1.252178419359916
 20
0.1442230481984092
 30
0.0
 10
-1.110448496561502
 20
0.0721115240991815
 30
0.0
 10
-0.9687185737630896
 20
-0.0000000000000462
 30
0.0
  0
SPLINE
  5
DE0
330
1F
100
AcDbEntity
  8
AM_0
100
AcDbSpline
210
0.0
220
0.0
230
1.0
 70
     8
 71
     3
 72
     8
 73
     4
 74
     0
 42
0.0000000001
 43
0.0000000001
 40
21.11538617786851
 40
21.11538617786851
 40
21.11538617786851
 40
21.11538617786851
 40
21.48330096007931
 40
21.48330096007931
 40
21.48330096007931
 40
21.48330096007931
 10
-2.34964001789691
 20
0.011519891621064
 30
0.0
 10
-2.342091930907813
 20
0.0076806786277963
 30
0.0
 10
-2.334544025059465
 20
0.0038403393138746
 30
0.0
 10
-2.326996119211118
 20
-0.0000000000000471
 30
0.0
  0
SPLINE
  5
DE1
330
1F
100
AcDbEntity
  8
AM_0
100
AcDbSpline
210
0.0
220
0.0
230
1.0
 70
     8
 71
     3
 72
     8
 73
     4
 74
     0
 42
0.0000000001
 43
0.0000000001
 40
6.388373957087368
 40
6.388373957087368
 40
6.388373957087368
 40
6.388373957087368
 40
21.48330096007931
 40
21.48330096007931
 40
21.48330096007931
 40
21.48330096007931
 10
-0.027174493201072
 20
-0.3948999204735175
 30
0.0
 10
-0.3493627157482924
 20
-0.3151253736641143
 30
0.0
 10
-0.6590406447557142
 20
-0.1575626868320803
 30
0.0
 10
-0.9687185737630896
 20
-0.0000000000000235
 30
0.0
  0
SPLINE
  5
DE2
330
1F
100
AcDbEntity
  8
AM_0
100
AcDbSpline
210
0.0
220
0.0
230
1.0
 70
     8
 71
     3
 72
     8
 73
     4
 74
     2
 42
0.0000000001
 43
0.0000000001
 44
0.0000000001
 12
-1.0
 22
0.0000000000000265
 32
0.0
 40
0.0
 40
0.0
 40
0.0
 40
0.0
 40
1.447184895407326
 40
1.447184895407326
 40
1.447184895407326
 40
1.447184895407326
 10
0.0000000011593343
 20
-0.4994258982847671
 30
0.0
 10
-0.4823949639764411
 20
-0.4994258982847543
 30
0.0
 10
-0.9203362547122114
 20
-0.2497129491423889
 30
0.0
 10
-1.358277545447982
 20
-0.0000000000000235
 30
0.0
 11
0.0000000011593343
 21
-0.4994258982847671
 31
0.0
 11
-1.358277545447982
 21
-0.0000000000000235
 31
0.0
  0
SPLINE
  5
DE3
330
1F
100
AcDbEntity
  8
AM_0
100
AcDbSpline
210
0.0
220
0.0
230
1.0
 70
     8
 71
     3
 72
     8
 73
     4
 74
     0
 42
0.0000000001
 43
0.0000000001
 40
0.0
 40
0.0
 40
0.0
 40
0.0
 40
14.57375042439464
 40
14.57375042439464
 40
14.57375042439464
 40
14.57375042439464
 10
-0.9686519404255708
 20
0.4484567220486042
 30
0.0
 10
-0.6452009934579108
 20
0.4484567220486042
 30
0.0
 10
-0.3383466078895703
 20
0.3452604510807989
 30
0.0
 10
-0.0368300789159541
 20
0.2088737569712522
 30
0.0
  0
SPLINE
  5
DE4
330
1F
100
AcDbEntity
  8
AM_0
100
AcDbSpline
210
0.0
220
0.0
230
1.0
 70
     8
 71
     3
 72
     8
 73
     4
 74
     2
 42
0.0000000001
 43
0.0000000001
 44
0.0000000001
 12
1.0
 22
-0.0000000000000266
 32
0.0
 40
0.0
 40
0.0
 40
0.0
 40
0.0
 40
1.447184895407333
 40
1.447184895407333
 40
1.447184895407333
 40
1.447184895407333
 10
-1.358277546607269
 20
0.4994258982847435
 30
0.0
 10
-0.8758825814714919
 20
0.4994258982847307
 30
0.0
 10
-0.4379412907357228
 20
0.249712949142354
 30
0.0
 10
0.0000000000000465
 20
-0.0000000000000226
 30
0.0
 11
-1.358277546607269
 21
0.4994258982847435
 31
0.0
 11
0.0000000000000465
 21
-0.0000000000000226
 31
0.0
  0
SPLINE
  5
DE5
330
1F
100
AcDbEntity
  8
AM_0
100
AcDbSpline
210
0.0
220
0.0
230
1.0
 70
     8
 71
     3
 72
     8
 73
     4
 74
     0
 42
0.0000000001
 43
0.0000000001
 40
0.0
 40
0.0
 40
0.0
 40
0.0
 40
8.656655244422164
 40
8.656655244422164
 40
8.656655244422164
 40
8.656655244422164
 10
0.0000000011593336
 20
0.4994258982847449
 30
0.0
 10
-0.1921264765724114
 20
0.4994258982847445
 30
0.0
 10
-0.3772015344633472
 20
0.4598154303570486
 30
0.0
 10
-0.5580335858571742
 20
0.3963704047708009
 30
0.0
  0
SPLINE
  5
DE6
330
1F
100
AcDbEntity
  8
AM_0
100
AcDbSpline
210
0.0
220
0.0
230
1.0
 70
     8
 71
     3
 72
     8
 73
     4
 74
     0
 42
0.0000000001
 43
0.0000000001
 40
0.0
 40
0.0
 40
0.0
 40
0.0
 40
4.291796785366923
 40
4.291796785366923
 40
4.291796785366923
 40
4.291796785366923
 10
0.0000000000000463
 20
0.4217294669658491
 30
0.0
 10
-0.0717842334869594
 20
0.3591191085115501
 30
0.0
 10
-0.1677147053461788
 20
0.3449857112356772
 30
0.0
 10
-0.2696575318951087
 20
0.3429229595151584
 30
0.0
  0
LINE
  5
DE8
330
1F
100
AcDbEntity
  8
AM_0
100
AcDbLine
 10
0.0000000000000469
 20
-0.4993667989131612
 30
0.0
 11
0.000000000000046
 21
0.4993667989130706
 31
0.0
  0
LINE
  5
DE9
330
1F
100
AcDbEntity
  8
AM_0
100
AcDbLine
 10
0.0000000000000465
 20
0.0
 30
0.0
 11
-0.0458738647438614
 21
0.2601636151176539
 31
0.0
  0
LINE
  5
DEA
330
1F
100
AcDbEntity
  8
AM_0
100
AcDbLine
 10
-0.2696575318951086
 20
0.3429229595151812
 30
0.0
 11
-0.0458738647438614
 21
0.2601636151176539
 31
0.0
  0
LINE
  5
DED
330
1F
100
AcDbEntity
  8
AM_0
100
AcDbLine
 10
0.0000000000000465
 20
-0.1241375863708983
 30
0.0
 11
-0.0419017685220739
 21
-0.2356849049192988
 31
0.0
  0
LINE
  5
DEE
330
1F
100
AcDbEntity
  8
AM_0
100
AcDbLine
 10
-0.1522916315387182
 20
-0.0646576603304539
 30
0.0
 11
-0.0419017685220739
 21
-0.2356849049192988
 31
0.0
  0
ARC
  5
DEF
330
1F
100
AcDbEntity
  8
AM_0
100
AcDbCircle
 10
-0.1244745820094968
 20
-0.0463680408523031
 30
0.0
 40
0.0332911163100001
100
AcDbArc
 50
83.99999999999172
 51
213.324789491297
1001
GENIUS_GENODEF_13
1002
{
1000
HIER
1070
     0
1002
}
1002
{
1000
MANEDIT
1070
     0
1002
}
1002
{
1000
NOSEL
1070
     0
1002
}
1002
{
1000
BEHIND
1070
     0
1002
}
1002
{
1000
REACTOR
1002
}
1001
GENIUS_GENOBJ-N-FIL_13
1002
{
1000
OWNER
1000
GEN
1002
}
  0
LINE
  5
DF0
330
1F
100
AcDbEntity
  8
AM_0
100
AcDbLine
 10
-0.1209947127811566
 20
-0.0132592967607708
 30
0.0
 11
0.0000000000000465
 21
-0.0259763535188311
 31
0.0
  0
ARC
  5
DF1
330
1F
100
AcDbEntity
  8
AM_0
100
AcDbCircle
 10
0.3413078141332805
 20
-0.3548978777721684
 30
0.0
 40
0.3706472369231116
100
AcDbArc
 50
186.1197879073269
 51
202.9504029633303
  0
ARC
  5
DF2
330
1F
100
AcDbEntity
  8
AM_0
100
AcDbCircle
 10
1.717020971610421
 20
-0.1531107924361536
 30
0.0
 40
1.760859929070931
100
AcDbArc
 50
182.6878253062667
 51
187.0973004564703
  0
LINE
  5
DF6
330
1F
100
AcDbEntity
  8
AM_11
100
AcDbLine
 10
-0.0000000000000448
 20
0.5000000000000006
 30
0.0
 11
-1.500000000000046
 21
0.4999999999999996
 31
0.0
  0
LINE
  5
DF7
330
1F
100
AcDbEntity
  8
AM_11
100
AcDbLine
 10
-1.499999999999953
 20
-0.5000000000000014
 30
0.0
 11
0.0000000000000469
 21
-0.5000000000000005
 31
0.0
  0
LINE
  5
DF8
330
1F
100
AcDbEntity
  8
AM_11
100
AcDbLine
 10
0.0000000000000469
 20
-0.5000000000000005
 30
0.0
 11
-0.0000000000000448
 21
0.5000000000000006
 31
0.0
  0
LINE
  5
E6F
330
1F
100
AcDbEntity
  8
AM_11
100
AcDbLine
 10
-1.499999999999954
 20
-0.5000000000002296
 30
0.0
 11
-1.500000000000046
 21
0.4999999999997714
 31
0.0
  0
LINE
  5
10DF
330
1F
100
AcDbEntity
  8
AM_0
100
AcDbLine
 10
-2.34964001789691
 20
0.011519891621064
 30
0.0
 11
-1.500000000000007
 21
0.0805993399148411
 31
0.0
  0
LINE
  5
10E1
330
1F
100
AcDbEntity
  8
AM_0
100
AcDbLine
 10
-1.500000000000007
 20
0.0805993399148411
 30
0.0
 11
-1.500000000000007
 21
0.2547740078664813
 31
0.0
  0
LINE
  5
10E3
330
1F
100
AcDbEntity
  8
AM_0
100
AcDbLine
 10
-1.358277544288649
 20
0.4999999999999996
 30
0.0
 11
-2.499999999999957
 21
0.4999999999999988
 31
0.0
  0
LINE
  5
10E4
330
1F
100
AcDbEntity
  8
AM_0
100
AcDbLine
 10
-1.358277546607269
 20
-0.5000000000000013
 30
0.0
 11
-2.499999999999949
 21
-0.4999999999967447
 31
0.0
  0
LINE
  5
10EF
330
1F
100
AcDbEntity
  8
AM_0
100
AcDbLine
 10
-38.0
 20
1.0
 30
0.0
 11
-37.5
 21
1.5
 31
0.0
1001
GENIUS_GENFIL_13
1070
     0
1040
0.5
1040
0.5
1040
20.0
1040
0.0
1002
{
1002
}
1001
GENIUS_GENODEF_13
1002
{
1000
HIER
1070
     0
1002
}
1002
{
1000
MANEDIT
1070
     0
1002
}
1002
{
1000
NOSEL
1070
     0
1002
}
1002
{
1000
BEHIND
1070
     0
1002
}
1002
{
1000
REACTOR
1002
}
1001
GENIUS_GENOBJ-N-CHA_13
1002
{
1000
OWNER
1000
GEN
1002
}
  0
LINE
  5
10F3
330
1F
100
AcDbEntity
  8
AM_0
100
AcDbLine
 10
-38.0
 20
-1.0
 30
0.0
 11
-37.5
 21
-1.5
 31
0.0
1001
GENIUS_GENFIL_13
1070
     0
1040
0.5
1040
0.5
1040
20.0
1040
0.0
1002
{
1002
}
1001
GENIUS_GENODEF_13
1002
{
1000
HIER
1070
     0
1002
}
1002
{
1000
MANEDIT
1070
     0
1002
}
1002
{
1000
NOSEL
1070
     0
1002
}
1002
{
1000
BEHIND
1070
     0
1002
}
1002
{
1000
REACTOR
1002
}
1001
GENIUS_GENOBJ-N-CHA_13
1002
{
1000
OWNER
1000
GEN
1002
}
  0
LINE
  5
10F4
330
1F
100
AcDbEntity
  8
AM_0
100
AcDbLine
 10
-37.5
 20
-1.5
 30
0.0
 11
-37.5
 21
1.5
 31
0.0
  0
LINE
  5
10FE
330
1F
100
AcDbEntity
  8
AM_7
100
AcDbLine
 10
-39.5
 20
-0.0000000000001377
 30
0.0
 11
1.499999999999999
 21
0.0000000000036222
 31
0.0
1001
GENIUS_GENODEF_13
1002
{
1000
HIER
1070
     0
1002
}
1002
{
1000
MANEDIT
1070
     0
1002
}
1002
{
1000
NOSEL
1070
     0
1002
}
1002
{
1000
BEHIND
1070
     0
1002
}
1002
{
1000
REACTOR
1002
}
1001
GENIUS_GENOBJ-N-CEN_13
1002
{
1000
OWNER
1000
GEN
1002
}
  0
DIMENSION
  5
1107
330
1F
100
AcDbEntity
  8
AM_5
100
AcDbDimension
  2
*D5
 10
0.0000000000000449
 20
-14.49999999999998
 30
0.0
 11
-18.99999999999998
 21
-12.94999999999998
 31
0.0
 70
    32
  1
<>
  3
AM_JIS
100
AcDbAlignedDimension
 13
-38.0
 23
-1.0
 33
0.0
 14
0.0000000000000457
 24
-0.5
 34
0.0
 50
0.0000000000001132
100
AcDbRotatedDimension
1001
GENIUS_GENDTOL_13
1000

1000
h7
1000

1040
0.0
  0
DIMENSION
  5
11A1
330
1F
100
AcDbEntity
  8
AM_5
100
AcDbDimension
  2
*D6
 10
-1.499999999999954
 20
-7.083333333332752
 30
0.0
 11
-6.273809523809478
 21
-5.533333333332752
 31
0.0
 70
    32
  1
<>
  3
AM_JIS
100
AcDbAlignedDimension
 13
0.0000000000000464
 23
-0.4166666666660863
 33
0.0
 14
-1.499999999999954
 24
-0.5000000000002296
 34
0.0
 50
0.0000000000001641
100
AcDbRotatedDimension
1001
GENIUS_GENDTOL_13
1000

1000
h7
1000

1040
0.0
  0
DIMENSION
  5
1245
330
1F
100
AcDbEntity
  8
AM_5
100
AcDbDimension
  2
*D7
 10
6.999999999993897
 20
0.4999999999999986
 30
0.0
 11
5.449999999993897
 21
4.664285714285714
 31
0.0
 70
    32
  1
%%c<>
  3
AM_JIS
100
AcDbAlignedDimension
 13
0.0000000000000469
 23
-0.5000000000000005
 33
0.0
 14
-0.0000000000000448
 24
0.5000000000000006
 34
0.0
 50
90.00000000000005
100
AcDbRotatedDimension
1001
GENIUS_GENDTOL_13
1000

1000
h7
1000

1040
0.0
  0
DIMENSION
  5
12F4
330
1F
100
AcDbEntity
  8
AM_5
100
AcDbDimension
  2
*D8
 10
-45.0
 20
1.500000000000001
 30
0.0
 11
-46.55
 21
6.007142857142851
 31
0.0
 70
    32
  1
%%c<>
  3
AM_JIS
100
AcDbAlignedDimension
 13
-37.5
 23
-1.5
 33
0.0
 14
-37.5
 24
1.499999999999999
 34
0.0
 50
270.0
100
AcDbRotatedDimension
1001
GENIUS_GENDTOL_13
1000

1000
h7
1000

1040
0.0
  0
TEXT
  5
13C8
330
1F
100
AcDbEntity
  8
AM_6
100
AcDbText
 10
-31.0238095238095
 20
-24.85034000863718
 30
0.0
 40
2.5
  1
S-SIT4010ZX
 72
     4
 11
-18.99999999999997
 21
-23.60034000863718
 31
0.0
100
AcDbText
  0
LINE
  5
148E
330
1F
100
AcDbEntity
  8
AM_0
100
AcDbLine
 10
-2.49999999999995
 20
-0.4999999999967447
 30
0.0
 11
-2.499999999999957
 21
0.5000000000032554
 31
0.0
  0
VIEWPORT
  5
110
330
101
100
AcDbEntity
 67
     1
  8
0
100
AcDbViewport
 10
420.5
 20
297.0
 30
0.0
 40
948.9782706766916
 41
628.452
 68
     1
 69
     1
1001
ACAD
1000
MVIEW
1002
{
1070
    16
1010
0.0
1020
0.0
1030
0.0
1010
0.0
1020
0.0
1030
1.0
1040
0.0
1040
628.452
1040
420.5
1040
297.0
1040
50.0
1040
0.0
1040
0.0
1070
     0
1070
   100
1070
     1
1070
     1
1070
     0
1070
     0
1070
     0
1070
     0
1040
0.0
1040
0.0
1040
0.0
1040
10.0
1040
10.0
1040
10.0
1040
10.0
1070
     0
1002
{
1002
}
1002
}
  0
ENDSEC
  0
SECTION
  2
OBJECTS
  0
DICTIONARY
  5
C
330
0
100
AcDbDictionary
  3
ACAD_GROUP
350
D
  3
ACAD_LAYOUT
350
1A
  3
ACAD_MLINESTYLE
350
17
  3
ACAD_PLOTSETTINGS
350
19
  3
ACAD_PLOTSTYLENAME
350
E
  3
ACDBVARIABLEDICTIONARY
350
34
  3
ACMDICTIONARY
350
43
  3
AMG
350
2B
  3
AMGSNAPSETTINGS
350
6E
  3
DWGPROPS
350
1546
  3
ACDBHEADERROUNDTRIPXREC
350
1552
  0
DICTIONARY
  5
74
330
1F
100
AcDbDictionary
280
     1
  3
ACAD_INDEX
360
1548
  3
ACAD_LAYOUTSELFREF
360
1575
  0
DICTIONARY
  5
157A
330
101
100
AcDbDictionary
280
     1
  3
ACAD_LAYOUTSELFREF
360
157B
  0
DICTIONARY
  5
D
102
{ACAD_REACTORS
330
C
102
}
330
C
100
AcDbDictionary
  0
DICTIONARY
  5
1A
102
{ACAD_REACTORS
330
C
102
}
330
C
100
AcDbDictionary
  0
DICTIONARY
  5
17
102
{ACAD_REACTORS
330
C
102
}
330
C
100
AcDbDictionary
  3
STANDARD
350
18
  0
DICTIONARY
  5
19
102
{ACAD_REACTORS
330
C
102
}
330
C
100
AcDbDictionary
  0
ACDBDICTIONARYWDFLT
  5
E
102
{ACAD_REACTORS
330
C
102
}
330
C
100
AcDbDictionary
281
     1
  3
Normal
350
F
100
AcDbDictionaryWithDefault
340
F
  0
DICTIONARY
  5
34
102
{ACAD_REACTORS
330
C
102
}
330
C
100
AcDbDictionary
  3
INDEXCTL
350
35
  3
SORTENTS
350
B5E
  0
DICTIONARY
  5
43
102
{ACAD_REACTORS
330
C
102
}
330
C
100
AcDbDictionary
  3
ACMSTDDICTIONARY
350
260
  0
DICTIONARY
  5
2B
102
{ACAD_REACTORS
330
C
102
}
330
C
100
AcDbDictionary
  3
ACMGSETTINGS
350
2C
  0
DICTIONARY
  5
6E
102
{ACAD_REACTORS
330
C
102
}
330
C
100
AcDbDictionary
  0
XRECORD
  5
1546
102
{ACAD_REACTORS
330
C
102
}
330
C
100
AcDbXrecord
  1
DWGPROPS COOKIE
  2

  3

  4

  6

  7

  8

  9

300
AmdtFileType=82
301
=
302
=
303
=
304
=
305
=
306
=
307
=
308
=
309
=
 40
0.0303231712962963
 41
2452828.754166667
 42
2452839.663414525
  1

 90
        1
  0
DICTIONARY
  5
1552
102
{ACAD_REACTORS
330
C
102
}
330
C
100
AcDbDictionary
  3
TSTACKALIGN
350
1553
  3
TSTACKSIZE
350
1554
  3
HYPERLINKBASE
350
1555
  3
STYLESHEET
350
1556
  3
LAYOUTDICT
350
1557
  3
PLOTSETDICT
350
1558
  3
PLOTSTYLNAMDICT
350
1559
  3
LWETCUNION
350
155A
  3
INSUNITS
350
155B
  3
CEPSNTYPE
350
155C
  3
FINGERPRINTGUID
350
155D
  3
VERSIONGUID
350
155E
  3
PSVPSCALE
350
155F
  3
DIMSTYLEDATA
350
1560
  3
PUCSORTHOREF
350
1561
  3
PUCSORTHOVIEW
350
1562
  3
PUCSBASE
350
1563
  3
PUCSORGTOP
350
1564
  3
PUCSORGBOTTOM
350
1565
  3
PUCSORGLEFT
350
1566
  3
PUCSORGRIGHT
350
1567
  3
PUCSORGFRONT
350
1568
  3
PUCSORGBACK
350
1569
  3
UCSORTHOREF
350
156A
  3
UCSORTHOVIEW
350
156B
  3
UCSBASE
350
156C
  3
UCSORGTOP
350
156D
  3
UCSORGBOTTOM
350
156E
  3
UCSORGLEFT
350
156F
  3
UCSORGRIGHT
350
1570
  3
UCSORGFRONT
350
1571
  3
UCSORGBACK
350
1572
  0
DICTIONARY
  5
1548
102
{ACAD_REACTORS
330
74
102
}
330
74
100
AcDbDictionary
  3
*A1
350
1549
  0
XRECORD
  5
1575
102
{ACAD_REACTORS
330
74
102
}
330
74
100
AcDbXrecord
340
1F
  0
XRECORD
  5
157B
102
{ACAD_REACTORS
330
157A
102
}
330
157A
100
AcDbXrecord
340
101
  0
MLINESTYLE
  5
18
102
{ACAD_REACTORS
330
17
102
}
330
17
100
AcDbMlineStyle
  2
STANDARD
 70
     0
  3

 62
   256
 51
90.0
 52
90.0
 71
     2
 49
0.5
 62
   256
  6
BYLAYER
 49
-0.5
 62
   256
  6
BYLAYER
  0
ACDBPLACEHOLDER
  5
F
102
{ACAD_REACTORS
330
E
102
}
330
E
100
AcDbPlaceHolder
280
     0
  0
DICTIONARYVAR
  5
35
102
{ACAD_REACTORS
330
34
102
}
330
34
100
DictionaryVariables
280
     0
  1
1
  0
DICTIONARYVAR
  5
B5E
102
{ACAD_REACTORS
330
34
102
}
330
34
100
DictionaryVariables
280
     0
  1
96
  0
DICTIONARY
  5
260
102
{ACAD_REACTORS
330
43
102
}
330
43
100
AcDbDictionary
  0
DICTIONARY
  5
2C
102
{ACAD_REACTORS
330
2B
102
}
330
2B
100
AcDbDictionary
  3
DWGSETTINGS
350
2D
  0
XRECORD
  5
1553
102
{ACAD_REACTORS
330
1552
102
}
330
1552
100
AcDbXrecord
 90
        1
  0
XRECORD
  5
1554
102
{ACAD_REACTORS
330
1552
102
}
330
1552
100
AcDbXrecord
 90
       70
  0
XRECORD
  5
1555
102
{ACAD_REACTORS
330
1552
102
}
330
1552
100
AcDbXrecord
  1

  0
XRECORD
  5
1556
102
{ACAD_REACTORS
330
1552
102
}
330
1552
100
AcDbXrecord
  1
ASAMI.ctb
  0
XRECORD
  5
1557
102
{ACAD_REACTORS
330
1552
102
}
330
1552
100
AcDbXrecord
340
1A
  0
XRECORD
  5
1558
102
{ACAD_REACTORS
330
1552
102
}
330
1552
100
AcDbXrecord
340
19
  0
XRECORD
  5
1559
102
{ACAD_REACTORS
330
1552
102
}
330
1552
100
AcDbXrecord
340
E
  0
XRECORD
  5
155A
102
{ACAD_REACTORS
330
1552
102
}
330
1552
100
AcDbXrecord
 90
    10781
  0
XRECORD
  5
155B
102
{ACAD_REACTORS
330
1552
102
}
330
1552
100
AcDbXrecord
 90
        4
  0
XRECORD
  5
155C
102
{ACAD_REACTORS
330
1552
102
}
330
1552
100
AcDbXrecord
 90
        0
  0
XRECORD
  5
155D
102
{ACAD_REACTORS
330
1552
102
}
330
1552
100
AcDbXrecord
  1
{AFB28963-8C59-40AE-9337-C84526B81ACE}
  0
XRECORD
  5
155E
102
{ACAD_REACTORS
330
1552
102
}
330
1552
100
AcDbXrecord
  1
{818C0EE4-A29B-4013-9741-D5476BE221AD}
  0
XRECORD
  5
155F
102
{ACAD_REACTORS
330
1552
102
}
330
1552
100
AcDbXrecord
 40
0.0
  0
XRECORD
  5
1560
102
{ACAD_REACTORS
330
1552
102
}
330
1552
100
AcDbXrecord
1000
DSTYLE
1002
{
1070
    79
 70
     2
1070
   341
340
59
1070
   342
340
59
1070
   371
 70
    -1
1070
   372
 70
    -1
1002
}
  0
XRECORD
  5
1561
102
{ACAD_REACTORS
330
1552
102
}
330
1552
100
AcDbXrecord
340
0
  0
XRECORD
  5
1562
102
{ACAD_REACTORS
330
1552
102
}
330
1552
100
AcDbXrecord
 70
     0
  0
XRECORD
  5
1563
102
{ACAD_REACTORS
330
1552
102
}
330
1552
100
AcDbXrecord
340
0
  0
XRECORD
  5
1564
102
{ACAD_REACTORS
330
1552
102
}
330
1552
100
AcDbXrecord
 10
0.0
 20
0.0
 30
0.0
  0
XRECORD
  5
1565
102
{ACAD_REACTORS
330
1552
102
}
330
1552
100
AcDbXrecord
 10
0.0
 20
0.0
 30
0.0
  0
XRECORD
  5
1566
102
{ACAD_REACTORS
330
1552
102
}
330
1552
100
AcDbXrecord
 10
0.0
 20
0.0
 30
0.0
  0
XRECORD
  5
1567
102
{ACAD_REACTORS
330
1552
102
}
330
1552
100
AcDbXrecord
 10
0.0
 20
0.0
 30
0.0
  0
XRECORD
  5
1568
102
{ACAD_REACTORS
330
1552
102
}
330
1552
100
AcDbXrecord
 10
0.0
 20
0.0
 30
0.0
  0
XRECORD
  5
1569
102
{ACAD_REACTORS
330
1552
102
}
330
1552
100
AcDbXrecord
 10
0.0
 20
0.0
 30
0.0
  0
XRECORD
  5
156A
102
{ACAD_REACTORS
330
1552
102
}
330
1552
100
AcDbXrecord
340
0
  0
XRECORD
  5
156B
102
{ACAD_REACTORS
330
1552
102
}
330
1552
100
AcDbXrecord
 70
     0
  0
XRECORD
  5
156C
102
{ACAD_REACTORS
330
1552
102
}
330
1552
100
AcDbXrecord
340
0
  0
XRECORD
  5
156D
102
{ACAD_REACTORS
330
1552
102
}
330
1552
100
AcDbXrecord
 10
0.0
 20
0.0
 30
0.0
  0
XRECORD
  5
156E
102
{ACAD_REACTORS
330
1552
102
}
330
1552
100
AcDbXrecord
 10
0.0
 20
0.0
 30
0.0
  0
XRECORD
  5
156F
102
{ACAD_REACTORS
330
1552
102
}
330
1552
100
AcDbXrecord
 10
0.0
 20
0.0
 30
0.0
  0
XRECORD
  5
1570
102
{ACAD_REACTORS
330
1552
102
}
330
1552
100
AcDbXrecord
 10
0.0
 20
0.0
 30
0.0
  0
XRECORD
  5
1571
102
{ACAD_REACTORS
330
1552
102
}
330
1552
100
AcDbXrecord
 10
0.0
 20
0.0
 30
0.0
  0
XRECORD
  5
1572
102
{ACAD_REACTORS
330
1552
102
}
330
1552
100
AcDbXrecord
 10
0.0
 20
0.0
 30
0.0
  0
LAYER_INDEX
  5
1549
102
{ACAD_REACTORS
330
1548
102
}
330
1548
100
AcDbIndex
 40
2452839.680422083
100
AcDbLayerIndex
  8
0
360
154A
 90
        0
  8
AM_0
360
154B
 90
       38
  8
AM_5
360
154C
 90
        4
  8
AM_11
360
154D
 90
        4
  8
AM_7
360
154E
 90
        1
  8
Defpoints
360
154F
 90
        0
  8
AM_6
360
1550
 90
        1
  0
XRECORD
  5
2D
102
{ACAD_REACTORS
330
2C
102
}
330
2C
100
AcDbXrecord
  1
VERSION
140
15.0
  1
PRODUCT
  2
AutoCAD Mechanical 2000
  0
IDBUFFER
  5
154A
330
0
100
AcDbIdBuffer
  0
IDBUFFER
  5
154B
330
0
100
AcDbIdBuffer
330
DE2
330
DE3
330
DE4
330
DE5
330
DE6
330
DE8
330
DE9
330
DEA
330
DED
330
DEE
330
DEF
330
DF0
330
DF1
330
DF2
330
10DF
330
10E1
330
10E3
330
10E4
330
10EF
330
10F3
330
10F4
330
148E
330
BD1
330
BD2
330
BD3
330
BD4
330
BD5
330
BD6
330
DD2
330
DD3
330
DD4
330
DD9
330
DDA
330
DDB
330
DDC
330
DDF
330
DE0
330
DE1
  0
IDBUFFER
  5
154C
330
0
100
AcDbIdBuffer
330
1107
330
11A1
330
1245
330
12F4
  0
IDBUFFER
  5
154D
330
0
100
AcDbIdBuffer
330
DF6
330
DF7
330
DF8
330
E6F
  0
IDBUFFER
  5
154E
330
0
100
AcDbIdBuffer
330
10FE
  0
IDBUFFER
  5
154F
330
0
100
AcDbIdBuffer
  0
IDBUFFER
  5
1550
330
0
100
AcDbIdBuffer
330
13C8
  0
ENDSEC
  0
EOF
