  0
SECTION
  2
HEADER
  9
$ACADVER
  1
AC1014
  9
$ACADMAINTVER
 70
     9
  9
$DWGCODEPAGE
  3
ANSI_932
  9
$INSBASE
 10
0.0
 20
0.0
 30
0.0
  9
$EXTMIN
 10
-47.35
 20
-24.85034000863719
 30
-0.00000001
  9
$EXTMAX
 10
8.899999999992658
 20
9.095238095237396
 30
0.00000001
  9
$LIMMIN
 10
-50.91679372108345
 20
-30.52402400633084
  9
$LIMMAX
 10
12.12522357501434
 20
13.97884090127771
  9
$ORTHOMODE
 70
     0
  9
$REGENMODE
 70
     1
  9
$FILLMODE
 70
     1
  9
$QTEXTMODE
 70
     0
  9
$MIRRTEXT
 70
     0
  9
$DRAGMODE
 70
     2
  9
$LTSCALE
 40
1.0
  9
$OSMODE
 70
  2103
  9
$ATTMODE
 70
     1
  9
$TEXTSIZE
 40
2.5
  9
$TRACEWID
 40
1.0
  9
$TEXTSTYLE
  7
ACJISGDT
  9
$CLAYER
  8
AM_0
  9
$CELTYPE
  6
BYLAYER
  9
$CECOLOR
 62
   256
  9
$CELTSCALE
 40
1.0
  9
$DELOBJ
 70
     1
  9
$DISPSILH
 70
     0
  9
$DIMSCALE
 40
0.5
  9
$DIMASZ
 40
2.5
  9
$DIMEXO
 40
1.0
  9
$DIMDLI
 40
12.0
  9
$DIMRND
 40
0.0
  9
$DIMDLE
 40
0.0
  9
$DIMEXE
 40
1.0
  9
$DIMTP
 40
0.1
  9
$DIMTM
 40
0.1
  9
$DIMTXT
 40
3.2
  9
$DIMCEN
 40
0.0
  9
$DIMTSZ
 40
0.0
  9
$DIMTOL
 70
     0
  9
$DIMLIM
 70
     0
  9
$DIMTIH
 70
     0
  9
$DIMTOH
 70
     0
  9
$DIMSE1
 70
     0
  9
$DIMSE2
 70
     0
  9
$DIMTAD
 70
     3
  9
$DIMZIN
 70
     8
  9
$DIMBLK
  1
OPEN30
  9
$DIMASO
 70
     1
  9
$DIMSHO
 70
     1
  9
$DIMPOST
  1

  9
$DIMAPOST
  1
"
  9
$DIMALT
 70
     0
  9
$DIMALTD
 70
     2
  9
$DIMALTF
 40
0.0393701
  9
$DIMLFAC
 40
1.0
  9
$DIMTOFL
 70
     1
  9
$DIMTVP
 40
0.0
  9
$DIMTIX
 70
     0
  9
$DIMSOXD
 70
     0
  9
$DIMSAH
 70
     0
  9
$DIMBLK1
  1

  9
$DIMBLK2
  1

  9
$DIMSTYLE
  2
AM_JIS
  9
$DIMCLRD
 70
   256
  9
$DIMCLRE
 70
   256
  9
$DIMCLRT
 70
     2
  9
$DIMTFAC
 40
0.71
  9
$DIMGAP
 40
1.5
  9
$DIMJUST
 70
     0
  9
$DIMSD1
 70
     0
  9
$DIMSD2
 70
     0
  9
$DIMTOLJ
 70
     0
  9
$DIMTZIN
 70
     0
  9
$DIMALTZ
 70
     0
  9
$DIMALTTZ
 70
     0
  9
$DIMFIT
 70
     3
  9
$DIMUPT
 70
     0
  9
$DIMUNIT
 70
     2
  9
$DIMDEC
 70
     3
  9
$DIMTDEC
 70
     3
  9
$DIMALTU
 70
     2
  9
$DIMALTTD
 70
     2
  9
$DIMTXSTY
  7
ASAMI
  9
$DIMAUNIT
 70
     0
  9
$LUNITS
 70
     2
  9
$LUPREC
 70
     2
  9
$SKETCHINC
 40
1.0
  9
$FILLETRAD
 40
2.5
  9
$AUNITS
 70
     0
  9
$AUPREC
 70
     0
  9
$MENU
  1
.
  9
$ELEVATION
 40
0.0
  9
$PELEVATION
 40
0.0
  9
$THICKNESS
 40
0.0
  9
$LIMCHECK
 70
     0
  9
$BLIPMODE
 70
     0
  9
$CHAMFERA
 40
0.5
  9
$CHAMFERB
 40
0.5
  9
$CHAMFERC
 40
20.0
  9
$CHAMFERD
 40
0.0
  9
$SKPOLY
 70
     0
  9
$TDCREATE
 40
2452828.754166667
  9
$TDUPDATE
 40
2452839.680243958
  9
$TDINDWG
 40
0.0282304282
  9
$TDUSRTIMER
 40
0.0282302431
  9
$USRTIMER
 70
     1
  9
$ANGBASE
 50
0.0
  9
$ANGDIR
 70
     0
  9
$PDMODE
 70
     0
  9
$PDSIZE
 40
0.0
  9
$PLINEWID
 40
0.0
  9
$COORDS
 70
     2
  9
$SPLFRAME
 70
     0
  9
$SPLINETYPE
 70
     6
  9
$SPLINESEGS
 70
     8
  9
$ATTDIA
 70
     1
  9
$ATTREQ
 70
     1
  9
$HANDLING
 70
 12289
  9
$HANDSEED
  5
152B
  9
$SURFTAB1
 70
     6
  9
$SURFTAB2
 70
     6
  9
$SURFTYPE
 70
     6
  9
$SURFU
 70
     6
  9
$SURFV
 70
     6
  9
$UCSNAME
  2

  9
$UCSORG
 10
0.0
 20
0.0
 30
0.0
  9
$UCSXDIR
 10
1.0
 20
0.0
 30
0.0
  9
$UCSYDIR
 10
0.0
 20
1.0
 30
0.0
  9
$PUCSNAME
  2

  9
$PUCSORG
 10
0.0
 20
0.0
 30
0.0
  9
$PUCSXDIR
 10
1.0
 20
0.0
 30
0.0
  9
$PUCSYDIR
 10
0.0
 20
1.0
 30
0.0
  9
$USERI1
 70
     0
  9
$USERI2
 70
     0
  9
$USERI3
 70
     0
  9
$USERI4
 70
     0
  9
$USERI5
 70
     0
  9
$USERR1
 40
0.0
  9
$USERR2
 40
0.0
  9
$USERR3
 40
0.0
  9
$USERR4
 40
0.0
  9
$USERR5
 40
0.0
  9
$WORLDVIEW
 70
     1
  9
$SHADEDGE
 70
     3
  9
$SHADEDIF
 70
    70
  9
$TILEMODE
 70
     1
  9
$MAXACTVP
 70
    64
  9
$PINSBASE
 10
0.0
 20
0.0
 30
0.0
  9
$PLIMCHECK
 70
     0
  9
$PEXTMIN
 10
1.000000000000000E+20
 20
1.000000000000000E+20
 30
1.000000000000000E+20
  9
$PEXTMAX
 10
-1.000000000000000E+20
 20
-1.000000000000000E+20
 30
-1.000000000000000E+20
  9
$PLIMMIN
 10
0.0
 20
0.0
  9
$PLIMMAX
 10
841.0
 20
594.0
  9
$UNITMODE
 70
     0
  9
$VISRETAIN
 70
     1
  9
$PLINEGEN
 70
     0
  9
$PSLTSCALE
 70
     0
  9
$TREEDEPTH
 70
  3020
  9
$PICKSTYLE
 70
     0
  9
$CMLSTYLE
  2
STANDARD
  9
$CMLJUST
 70
     0
  9
$CMLSCALE
 40
20.0
  9
$PROXYGRAPHICS
 70
     1
  9
$MEASUREMENT
 70
     1
  0
ENDSEC
  0
SECTION
  2
CLASSES
  0
CLASS
  1
ACDBDICTIONARYWDFLT
  2
AcDbDictionaryWithDefault
  3
AutoCAD 2000
 90
        0
280
     0
281
     0
  0
CLASS
  1
ACDBPLACEHOLDER
  2
AcDbPlaceHolder
  3
AutoCAD 2000
 90
        0
280
     0
281
     0
  0
CLASS
  1
LAYOUT
  2
AcDbLayout
  3
AutoCAD 2000
 90
        0
280
     0
281
     0
  0
CLASS
  1
AMGSETTINGSOBJ
  2
AmgSettingsObj
  3
"AcadM|Product Description: AutoCAD Mechanical 2000|Company: Autodesk"
 90
        0
280
     0
281
     0
  0
CLASS
  1
ACME_DOCUMENT
  2
AcMeDbDoc
  3
AcMeServices
 90
        0
280
     0
281
     0
  0
CLASS
  1
ACMESCOPE
  2
AcMeScope
  3
AcMeServices
 90
        0
280
     0
281
     0
  0
CLASS
  1
ACMECOMMANDHISTORY
  2
AcMeCommandHistory
  3
AcMeServices
 90
        0
280
     0
281
     0
  0
CLASS
  1
DICTIONARYVAR
  2
AcDbDictionaryVar
  3
AutoCAD 2000
 90
        0
280
     0
281
     0
  0
CLASS
  1
ACIMSYSVARMAN
  2
AcImSysVarManager
  3
AcMeServices
 90
        0
280
     0
281
     0
  0
CLASS
  1
ACIMREALSYSVAR
  2
AcImRealSysVar
  3
AcMeServices
 90
        0
280
     0
281
     0
  0
CLASS
  1
ACIMINTSYSVAR
  2
AcImIntSysVar
  3
AcMeServices
 90
        0
280
     0
281
     0
  0
CLASS
  1
ACMEDRAWINGMAN
  2
AcMeDrawingMan
  3
AcMeServices
 90
        0
280
     0
281
     0
  0
CLASS
  1
ACMEVIEW
  2
AcMeView
  3
AcMeServices
 90
        0
280
     0
281
     0
  0
CLASS
  1
ACDBENTITYCACHE
  2
AcMeEntityCache
  3
AcMeServices
 90
        0
280
     0
281
     0
  0
CLASS
  1
GSMANAGER
  2
AcMeGSManager
  3
AcMeServices
 90
        0
280
     0
281
     0
  0
CLASS
  1
AmdtInternalReactor
  2
AmdtInternalReactor
  3
AcMeServices
 90
        0
280
     0
281
     0
  0
CLASS
  1
ACMESTATEMGR
  2
AcMeStateMgr
  3
AcMeServices
 90
        0
280
     0
281
     0
  0
CLASS
  1
ACME_DATABASE
  2
AcMeDbDatabase
  3
AcMeServices
 90
        0
280
     0
281
     0
  0
CLASS
  1
ACRFINSADJUSTERMGR
  2
AcRfInsAdjusterMgr
  3
AcMeServices
 90
        0
280
     0
281
     0
  0
CLASS
  1
ACMDATADICTIONARY
  2
AcmDataDictionary
  3
"AcmSymBB|Product Description: AutoCAD Mechanical 2000|Company: Autodesk"
 90
        0
280
     0
281
     0
  0
CLASS
  1
ACMDATAENTRYBLOCK
  2
AcmDataEntryBlock
  3
"AcmSymBB|Product Description: AutoCAD Mechanical 2000|Company: Autodesk"
 90
        0
280
     0
281
     0
  0
CLASS
  1
AMGOBJPROPCFG
  2
AmgObjPropCfg
  3
"AmgLay|Product Description: AutoCAD Mechanical 2000|Company: Autodesk"
 90
        1
280
     0
281
     0
  0
CLASS
  1
ACAMGFILTERDAT
  2
AcAmgFilterDat
  3
"AcadM|Product Description: AutoCAD Mechanical 2000|Company: Autodesk"
 90
        0
280
     0
281
     0
  0
CLASS
  1
LAYER_INDEX
  2
AcDbLayerIndex
  3
AutoCAD 2000
 90
        0
280
     0
281
     0
  0
CLASS
  1
IDBUFFER
  2
AcDbIdBuffer
  3
AutoCAD 2000
 90
        0
280
     0
281
     0
  0
CLASS
  1
ACIMSTRSYSVAR
  2
AcImStrSysVar
  3
AcMeServices
 90
        0
280
     0
281
     0
  0
CLASS
  1
ACMSTANDARDJIS
  2
AcmStandardJIS
  3
"AcmSymBB|Product Description: AutoCAD Mechanical 2000|Company: Autodesk"
 90
        0
280
     0
281
     0
  0
CLASS
  1
ACMSURFSTANDARDJIS
  2
AcmSurfTextStdJIS
  3
"AcmSymBB|Product Description: AutoCAD Mechanical 2000|Company: Autodesk"
 90
        0
280
     0
281
     0
  0
CLASS
  1
ACMFCFSTANDARDJIS
  2
AcmFCFStdJIS
  3
"AcmSymBB|Product Description: AutoCAD Mechanical 2000|Company: Autodesk"
 90
        0
280
     0
281
     0
  0
CLASS
  1
ACMWELDSTANDARDJIS
  2
AcmWeldingStdJIS
  3
"AcmSymBB|Product Description: AutoCAD Mechanical 2000|Company: Autodesk"
 90
        0
280
     0
281
     0
  0
CLASS
  1
ACMIDSTANDARDJIS
  2
AcmIdStdJIS
  3
"AcmSymBB|Product Description: AutoCAD Mechanical 2000|Company: Autodesk"
 90
        0
280
     0
281
     0
  0
CLASS
  1
ACMDATUMSTANDARDJIS
  2
AcmDatumStdJIS
  3
"AcmSymBB|Product Description: AutoCAD Mechanical 2000|Company: Autodesk"
 90
        0
280
     0
281
     0
  0
CLASS
  1
ACMBOMSTANDARDJIS
  2
AcmBOMStdJIS
  3
"AcmSymBB|Product Description: AutoCAD Mechanical 2000|Company: Autodesk"
 90
        0
280
     0
281
     0
  0
CLASS
  1
ACMSTANDARDANSI
  2
AcmStandardANSI
  3
"AcmSymBB|Product Description: AutoCAD Mechanical 2000|Company: Autodesk"
 90
        0
280
     0
281
     0
  0
CLASS
  1
ACMSURFSTANDARDANSI
  2
AcmSurfTextStdANSI
  3
"AcmSymBB|Product Description: AutoCAD Mechanical 2000|Company: Autodesk"
 90
        0
280
     0
281
     0
  0
CLASS
  1
ACMFCFSTANDARDANSI
  2
AcmFCFStdANSI
  3
"AcmSymBB|Product Description: AutoCAD Mechanical 2000|Company: Autodesk"
 90
        0
280
     0
281
     0
  0
CLASS
  1
ACMWELDSTANDARDANSI
  2
AcmWeldingStdANSI
  3
"AcmSymBB|Product Description: AutoCAD Mechanical 2000|Company: Autodesk"
 90
        0
280
     0
281
     0
  0
CLASS
  1
ACMIDSTANDARDANSI
  2
AcmIdStdANSI
  3
"AcmSymBB|Product Description: AutoCAD Mechanical 2000|Company: Autodesk"
 90
        0
280
     0
281
     0
  0
CLASS
  1
ACMDATUMSTANDARDANSI
  2
AcmDatumStdANSI
  3
"AcmSymBB|Product Description: AutoCAD Mechanical 2000|Company: Autodesk"
 90
        0
280
     0
281
     0
  0
CLASS
  1
ACMBOMSTANDARDANSI
  2
AcmBOMStdANSI
  3
"AcmSymBB|Product Description: AutoCAD Mechanical 2000|Company: Autodesk"
 90
        0
280
     0
281
     0
  0
CLASS
  1
ACMSTANDARDBSI
  2
AcmStandardBSI
  3
"AcmSymBB|Product Description: AutoCAD Mechanical 2000|Company: Autodesk"
 90
        0
280
     0
281
     0
  0
CLASS
  1
ACMSURFSTANDARDBSI
  2
AcmSurfTextStdBSI
  3
"AcmSymBB|Product Description: AutoCAD Mechanical 2000|Company: Autodesk"
 90
        0
280
     0
281
     0
  0
CLASS
  1
ACMFCFSTANDARDBSI
  2
AcmFCFStdBSI
  3
"AcmSymBB|Product Description: AutoCAD Mechanical 2000|Company: Autodesk"
 90
        0
280
     0
281
     0
  0
CLASS
  1
ACMWELDSTANDARDBSI
  2
AcmWeldingStdBSI
  3
"AcmSymBB|Product Description: AutoCAD Mechanical 2000|Company: Autodesk"
 90
        0
280
     0
281
     0
  0
CLASS
  1
ACMIDSTANDARDBSI
  2
AcmIdStdBSI
  3
"AcmSymBB|Product Description: AutoCAD Mechanical 2000|Company: Autodesk"
 90
        0
280
     0
281
     0
  0
CLASS
  1
ACMDATUMSTANDARDBSI
  2
AcmDatumStdBSI
  3
"AcmSymBB|Product Description: AutoCAD Mechanical 2000|Company: Autodesk"
 90
        0
280
     0
281
     0
  0
CLASS
  1
ACMBOMSTANDARDBSI
  2
AcmBOMStdBSI
  3
"AcmSymBB|Product Description: AutoCAD Mechanical 2000|Company: Autodesk"
 90
        0
280
     0
281
     0
  0
CLASS
  1
LONG_TRANSACTION
  2
AcDbLongTransaction
  3
AutoCAD 2000
 90
        0
280
     0
281
     0
  0
CLASS
  1
LWPOLYLINE
  2
AcDbPolyline
  3
AutoCAD 2000
 90
        0
280
     0
281
     1
  0
CLASS
  1
HATCH
  2
AcDbHatch
  3
AutoCAD 2000
 90
        0
280
     0
281
     1
  0
CLASS
  1
XRECORD
  2
AcDbXrecord
  3
AutoCAD 2000
 90
        0
280
     0
281
     0
  0
ENDSEC
  0
SECTION
  2
TABLES
  0
TABLE
  2
VPORT
  5
8
330
0
100
AcDbSymbolTable
 70
     3
  0
VPORT
  5
1500
330
8
100
AcDbSymbolTableRecord
100
AcDbViewportTableRecord
  2
*ACTIVE
 70
     0
 10
0.0
 20
0.0
 11
1.0
 21
1.0
 12
-19.23231424185485
 22
-7.874370061122363
 13
0.0
 23
0.0
 14
2.5
 24
2.5
 15
10.0
 25
10.0
 16
0.0
 26
0.0
 36
1.0
 17
0.0
 27
0.0
 37
0.0
 40
36.10833994339431
 41
1.56570841889117
 42
50.0
 43
0.0
 44
0.0
 50
0.0
 51
0.0
 71
     0
 72
   100
 73
     1
 74
     3
 75
     0
 76
     0
 77
     0
 78
     0
  0
ENDTAB
  0
TABLE
  2
LTYPE
  5
5
330
0
100
AcDbSymbolTable
 70
    10
  0
LTYPE
  5
14
330
5
100
AcDbSymbolTableRecord
100
AcDbLinetypeTableRecord
  2
BYBLOCK
 70
     0
  3

 72
    65
 73
     0
 40
0.0
  0
LTYPE
  5
15
330
5
100
AcDbSymbolTableRecord
100
AcDbLinetypeTableRecord
  2
BYLAYER
 70
     0
  3

 72
    65
 73
     0
 40
0.0
  0
LTYPE
  5
16
330
5
100
AcDbSymbolTableRecord
100
AcDbLinetypeTableRecord
  2
CONTINUOUS
 70
     0
  3
Solid line
 72
    65
 73
     0
 40
0.0
  0
LTYPE
  5
4B
330
5
100
AcDbSymbolTableRecord
100
AcDbLinetypeTableRecord
  2
AM_ISO02W050
 70
     0
  3
__ __ __ __ __ __ __ __ __ __ __ __ __ __ __
 72
    65
 73
     2
 40
7.5
 49
6.0
 74
     0
 49
-1.5
 74
     0
  0
LTYPE
  5
4C
330
5
100
AcDbSymbolTableRecord
100
AcDbLinetypeTableRecord
  2
AM_ISO08W050
 70
     0
  3
____ . ____ . ____ . ____ . ____ . ____ . ____
 72
    65
 73
     4
 40
18.0
 49
12.0
 74
     0
 49
-1.5
 74
     0
 49
3.0
 74
     0
 49
-1.5
 74
     0
  0
LTYPE
  5
4D
330
5
100
AcDbSymbolTableRecord
100
AcDbLinetypeTableRecord
  2
AM_ISO09W050
 70
     0
  3
_____ . . _____ . . _____ . . ____ .. ____
 72
    65
 73
     6
 40
22.5
 49
12.0
 74
     0
 49
-1.5
 74
     0
 49
3.0
 74
     0
 49
-1.5
 74
     0
 49
3.0
 74
     0
 49
-1.5
 74
     0
  0
LTYPE
  5
4E
330
5
100
AcDbSymbolTableRecord
100
AcDbLinetypeTableRecord
  2
AMCONSTR
 70
     0
  3
_______________________
 72
    65
 73
     2
 40
9999.0
 49
9999.0
 74
     0
 49
0.0
 74
     0
  0
LTYPE
  5
4F
330
5
100
AcDbSymbolTableRecord
100
AcDbLinetypeTableRecord
  2
AM_ISO02W050X2
 70
     0
  3
 _ _ _ _ _ _ _ _ _ _ _ _
 72
    65
 73
     2
 40
3.75
 49
3.0
 74
     0
 49
-0.75
 74
     0
  0
LTYPE
  5
50
330
5
100
AcDbSymbolTableRecord
100
AcDbLinetypeTableRecord
  2
AM_ISO08W050X2
 70
     0
  3
__ . __ . __ . __ . __ . __
 72
    65
 73
     4
 40
9.0
 49
6.0
 74
     0
 49
-0.75
 74
     0
 49
1.5
 74
     0
 49
-0.75
 74
     0
  0
LTYPE
  5
53
330
5
100
AcDbSymbolTableRecord
100
AcDbLinetypeTableRecord
  2
AMZIGZAG
 70
     0
  3
/\/-/\/-/\/-/\/-/\/-/\/
 72
    65
 73
     2
 40
11.00009999999999
 49
0.0001
 74
     4
 75
   135
340
52
 46
0.04
 50
0.0
 44
0.0
 45
0.0
 49
-11.0
 74
     0
  0
LTYPE
  5
166
330
5
100
AcDbSymbolTableRecord
100
AcDbLinetypeTableRecord
  2
ACJISTGL
 70
     0
  3
_ _ _ _ _
 72
    65
 73
     2
 40
3.0
 49
2.0
 74
     0
 49
-1.0
 74
     0
  0
LTYPE
  5
26A
330
5
100
AcDbSymbolTableRecord
100
AcDbLinetypeTableRecord
  2
ACJISTGB
 70
     0
  3
__ . . __ . .
 72
    65
 73
     6
 40
9.0
 49
4.0
 74
     0
 49
-1.0
 74
     0
 49
1.0
 74
     0
 49
-1.0
 74
     0
 49
1.0
 74
     0
 49
-1.0
 74
     0
  0
ENDTAB
  0
TABLE
  2
LAYER
  5
2
330
0
100
AcDbSymbolTable
 70
     8
  0
LAYER
  5
10
330
2
100
AcDbSymbolTableRecord
100
AcDbLayerTableRecord
  2
0
 70
     0
 62
     7
  6
CONTINUOUS
  0
LAYER
  5
3F9
330
2
100
AcDbSymbolTableRecord
100
AcDbLayerTableRecord
  2
AM_0
 70
     0
 62
     7
  6
CONTINUOUS
  0
LAYER
  5
BAE
330
2
100
AcDbSymbolTableRecord
100
AcDbLayerTableRecord
  2
AM_CL
 70
     0
 62
     1
  6
AMCONSTR
  0
LAYER
  5
BF7
330
2
100
AcDbSymbolTableRecord
100
AcDbLayerTableRecord
  2
AM_5
 70
     0
 62
     3
  6
CONTINUOUS
  0
LAYER
  5
D37
330
2
100
AcDbSymbolTableRecord
100
AcDbLayerTableRecord
  2
AM_11
 70
     0
 62
     3
  6
AM_ISO09W050
  0
LAYER
  5
10FD
330
2
100
AcDbSymbolTableRecord
100
AcDbLayerTableRecord
  2
AM_7
 70
     0
 62
     4
  6
AM_ISO08W050
  0
LAYER
  5
1108
330
2
100
AcDbSymbolTableRecord
100
AcDbLayerTableRecord
  2
DEFPOINTS
 70
     0
 62
     7
  6
CONTINUOUS
  0
LAYER
  5
13C2
330
2
100
AcDbSymbolTableRecord
100
AcDbLayerTableRecord
  2
AM_6
 70
     0
 62
     2
  6
CONTINUOUS
  0
ENDTAB
  0
TABLE
  2
STYLE
  5
3
330
0
100
AcDbSymbolTable
 70
     5
  0
STYLE
  5
11
330
3
100
AcDbSymbolTableRecord
100
AcDbTextStyleTableRecord
  2
STANDARD
 70
     0
 40
0.0
 41
1.0
 50
0.0
 71
     0
 42
2.5
  3
simplex.shx
  4
EXTFONT.SHX
  0
STYLE
  5
52
330
3
100
AcDbSymbolTableRecord
100
AcDbTextStyleTableRecord
  2

 70
     1
 40
0.0
 41
1.0
 50
0.0
 71
     0
 42
2.5
  3
ltypeshp.shx
  4

  0
STYLE
  5
6B
330
3
100
AcDbSymbolTableRecord
100
AcDbTextStyleTableRecord
  2
ASAMI
 70
     0
 40
0.0
 41
1.0
 50
0.0
 71
     0
 42
2.5
  3
simplex.shx
  4
EXTFONT.SHX
  0
STYLE
  5
262
330
3
100
AcDbSymbolTableRecord
100
AcDbTextStyleTableRecord
  2
ACJISTS
 70
     0
 40
1.0
 41
1.0
 50
0.0
 71
     0
 42
2.5
  3
simplex.shx
  4
bigfont.shx
  0
STYLE
  5
269
330
3
100
AcDbSymbolTableRecord
100
AcDbTextStyleTableRecord
  2
ACJISGDT
 70
     0
 40
0.0
 41
1.0
 50
0.0
 71
     0
 42
2.5
  3
amgdtans.shx
  4

  0
ENDTAB
  0
TABLE
  2
VIEW
  5
6
330
0
100
AcDbSymbolTable
 70
     0
  0
ENDTAB
  0
TABLE
  2
UCS
  5
7
330
0
100
AcDbSymbolTable
 70
     0
  0
ENDTAB
  0
TABLE
  2
APPID
  5
9
330
0
100
AcDbSymbolTable
 70
    13
  0
APPID
  5
12
330
9
100
AcDbSymbolTableRecord
100
AcDbRegAppTableRecord
  2
ACAD
 70
     0
  0
APPID
  5
30
330
9
100
AcDbSymbolTableRecord
100
AcDbRegAppTableRecord
  2
MCAD_NO_VIS
 70
     0
  0
APPID
  5
31
330
9
100
AcDbSymbolTableRecord
100
AcDbRegAppTableRecord
  2
ACAD_TEMP_GRAPHIC
 70
     0
  0
APPID
  5
2C2
330
9
100
AcDbSymbolTableRecord
100
AcDbRegAppTableRecord
  2
GENIUS_GENDTOL_13
 70
     0
  0
APPID
  5
339
330
9
100
AcDbSymbolTableRecord
100
AcDbRegAppTableRecord
  2
GENIUS_GENODEF_13
 70
     0
  0
APPID
  5
33A
330
9
100
AcDbSymbolTableRecord
100
AcDbRegAppTableRecord
  2
GENIUS_GENOBJ-N-RSBK_13
 70
     0
  0
APPID
  5
33B
330
9
100
AcDbSymbolTableRecord
100
AcDbRegAppTableRecord
  2
GENIUS_GENOBJ-N-LIB_13
 70
     0
  0
APPID
  5
33C
330
9
100
AcDbSymbolTableRecord
100
AcDbRegAppTableRecord
  2
GENIUS_GENSCALE_13
 70
     0
  0
APPID
  5
378
330
9
100
AcDbSymbolTableRecord
100
AcDbRegAppTableRecord
  2
GENIUS_GENDIMSH_14
 70
     0
  0
APPID
  5
D38
330
9
100
AcDbSymbolTableRecord
100
AcDbRegAppTableRecord
  2
GENIUS_GENOBJ-N-FIL_13
 70
     0
  0
APPID
  5
10F0
330
9
100
AcDbSymbolTableRecord
100
AcDbRegAppTableRecord
  2
GENIUS_GENFIL_13
 70
     0
  0
APPID
  5
10F1
330
9
100
AcDbSymbolTableRecord
100
AcDbRegAppTableRecord
  2
GENIUS_GENOBJ-N-CHA_13
 70
     0
  0
APPID
  5
10FF
330
9
100
AcDbSymbolTableRecord
100
AcDbRegAppTableRecord
  2
GENIUS_GENOBJ-N-CEN_13
 70
     0
  0
ENDTAB
  0
TABLE
  2
DIMSTYLE
  5
A
330
0
100
AcDbSymbolTable
 70
     8
  0
DIMSTYLE
105
58
102
{ACAD_REACTORS
330
1107
330
11A1
330
1245
330
12F4
102
}
330
A
100
AcDbSymbolTableRecord
100
AcDbDimStyleTableRecord
  2
AM_JIS
 70
     0
  3

  4
"
  5
OPEN30
  6

  7

 40
0.5
 41
2.5
 42
1.0
 43
12.0
 44
1.0
 45
0.0
 46
0.0
 47
0.1
 48
0.1
140
3.2
141
0.0
142
0.0
143
0.0393701
144
1.0
145
0.0
146
0.71
147
1.5
 71
     0
 72
     0
 73
     0
 74
     0
 75
     0
 76
     0
 77
     3
 78
     8
170
     0
171
     2
172
     1
173
     0
174
     0
175
     0
176
   256
177
   256
178
     2
270
     2
271
     3
272
     3
273
     2
274
     2
340
6B
275
     0
280
     0
281
     0
282
     0
283
     0
284
     0
285
     0
286
     0
287
     3
288
     0
  0
DIMSTYLE
105
5F
330
A
100
AcDbSymbolTableRecord
100
AcDbDimStyleTableRecord
  2
AM_JIS$3
 70
     0
  3

  4
"
  5
OPEN30
  6

  7

 40
0.5
 41
2.5
 42
1.0
 43
10.0
 44
1.0
 45
0.0
 46
0.0
 47
0.1
 48
0.1
140
3.2
141
0.0
142
0.0
143
0.0393701
144
1.0
145
0.0
146
0.71
147
1.5
 71
     0
 72
     0
 73
     0
 74
     1
 75
     0
 76
     0
 77
     3
 78
     8
170
     0
171
     2
172
     0
173
     0
174
     0
175
     0
176
   256
177
   256
178
     2
270
     2
271
     2
272
     3
273
     2
274
     2
340
6B
275
     0
280
     0
281
     0
282
     0
283
     0
284
     0
285
     0
286
     0
287
     0
288
     1
  0
DIMSTYLE
105
60
330
A
100
AcDbSymbolTableRecord
100
AcDbDimStyleTableRecord
  2
AM_JIS$4
 70
     0
  3

  4
"
  5
OPEN30
  6

  7

 40
0.5
 41
2.5
 42
1.0
 43
10.0
 44
1.0
 45
0.0
 46
0.0
 47
0.1
 48
0.1
140
3.2
141
0.0
142
0.0
143
0.0393701
144
1.0
145
0.0
146
0.71
147
1.5
 71
     0
 72
     0
 73
     0
 74
     1
 75
     0
 76
     0
 77
     3
 78
     8
170
     0
171
     2
172
     0
173
     0
174
     0
175
     0
176
   256
177
   256
178
     2
270
     2
271
     2
272
     3
273
     2
274
     2
340
6B
275
     0
280
     0
281
     0
282
     0
283
     0
284
     0
285
     0
286
     0
287
     0
288
     1
  0
DIMSTYLE
105
61
330
A
100
AcDbSymbolTableRecord
100
AcDbDimStyleTableRecord
  2
AM_JIS$6
 70
     0
  3

  4
"
  5
OPEN30
  6

  7

 40
0.5
 41
2.5
 42
1.0
 43
10.0
 44
1.0
 45
0.0
 46
0.0
 47
0.1
 48
0.1
140
3.2
141
0.0
142
0.0
143
0.0393701
144
1.0
145
0.0
146
0.71
147
1.5
 71
     0
 72
     0
 73
     0
 74
     0
 75
     0
 76
     0
 77
     0
 78
     8
170
     0
171
     2
172
     1
173
     0
174
     0
175
     0
176
   256
177
   256
178
     2
270
     2
271
     2
272
     2
273
     2
274
     2
340
6B
275
     0
280
     0
281
     0
282
     0
283
     0
284
     0
285
     0
286
     0
287
     3
288
     0
  0
DIMSTYLE
105
62
330
A
100
AcDbSymbolTableRecord
100
AcDbDimStyleTableRecord
  2
AM_JIS$7
 70
     0
  3

  4
"
  5
OPEN30
  6

  7

 40
0.5
 41
2.5
 42
1.0
 43
10.0
 44
1.0
 45
0.0
 46
0.0
 47
0.1
 48
0.1
140
3.2
141
0.0
142
0.0
143
0.0393701
144
1.0
145
0.0
146
0.71
147
1.5
 71
     0
 72
     0
 73
     0
 74
     0
 75
     0
 76
     0
 77
     3
 78
     8
170
     0
171
     2
172
     1
173
     0
174
     0
175
     0
176
   256
177
   256
178
     2
270
     2
271
     2
272
     3
273
     2
274
     2
340
6B
275
     0
280
     0
281
     0
282
     0
283
     0
284
     0
285
     0
286
     0
287
     3
288
     0
  0
DIMSTYLE
105
63
330
A
100
AcDbSymbolTableRecord
100
AcDbDimStyleTableRecord
  2
AM_JIS$SF
 70
     0
  3

  4
"
  5
OPEN30
  6

  7

 40
0.5
 41
2.5
 42
1.0
 43
10.0
 44
1.0
 45
0.0
 46
0.0
 47
0.1
 48
0.1
140
3.2
141
0.0
142
0.0
143
0.0393701
144
1.0
145
0.0
146
0.71
147
1.5
 71
     0
 72
     0
 73
     0
 74
     0
 75
     1
 76
     1
 77
     3
 78
     8
170
     0
171
     2
172
     1
173
     0
174
     0
175
     0
176
   256
177
   256
178
     2
270
     2
271
     2
272
     2
273
     2
274
     2
340
6B
275
     0
280
     0
281
     0
282
     0
283
     0
284
     0
285
     0
286
     0
287
     3
288
     0
  0
DIMSTYLE
105
68
330
A
100
AcDbSymbolTableRecord
100
AcDbDimStyleTableRecord
  2
AM_JIS$SH
 70
     0
  3

  4
"
  5

  6
GENAXEH
  7
OPEN30
 40
0.5
 41
2.5
 42
1.0
 43
10.0
 44
1.0
 45
0.0
 46
0.0
 47
0.1
 48
0.1
140
3.2
141
0.0
142
0.0
143
0.0393701
144
2.0
145
0.0
146
0.71
147
1.5
 71
     0
 72
     0
 73
     0
 74
     0
 75
     1
 76
     1
 77
     3
 78
     8
170
     0
171
     2
172
     1
173
     1
174
     0
175
     0
176
   256
177
   256
178
     2
270
     2
271
     2
272
     2
273
     2
274
     2
340
6B
275
     0
280
     0
281
     0
282
     0
283
     0
284
     0
285
     0
286
     0
287
     3
288
     0
  0
DIMSTYLE
105
B34
330
A
100
AcDbSymbolTableRecord
100
AcDbDimStyleTableRecord
  2
AM_JIS$2
 70
     0
  3

  4
"
  5
OPEN30
  6

  7

 40
0.5
 41
2.5
 42
1.0
 43
12.0
 44
1.0
 45
0.0
 46
0.0
 47
0.1
 48
0.1
140
3.2
141
0.0
142
0.0
143
0.0393701
144
1.0
145
0.0
146
0.71
147
1.5
 71
     0
 72
     0
 73
     0
 74
     0
 75
     0
 76
     0
 77
     3
 78
     8
170
     0
171
     2
172
     1
173
     0
174
     0
175
     0
176
   256
177
   256
178
     2
270
     2
271
     3
272
     3
273
     2
274
     2
340
6B
275
     0
280
     0
281
     0
282
     0
283
     0
284
     0
285
     0
286
     0
287
     3
288
     0
  0
ENDTAB
  0
TABLE
  2
BLOCK_RECORD
  5
1
330
0
100
AcDbSymbolTable
 70
    10
  0
BLOCK_RECORD
  5
1F
102
{ACAD_XDICTIONARY
360
74
102
}
330
1
100
AcDbSymbolTableRecord
100
AcDbBlockTableRecord
  2
*MODEL_SPACE
  0
BLOCK_RECORD
  5
101
102
{ACAD_XDICTIONARY
360
1529
102
}
330
1
100
AcDbSymbolTableRecord
100
AcDbBlockTableRecord
  2
*PAPER_SPACE
  0
BLOCK_RECORD
  5
59
330
1
100
AcDbSymbolTableRecord
100
AcDbBlockTableRecord
  2
_OPEN30
  0
BLOCK_RECORD
  5
64
330
1
100
AcDbSymbolTableRecord
100
AcDbBlockTableRecord
  2
GENAXEH
  0
BLOCK_RECORD
  5
D39
330
1
100
AcDbSymbolTableRecord
100
AcDbBlockTableRecord
  2
A$C0A9940E6
  0
BLOCK_RECORD
  5
1109
330
1
100
AcDbSymbolTableRecord
100
AcDbBlockTableRecord
  2
*D6
  0
BLOCK_RECORD
  5
11A2
330
1
100
AcDbSymbolTableRecord
100
AcDbBlockTableRecord
  2
*D7
  0
BLOCK_RECORD
  5
1246
330
1
100
AcDbSymbolTableRecord
100
AcDbBlockTableRecord
  2
*D8
  0
BLOCK_RECORD
  5
12F5
330
1
100
AcDbSymbolTableRecord
100
AcDbBlockTableRecord
  2
*D9
  0
ENDTAB
  0
ENDSEC
  0
SECTION
  2
BLOCKS
  0
BLOCK
  5
20
330
1F
100
AcDbEntity
  8
0
100
AcDbBlockBegin
  2
*MODEL_SPACE
 70
     0
 10
0.0
 20
0.0
 30
0.0
  3
*MODEL_SPACE
  1

  0
ENDBLK
  5
21
330
1F
100
AcDbEntity
  8
0
100
AcDbBlockEnd
  0
BLOCK
  5
103
330
101
100
AcDbEntity
 67
     1
  8
0
100
AcDbBlockBegin
  2
*PAPER_SPACE
 70
     0
 10
0.0
 20
0.0
 30
0.0
  3
*PAPER_SPACE
  1

  0
ENDBLK
  5
104
330
101
100
AcDbEntity
 67
     1
  8
0
100
AcDbBlockEnd
  0
BLOCK
  5
5D
330
59
100
AcDbEntity
  8
0
100
AcDbBlockBegin
  2
_OPEN30
 70
     0
 10
0.0
 20
0.0
 30
0.0
  3
_OPEN30
  1

  0
LINE
  5
5A
330
59
100
AcDbEntity
  8
0
 62
     0
100
AcDbLine
 10
-1.0
 20
0.26794919
 30
0.0
 11
0.0
 21
0.0
 31
0.0
  0
LINE
  5
5B
330
59
100
AcDbEntity
  8
0
 62
     0
100
AcDbLine
 10
0.0
 20
0.0
 30
0.0
 11
-1.0
 21
-0.26794919
 31
0.0
  0
LINE
  5
5C
330
59
100
AcDbEntity
  8
0
 62
     0
100
AcDbLine
 10
0.0
 20
0.0
 30
0.0
 11
-1.0
 21
0.0
 31
0.0
  0
ENDBLK
  5
5E
330
59
100
AcDbEntity
  8
0
100
AcDbBlockEnd
  0
BLOCK
  5
66
330
64
100
AcDbEntity
  8
0
100
AcDbBlockBegin
  2
GENAXEH
 70
     0
 10
0.0
 20
0.0
 30
0.0
  3
GENAXEH
  1

  0
LINE
  5
65
330
64
100
AcDbEntity
  8
0
100
AcDbLine
 10
-1.0
 20
0.0
 30
0.0
 11
1.0
 21
0.0
 31
0.0
  0
ENDBLK
  5
67
330
64
100
AcDbEntity
  8
0
100
AcDbBlockEnd
  0
BLOCK
  5
D60
330
D39
100
AcDbEntity
  8
0
100
AcDbBlockBegin
  2
A$C0A9940E6
 70
     0
 10
0.0
 20
0.0
 30
0.0
  3
A$C0A9940E6
  1

  0
SPLINE
  5
D3A
330
D39
100
AcDbEntity
  8
AM_0
100
AcDbSpline
210
0.0
220
0.0
230
1.0
 70
     8
 71
     3
 72
     8
 73
     4
 74
     0
 42
0.0000000001
 43
0.0000000001
 40
0.0
 40
0.0
 40
0.0
 40
0.0
 40
5.964454022267601
 40
5.964454022267601
 40
5.964454022267601
 40
5.964454022267601
 10
9.68718576081801
 20
4.4849062478022
 30
0.0
 10
11.01094131135778
 20
4.4849062478022
 30
0.0
 10
12.30689865062822
 20
4.312058892644699
 30
0.0
 10
13.58277545448027
 20
4.01435215701872
 30
0.0
  0
SPLINE
  5
D3B
330
D39
100
AcDbEntity
  8
AM_0
100
AcDbSpline
210
0.0
220
0.0
230
1.0
 70
     8
 71
     3
 72
     8
 73
     4
 74
     0
 42
0.0000000001
 43
0.0000000001
 40
0.0
 40
0.0
 40
0.0
 40
0.0
 40
5.945175151932629
 40
5.945175151932629
 40
5.945175151932629
 40
5.945175151932629
 10
13.58277546607314
 20
4.994258982847441
 30
0.0
 10
12.26329868296443
 20
4.994258982847441
 30
0.0
 10
10.97708062802121
 20
4.80743224226876
 30
0.0
 10
9.715024166566763
 20
4.48488077594834
 30
0.0
  0
SPLINE
  5
D3C
330
D39
100
AcDbEntity
  8
AM_0
100
AcDbSpline
210
0.0
220
0.0
230
1.0
 70
     8
 71
     3
 72
     8
 73
     4
 74
     0
 42
0.0000000001
 43
0.0000000001
 40
0.0
 40
0.0
 40
0.0
 40
0.0
 40
6.292897229749232
 40
6.292897229749232
 40
6.292897229749232
 40
6.292897229749232
 10
9.686519404256159
 20
4.484567220486269
 30
0.0
 10
8.289868913572718
 20
4.484567220486269
 30
0.0
 10
6.924162443352997
 20
4.292159441326248
 30
0.0
 10
5.580335858572198
 20
3.963704047708006
 30
0.0
  0
SPLINE
  5
D3D
330
D39
100
AcDbEntity
  8
AM_0
100
AcDbSpline
210
0.0
220
0.0
230
1.0
 70
     8
 71
     3
 72
     8
 73
     4
 74
     0
 42
0.0000000001
 43
0.0000000001
 40
0.0
 40
0.0
 40
0.0
 40
0.0
 40
6.292897229749232
 40
6.292897229749232
 40
6.292897229749232
 40
6.292897229749232
 10
23.26929485873597
 20
4.484567220486496
 30
0.0
 10
21.87264436805298
 20
4.484567220486496
 30
0.0
 10
20.50693789783281
 20
4.292159441326248
 30
0.0
 10
19.16311131305201
 20
3.963704047708006
 30
0.0
  0
SPLINE
  5
D3E
330
D39
100
AcDbEntity
  8
AM_0
100
AcDbSpline
210
0.0
220
0.0
230
1.0
 70
     8
 71
     3
 72
     8
 73
     4
 74
     0
 42
0.0000000001
 43
0.0000000001
 40
0.0
 40
0.0
 40
0.0
 40
0.0
 40
5.964454022267601
 40
5.964454022267601
 40
5.964454022267601
 40
5.964454022267601
 10
23.26996121529782
 20
4.4849062478022
 30
0.0
 10
24.5937167658376
 20
4.4849062478022
 30
0.0
 10
25.88967410510804
 20
4.312058892644699
 30
0.0
 10
27.16555090896008
 20
4.014352157018947
 30
0.0
  0
SPLINE
  5
D3F
330
D39
100
AcDbEntity
  8
AM_0
100
AcDbSpline
210
0.0
220
0.0
230
1.0
 70
     8
 71
     3
 72
     8
 73
     4
 74
     0
 42
0.0000000001
 43
0.0000000001
 40
0.0
 40
0.0
 40
0.0
 40
0.0
 40
5.945175151932629
 40
5.945175151932629
 40
5.945175151932629
 40
5.945175151932629
 10
27.16555092055341
 20
4.994258982847668
 30
0.0
 10
25.84607413744425
 20
4.994258982847668
 30
0.0
 10
24.55985608250102
 20
4.80743224226876
 30
0.0
 10
23.29779962104703
 20
4.48488077594834
 30
0.0
  0
SPLINE
  5
D40
330
D39
100
AcDbEntity
  8
AM_0
100
AcDbSpline
210
0.0
220
0.0
230
1.0
 70
     8
 71
     3
 72
     8
 73
     4
 74
     2
 42
0.0000000001
 43
0.0000000001
 44
0.0000000001
 12
1.0
 22
-0.0000000000000273
 32
0.0
 40
0.0
 40
0.0
 40
0.0
 40
0.0
 40
14.47184895407324
 40
14.47184895407324
 40
14.47184895407324
 40
14.47184895407324
 10
13.58277544288694
 20
4.994258982847668
 30
0.0
 10
18.40672509424468
 20
4.994258982847536
 30
0.0
 10
22.78613800160238
 20
2.497129491423882
 30
0.0
 10
27.16555090896008
 20
0.0000000000002274
 30
0.0
 11
13.58277544288694
 21
4.994258982847668
 31
0.0
 11
27.16555090896008
 21
0.0000000000002274
 31
0.0
  0
SPLINE
  5
D41
330
D39
100
AcDbEntity
  8
AM_0
100
AcDbSpline
210
0.0
220
0.0
230
1.0
 70
     8
 71
     3
 72
     8
 73
     4
 74
     0
 42
0.0000000001
 43
0.0000000001
 40
6.388373957087368
 40
6.388373957087368
 40
6.388373957087368
 40
6.388373957087368
 40
21.48330096007931
 40
21.48330096007931
 40
21.48330096007931
 40
21.48330096007931
 10
13.85452038649146
 20
3.948999204734946
 30
0.0
 10
17.0764026119632
 20
3.151253736641137
 30
0.0
 10
20.17318190203741
 20
1.575626868320568
 30
0.0
 10
23.26996119211162
 20
0.0000000000002274
 30
0.0
  0
SPLINE
  5
D42
330
D39
100
AcDbEntity
  8
AM_0
100
AcDbSpline
210
0.0
220
0.0
230
1.0
 70
     8
 71
     3
 72
     8
 73
     4
 74
     2
 42
0.0000000001
 43
0.0000000001
 44
0.0000000001
 12
-1.0
 22
0.0000000000000274
 32
0.0
 40
0.0
 40
0.0
 40
0.0
 40
0.0
 40
14.47184895407332
 40
14.47184895407332
 40
14.47184895407332
 40
14.47184895407332
 10
27.16555092055341
 20
-4.994258982847441
 30
0.0
 10
22.34160126919564
 20
-4.994258982847308
 30
0.0
 10
17.96218836183795
 20
-2.49712949142354
 30
0.0
 10
13.58277545448027
 20
0.0000000000002274
 30
0.0
 11
27.16555092055341
 21
-4.994258982847441
 31
0.0
 11
13.58277545448027
 21
0.0000000000002274
 31
0.0
  0
SPLINE
  5
D43
330
D39
100
AcDbEntity
  8
AM_0
100
AcDbSpline
210
0.0
220
0.0
230
1.0
 70
     8
 71
     3
 72
     8
 73
     4
 74
     0
 42
0.0000000001
 43
0.0000000001
 40
0.0
 40
0.0
 40
0.0
 40
0.0
 40
14.57375042439464
 40
14.57375042439464
 40
14.57375042439464
 40
14.57375042439464
 10
23.26929485873597
 20
-4.484567220486269
 30
0.0
 10
20.03478538905983
 20
-4.484567220486269
 30
0.0
 10
16.96624153337597
 20
-3.452604510807987
 30
0.0
 10
13.95107624363981
 20
-2.08873756971252
 30
0.0
  0
SPLINE
  5
D44
330
D39
100
AcDbEntity
  8
AM_0
100
AcDbSpline
210
0.0
220
0.0
230
1.0
 70
     8
 71
     3
 72
     8
 73
     4
 74
     0
 42
0.0000000001
 43
0.0000000001
 40
0.0
 40
0.0
 40
0.0
 40
0.0
 40
8.656655244422164
 40
8.656655244422164
 40
8.656655244422164
 40
8.656655244422164
 10
13.58277544288694
 20
-4.994258982847668
 30
0.0
 10
15.50404022020438
 20
-4.994258982847441
 30
0.0
 10
17.35479079911374
 20
-4.598154303570709
 30
0.0
 10
19.16311131305201
 20
-3.963704047708006
 30
0.0
  0
SPLINE
  5
D45
330
D39
100
AcDbEntity
  8
AM_0
100
AcDbSpline
210
0.0
220
0.0
230
1.0
 70
     8
 71
     3
 72
     8
 73
     4
 74
     0
 42
0.0000000001
 43
0.0000000001
 40
6.388373957087368
 40
6.388373957087368
 40
6.388373957087368
 40
6.388373957087368
 40
19.16636192826067
 40
19.16636192826067
 40
19.16636192826067
 40
19.16636192826067
 10
27.43729584097127
 20
3.948999204735173
 30
0.0
 10
30.16464737526212
 20
3.273700676074213
 30
0.0
 10
32.80235301286802
 20
2.040990161709032
 30
0.0
 10
35.42629879081914
 20
0.7227217916331484
 30
0.0
  0
SPLINE
  5
D46
330
D39
100
AcDbEntity
  8
AM_0
100
AcDbSpline
210
0.0
220
0.0
230
1.0
 70
     8
 71
     3
 72
     8
 73
     4
 74
     0
 42
0.0000000001
 43
0.0000000001
 40
2.157205007361376
 40
2.157205007361376
 40
2.157205007361376
 40
2.157205007361376
 40
14.57375042439464
 40
14.57375042439464
 40
14.57375042439464
 40
14.57375042439464
 10
35.4262987908196
 20
-4.419007013569853
 30
0.0
 10
32.71031928345883
 20
-4.171793211683279
 30
0.0
 10
30.10271253830569
 20
-3.250725069413192
 30
0.0
 10
27.53385169811963
 20
-2.088737569712293
 30
0.0
  0
SPLINE
  5
D47
330
D39
100
AcDbEntity
  8
AM_0
100
AcDbSpline
210
0.0
220
0.0
230
1.0
 70
     8
 71
     3
 72
     8
 73
     4
 74
     0
 42
0.0000000001
 43
0.0000000001
 40
14.57482399616119
 40
14.57482399616119
 40
14.57482399616119
 40
14.57482399616119
 40
21.48330096007931
 40
21.48330096007931
 40
21.48330096007931
 40
21.48330096007931
 10
13.95107624363981
 20
-2.088775184849737
 30
0.0
 10
12.52178419359961
 20
-1.442230481984324
 30
0.0
 10
11.10448496561548
 20
-0.7211152409920488
 30
0.0
 10
9.687185737631352
 20
0.0000000000002274
 30
0.0
  0
SPLINE
  5
D48
330
D39
100
AcDbEntity
  8
AM_0
100
AcDbSpline
210
0.0
220
0.0
230
1.0
 70
     8
 71
     3
 72
     8
 73
     4
 74
     0
 42
0.0000000001
 43
0.0000000001
 40
14.57482399616119
 40
14.57482399616119
 40
14.57482399616119
 40
14.57482399616119
 40
21.48330096007931
 40
21.48330096007931
 40
21.48330096007931
 40
21.48330096007931
 10
27.53385169812009
 20
-2.088775184849737
 30
0.0
 10
26.10455964807943
 20
-1.442230481984324
 30
0.0
 10
24.68726042009575
 20
-0.7211152409920488
 30
0.0
 10
23.26996119211162
 20
0.0000000000002274
 30
0.0
  0
SPLINE
  5
D49
330
D39
100
AcDbEntity
  8
AM_0
100
AcDbSpline
210
0.0
220
0.0
230
1.0
 70
     8
 71
     3
 72
     8
 73
     4
 74
     0
 42
0.0000000001
 43
0.0000000001
 40
6.388373957087368
 40
6.388373957087368
 40
6.388373957087368
 40
6.388373957087368
 40
21.48330096007931
 40
21.48330096007931
 40
21.48330096007931
 40
21.48330096007931
 10
0.2717449320111882
 20
3.948999204734946
 30
0.0
 10
3.493627157483388
 20
3.15125373664091
 30
0.0
 10
6.590406447557597
 20
1.575626868320568
 30
0.0
 10
9.687185737631352
 20
0.0
 30
0.0
  0
SPLINE
  5
D4A
330
D39
100
AcDbEntity
  8
AM_0
100
AcDbSpline
210
0.0
220
0.0
230
1.0
 70
     8
 71
     3
 72
     8
 73
     4
 74
     2
 42
0.0000000001
 43
0.0000000001
 44
0.0000000001
 12
1.0
 22
-0.0000000000000273
 32
0.0
 40
0.0
 40
0.0
 40
0.0
 40
0.0
 40
14.47184895407324
 40
14.47184895407324
 40
14.47184895407324
 40
14.47184895407324
 10
-0.0000000115928742
 20
4.994258982847441
 30
0.0
 10
4.823949639764873
 20
4.994258982847309
 30
0.0
 10
9.203362547122573
 20
2.497129491423654
 30
0.0
 10
13.58277545448027
 20
0.0
 30
0.0
 11
-0.0000000115928742
 21
4.994258982847441
 31
0.0
 11
13.58277545448027
 21
0.0
 31
0.0
  0
SPLINE
  5
D4B
330
D39
100
AcDbEntity
  8
AM_0
100
AcDbSpline
210
0.0
220
0.0
230
1.0
 70
     8
 71
     3
 72
     8
 73
     4
 74
     0
 42
0.0000000001
 43
0.0000000001
 40
0.0
 40
0.0
 40
0.0
 40
0.0
 40
14.57375042439464
 40
14.57375042439464
 40
14.57375042439464
 40
14.57375042439464
 10
9.686519404256159
 20
-4.484567220486269
 30
0.0
 10
6.452009934579564
 20
-4.484567220486269
 30
0.0
 10
3.383466078896162
 20
-3.452604510808214
 30
0.0
 10
0.3683007891600027
 20
-2.088737569712748
 30
0.0
  0
SPLINE
  5
D4C
330
D39
100
AcDbEntity
  8
AM_0
100
AcDbSpline
210
0.0
220
0.0
230
1.0
 70
     8
 71
     3
 72
     8
 73
     4
 74
     2
 42
0.0000000001
 43
0.0000000001
 44
0.0000000001
 12
-1.0
 22
0.0000000000000274
 32
0.0
 40
0.0
 40
0.0
 40
0.0
 40
0.0
 40
14.47184895407332
 40
14.47184895407332
 40
14.47184895407332
 40
14.47184895407332
 10
13.58277546607314
 20
-4.994258982847668
 30
0.0
 10
8.75882581471537
 20
-4.994258982847536
 30
0.0
 10
4.379412907357685
 20
-2.497129491423768
 30
0.0
 10
0.0
 20
0.0
 30
0.0
 11
13.58277546607314
 21
-4.994258982847668
 31
0.0
 11
0.0
 21
0.0
 31
0.0
  0
SPLINE
  5
D4D
330
D39
100
AcDbEntity
  8
AM_0
100
AcDbSpline
210
0.0
220
0.0
230
1.0
 70
     8
 71
     3
 72
     8
 73
     4
 74
     0
 42
0.0000000001
 43
0.0000000001
 40
0.0
 40
0.0
 40
0.0
 40
0.0
 40
8.656655244422164
 40
8.656655244422164
 40
8.656655244422164
 40
8.656655244422164
 10
-0.0000000115928742
 20
-4.994258982847668
 30
0.0
 10
1.921264765724572
 20
-4.994258982847668
 30
0.0
 10
3.772015344633928
 20
-4.598154303570709
 30
0.0
 10
5.580335858572198
 20
-3.963704047708233
 30
0.0
  0
SPLINE
  5
D4E
330
D39
100
AcDbEntity
  8
AM_0
100
AcDbSpline
210
0.0
220
0.0
230
1.0
 70
     8
 71
     3
 72
     8
 73
     4
 74
     0
 42
0.0000000001
 43
0.0000000001
 40
0.0
 40
0.0
 40
0.0
 40
0.0
 40
4.291796785366923
 40
4.291796785366923
 40
4.291796785366923
 40
4.291796785366923
 10
0.0
 20
-4.217294669658713
 30
0.0
 10
0.7178423348700563
 20
-3.591191085115724
 30
0.0
 10
1.677147053462249
 20
-3.449857112356994
 30
0.0
 10
2.696575318951545
 20
-3.429229595151809
 30
0.0
  0
LINE
  5
D4F
330
D39
100
AcDbEntity
  8
AM_0
100
AcDbLine
 10
29.96179783986963
 20
0.2446399067803213
 30
0.0
 11
29.96165246296732
 21
-3.096549277777512
 31
0.0
  0
LINE
  5
D50
330
D39
100
AcDbEntity
  8
AM_0
100
AcDbLine
 10
0.0
 20
4.993667989131381
 30
0.0
 11
0.0
 21
-4.993667989130926
 31
0.0
  0
LINE
  5
D51
330
D39
100
AcDbEntity
  8
AM_0
100
AcDbLine
 10
0.0
 20
-0.0000000000002274
 30
0.0
 11
0.4587386474390769
 21
-2.601636151176762
 31
0.0
  0
LINE
  5
D52
330
D39
100
AcDbEntity
  8
AM_0
100
AcDbLine
 10
2.696575318951545
 20
-3.429229595152037
 30
0.0
 11
0.4587386474390769
 21
-2.601636151176762
 31
0.0
  0
LINE
  5
D53
330
D39
100
AcDbEntity
  8
AM_0
100
AcDbLine
 10
27.16555092055341
 20
-4.994258982847441
 30
0.0
 11
35.42629879081914
 21
-4.419007013573491
 31
0.0
  0
LINE
  5
D54
330
D39
100
AcDbEntity
  8
AM_0
100
AcDbLine
 10
29.96156931058612
 20
-5.007635783905925
 30
0.0
 11
27.15904611887253
 21
-5.006330625516739
 31
0.0
  0
LINE
  5
D55
330
D39
100
AcDbEntity
  8
AM_0
100
AcDbLine
 10
0.0
 20
1.241375863708753
 30
0.0
 11
0.4190176852212062
 21
2.35684904919276
 31
0.0
  0
LINE
  5
D56
330
D39
100
AcDbEntity
  8
AM_0
100
AcDbLine
 10
1.522916315387647
 20
0.646576603304311
 30
0.0
 11
0.4190176852212062
 21
2.35684904919276
 31
0.0
  0
ARC
  5
D57
330
D39
100
AcDbEntity
  8
AM_0
100
AcDbCircle
 10
1.244745820095431
 20
0.463680408522805
 30
0.0
 40
0.3329111631000001
100
AcDbArc
 50
263.9999999999916
 51
33.32478949129687
1001
GENIUS_GENODEF_13
1002
{
1000
HIER
1070
     0
1002
}
1002
{
1000
MANEDIT
1070
     0
1002
}
1002
{
1000
NOSEL
1070
     0
1002
}
1002
{
1000
BEHIND
1070
     0
1002
}
1002
{
1000
REACTOR
1002
}
1001
GENIUS_GENOBJ-N-FIL_13
1002
{
1000
OWNER
1000
GEN
1002
}
  0
LINE
  5
D58
330
D39
100
AcDbEntity
  8
AM_0
100
AcDbLine
 10
1.209947127812029
 20
0.1325929676074793
 30
0.0
 11
0.0
 21
0.2597635351880854
 31
0.0
  0
ARC
  5
D59
330
D39
100
AcDbEntity
  8
AM_0
100
AcDbCircle
 10
-3.413078141332334
 20
3.548978777721458
 30
0.0
 40
3.706472369231112
100
AcDbArc
 50
6.119787907326855
 51
22.95040296333035
  0
ARC
  5
D5A
330
D39
100
AcDbEntity
  8
AM_0
100
AcDbCircle
 10
-17.17020971610372
 20
1.531107924361322
 30
0.0
 40
17.60859929070929
100
AcDbArc
 50
2.687825306266543
 51
7.097300456470235
  0
LINE
  5
D5B
330
D39
100
AcDbEntity
  8
AM_0
100
AcDbLine
 10
35.42629879081914
 20
0.7227217916331484
 30
0.0
 11
27.1520474463864
 21
-0.0011813998933121
 31
0.0
  0
LINE
  5
D5C
330
D39
100
AcDbEntity
  8
AM_0
100
AcDbLine
 10
29.96200467900007
 20
4.998412031072575
 30
0.0
 11
29.96192468118215
 21
3.159826677773025
 31
0.0
  0
LINE
  5
D5D
330
D39
100
AcDbEntity
  8
AM_0
100
AcDbLine
 10
29.96200467900007
 20
4.998412031072575
 30
0.0
 11
27.17020684636008
 21
4.981001667502823
 31
0.0
  0
LINE
  5
D5E
330
D39
100
AcDbEntity
  8
AM_11
100
AcDbLine
 10
0.0000000000009095
 20
-5.000000000000227
 30
0.0
 11
40.80000000000018
 21
-5.000000000000227
 31
0.0
  0
LINE
  5
D5F
330
D39
100
AcDbEntity
  8
AM_11
100
AcDbLine
 10
40.80000000000018
 20
4.999999999999772
 30
0.0
 11
0.0
 21
4.999999999999772
 31
0.0
  0
ENDBLK
  5
D61
330
D39
100
AcDbEntity
  8
0
100
AcDbBlockEnd
  0
BLOCK
  5
1113
330
1109
100
AcDbEntity
  8
0
100
AcDbBlockBegin
  2
*D6
 70
     1
 10
0.0
 20
0.0
 30
0.0
  3
*D6
  1

  0
LINE
  5
1396
330
1109
100
AcDbEntity
  8
AM_5
100
AcDbLine
 10
-38.0
 20
-1.5
 30
0.0
 11
-38.0
 21
-14.99999999999998
 31
0.0
  0
LINE
  5
1397
330
1109
100
AcDbEntity
  8
AM_5
100
AcDbLine
 10
0.0000000000000457
 20
-1.0
 30
0.0
 11
0.0000000000000449
 21
-14.99999999999998
 31
0.0
  0
LINE
  5
1398
330
1109
100
AcDbEntity
  8
AM_5
100
AcDbLine
 10
-36.75
 20
-14.49999999999998
 30
0.0
 11
-1.249999999999955
 21
-14.49999999999998
 31
0.0
  0
INSERT
  5
1399
330
1109
100
AcDbEntity
  8
AM_5
100
AcDbBlockReference
  2
_OPEN30
 10
-38.0
 20
-14.49999999999998
 30
0.0
 41
1.25
 42
1.25
 43
1.25
 50
180.0
  0
INSERT
  5
139A
330
1109
100
AcDbEntity
  8
AM_5
100
AcDbBlockReference
  2
_OPEN30
 10
0.0000000000000449
 20
-14.49999999999998
 30
0.0
 41
1.25
 42
1.25
 43
1.25
  0
MTEXT
  5
139B
330
1109
100
AcDbEntity
  8
AM_5
 62
     2
100
AcDbMText
 10
-18.99999999999998
 20
-12.94999999999998
 30
0.0
 40
1.6
 41
0.0
 71
     5
 72
     1
  1
38
  7
ASAMI
1001
ACAD
1000
MTEXTBEGIN
1070
    73
1070
     1
1070
    44
1040
1.0
1070
    74
1070
     0
1000
MTEXTEND
  0
POINT
  5
139C
330
1109
100
AcDbEntity
  8
DEFPOINTS
 62
     0
100
AcDbPoint
 10
-38.0
 20
-1.0
 30
0.0
  0
POINT
  5
139D
330
1109
100
AcDbEntity
  8
DEFPOINTS
 62
     0
100
AcDbPoint
 10
0.0000000000000457
 20
-0.5
 30
0.0
  0
POINT
  5
139E
330
1109
100
AcDbEntity
  8
DEFPOINTS
 62
     0
100
AcDbPoint
 10
0.0000000000000449
 20
-14.49999999999998
 30
0.0
  0
ENDBLK
  5
1114
330
1109
100
AcDbEntity
  8
0
100
AcDbBlockEnd
  0
BLOCK
  5
11AE
330
11A2
100
AcDbEntity
  8
0
100
AcDbBlockBegin
  2
*D7
 70
     1
 10
0.0
 20
0.0
 30
0.0
  3
*D7
  1

  0
LINE
  5
13D7
330
11A2
100
AcDbEntity
  8
AM_5
100
AcDbLine
 10
0.0000000000000457
 20
-1.0
 30
0.0
 11
0.0000000000000452
 21
-8.999999999999991
 31
0.0
  0
LINE
  5
13D8
330
11A2
100
AcDbEntity
  8
AM_5
100
AcDbLine
 10
-1.799999999999953
 20
-1.173205080757116
 30
0.0
 11
-1.799999999999953
 21
-8.999999999999991
 31
0.0
  0
LINE
  5
13D9
330
11A2
100
AcDbEntity
  8
AM_5
100
AcDbLine
 10
1.250000000000045
 20
-8.499999999999991
 30
0.0
 11
2.500000000000045
 21
-8.499999999999991
 31
0.0
  0
LINE
  5
13DA
330
11A2
100
AcDbEntity
  8
AM_5
100
AcDbLine
 10
-3.049999999999953
 20
-8.499999999999991
 30
0.0
 11
-8.847619047619001
 21
-8.499999999999991
 31
0.0
  0
LINE
  5
13DB
330
11A2
100
AcDbEntity
  8
AM_5
100
AcDbLine
 10
0.0000000000000453
 20
-8.499999999999991
 30
0.0
 11
-1.799999999999953
 21
-8.499999999999991
 31
0.0
  0
INSERT
  5
13DC
330
11A2
100
AcDbEntity
  8
AM_5
100
AcDbBlockReference
  2
_OPEN30
 10
0.0000000000000453
 20
-8.499999999999991
 30
0.0
 41
1.25
 42
1.25
 43
1.25
 50
180.0
  0
INSERT
  5
13DD
330
11A2
100
AcDbEntity
  8
AM_5
100
AcDbBlockReference
  2
_OPEN30
 10
-1.799999999999953
 20
-8.499999999999991
 30
0.0
 41
1.25
 42
1.25
 43
1.25
  0
MTEXT
  5
13DE
330
11A2
100
AcDbEntity
  8
AM_5
 62
     2
100
AcDbMText
 10
-6.573809523809477
 20
-6.949999999999991
 30
0.0
 40
1.6
 41
0.0
 71
     5
 72
     1
  1
1.8
  7
ASAMI
1001
ACAD
1000
MTEXTBEGIN
1070
    73
1070
     1
1070
    44
1040
1.0
1070
    74
1070
     0
1000
MTEXTEND
  0
POINT
  5
13DF
330
11A2
100
AcDbEntity
  8
DEFPOINTS
 62
     0
100
AcDbPoint
 10
0.0000000000000457
 20
-0.5
 30
0.0
  0
POINT
  5
13E0
330
11A2
100
AcDbEntity
  8
DEFPOINTS
 62
     0
100
AcDbPoint
 10
-1.799999999999953
 20
-0.6732050807571165
 30
0.0
  0
POINT
  5
13E1
330
11A2
100
AcDbEntity
  8
DEFPOINTS
 62
     0
100
AcDbPoint
 10
-1.799999999999953
 20
-8.499999999999991
 30
0.0
  0
ENDBLK
  5
11AF
330
11A2
100
AcDbEntity
  8
0
100
AcDbBlockEnd
  0
BLOCK
  5
1252
330
1246
100
AcDbEntity
  8
0
100
AcDbBlockBegin
  2
*D8
 70
     1
 10
0.0
 20
0.0
 30
0.0
  3
*D8
  1

  0
LINE
  5
13CC
330
1246
100
AcDbEntity
  8
AM_5
100
AcDbLine
 10
0.5000000000000464
 20
-0.600000000000697
 30
0.0
 11
8.899999999992658
 21
-0.6000000000006995
 31
0.0
  0
LINE
  5
13CD
330
1246
100
AcDbEntity
  8
AM_5
100
AcDbLine
 10
0.4999999999999363
 20
0.599999999999303
 30
0.0
 11
8.899999999992658
 21
0.5999999999993006
 31
0.0
  0
LINE
  5
13CE
330
1246
100
AcDbEntity
  8
AM_5
100
AcDbLine
 10
8.399999999992658
 20
-1.850000000000699
 30
0.0
 11
8.399999999992658
 21
-3.100000000000699
 31
0.0
  0
LINE
  5
13CF
330
1246
100
AcDbEntity
  8
AM_5
100
AcDbLine
 10
8.399999999992658
 20
1.8499999999993
 30
0.0
 11
8.39999999999266
 21
9.095238095237396
 31
0.0
  0
LINE
  5
13D0
330
1246
100
AcDbEntity
  8
AM_5
100
AcDbLine
 10
8.399999999992658
 20
-0.6000000000006994
 30
0.0
 11
8.399999999992658
 21
0.5999999999993007
 31
0.0
  0
INSERT
  5
13D1
330
1246
100
AcDbEntity
  8
AM_5
100
AcDbBlockReference
  2
_OPEN30
 10
8.399999999992658
 20
-0.6000000000006994
 30
0.0
 41
1.25
 42
1.25
 43
1.25
 50
90.0
  0
INSERT
  5
13D2
330
1246
100
AcDbEntity
  8
AM_5
100
AcDbBlockReference
  2
_OPEN30
 10
8.399999999992658
 20
0.5999999999993007
 30
0.0
 41
1.25
 42
1.25
 43
1.25
 50
270.0
  0
MTEXT
  5
13D3
330
1246
100
AcDbEntity
  8
AM_5
 62
     2
100
AcDbMText
 10
6.849999999992657
 20
6.09761904761835
 30
0.0
 40
1.6
 41
0.0
 71
     5
 72
     1
  1
%%c1.2
  7
ASAMI
 11
0.0000000000000001
 21
1.0
 31
0.0
1001
ACAD
1000
MTEXTBEGIN
1070
    73
1070
     1
1070
    44
1040
1.0
1070
    74
1070
     0
1000
MTEXTEND
  0
POINT
  5
13D4
330
1246
100
AcDbEntity
  8
DEFPOINTS
 62
     0
100
AcDbPoint
 10
0.0000000000000464
 20
-0.6000000000006969
 30
0.0
  0
POINT
  5
13D5
330
1246
100
AcDbEntity
  8
DEFPOINTS
 62
     0
100
AcDbPoint
 10
-0.0000000000000637
 20
0.5999999999993032
 30
0.0
  0
POINT
  5
13D6
330
1246
100
AcDbEntity
  8
DEFPOINTS
 62
     0
100
AcDbPoint
 10
8.399999999992658
 20
0.5999999999993007
 30
0.0
  0
ENDBLK
  5
1253
330
1246
100
AcDbEntity
  8
0
100
AcDbBlockEnd
  0
BLOCK
  5
1301
330
12F5
100
AcDbEntity
  8
0
100
AcDbBlockBegin
  2
*D9
 70
     1
 10
0.0
 20
0.0
 30
0.0
  3
*D9
  1

  0
LINE
  5
13B7
330
12F5
100
AcDbEntity
  8
AM_5
100
AcDbLine
 10
-38.0
 20
-1.5
 30
0.0
 11
-45.49999999999999
 21
-1.499999999999998
 31
0.0
  0
LINE
  5
13B8
330
12F5
100
AcDbEntity
  8
AM_5
100
AcDbLine
 10
-38.0
 20
1.5
 30
0.0
 11
-45.49999999999999
 21
1.500000000000002
 31
0.0
  0
LINE
  5
13B9
330
12F5
100
AcDbEntity
  8
AM_5
100
AcDbLine
 10
-45.0
 20
-2.749999999999998
 30
0.0
 11
-45.0
 21
-3.999999999999998
 31
0.0
  0
LINE
  5
13BA
330
12F5
100
AcDbEntity
  8
AM_5
100
AcDbLine
 10
-45.0
 20
2.750000000000001
 30
0.0
 11
-45.0
 21
8.014285714285716
 31
0.0
  0
LINE
  5
13BB
330
12F5
100
AcDbEntity
  8
AM_5
100
AcDbLine
 10
-45.0
 20
-1.499999999999998
 30
0.0
 11
-45.0
 21
1.500000000000001
 31
0.0
  0
INSERT
  5
13BC
330
12F5
100
AcDbEntity
  8
AM_5
100
AcDbBlockReference
  2
_OPEN30
 10
-45.0
 20
-1.499999999999998
 30
0.0
 41
1.25
 42
1.25
 43
1.25
 50
90.0
  0
INSERT
  5
13BD
330
12F5
100
AcDbEntity
  8
AM_5
100
AcDbBlockReference
  2
_OPEN30
 10
-45.0
 20
1.500000000000001
 30
0.0
 41
1.25
 42
1.25
 43
1.25
 50
270.0
  0
MTEXT
  5
13BE
330
12F5
100
AcDbEntity
  8
AM_5
 62
     2
100
AcDbMText
 10
-46.55
 20
6.007142857142851
 30
0.0
 40
1.6
 41
0.0
 71
     5
 72
     1
  1
%%c3
  7
ASAMI
 11
0.0000000000000001
 21
1.0
 31
0.0
1001
ACAD
1000
MTEXTBEGIN
1070
    73
1070
     1
1070
    44
1040
1.0
1070
    74
1070
     0
1000
MTEXTEND
  0
POINT
  5
13BF
330
12F5
100
AcDbEntity
  8
DEFPOINTS
 62
     0
100
AcDbPoint
 10
-37.5
 20
-1.5
 30
0.0
  0
POINT
  5
13C0
330
12F5
100
AcDbEntity
  8
DEFPOINTS
 62
     0
100
AcDbPoint
 10
-37.5
 20
1.5
 30
0.0
  0
POINT
  5
13C1
330
12F5
100
AcDbEntity
  8
DEFPOINTS
 62
     0
100
AcDbPoint
 10
-45.0
 20
1.500000000000001
 30
0.0
  0
ENDBLK
  5
1302
330
12F5
100
AcDbEntity
  8
0
100
AcDbBlockEnd
  0
ENDSEC
  0
SECTION
  2
ENTITIES
  0
LINE
  5
BD1
330
1F
100
AcDbEntity
  8
AM_0
100
AcDbLine
 10
-6.232050807568882
 20
-1.5
 30
0.0
 11
-37.5
 21
-1.5
 31
0.0
  0
LINE
  5
BD2
330
1F
100
AcDbEntity
  8
AM_0
100
AcDbLine
 10
-38.0
 20
-1.0
 30
0.0
 11
-38.0
 21
1.0
 31
0.0
  0
LINE
  5
BD3
330
1F
100
AcDbEntity
  8
AM_0
100
AcDbLine
 10
-37.5
 20
1.5
 30
0.0
 11
-6.232050807568882
 21
1.5
 31
0.0
  0
LINE
  5
BD4
330
1F
100
AcDbEntity
  8
AM_0
100
AcDbLine
 10
-6.232050807568882
 20
1.5
 30
0.0
 11
-6.232050807568879
 21
-1.5
 31
0.0
  0
LINE
  5
BD5
330
1F
100
AcDbEntity
  8
AM_0
100
AcDbLine
 10
-6.232050807568882
 20
1.519615242269962
 30
0.0
 11
-2.800000000000008
 21
0.5999999999993011
 31
0.0
  0
LINE
  5
BD6
330
1F
100
AcDbEntity
  8
AM_0
100
AcDbLine
 10
-6.232050807568878
 20
-1.519615242271358
 30
0.0
 11
-2.800000000000007
 21
-0.5993110779424198
 31
0.0
  0
LINE
  5
D35
330
1F
100
AcDbEntity
  8
AM_0
100
AcDbLine
 10
-2.800000000000008
 20
0.5999999999993011
 30
0.0
 11
-2.800000000000008
 21
0.0154148356468886
 31
0.0
  0
SPLINE
  5
DD2
330
1F
100
AcDbEntity
  8
AM_0
100
AcDbSpline
210
0.0
220
0.0
230
1.0
 70
     8
 71
     3
 72
     8
 73
     4
 74
     0
 42
0.0000000001
 43
0.0000000001
 40
0.0
 40
0.0
 40
0.0
 40
0.0
 40
5.964454022267601
 40
5.964454022267601
 40
5.964454022267601
 40
5.964454022267601
 10
-1.162462291298115
 20
-0.5381887497369892
 30
0.0
 10
-1.321312957362887
 20
-0.5381887497369892
 30
0.0
 10
-1.476827838075341
 20
-0.517447067118089
 30
0.0
 10
-1.629933054537586
 20
-0.4817222588429717
 30
0.0
  0
SPLINE
  5
DD3
330
1F
100
AcDbEntity
  8
AM_0
100
AcDbSpline
210
0.0
220
0.0
230
1.0
 70
     8
 71
     3
 72
     8
 73
     4
 74
     0
 42
0.0000000001
 43
0.0000000001
 40
0.0
 40
0.0
 40
0.0
 40
0.0
 40
5.945175151932629
 40
5.945175151932629
 40
5.945175151932629
 40
5.945175151932629
 10
-1.629933055928731
 20
-0.5993110779424184
 30
0.0
 10
-1.471595841955685
 20
-0.5993110779424184
 30
0.0
 10
-1.317249675362498
 20
-0.5768918690729765
 30
0.0
 10
-1.165802899987965
 20
-0.5381856931145258
 30
0.0
  0
SPLINE
  5
DD4
330
1F
100
AcDbEntity
  8
AM_0
100
AcDbSpline
210
0.0
220
0.0
230
1.0
 70
     8
 71
     3
 72
     8
 73
     4
 74
     0
 42
0.0000000001
 43
0.0000000001
 40
0.0
 40
0.0
 40
0.0
 40
0.0
 40
6.292897229749232
 40
6.292897229749232
 40
6.292897229749232
 40
6.292897229749232
 10
-1.162382328510692
 20
-0.5381480664590774
 30
0.0
 10
-0.99478426962868
 20
-0.5381480664590774
 30
0.0
 10
-0.8308994932023132
 20
-0.5150591329598747
 30
0.0
 10
-0.6696403030286178
 20
-0.4756444857256854
 30
0.0
  0
SPLINE
  5
DD9
330
1F
100
AcDbEntity
  8
AM_0
100
AcDbSpline
210
0.0
220
0.0
230
1.0
 70
     8
 71
     3
 72
     8
 73
     4
 74
     0
 42
0.0000000001
 43
0.0000000001
 40
6.388373957087368
 40
6.388373957087368
 40
6.388373957087368
 40
6.388373957087368
 40
21.48330096007931
 40
21.48330096007931
 40
21.48330096007931
 40
21.48330096007931
 10
-1.629933054537586
 20
-0.4817222588429717
 30
0.0
 10
-2.049168313435538
 20
-0.3781504483976625
 30
0.0
 10
-2.420781828244443
 20
-0.1890752241991941
 30
0.0
 10
-2.792395343053349
 20
-0.0000000000007534
 30
0.0
  0
SPLINE
  5
DDA
330
1F
100
AcDbEntity
  8
AM_0
100
AcDbSpline
210
0.0
220
0.0
230
1.0
 70
     8
 71
     3
 72
     8
 73
     4
 74
     0
 42
0.0000000001
 43
0.0000000001
 40
1.290752519848677
 40
1.290752519848677
 40
1.290752519848677
 40
1.290752519848677
 40
1.446844374586205
 40
1.446844374586205
 40
1.446844374586205
 40
1.446844374586205
 10
-1.800000000000023
 20
0.0967192078971081
 30
0.0
 10
-1.743266245569057
 20
0.0647306057835132
 30
0.0
 10
-1.686599650053322
 20
0.0323653028913799
 30
0.0
 10
-1.629933054537587
 20
-0.0000000000007529
 30
0.0
  0
SPLINE
  5
DDB
330
1F
100
AcDbEntity
  8
AM_0
100
AcDbSpline
210
0.0
220
0.0
230
1.0
 70
     8
 71
     3
 72
     8
 73
     4
 74
     0
 42
0.0000000001
 43
0.0000000001
 40
6.292897230975928
 40
6.292897230975928
 40
6.292897230975928
 40
6.292897230975928
 40
14.57375042439464
 40
14.57375042439464
 40
14.57375042439464
 40
14.57375042439464
 10
-2.299573357471925
 20
0.4756444857011803
 30
0.0
 10
-2.087371627305989
 20
0.423778565195392
 30
0.0
 10
-1.879716376061229
 20
0.3436429531907062
 30
0.0
 10
-1.674129149236732
 20
0.2506485083647772
 30
0.0
  0
SPLINE
  5
DDC
330
1F
100
AcDbEntity
  8
AM_0
100
AcDbSpline
210
0.0
220
0.0
230
1.0
 70
     8
 71
     3
 72
     8
 73
     4
 74
     0
 42
0.0000000001
 43
0.0000000001
 40
0.0
 40
0.0
 40
0.0
 40
0.0
 40
8.656655244422164
 40
8.656655244422164
 40
8.656655244422164
 40
8.656655244422164
 10
-1.629933053146387
 20
0.5993110779409947
 30
0.0
 10
-1.86048482642448
 20
0.5993110779409676
 30
0.0
 10
-2.082574895893603
 20
0.5517785164277598
 30
0.0
 10
-2.299573357566195
 20
0.475644485724235
 30
0.0
  0
SPLINE
  5
DDF
330
1F
100
AcDbEntity
  8
AM_0
100
AcDbSpline
210
0.0
220
0.0
230
1.0
 70
     8
 71
     3
 72
     8
 73
     4
 74
     0
 42
0.0000000001
 43
0.0000000001
 40
14.57482399616119
 40
14.57482399616119
 40
14.57482399616119
 40
14.57482399616119
 40
21.48330096007931
 40
21.48330096007931
 40
21.48330096007931
 40
21.48330096007931
 10
-1.674129149236732
 20
0.2506530221812429
 30
0.0
 10
-1.502614103231907
 20
0.1730676578373939
 30
0.0
 10
-1.332538195873811
 20
0.0865338289183208
 30
0.0
 10
-1.162462288515716
 20
-0.0000000000007524
 30
0.0
  0
SPLINE
  5
DE0
330
1F
100
AcDbEntity
  8
AM_0
100
AcDbSpline
210
0.0
220
0.0
230
1.0
 70
     8
 71
     3
 72
     8
 73
     4
 74
     0
 42
0.0000000001
 43
0.0000000001
 40
21.11538617786851
 40
21.11538617786851
 40
21.11538617786851
 40
21.11538617786851
 40
21.48330096007931
 40
21.48330096007931
 40
21.48330096007931
 40
21.48330096007931
 10
-2.819568021476299
 20
0.0138238699445798
 30
0.0
 10
-2.810510317089383
 20
0.0092168143526586
 30
0.0
 10
-2.801452830071366
 20
0.0046084071759526
 30
0.0
 10
-2.792395343053349
 20
-0.0000000000007534
 30
0.0
  0
SPLINE
  5
DE1
330
1F
100
AcDbEntity
  8
AM_0
100
AcDbSpline
210
0.0
220
0.0
230
1.0
 70
     8
 71
     3
 72
     8
 73
     4
 74
     0
 42
0.0000000001
 43
0.0000000001
 40
6.388373957087368
 40
6.388373957087368
 40
6.388373957087368
 40
6.388373957087368
 40
21.48330096007931
 40
21.48330096007931
 40
21.48330096007931
 40
21.48330096007931
 10
-0.0326093918412963
 20
-0.4738799045689175
 30
0.0
 10
-0.4192352588979605
 20
-0.3781504483976337
 30
0.0
 10
-0.7908487737068662
 20
-0.1890752241991931
 30
0.0
 10
-1.162462288515716
 20
-0.0000000000007252
 30
0.0
  0
SPLINE
  5
DE2
330
1F
100
AcDbEntity
  8
AM_0
100
AcDbSpline
210
0.0
220
0.0
230
1.0
 70
     8
 71
     3
 72
     8
 73
     4
 74
     2
 42
0.0000000001
 43
0.0000000001
 44
0.0000000001
 12
-1.0
 22
0.0000000000000265
 32
0.0
 40
0.0
 40
0.0
 40
0.0
 40
0.0
 40
1.736621874488789
 40
1.736621874488789
 40
1.736621874488789
 40
1.736621874488789
 10
0.0000000013911912
 20
-0.5993110779424168
 30
0.0
 10
-0.5788739567717388
 20
-0.5993110779424015
 30
0.0
 10
-1.104403505654662
 20
-0.2996555389715633
 30
0.0
 10
-1.629933054537587
 20
-0.0000000000007252
 30
0.0
 11
0.0000000013911912
 21
-0.5993110779424168
 31
0.0
 11
-1.629933054537587
 21
-0.0000000000007252
 31
0.0
  0
SPLINE
  5
DE3
330
1F
100
AcDbEntity
  8
AM_0
100
AcDbSpline
210
0.0
220
0.0
230
1.0
 70
     8
 71
     3
 72
     8
 73
     4
 74
     0
 42
0.0000000001
 43
0.0000000001
 40
0.0
 40
0.0
 40
0.0
 40
0.0
 40
14.57375042439464
 40
14.57375042439464
 40
14.57375042439464
 40
14.57375042439464
 10
-1.162382328510693
 20
0.5381480664576276
 30
0.0
 10
-0.7742411921495023
 20
0.5381480664576276
 30
0.0
 10
-0.406015929467494
 20
0.4143125412962614
 30
0.0
 10
-0.0441960946991548
 20
0.2506485083648054
 30
0.0
  0
SPLINE
  5
DE4
330
1F
100
AcDbEntity
  8
AM_0
100
AcDbSpline
210
0.0
220
0.0
230
1.0
 70
     8
 71
     3
 72
     8
 73
     4
 74
     2
 42
0.0000000001
 43
0.0000000001
 44
0.0000000001
 12
1.0
 22
-0.0000000000000266
 32
0.0
 40
0.0
 40
0.0
 40
0.0
 40
0.0
 40
1.736621874488798
 40
1.736621874488798
 40
1.736621874488798
 40
1.736621874488798
 10
-1.629933055928732
 20
0.5993110779409947
 30
0.0
 10
-1.051059097765799
 20
0.5993110779409793
 30
0.0
 10
-0.5255295488828767
 20
0.2996555389701276
 30
0.0
 10
0.0000000000000458
 20
-0.0000000000007241
 30
0.0
 11
-1.629933055928732
 21
0.5993110779409947
 31
0.0
 11
0.0000000000000458
 21
-0.0000000000007241
 31
0.0
  0
SPLINE
  5
DE5
330
1F
100
AcDbEntity
  8
AM_0
100
AcDbSpline
210
0.0
220
0.0
230
1.0
 70
     8
 71
     3
 72
     8
 73
     4
 74
     0
 42
0.0000000001
 43
0.0000000001
 40
0.0
 40
0.0
 40
0.0
 40
0.0
 40
8.656655244422164
 40
8.656655244422164
 40
8.656655244422164
 40
8.656655244422164
 10
0.0000000013911904
 20
0.5993110779409964
 30
0.0
 10
-0.2305517718869034
 20
0.5993110779409959
 30
0.0
 10
-0.4526418413560261
 20
0.5517785164277608
 30
0.0
 10
-0.6696403030286183
 20
0.4756444857242637
 30
0.0
  0
SPLINE
  5
DE6
330
1F
100
AcDbEntity
  8
AM_0
100
AcDbSpline
210
0.0
220
0.0
230
1.0
 70
     8
 71
     3
 72
     8
 73
     4
 74
     0
 42
0.0000000001
 43
0.0000000001
 40
0.0
 40
0.0
 40
0.0
 40
0.0
 40
4.291796785366923
 40
4.291796785366923
 40
4.291796785366923
 40
4.291796785366923
 10
0.0000000000000456
 20
0.5060753603583215
 30
0.0
 10
-0.0861410801843611
 20
0.4309429302131627
 30
0.0
 10
-0.2012576464154243
 20
0.4139828534821154
 30
0.0
 10
-0.32358903827414
 20
0.4115075514174929
 30
0.0
  0
LINE
  5
DE8
330
1F
100
AcDbEntity
  8
AM_0
100
AcDbLine
 10
0.0000000000000464
 20
-0.5992401586964898
 30
0.0
 11
0.0000000000000453
 21
0.5992401586949871
 31
0.0
  0
LINE
  5
DE9
330
1F
100
AcDbEntity
  8
AM_0
100
AcDbLine
 10
0.0000000000000458
 20
-0.0000000000006969
 30
0.0
 11
-0.0550486376926436
 21
0.3121963381404874
 31
0.0
  0
LINE
  5
DEA
330
1F
100
AcDbEntity
  8
AM_0
100
AcDbLine
 10
-0.32358903827414
 20
0.4115075514175201
 30
0.0
 11
-0.0550486376926436
 21
0.3121963381404874
 31
0.0
  0
LINE
  5
DED
330
1F
100
AcDbEntity
  8
AM_0
100
AcDbLine
 10
0.0000000000000458
 20
-0.1489651036457748
 30
0.0
 11
-0.0502821222264986
 21
-0.2828218859038553
 31
0.0
  0
LINE
  5
DEE
330
1F
100
AcDbEntity
  8
AM_0
100
AcDbLine
 10
-0.1827499578464717
 20
-0.0775891923972416
 30
0.0
 11
-0.0502821222264986
 21
-0.2828218859038553
 31
0.0
  0
ARC
  5
DEF
330
1F
100
AcDbEntity
  8
AM_0
100
AcDbCircle
 10
-0.149369498411406
 20
-0.0556416490234606
 30
0.0
 40
0.039949339572
100
AcDbArc
 50
83.99999999999172
 51
213.324789491297
1001
GENIUS_GENODEF_13
1002
{
1000
HIER
1070
     0
1002
}
1002
{
1000
MANEDIT
1070
     0
1002
}
1002
{
1000
NOSEL
1070
     0
1002
}
1002
{
1000
BEHIND
1070
     0
1002
}
1002
{
1000
REACTOR
1002
}
1001
GENIUS_GENOBJ-N-FIL_13
1002
{
1000
OWNER
1000
GEN
1002
}
  0
LINE
  5
DF0
330
1F
100
AcDbEntity
  8
AM_0
100
AcDbLine
 10
-0.1451936553373978
 20
-0.0159111561136219
 30
0.0
 11
0.0000000000000458
 21
-0.0311716242232943
 31
0.0
  0
ARC
  5
DF1
330
1F
100
AcDbEntity
  8
AM_0
100
AcDbCircle
 10
0.4095693769599264
 20
-0.4258774533272986
 30
0.0
 40
0.4447766843077335
100
AcDbArc
 50
186.1197879073269
 51
202.9504029633303
  0
ARC
  5
DF2
330
1F
100
AcDbEntity
  8
AM_0
100
AcDbCircle
 10
2.060425165932493
 20
-0.1837329509240811
 30
0.0
 40
2.113031914885115
100
AcDbArc
 50
182.6878253062667
 51
187.0973004564703
  0
LINE
  5
DF6
330
1F
100
AcDbEntity
  8
AM_11
100
AcDbLine
 10
-0.0000000000000637
 20
0.5999999999993032
 30
0.0
 11
-1.800000000000063
 21
0.599999999999302
 31
0.0
  0
LINE
  5
DF7
330
1F
100
AcDbEntity
  8
AM_11
100
AcDbLine
 10
-1.799999999999952
 20
-0.600000000000698
 30
0.0
 11
0.0000000000000464
 21
-0.6000000000006969
 31
0.0
  0
LINE
  5
DF8
330
1F
100
AcDbEntity
  8
AM_11
100
AcDbLine
 10
0.0000000000000464
 20
-0.6000000000006969
 30
0.0
 11
-0.0000000000000637
 21
0.5999999999993032
 31
0.0
  0
LINE
  5
E6F
330
1F
100
AcDbEntity
  8
AM_11
100
AcDbLine
 10
-1.799999999999953
 20
-0.6000000000009719
 30
0.0
 11
-1.800000000000063
 21
0.5999999999990281
 31
0.0
  0
LINE
  5
10DF
330
1F
100
AcDbEntity
  8
AM_0
100
AcDbLine
 10
-2.819568021476299
 20
0.0138238699445798
 30
0.0
 11
-1.800000000000017
 21
0.0967192078971123
 31
0.0
  0
LINE
  5
10E1
330
1F
100
AcDbEntity
  8
AM_0
100
AcDbLine
 10
-1.800000000000017
 20
0.0967192078971123
 30
0.0
 11
-1.800000000000017
 21
0.3057288094390804
 31
0.0
  0
LINE
  5
10E3
330
1F
100
AcDbEntity
  8
AM_0
100
AcDbLine
 10
-1.629933053146387
 20
0.599999999999302
 30
0.0
 11
-2.800000000000008
 21
0.5999999999993011
 31
0.0
  0
LINE
  5
10E4
330
1F
100
AcDbEntity
  8
AM_0
100
AcDbLine
 10
-1.629933055928731
 20
-0.5993110779424185
 30
0.0
 11
-2.800000000000007
 21
-0.5993110779424198
 31
0.0
  0
LINE
  5
10EF
330
1F
100
AcDbEntity
  8
AM_0
100
AcDbLine
 10
-38.0
 20
1.0
 30
0.0
 11
-37.5
 21
1.5
 31
0.0
1001
GENIUS_GENFIL_13
1070
     0
1040
0.5
1040
0.5
1040
20.0
1040
0.0
1002
{
1002
}
1001
GENIUS_GENODEF_13
1002
{
1000
HIER
1070
     0
1002
}
1002
{
1000
MANEDIT
1070
     0
1002
}
1002
{
1000
NOSEL
1070
     0
1002
}
1002
{
1000
BEHIND
1070
     0
1002
}
1002
{
1000
REACTOR
1002
}
1001
GENIUS_GENOBJ-N-CHA_13
1002
{
1000
OWNER
1000
GEN
1002
}
  0
LINE
  5
10F3
330
1F
100
AcDbEntity
  8
AM_0
100
AcDbLine
 10
-38.0
 20
-1.0
 30
0.0
 11
-37.5
 21
-1.5
 31
0.0
1001
GENIUS_GENFIL_13
1070
     0
1040
0.5
1040
0.5
1040
20.0
1040
0.0
1002
{
1002
}
1001
GENIUS_GENODEF_13
1002
{
1000
HIER
1070
     0
1002
}
1002
{
1000
MANEDIT
1070
     0
1002
}
1002
{
1000
NOSEL
1070
     0
1002
}
1002
{
1000
BEHIND
1070
     0
1002
}
1002
{
1000
REACTOR
1002
}
1001
GENIUS_GENOBJ-N-CHA_13
1002
{
1000
OWNER
1000
GEN
1002
}
  0
LINE
  5
10F4
330
1F
100
AcDbEntity
  8
AM_0
100
AcDbLine
 10
-37.5
 20
-1.5
 30
0.0
 11
-37.5
 21
1.5
 31
0.0
  0
LINE
  5
10FE
330
1F
100
AcDbEntity
  8
AM_7
100
AcDbLine
 10
-39.5
 20
-0.0000000000001377
 30
0.0
 11
1.499999999999999
 21
0.0000000000036222
 31
0.0
1001
GENIUS_GENODEF_13
1002
{
1000
HIER
1070
     0
1002
}
1002
{
1000
MANEDIT
1070
     0
1002
}
1002
{
1000
NOSEL
1070
     0
1002
}
1002
{
1000
BEHIND
1070
     0
1002
}
1002
{
1000
REACTOR
1002
}
1001
GENIUS_GENOBJ-N-CEN_13
1002
{
1000
OWNER
1000
GEN
1002
}
  0
DIMENSION
  5
1107
330
1F
100
AcDbEntity
  8
AM_5
100
AcDbDimension
  2
*D6
 10
0.0000000000000449
 20
-14.49999999999998
 30
0.0
 11
-18.99999999999998
 21
-12.94999999999998
 31
0.0
 70
    32
  1
<>
  3
AM_JIS
100
AcDbAlignedDimension
 13
-38.0
 23
-1.0
 33
0.0
 14
0.0000000000000457
 24
-0.5
 34
0.0
 50
0.0000000000001132
100
AcDbRotatedDimension
1001
GENIUS_GENDTOL_13
1000

1000
h7
1000

1040
0.0
  0
DIMENSION
  5
11A1
330
1F
100
AcDbEntity
  8
AM_5
100
AcDbDimension
  2
*D7
 10
-1.799999999999953
 20
-8.499999999999991
 30
0.0
 11
-6.573809523809477
 21
-6.949999999999991
 31
0.0
 70
    32
  1
<>
  3
AM_JIS
100
AcDbAlignedDimension
 13
0.0000000000000457
 23
-0.5
 33
0.0
 14
-1.799999999999953
 24
-0.6732050807571165
 34
0.0
 50
0.0000000000001641
100
AcDbRotatedDimension
1001
GENIUS_GENDTOL_13
1000

1000
h7
1000

1040
0.0
  0
DIMENSION
  5
1245
330
1F
100
AcDbEntity
  8
AM_5
100
AcDbDimension
  2
*D8
 10
8.399999999992658
 20
0.5999999999993007
 30
0.0
 11
6.849999999992657
 21
6.09761904761835
 31
0.0
 70
    32
  1
%%c<>
  3
AM_JIS
100
AcDbAlignedDimension
 13
0.0000000000000464
 23
-0.6000000000006969
 33
0.0
 14
-0.0000000000000637
 24
0.5999999999993032
 34
0.0
 50
90.00000000000005
100
AcDbRotatedDimension
1001
GENIUS_GENDTOL_13
1000

1000
h7
1000

1040
0.0
  0
DIMENSION
  5
12F4
330
1F
100
AcDbEntity
  8
AM_5
100
AcDbDimension
  2
*D9
 10
-45.0
 20
1.500000000000001
 30
0.0
 11
-46.55
 21
6.007142857142851
 31
0.0
 70
    32
  1
%%c<>
  3
AM_JIS
100
AcDbAlignedDimension
 13
-37.5
 23
-1.5
 33
0.0
 14
-37.5
 24
1.499999999999999
 34
0.0
 50
270.0
100
AcDbRotatedDimension
1001
GENIUS_GENDTOL_13
1000

1000
h7
1000

1040
0.0
  0
TEXT
  5
13C8
330
1F
100
AcDbEntity
  8
AM_6
100
AcDbText
 10
-31.0238095238095
 20
-24.85034000863718
 30
0.0
 40
2.5
  1
S-SIT4012ZX
 72
     4
 11
-18.99999999999997
 21
-23.60034000863718
 31
0.0
100
AcDbText
  0
LINE
  5
1453
330
1F
100
AcDbEntity
  8
AM_0
100
AcDbLine
 10
-2.800000000000007
 20
0.0038691819556745
 30
0.0
 11
-2.800000000000007
 21
-0.5993110779424198
 31
0.0
  0
VIEWPORT
  5
110
330
101
100
AcDbEntity
 67
     1
  8
0
100
AcDbViewport
 10
420.5
 20
297.0
 30
0.0
 40
948.9782706766916
 41
628.452
 68
     1
 69
     1
1001
ACAD
1000
MVIEW
1002
{
1070
    16
1010
0.0
1020
0.0
1030
0.0
1010
0.0
1020
0.0
1030
1.0
1040
0.0
1040
628.452
1040
420.5
1040
297.0
1040
50.0
1040
0.0
1040
0.0
1070
     0
1070
   100
1070
     1
1070
     1
1070
     0
1070
     0
1070
     0
1070
     0
1040
0.0
1040
0.0
1040
0.0
1040
10.0
1040
10.0
1040
10.0
1040
10.0
1070
     0
1002
{
1002
}
1002
}
  0
ENDSEC
  0
SECTION
  2
OBJECTS
  0
DICTIONARY
  5
C
330
0
100
AcDbDictionary
  3
ACAD_GROUP
350
D
  3
ACAD_LAYOUT
350
1A
  3
ACAD_MLINESTYLE
350
17
  3
ACAD_PLOTSETTINGS
350
19
  3
ACAD_PLOTSTYLENAME
350
E
  3
ACDBVARIABLEDICTIONARY
350
34
  3
ACMDICTIONARY
350
43
  3
AMG
350
2B
  3
AMGSNAPSETTINGS
350
6E
  3
DWGPROPS
350
14F4
  3
ACDBHEADERROUNDTRIPXREC
350
1501
  0
DICTIONARY
  5
74
330
1F
100
AcDbDictionary
280
     1
  3
ACAD_INDEX
360
14F6
  3
ACAD_LAYOUTSELFREF
360
1524
  0
DICTIONARY
  5
1529
330
101
100
AcDbDictionary
280
     1
  3
ACAD_LAYOUTSELFREF
360
152A
  0
DICTIONARY
  5
D
102
{ACAD_REACTORS
330
C
102
}
330
C
100
AcDbDictionary
  0
DICTIONARY
  5
1A
102
{ACAD_REACTORS
330
C
102
}
330
C
100
AcDbDictionary
  0
DICTIONARY
  5
17
102
{ACAD_REACTORS
330
C
102
}
330
C
100
AcDbDictionary
  3
STANDARD
350
18
  0
DICTIONARY
  5
19
102
{ACAD_REACTORS
330
C
102
}
330
C
100
AcDbDictionary
  0
ACDBDICTIONARYWDFLT
  5
E
102
{ACAD_REACTORS
330
C
102
}
330
C
100
AcDbDictionary
281
     1
  3
Normal
350
F
100
AcDbDictionaryWithDefault
340
F
  0
DICTIONARY
  5
34
102
{ACAD_REACTORS
330
C
102
}
330
C
100
AcDbDictionary
  3
INDEXCTL
350
35
  3
SORTENTS
350
B5E
  0
DICTIONARY
  5
43
102
{ACAD_REACTORS
330
C
102
}
330
C
100
AcDbDictionary
  3
ACMSTDDICTIONARY
350
260
  0
DICTIONARY
  5
2B
102
{ACAD_REACTORS
330
C
102
}
330
C
100
AcDbDictionary
  3
ACMGSETTINGS
350
2C
  0
DICTIONARY
  5
6E
102
{ACAD_REACTORS
330
C
102
}
330
C
100
AcDbDictionary
  0
XRECORD
  5
14F4
102
{ACAD_REACTORS
330
C
102
}
330
C
100
AcDbXrecord
  1
DWGPROPS COOKIE
  2

  3

  4

  6

  7

  8

  9

300
AmdtFileType=82
301
=
302
=
303
=
304
=
305
=
306
=
307
=
308
=
309
=
 40
0.0281814236111111
 41
2452828.754166667
 42
2452839.663221389
  1

 90
        1
  0
DICTIONARY
  5
1501
102
{ACAD_REACTORS
330
C
102
}
330
C
100
AcDbDictionary
  3
TSTACKALIGN
350
1502
  3
TSTACKSIZE
350
1503
  3
HYPERLINKBASE
350
1504
  3
STYLESHEET
350
1505
  3
LAYOUTDICT
350
1506
  3
PLOTSETDICT
350
1507
  3
PLOTSTYLNAMDICT
350
1508
  3
LWETCUNION
350
1509
  3
INSUNITS
350
150A
  3
CEPSNTYPE
350
150B
  3
FINGERPRINTGUID
350
150C
  3
VERSIONGUID
350
150D
  3
PSVPSCALE
350
150E
  3
DIMSTYLEDATA
350
150F
  3
PUCSORTHOREF
350
1510
  3
PUCSORTHOVIEW
350
1511
  3
PUCSBASE
350
1512
  3
PUCSORGTOP
350
1513
  3
PUCSORGBOTTOM
350
1514
  3
PUCSORGLEFT
350
1515
  3
PUCSORGRIGHT
350
1516
  3
PUCSORGFRONT
350
1517
  3
PUCSORGBACK
350
1518
  3
UCSORTHOREF
350
1519
  3
UCSORTHOVIEW
350
151A
  3
UCSBASE
350
151B
  3
UCSORGTOP
350
151C
  3
UCSORGBOTTOM
350
151D
  3
UCSORGLEFT
350
151E
  3
UCSORGRIGHT
350
151F
  3
UCSORGFRONT
350
1520
  3
UCSORGBACK
350
1521
  0
DICTIONARY
  5
14F6
102
{ACAD_REACTORS
330
74
102
}
330
74
100
AcDbDictionary
  3
*A1
350
14F7
  0
XRECORD
  5
1524
102
{ACAD_REACTORS
330
74
102
}
330
74
100
AcDbXrecord
340
1F
  0
XRECORD
  5
152A
102
{ACAD_REACTORS
330
1529
102
}
330
1529
100
AcDbXrecord
340
101
  0
MLINESTYLE
  5
18
102
{ACAD_REACTORS
330
17
102
}
330
17
100
AcDbMlineStyle
  2
STANDARD
 70
     0
  3

 62
   256
 51
90.0
 52
90.0
 71
     2
 49
0.5
 62
   256
  6
BYLAYER
 49
-0.5
 62
   256
  6
BYLAYER
  0
ACDBPLACEHOLDER
  5
F
102
{ACAD_REACTORS
330
E
102
}
330
E
100
AcDbPlaceHolder
280
     0
  0
DICTIONARYVAR
  5
35
102
{ACAD_REACTORS
330
34
102
}
330
34
100
DictionaryVariables
280
     0
  1
1
  0
DICTIONARYVAR
  5
B5E
102
{ACAD_REACTORS
330
34
102
}
330
34
100
DictionaryVariables
280
     0
  1
96
  0
DICTIONARY
  5
260
102
{ACAD_REACTORS
330
43
102
}
330
43
100
AcDbDictionary
  0
DICTIONARY
  5
2C
102
{ACAD_REACTORS
330
2B
102
}
330
2B
100
AcDbDictionary
  3
DWGSETTINGS
350
2D
  0
XRECORD
  5
1502
102
{ACAD_REACTORS
330
1501
102
}
330
1501
100
AcDbXrecord
 90
        1
  0
XRECORD
  5
1503
102
{ACAD_REACTORS
330
1501
102
}
330
1501
100
AcDbXrecord
 90
       70
  0
XRECORD
  5
1504
102
{ACAD_REACTORS
330
1501
102
}
330
1501
100
AcDbXrecord
  1

  0
XRECORD
  5
1505
102
{ACAD_REACTORS
330
1501
102
}
330
1501
100
AcDbXrecord
  1
ASAMI.ctb
  0
XRECORD
  5
1506
102
{ACAD_REACTORS
330
1501
102
}
330
1501
100
AcDbXrecord
340
1A
  0
XRECORD
  5
1507
102
{ACAD_REACTORS
330
1501
102
}
330
1501
100
AcDbXrecord
340
19
  0
XRECORD
  5
1508
102
{ACAD_REACTORS
330
1501
102
}
330
1501
100
AcDbXrecord
340
E
  0
XRECORD
  5
1509
102
{ACAD_REACTORS
330
1501
102
}
330
1501
100
AcDbXrecord
 90
    10781
  0
XRECORD
  5
150A
102
{ACAD_REACTORS
330
1501
102
}
330
1501
100
AcDbXrecord
 90
        4
  0
XRECORD
  5
150B
102
{ACAD_REACTORS
330
1501
102
}
330
1501
100
AcDbXrecord
 90
        0
  0
XRECORD
  5
150C
102
{ACAD_REACTORS
330
1501
102
}
330
1501
100
AcDbXrecord
  1
{AFB28963-8C59-40AE-9337-C84526B81ACE}
  0
XRECORD
  5
150D
102
{ACAD_REACTORS
330
1501
102
}
330
1501
100
AcDbXrecord
  1
{900FF41B-AF3C-41EA-B4B9-6DFCA2BBE6E9}
  0
XRECORD
  5
150E
102
{ACAD_REACTORS
330
1501
102
}
330
1501
100
AcDbXrecord
 40
0.0
  0
XRECORD
  5
150F
102
{ACAD_REACTORS
330
1501
102
}
330
1501
100
AcDbXrecord
1000
DSTYLE
1002
{
1070
    79
 70
     2
1070
   341
340
59
1070
   342
340
59
1070
   371
 70
    -1
1070
   372
 70
    -1
1002
}
  0
XRECORD
  5
1510
102
{ACAD_REACTORS
330
1501
102
}
330
1501
100
AcDbXrecord
340
0
  0
XRECORD
  5
1511
102
{ACAD_REACTORS
330
1501
102
}
330
1501
100
AcDbXrecord
 70
     0
  0
XRECORD
  5
1512
102
{ACAD_REACTORS
330
1501
102
}
330
1501
100
AcDbXrecord
340
0
  0
XRECORD
  5
1513
102
{ACAD_REACTORS
330
1501
102
}
330
1501
100
AcDbXrecord
 10
0.0
 20
0.0
 30
0.0
  0
XRECORD
  5
1514
102
{ACAD_REACTORS
330
1501
102
}
330
1501
100
AcDbXrecord
 10
0.0
 20
0.0
 30
0.0
  0
XRECORD
  5
1515
102
{ACAD_REACTORS
330
1501
102
}
330
1501
100
AcDbXrecord
 10
0.0
 20
0.0
 30
0.0
  0
XRECORD
  5
1516
102
{ACAD_REACTORS
330
1501
102
}
330
1501
100
AcDbXrecord
 10
0.0
 20
0.0
 30
0.0
  0
XRECORD
  5
1517
102
{ACAD_REACTORS
330
1501
102
}
330
1501
100
AcDbXrecord
 10
0.0
 20
0.0
 30
0.0
  0
XRECORD
  5
1518
102
{ACAD_REACTORS
330
1501
102
}
330
1501
100
AcDbXrecord
 10
0.0
 20
0.0
 30
0.0
  0
XRECORD
  5
1519
102
{ACAD_REACTORS
330
1501
102
}
330
1501
100
AcDbXrecord
340
0
  0
XRECORD
  5
151A
102
{ACAD_REACTORS
330
1501
102
}
330
1501
100
AcDbXrecord
 70
     0
  0
XRECORD
  5
151B
102
{ACAD_REACTORS
330
1501
102
}
330
1501
100
AcDbXrecord
340
0
  0
XRECORD
  5
151C
102
{ACAD_REACTORS
330
1501
102
}
330
1501
100
AcDbXrecord
 10
0.0
 20
0.0
 30
0.0
  0
XRECORD
  5
151D
102
{ACAD_REACTORS
330
1501
102
}
330
1501
100
AcDbXrecord
 10
0.0
 20
0.0
 30
0.0
  0
XRECORD
  5
151E
102
{ACAD_REACTORS
330
1501
102
}
330
1501
100
AcDbXrecord
 10
0.0
 20
0.0
 30
0.0
  0
XRECORD
  5
151F
102
{ACAD_REACTORS
330
1501
102
}
330
1501
100
AcDbXrecord
 10
0.0
 20
0.0
 30
0.0
  0
XRECORD
  5
1520
102
{ACAD_REACTORS
330
1501
102
}
330
1501
100
AcDbXrecord
 10
0.0
 20
0.0
 30
0.0
  0
XRECORD
  5
1521
102
{ACAD_REACTORS
330
1501
102
}
330
1501
100
AcDbXrecord
 10
0.0
 20
0.0
 30
0.0
  0
LAYER_INDEX
  5
14F7
102
{ACAD_REACTORS
330
14F6
102
}
330
14F6
100
AcDbIndex
 40
2452839.680243958
100
AcDbLayerIndex
  8
0
360
14F8
 90
        0
  8
AM_0
360
14F9
 90
       39
  8
AM_CL
360
14FA
 90
        0
  8
AM_5
360
14FB
 90
        4
  8
AM_11
360
14FC
 90
        4
  8
AM_7
360
14FD
 90
        1
  8
Defpoints
360
14FE
 90
        0
  8
AM_6
360
14FF
 90
        1
  0
XRECORD
  5
2D
102
{ACAD_REACTORS
330
2C
102
}
330
2C
100
AcDbXrecord
  1
VERSION
140
15.0
  1
PRODUCT
  2
AutoCAD Mechanical 2000
  0
IDBUFFER
  5
14F8
330
0
100
AcDbIdBuffer
  0
IDBUFFER
  5
14F9
330
0
100
AcDbIdBuffer
330
DE1
330
DE2
330
DE3
330
DE4
330
DE5
330
DE6
330
DE8
330
DE9
330
DEA
330
DED
330
DEE
330
DEF
330
DF0
330
DF1
330
DF2
330
10DF
330
10E1
330
10E3
330
10E4
330
10EF
330
10F3
330
10F4
330
1453
330
BD1
330
BD2
330
BD3
330
BD4
330
BD5
330
BD6
330
D35
330
DD2
330
DD3
330
DD4
330
DD9
330
DDA
330
DDB
330
DDC
330
DDF
330
DE0
  0
IDBUFFER
  5
14FA
330
0
100
AcDbIdBuffer
  0
IDBUFFER
  5
14FB
330
0
100
AcDbIdBuffer
330
1107
330
11A1
330
1245
330
12F4
  0
IDBUFFER
  5
14FC
330
0
100
AcDbIdBuffer
330
DF6
330
DF7
330
DF8
330
E6F
  0
IDBUFFER
  5
14FD
330
0
100
AcDbIdBuffer
330
10FE
  0
IDBUFFER
  5
14FE
330
0
100
AcDbIdBuffer
  0
IDBUFFER
  5
14FF
330
0
100
AcDbIdBuffer
330
13C8
  0
ENDSEC
  0
EOF
