  0
SECTION
  2
HEADER
  9
$ACADVER
  1
AC1014
  9
$ACADMAINTVER
 70
     9
  9
$DWGCODEPAGE
  3
ANSI_932
  9
$INSBASE
 10
0.0
 20
0.0
 30
0.0
  9
$EXTMIN
 10
-51.40619512995955
 20
-25.75000100000008
 30
-0.00000001
  9
$EXTMAX
 10
8.841627940564762
 20
3.999999999999923
 30
0.00000001
  9
$LIMMIN
 10
-55.37106531681274
 20
-33.27885950800356
  9
$LIMMAX
 10
11.9136427525969
 20
14.69680186750361
  9
$ORTHOMODE
 70
     0
  9
$REGENMODE
 70
     1
  9
$FILLMODE
 70
     1
  9
$QTEXTMODE
 70
     0
  9
$MIRRTEXT
 70
     0
  9
$DRAGMODE
 70
     2
  9
$LTSCALE
 40
1.0
  9
$OSMODE
 70
    55
  9
$ATTMODE
 70
     1
  9
$TEXTSIZE
 40
2.5
  9
$TRACEWID
 40
1.0
  9
$TEXTSTYLE
  7
STANDARD
  9
$CLAYER
  8
AM_0
  9
$CELTYPE
  6
BYLAYER
  9
$CECOLOR
 62
   256
  9
$CELTSCALE
 40
1.0
  9
$DELOBJ
 70
     1
  9
$DISPSILH
 70
     0
  9
$DIMSCALE
 40
0.5
  9
$DIMASZ
 40
2.5
  9
$DIMEXO
 40
1.0
  9
$DIMDLI
 40
12.0
  9
$DIMRND
 40
0.0
  9
$DIMDLE
 40
0.0
  9
$DIMEXE
 40
1.0
  9
$DIMTP
 40
0.1
  9
$DIMTM
 40
0.1
  9
$DIMTXT
 40
3.2
  9
$DIMCEN
 40
0.0
  9
$DIMTSZ
 40
0.0
  9
$DIMTOL
 70
     0
  9
$DIMLIM
 70
     0
  9
$DIMTIH
 70
     0
  9
$DIMTOH
 70
     0
  9
$DIMSE1
 70
     0
  9
$DIMSE2
 70
     0
  9
$DIMTAD
 70
     3
  9
$DIMZIN
 70
     8
  9
$DIMBLK
  1
OPEN30
  9
$DIMASO
 70
     1
  9
$DIMSHO
 70
     1
  9
$DIMPOST
  1

  9
$DIMAPOST
  1
"
  9
$DIMALT
 70
     0
  9
$DIMALTD
 70
     2
  9
$DIMALTF
 40
0.0393701
  9
$DIMLFAC
 40
1.0
  9
$DIMTOFL
 70
     1
  9
$DIMTVP
 40
0.0
  9
$DIMTIX
 70
     0
  9
$DIMSOXD
 70
     0
  9
$DIMSAH
 70
     0
  9
$DIMBLK1
  1

  9
$DIMBLK2
  1

  9
$DIMSTYLE
  2
AM_JIS
  9
$DIMCLRD
 70
   256
  9
$DIMCLRE
 70
   256
  9
$DIMCLRT
 70
     2
  9
$DIMTFAC
 40
0.71
  9
$DIMGAP
 40
1.5
  9
$DIMJUST
 70
     0
  9
$DIMSD1
 70
     0
  9
$DIMSD2
 70
     0
  9
$DIMTOLJ
 70
     0
  9
$DIMTZIN
 70
     0
  9
$DIMALTZ
 70
     0
  9
$DIMALTTZ
 70
     0
  9
$DIMFIT
 70
     3
  9
$DIMUPT
 70
     0
  9
$DIMUNIT
 70
     2
  9
$DIMDEC
 70
     3
  9
$DIMTDEC
 70
     3
  9
$DIMALTU
 70
     2
  9
$DIMALTTD
 70
     2
  9
$DIMTXSTY
  7
ASAMI
  9
$DIMAUNIT
 70
     0
  9
$LUNITS
 70
     2
  9
$LUPREC
 70
     2
  9
$SKETCHINC
 40
1.0
  9
$FILLETRAD
 40
2.5
  9
$AUNITS
 70
     0
  9
$AUPREC
 70
     0
  9
$MENU
  1
.
  9
$ELEVATION
 40
0.0
  9
$PELEVATION
 40
0.0
  9
$THICKNESS
 40
0.0
  9
$LIMCHECK
 70
     0
  9
$BLIPMODE
 70
     0
  9
$CHAMFERA
 40
0.3
  9
$CHAMFERB
 40
0.3
  9
$CHAMFERC
 40
20.0
  9
$CHAMFERD
 40
0.0
  9
$SKPOLY
 70
     0
  9
$TDCREATE
 40
2452838.430434386
  9
$TDUPDATE
 40
2453151.772678657
  9
$TDINDWG
 40
0.1963645139
  9
$TDUSRTIMER
 40
0.1963645139
  9
$USRTIMER
 70
     1
  9
$ANGBASE
 50
0.0
  9
$ANGDIR
 70
     0
  9
$PDMODE
 70
     0
  9
$PDSIZE
 40
0.0
  9
$PLINEWID
 40
0.0
  9
$COORDS
 70
     1
  9
$SPLFRAME
 70
     0
  9
$SPLINETYPE
 70
     6
  9
$SPLINESEGS
 70
     8
  9
$ATTDIA
 70
     1
  9
$ATTREQ
 70
     1
  9
$HANDLING
 70
 12289
  9
$HANDSEED
  5
4F7E
  9
$SURFTAB1
 70
     6
  9
$SURFTAB2
 70
     6
  9
$SURFTYPE
 70
     6
  9
$SURFU
 70
     6
  9
$SURFV
 70
     6
  9
$UCSNAME
  2

  9
$UCSORG
 10
0.0
 20
0.0
 30
0.0
  9
$UCSXDIR
 10
1.0
 20
0.0
 30
0.0
  9
$UCSYDIR
 10
0.0
 20
1.0
 30
0.0
  9
$PUCSNAME
  2

  9
$PUCSORG
 10
0.0
 20
0.0
 30
0.0
  9
$PUCSXDIR
 10
1.0
 20
0.0
 30
0.0
  9
$PUCSYDIR
 10
0.0
 20
1.0
 30
0.0
  9
$USERI1
 70
     0
  9
$USERI2
 70
     0
  9
$USERI3
 70
     0
  9
$USERI4
 70
     0
  9
$USERI5
 70
     0
  9
$USERR1
 40
0.0
  9
$USERR2
 40
0.0
  9
$USERR3
 40
0.0
  9
$USERR4
 40
0.0
  9
$USERR5
 40
0.0
  9
$WORLDVIEW
 70
     1
  9
$SHADEDGE
 70
     3
  9
$SHADEDIF
 70
    70
  9
$TILEMODE
 70
     1
  9
$MAXACTVP
 70
    64
  9
$PINSBASE
 10
0.0
 20
0.0
 30
0.0
  9
$PLIMCHECK
 70
     0
  9
$PEXTMIN
 10
1.000000000000000E+20
 20
1.000000000000000E+20
 30
1.000000000000000E+20
  9
$PEXTMAX
 10
-1.000000000000000E+20
 20
-1.000000000000000E+20
 30
-1.000000000000000E+20
  9
$PLIMMIN
 10
0.0
 20
0.0
  9
$PLIMMAX
 10
841.0
 20
594.0
  9
$UNITMODE
 70
     0
  9
$VISRETAIN
 70
     1
  9
$PLINEGEN
 70
     0
  9
$PSLTSCALE
 70
     0
  9
$TREEDEPTH
 70
  3020
  9
$PICKSTYLE
 70
     0
  9
$CMLSTYLE
  2
STANDARD
  9
$CMLJUST
 70
     0
  9
$CMLSCALE
 40
20.0
  9
$PROXYGRAPHICS
 70
     1
  9
$MEASUREMENT
 70
     1
  0
ENDSEC
  0
SECTION
  2
CLASSES
  0
CLASS
  1
ACDBDICTIONARYWDFLT
  2
AcDbDictionaryWithDefault
  3
AutoCAD 2000
 90
        0
280
     0
281
     0
  0
CLASS
  1
ACDBPLACEHOLDER
  2
AcDbPlaceHolder
  3
AutoCAD 2000
 90
        0
280
     0
281
     0
  0
CLASS
  1
LAYOUT
  2
AcDbLayout
  3
AutoCAD 2000
 90
        0
280
     0
281
     0
  0
CLASS
  1
AMGSETTINGSOBJ
  2
AmgSettingsObj
  3
"AcadM|Product Description: AutoCAD Mechanical 2000|Company: Autodesk"
 90
        0
280
     0
281
     0
  0
CLASS
  1
ACME_DOCUMENT
  2
AcMeDbDoc
  3
AcMeServices
 90
        0
280
     0
281
     0
  0
CLASS
  1
ACMESCOPE
  2
AcMeScope
  3
AcMeServices
 90
        0
280
     0
281
     0
  0
CLASS
  1
ACMECOMMANDHISTORY
  2
AcMeCommandHistory
  3
AcMeServices
 90
        0
280
     0
281
     0
  0
CLASS
  1
DICTIONARYVAR
  2
AcDbDictionaryVar
  3
AutoCAD 2000
 90
        0
280
     0
281
     0
  0
CLASS
  1
ACIMSYSVARMAN
  2
AcImSysVarManager
  3
AcMeServices
 90
        0
280
     0
281
     0
  0
CLASS
  1
ACIMREALSYSVAR
  2
AcImRealSysVar
  3
AcMeServices
 90
        0
280
     0
281
     0
  0
CLASS
  1
ACIMINTSYSVAR
  2
AcImIntSysVar
  3
AcMeServices
 90
        0
280
     0
281
     0
  0
CLASS
  1
ACMEDRAWINGMAN
  2
AcMeDrawingMan
  3
AcMeServices
 90
        0
280
     0
281
     0
  0
CLASS
  1
ACMEVIEW
  2
AcMeView
  3
AcMeServices
 90
        0
280
     0
281
     0
  0
CLASS
  1
ACDBENTITYCACHE
  2
AcMeEntityCache
  3
AcMeServices
 90
        0
280
     0
281
     0
  0
CLASS
  1
GSMANAGER
  2
AcMeGSManager
  3
AcMeServices
 90
        0
280
     0
281
     0
  0
CLASS
  1
AmdtInternalReactor
  2
AmdtInternalReactor
  3
AcMeServices
 90
        0
280
     0
281
     0
  0
CLASS
  1
ACMESTATEMGR
  2
AcMeStateMgr
  3
AcMeServices
 90
        0
280
     0
281
     0
  0
CLASS
  1
ACME_DATABASE
  2
AcMeDbDatabase
  3
AcMeServices
 90
        0
280
     0
281
     0
  0
CLASS
  1
ACRFINSADJUSTERMGR
  2
AcRfInsAdjusterMgr
  3
AcMeServices
 90
        0
280
     0
281
     0
  0
CLASS
  1
ACMDATADICTIONARY
  2
AcmDataDictionary
  3
"AcmSymBB|Product Description: AutoCAD Mechanical 2000|Company: Autodesk"
 90
        0
280
     0
281
     0
  0
CLASS
  1
ACMDATAENTRYBLOCK
  2
AcmDataEntryBlock
  3
"AcmSymBB|Product Description: AutoCAD Mechanical 2000|Company: Autodesk"
 90
        0
280
     0
281
     0
  0
CLASS
  1
AMGOBJPROPCFG
  2
AmgObjPropCfg
  3
"AmgLay|Product Description: AutoCAD Mechanical 2000|Company: Autodesk"
 90
        1
280
     0
281
     0
  0
CLASS
  1
ACAMGFILTERDAT
  2
AcAmgFilterDat
  3
"AcadM|Product Description: AutoCAD Mechanical 2000|Company: Autodesk"
 90
        0
280
     0
281
     0
  0
CLASS
  1
LAYER_INDEX
  2
AcDbLayerIndex
  3
AutoCAD 2000
 90
        0
280
     0
281
     0
  0
CLASS
  1
IDBUFFER
  2
AcDbIdBuffer
  3
AutoCAD 2000
 90
        0
280
     0
281
     0
  0
CLASS
  1
ACIMSTRSYSVAR
  2
AcImStrSysVar
  3
AcMeServices
 90
        0
280
     0
281
     0
  0
CLASS
  1
ACMSTANDARDJIS
  2
AcmStandardJIS
  3
"AcmSymBB|Product Description: AutoCAD Mechanical 2000|Company: Autodesk"
 90
        0
280
     0
281
     0
  0
CLASS
  1
ACMSURFSTANDARDJIS
  2
AcmSurfTextStdJIS
  3
"AcmSymBB|Product Description: AutoCAD Mechanical 2000|Company: Autodesk"
 90
        0
280
     0
281
     0
  0
CLASS
  1
ACMFCFSTANDARDJIS
  2
AcmFCFStdJIS
  3
"AcmSymBB|Product Description: AutoCAD Mechanical 2000|Company: Autodesk"
 90
        0
280
     0
281
     0
  0
CLASS
  1
ACMWELDSTANDARDJIS
  2
AcmWeldingStdJIS
  3
"AcmSymBB|Product Description: AutoCAD Mechanical 2000|Company: Autodesk"
 90
        0
280
     0
281
     0
  0
CLASS
  1
ACMIDSTANDARDJIS
  2
AcmIdStdJIS
  3
"AcmSymBB|Product Description: AutoCAD Mechanical 2000|Company: Autodesk"
 90
        0
280
     0
281
     0
  0
CLASS
  1
ACMDATUMSTANDARDJIS
  2
AcmDatumStdJIS
  3
"AcmSymBB|Product Description: AutoCAD Mechanical 2000|Company: Autodesk"
 90
        0
280
     0
281
     0
  0
CLASS
  1
ACMBOMSTANDARDJIS
  2
AcmBOMStdJIS
  3
"AcmSymBB|Product Description: AutoCAD Mechanical 2000|Company: Autodesk"
 90
        0
280
     0
281
     0
  0
CLASS
  1
ACMSTANDARDANSI
  2
AcmStandardANSI
  3
"AcmSymBB|Product Description: AutoCAD Mechanical 2000|Company: Autodesk"
 90
        0
280
     0
281
     0
  0
CLASS
  1
ACMSURFSTANDARDANSI
  2
AcmSurfTextStdANSI
  3
"AcmSymBB|Product Description: AutoCAD Mechanical 2000|Company: Autodesk"
 90
        0
280
     0
281
     0
  0
CLASS
  1
ACMFCFSTANDARDANSI
  2
AcmFCFStdANSI
  3
"AcmSymBB|Product Description: AutoCAD Mechanical 2000|Company: Autodesk"
 90
        0
280
     0
281
     0
  0
CLASS
  1
ACMWELDSTANDARDANSI
  2
AcmWeldingStdANSI
  3
"AcmSymBB|Product Description: AutoCAD Mechanical 2000|Company: Autodesk"
 90
        0
280
     0
281
     0
  0
CLASS
  1
ACMIDSTANDARDANSI
  2
AcmIdStdANSI
  3
"AcmSymBB|Product Description: AutoCAD Mechanical 2000|Company: Autodesk"
 90
        0
280
     0
281
     0
  0
CLASS
  1
ACMDATUMSTANDARDANSI
  2
AcmDatumStdANSI
  3
"AcmSymBB|Product Description: AutoCAD Mechanical 2000|Company: Autodesk"
 90
        0
280
     0
281
     0
  0
CLASS
  1
ACMBOMSTANDARDANSI
  2
AcmBOMStdANSI
  3
"AcmSymBB|Product Description: AutoCAD Mechanical 2000|Company: Autodesk"
 90
        0
280
     0
281
     0
  0
CLASS
  1
ACMSTANDARDBSI
  2
AcmStandardBSI
  3
"AcmSymBB|Product Description: AutoCAD Mechanical 2000|Company: Autodesk"
 90
        0
280
     0
281
     0
  0
CLASS
  1
ACMSURFSTANDARDBSI
  2
AcmSurfTextStdBSI
  3
"AcmSymBB|Product Description: AutoCAD Mechanical 2000|Company: Autodesk"
 90
        0
280
     0
281
     0
  0
CLASS
  1
ACMFCFSTANDARDBSI
  2
AcmFCFStdBSI
  3
"AcmSymBB|Product Description: AutoCAD Mechanical 2000|Company: Autodesk"
 90
        0
280
     0
281
     0
  0
CLASS
  1
ACMWELDSTANDARDBSI
  2
AcmWeldingStdBSI
  3
"AcmSymBB|Product Description: AutoCAD Mechanical 2000|Company: Autodesk"
 90
        0
280
     0
281
     0
  0
CLASS
  1
ACMIDSTANDARDBSI
  2
AcmIdStdBSI
  3
"AcmSymBB|Product Description: AutoCAD Mechanical 2000|Company: Autodesk"
 90
        0
280
     0
281
     0
  0
CLASS
  1
ACMDATUMSTANDARDBSI
  2
AcmDatumStdBSI
  3
"AcmSymBB|Product Description: AutoCAD Mechanical 2000|Company: Autodesk"
 90
        0
280
     0
281
     0
  0
CLASS
  1
ACMBOMSTANDARDBSI
  2
AcmBOMStdBSI
  3
"AcmSymBB|Product Description: AutoCAD Mechanical 2000|Company: Autodesk"
 90
        0
280
     0
281
     0
  0
CLASS
  1
LONG_TRANSACTION
  2
AcDbLongTransaction
  3
AutoCAD 2000
 90
        0
280
     0
281
     0
  0
CLASS
  1
LWPOLYLINE
  2
AcDbPolyline
  3
AutoCAD 2000
 90
        0
280
     0
281
     1
  0
CLASS
  1
HATCH
  2
AcDbHatch
  3
AutoCAD 2000
 90
        0
280
     0
281
     1
  0
CLASS
  1
XRECORD
  2
AcDbXrecord
  3
AutoCAD 2000
 90
        0
280
     0
281
     0
  0
ENDSEC
  0
SECTION
  2
TABLES
  0
TABLE
  2
VPORT
  5
8
330
0
100
AcDbSymbolTable
 70
     3
  0
VPORT
  5
4F4D
330
8
100
AcDbSymbolTableRecord
100
AcDbViewportTableRecord
  2
*ACTIVE
 70
     0
 10
0.0
 20
0.0
 11
1.0
 21
1.0
 12
-9.036394589388216
 22
1.539241677052437
 13
0.0
 23
0.0
 14
2.5
 24
2.5
 15
10.0
 25
10.0
 16
0.0
 26
0.0
 36
1.0
 17
0.0
 27
0.0
 37
0.0
 40
80.68349303661438
 41
1.56570841889117
 42
50.0
 43
0.0
 44
0.0
 50
0.0
 51
0.0
 71
     0
 72
   100
 73
     1
 74
     3
 75
     0
 76
     0
 77
     0
 78
     0
  0
ENDTAB
  0
TABLE
  2
LTYPE
  5
5
330
0
100
AcDbSymbolTable
 70
    10
  0
LTYPE
  5
14
330
5
100
AcDbSymbolTableRecord
100
AcDbLinetypeTableRecord
  2
BYBLOCK
 70
     0
  3

 72
    65
 73
     0
 40
0.0
  0
LTYPE
  5
15
330
5
100
AcDbSymbolTableRecord
100
AcDbLinetypeTableRecord
  2
BYLAYER
 70
     0
  3

 72
    65
 73
     0
 40
0.0
  0
LTYPE
  5
16
330
5
100
AcDbSymbolTableRecord
100
AcDbLinetypeTableRecord
  2
CONTINUOUS
 70
     0
  3
Solid line
 72
    65
 73
     0
 40
0.0
  0
LTYPE
  5
4B
330
5
100
AcDbSymbolTableRecord
100
AcDbLinetypeTableRecord
  2
AM_ISO02W050
 70
     0
  3
__ __ __ __ __ __ __ __ __ __ __ __ __ __ __
 72
    65
 73
     2
 40
7.5
 49
6.0
 74
     0
 49
-1.5
 74
     0
  0
LTYPE
  5
4C
330
5
100
AcDbSymbolTableRecord
100
AcDbLinetypeTableRecord
  2
AM_ISO08W050
 70
     0
  3
____ . ____ . ____ . ____ . ____ . ____ . ____
 72
    65
 73
     4
 40
18.0
 49
12.0
 74
     0
 49
-1.5
 74
     0
 49
3.0
 74
     0
 49
-1.5
 74
     0
  0
LTYPE
  5
4D
330
5
100
AcDbSymbolTableRecord
100
AcDbLinetypeTableRecord
  2
AM_ISO09W050
 70
     0
  3
_____ . . _____ . . _____ . . ____ .. ____
 72
    65
 73
     6
 40
22.5
 49
12.0
 74
     0
 49
-1.5
 74
     0
 49
3.0
 74
     0
 49
-1.5
 74
     0
 49
3.0
 74
     0
 49
-1.5
 74
     0
  0
LTYPE
  5
4E
330
5
100
AcDbSymbolTableRecord
100
AcDbLinetypeTableRecord
  2
AMCONSTR
 70
     0
  3
_______________________
 72
    65
 73
     2
 40
9999.0
 49
9999.0
 74
     0
 49
0.0
 74
     0
  0
LTYPE
  5
4F
330
5
100
AcDbSymbolTableRecord
100
AcDbLinetypeTableRecord
  2
AM_ISO02W050X2
 70
     0
  3
 _ _ _ _ _ _ _ _ _ _ _ _
 72
    65
 73
     2
 40
3.75
 49
3.0
 74
     0
 49
-0.75
 74
     0
  0
LTYPE
  5
50
330
5
100
AcDbSymbolTableRecord
100
AcDbLinetypeTableRecord
  2
AM_ISO08W050X2
 70
     0
  3
__ . __ . __ . __ . __ . __
 72
    65
 73
     4
 40
9.0
 49
6.0
 74
     0
 49
-0.75
 74
     0
 49
1.5
 74
     0
 49
-0.75
 74
     0
  0
LTYPE
  5
53
330
5
100
AcDbSymbolTableRecord
100
AcDbLinetypeTableRecord
  2
AMZIGZAG
 70
     0
  3
/\/-/\/-/\/-/\/-/\/-/\/
 72
    65
 73
     2
 40
11.00009999999999
 49
0.0001
 74
     4
 75
   135
340
52
 46
0.04
 50
0.0
 44
0.0
 45
0.0
 49
-11.0
 74
     0
  0
LTYPE
  5
166
330
5
100
AcDbSymbolTableRecord
100
AcDbLinetypeTableRecord
  2
ACJISTGL
 70
     0
  3
_ _ _ _ _
 72
    65
 73
     2
 40
3.0
 49
2.0
 74
     0
 49
-1.0
 74
     0
  0
LTYPE
  5
26A
330
5
100
AcDbSymbolTableRecord
100
AcDbLinetypeTableRecord
  2
ACJISTGB
 70
     0
  3
__ . . __ . .
 72
    65
 73
     6
 40
9.0
 49
4.0
 74
     0
 49
-1.0
 74
     0
 49
1.0
 74
     0
 49
-1.0
 74
     0
 49
1.0
 74
     0
 49
-1.0
 74
     0
  0
ENDTAB
  0
TABLE
  2
LAYER
  5
2
330
0
100
AcDbSymbolTable
 70
     7
  0
LAYER
  5
10
330
2
100
AcDbSymbolTableRecord
100
AcDbLayerTableRecord
  2
0
 70
     0
 62
     7
  6
CONTINUOUS
  0
LAYER
  5
3F9
330
2
100
AcDbSymbolTableRecord
100
AcDbLayerTableRecord
  2
AM_0
 70
     0
 62
     7
  6
CONTINUOUS
  0
LAYER
  5
BDD
330
2
100
AcDbSymbolTableRecord
100
AcDbLayerTableRecord
  2
AM_11
 70
     0
 62
     3
  6
AM_ISO09W050
  0
LAYER
  5
BDE
330
2
100
AcDbSymbolTableRecord
100
AcDbLayerTableRecord
  2
AM_7
 70
     0
 62
     4
  6
AM_ISO08W050
  0
LAYER
  5
BDF
330
2
100
AcDbSymbolTableRecord
100
AcDbLayerTableRecord
  2
AM_5
 70
     0
 62
     3
  6
CONTINUOUS
  0
LAYER
  5
BE0
330
2
100
AcDbSymbolTableRecord
100
AcDbLayerTableRecord
  2
DEFPOINTS
 70
     0
 62
     7
  6
CONTINUOUS
  0
LAYER
  5
14FF
330
2
100
AcDbSymbolTableRecord
100
AcDbLayerTableRecord
  2
AM_6
 70
     0
 62
     2
  6
CONTINUOUS
  0
ENDTAB
  0
TABLE
  2
STYLE
  5
3
330
0
100
AcDbSymbolTable
 70
     5
  0
STYLE
  5
11
330
3
100
AcDbSymbolTableRecord
100
AcDbTextStyleTableRecord
  2
STANDARD
 70
     0
 40
0.0
 41
1.0
 50
0.0
 71
     0
 42
2.5
  3
simplex.shx
  4
EXTFONT.SHX
  0
STYLE
  5
52
330
3
100
AcDbSymbolTableRecord
100
AcDbTextStyleTableRecord
  2

 70
     1
 40
0.0
 41
1.0
 50
0.0
 71
     0
 42
2.5
  3
ltypeshp.shx
  4

  0
STYLE
  5
6B
330
3
100
AcDbSymbolTableRecord
100
AcDbTextStyleTableRecord
  2
ASAMI
 70
     0
 40
0.0
 41
1.0
 50
0.0
 71
     0
 42
2.5
  3
simplex.shx
  4
EXTFONT.SHX
  0
STYLE
  5
262
330
3
100
AcDbSymbolTableRecord
100
AcDbTextStyleTableRecord
  2
ACJISTS
 70
     0
 40
1.0
 41
1.0
 50
0.0
 71
     0
 42
2.5
  3
simplex.shx
  4
bigfont.shx
  0
STYLE
  5
269
330
3
100
AcDbSymbolTableRecord
100
AcDbTextStyleTableRecord
  2
ACJISGDT
 70
     0
 40
0.0
 41
1.0
 50
0.0
 71
     0
 42
2.5
  3
amgdtans.shx
  4

  0
ENDTAB
  0
TABLE
  2
VIEW
  5
6
330
0
100
AcDbSymbolTable
 70
     0
  0
ENDTAB
  0
TABLE
  2
UCS
  5
7
330
0
100
AcDbSymbolTable
 70
     0
  0
ENDTAB
  0
TABLE
  2
APPID
  5
9
330
0
100
AcDbSymbolTable
 70
    14
  0
APPID
  5
12
330
9
100
AcDbSymbolTableRecord
100
AcDbRegAppTableRecord
  2
ACAD
 70
     0
  0
APPID
  5
30
330
9
100
AcDbSymbolTableRecord
100
AcDbRegAppTableRecord
  2
MCAD_NO_VIS
 70
     0
  0
APPID
  5
31
330
9
100
AcDbSymbolTableRecord
100
AcDbRegAppTableRecord
  2
ACAD_TEMP_GRAPHIC
 70
     0
  0
APPID
  5
2C2
330
9
100
AcDbSymbolTableRecord
100
AcDbRegAppTableRecord
  2
GENIUS_GENDTOL_13
 70
     0
  0
APPID
  5
339
330
9
100
AcDbSymbolTableRecord
100
AcDbRegAppTableRecord
  2
GENIUS_GENODEF_13
 70
     0
  0
APPID
  5
33A
330
9
100
AcDbSymbolTableRecord
100
AcDbRegAppTableRecord
  2
GENIUS_GENOBJ-N-RSBK_13
 70
     0
  0
APPID
  5
33B
330
9
100
AcDbSymbolTableRecord
100
AcDbRegAppTableRecord
  2
GENIUS_GENOBJ-N-LIB_13
 70
     0
  0
APPID
  5
33C
330
9
100
AcDbSymbolTableRecord
100
AcDbRegAppTableRecord
  2
GENIUS_GENSCALE_13
 70
     0
  0
APPID
  5
378
330
9
100
AcDbSymbolTableRecord
100
AcDbRegAppTableRecord
  2
GENIUS_GENDIMSH_14
 70
     0
  0
APPID
  5
BE1
330
9
100
AcDbSymbolTableRecord
100
AcDbRegAppTableRecord
  2
GENIUS_GENFIL_13
 70
     0
  0
APPID
  5
BE2
330
9
100
AcDbSymbolTableRecord
100
AcDbRegAppTableRecord
  2
GENIUS_GENOBJ-N-CHA_13
 70
     0
  0
APPID
  5
151B
330
9
100
AcDbSymbolTableRecord
100
AcDbRegAppTableRecord
  2
DCO15
 70
     0
  0
APPID
  5
1860
330
9
100
AcDbSymbolTableRecord
100
AcDbRegAppTableRecord
  2
GENIUS_GENOBJ-N-CEN_13
 70
     0
  0
APPID
  5
359C
330
9
100
AcDbSymbolTableRecord
100
AcDbRegAppTableRecord
  2
GENIUS_GENOBJ-N-FIL_13
 70
     0
  0
ENDTAB
  0
TABLE
  2
DIMSTYLE
  5
A
330
0
100
AcDbSymbolTable
 70
     8
  0
DIMSTYLE
105
58
102
{ACAD_REACTORS
330
4047
330
412A
330
42F4
330
4664
102
}
330
A
100
AcDbSymbolTableRecord
100
AcDbDimStyleTableRecord
  2
AM_JIS
 70
     0
  3

  4
"
  5
OPEN30
  6

  7

 40
0.5
 41
2.5
 42
1.0
 43
12.0
 44
1.0
 45
0.0
 46
0.0
 47
0.1
 48
0.1
140
3.2
141
0.0
142
0.0
143
0.0393701
144
1.0
145
0.0
146
0.71
147
1.5
 71
     0
 72
     0
 73
     0
 74
     0
 75
     0
 76
     0
 77
     3
 78
     8
170
     0
171
     2
172
     1
173
     0
174
     0
175
     0
176
   256
177
   256
178
     2
270
     2
271
     3
272
     3
273
     2
274
     2
340
6B
275
     0
280
     0
281
     0
282
     0
283
     0
284
     0
285
     0
286
     0
287
     3
288
     0
  0
DIMSTYLE
105
5F
330
A
100
AcDbSymbolTableRecord
100
AcDbDimStyleTableRecord
  2
AM_JIS$3
 70
     0
  3

  4
"
  5
OPEN30
  6

  7

 40
0.5
 41
2.5
 42
1.0
 43
10.0
 44
1.0
 45
0.0
 46
0.0
 47
0.1
 48
0.1
140
3.2
141
0.0
142
0.0
143
0.0393701
144
1.0
145
0.0
146
0.71
147
1.5
 71
     0
 72
     0
 73
     0
 74
     1
 75
     0
 76
     0
 77
     3
 78
     8
170
     0
171
     2
172
     0
173
     0
174
     0
175
     0
176
   256
177
   256
178
     2
270
     2
271
     2
272
     3
273
     2
274
     2
340
6B
275
     0
280
     0
281
     0
282
     0
283
     0
284
     0
285
     0
286
     0
287
     0
288
     1
  0
DIMSTYLE
105
60
102
{ACAD_REACTORS
330
4E2F
102
}
330
A
100
AcDbSymbolTableRecord
100
AcDbDimStyleTableRecord
  2
AM_JIS$4
 70
     0
  3

  4
"
  5
OPEN30
  6

  7

 40
0.5
 41
2.5
 42
1.0
 43
10.0
 44
1.0
 45
0.0
 46
0.0
 47
0.1
 48
0.1
140
3.2
141
0.0
142
0.0
143
0.0393701
144
1.0
145
0.0
146
0.71
147
1.5
 71
     0
 72
     0
 73
     0
 74
     1
 75
     0
 76
     0
 77
     3
 78
     8
170
     0
171
     2
172
     0
173
     0
174
     0
175
     0
176
   256
177
   256
178
     2
270
     2
271
     2
272
     3
273
     2
274
     2
340
6B
275
     0
280
     0
281
     0
282
     0
283
     0
284
     0
285
     0
286
     0
287
     0
288
     1
  0
DIMSTYLE
105
61
330
A
100
AcDbSymbolTableRecord
100
AcDbDimStyleTableRecord
  2
AM_JIS$6
 70
     0
  3

  4
"
  5
OPEN30
  6

  7

 40
0.5
 41
2.5
 42
1.0
 43
10.0
 44
1.0
 45
0.0
 46
0.0
 47
0.1
 48
0.1
140
3.2
141
0.0
142
0.0
143
0.0393701
144
1.0
145
0.0
146
0.71
147
1.5
 71
     0
 72
     0
 73
     0
 74
     0
 75
     0
 76
     0
 77
     0
 78
     8
170
     0
171
     2
172
     1
173
     0
174
     0
175
     0
176
   256
177
   256
178
     2
270
     2
271
     2
272
     2
273
     2
274
     2
340
6B
275
     0
280
     0
281
     0
282
     0
283
     0
284
     0
285
     0
286
     0
287
     3
288
     0
  0
DIMSTYLE
105
62
330
A
100
AcDbSymbolTableRecord
100
AcDbDimStyleTableRecord
  2
AM_JIS$7
 70
     0
  3

  4
"
  5
OPEN30
  6

  7

 40
0.5
 41
2.5
 42
1.0
 43
10.0
 44
1.0
 45
0.0
 46
0.0
 47
0.1
 48
0.1
140
3.2
141
0.0
142
0.0
143
0.0393701
144
1.0
145
0.0
146
0.71
147
1.5
 71
     0
 72
     0
 73
     0
 74
     0
 75
     0
 76
     0
 77
     3
 78
     8
170
     0
171
     2
172
     1
173
     0
174
     0
175
     0
176
   256
177
   256
178
     2
270
     2
271
     2
272
     3
273
     2
274
     2
340
6B
275
     0
280
     0
281
     0
282
     0
283
     0
284
     0
285
     0
286
     0
287
     3
288
     0
  0
DIMSTYLE
105
63
330
A
100
AcDbSymbolTableRecord
100
AcDbDimStyleTableRecord
  2
AM_JIS$SF
 70
     0
  3

  4
"
  5
OPEN30
  6

  7

 40
0.5
 41
2.5
 42
1.0
 43
10.0
 44
1.0
 45
0.0
 46
0.0
 47
0.1
 48
0.1
140
3.2
141
0.0
142
0.0
143
0.0393701
144
1.0
145
0.0
146
0.71
147
1.5
 71
     0
 72
     0
 73
     0
 74
     0
 75
     1
 76
     1
 77
     3
 78
     8
170
     0
171
     2
172
     1
173
     0
174
     0
175
     0
176
   256
177
   256
178
     2
270
     2
271
     2
272
     2
273
     2
274
     2
340
6B
275
     0
280
     0
281
     0
282
     0
283
     0
284
     0
285
     0
286
     0
287
     3
288
     0
  0
DIMSTYLE
105
68
330
A
100
AcDbSymbolTableRecord
100
AcDbDimStyleTableRecord
  2
AM_JIS$SH
 70
     0
  3

  4
"
  5

  6
GENAXEH
  7
OPEN30
 40
0.5
 41
2.5
 42
1.0
 43
10.0
 44
1.0
 45
0.0
 46
0.0
 47
0.1
 48
0.1
140
3.2
141
0.0
142
0.0
143
0.0393701
144
2.0
145
0.0
146
0.71
147
1.5
 71
     0
 72
     0
 73
     0
 74
     0
 75
     1
 76
     1
 77
     3
 78
     8
170
     0
171
     2
172
     1
173
     1
174
     0
175
     0
176
   256
177
   256
178
     2
270
     2
271
     2
272
     2
273
     2
274
     2
340
6B
275
     0
280
     0
281
     0
282
     0
283
     0
284
     0
285
     0
286
     0
287
     3
288
     0
  0
DIMSTYLE
105
B34
330
A
100
AcDbSymbolTableRecord
100
AcDbDimStyleTableRecord
  2
AM_JIS$2
 70
     0
  3

  4
"
  5
OPEN30
  6

  7

 40
0.5
 41
2.5
 42
1.0
 43
12.0
 44
1.0
 45
0.0
 46
0.0
 47
0.1
 48
0.1
140
3.2
141
0.0
142
0.0
143
0.0393701
144
1.0
145
0.0
146
0.71
147
1.5
 71
     0
 72
     0
 73
     0
 74
     0
 75
     0
 76
     0
 77
     3
 78
     8
170
     0
171
     2
172
     1
173
     0
174
     0
175
     0
176
   256
177
   256
178
     2
270
     2
271
     3
272
     3
273
     2
274
     2
340
6B
275
     0
280
     0
281
     0
282
     0
283
     0
284
     0
285
     0
286
     0
287
     3
288
     0
  0
ENDTAB
  0
TABLE
  2
BLOCK_RECORD
  5
1
330
0
100
AcDbSymbolTable
 70
    10
  0
BLOCK_RECORD
  5
1F
102
{ACAD_XDICTIONARY
360
74
102
}
330
1
100
AcDbSymbolTableRecord
100
AcDbBlockTableRecord
  2
*MODEL_SPACE
  0
BLOCK_RECORD
  5
101
102
{ACAD_XDICTIONARY
360
4F76
102
}
330
1
100
AcDbSymbolTableRecord
100
AcDbBlockTableRecord
  2
*PAPER_SPACE
  0
BLOCK_RECORD
  5
59
330
1
100
AcDbSymbolTableRecord
100
AcDbBlockTableRecord
  2
_OPEN30
  0
BLOCK_RECORD
  5
64
330
1
100
AcDbSymbolTableRecord
100
AcDbBlockTableRecord
  2
GENAXEH
  0
BLOCK_RECORD
  5
4048
330
1
100
AcDbSymbolTableRecord
100
AcDbBlockTableRecord
  2
*D5
  0
BLOCK_RECORD
  5
412B
330
1
100
AcDbSymbolTableRecord
100
AcDbBlockTableRecord
  2
*D6
  0
BLOCK_RECORD
  5
42F5
330
1
100
AcDbSymbolTableRecord
100
AcDbBlockTableRecord
  2
*D7
  0
BLOCK_RECORD
  5
4665
330
1
100
AcDbSymbolTableRecord
100
AcDbBlockTableRecord
  2
*D8
  0
BLOCK_RECORD
  5
4E30
330
1
100
AcDbSymbolTableRecord
100
AcDbBlockTableRecord
  2
*D9
  0
ENDTAB
  0
ENDSEC
  0
SECTION
  2
BLOCKS
  0
BLOCK
  5
20
330
1F
100
AcDbEntity
  8
0
100
AcDbBlockBegin
  2
*MODEL_SPACE
 70
     0
 10
0.0
 20
0.0
 30
0.0
  3
*MODEL_SPACE
  1

  0
ENDBLK
  5
21
330
1F
100
AcDbEntity
  8
0
100
AcDbBlockEnd
  0
BLOCK
  5
103
330
101
100
AcDbEntity
 67
     1
  8
0
100
AcDbBlockBegin
  2
*PAPER_SPACE
 70
     0
 10
0.0
 20
0.0
 30
0.0
  3
*PAPER_SPACE
  1

  0
ENDBLK
  5
104
330
101
100
AcDbEntity
 67
     1
  8
0
100
AcDbBlockEnd
  0
BLOCK
  5
5D
330
59
100
AcDbEntity
  8
0
100
AcDbBlockBegin
  2
_OPEN30
 70
     0
 10
0.0
 20
0.0
 30
0.0
  3
_OPEN30
  1

  0
LINE
  5
5A
330
59
100
AcDbEntity
  8
0
 62
     0
100
AcDbLine
 10
-1.0
 20
0.26794919
 30
0.0
 11
0.0
 21
0.0
 31
0.0
  0
LINE
  5
5B
330
59
100
AcDbEntity
  8
0
 62
     0
100
AcDbLine
 10
0.0
 20
0.0
 30
0.0
 11
-1.0
 21
-0.26794919
 31
0.0
  0
LINE
  5
5C
330
59
100
AcDbEntity
  8
0
 62
     0
100
AcDbLine
 10
0.0
 20
0.0
 30
0.0
 11
-1.0
 21
0.0
 31
0.0
  0
ENDBLK
  5
5E
330
59
100
AcDbEntity
  8
0
100
AcDbBlockEnd
  0
BLOCK
  5
66
330
64
100
AcDbEntity
  8
0
100
AcDbBlockBegin
  2
GENAXEH
 70
     0
 10
0.0
 20
0.0
 30
0.0
  3
GENAXEH
  1

  0
LINE
  5
65
330
64
100
AcDbEntity
  8
0
100
AcDbLine
 10
-1.0
 20
0.0
 30
0.0
 11
1.0
 21
0.0
 31
0.0
  0
ENDBLK
  5
67
330
64
100
AcDbEntity
  8
0
100
AcDbBlockEnd
  0
BLOCK
  5
4052
330
4048
100
AcDbEntity
  8
0
100
AcDbBlockBegin
  2
*D5
 70
     1
 10
0.0
 20
0.0
 30
0.0
  3
*D5
  1

  0
LINE
  5
480D
330
4048
100
AcDbEntity
  8
AM_5
100
AcDbLine
 10
-39.99999999999998
 20
-1.700000000000046
 30
0.0
 11
-39.99999999999998
 21
-15.00000100000006
 31
0.0
  0
LINE
  5
480E
330
4048
100
AcDbEntity
  8
AM_5
100
AcDbLine
 10
0.0000000000000006
 20
-0.5000000000000005
 30
0.0
 11
-0.0000000000000003
 21
-15.00000100000006
 31
0.0
  0
LINE
  5
480F
330
4048
100
AcDbEntity
  8
AM_5
100
AcDbLine
 10
-38.74999999999998
 20
-14.50000100000006
 30
0.0
 11
-1.25
 21
-14.50000100000006
 31
0.0
  0
INSERT
  5
4810
330
4048
100
AcDbEntity
  8
AM_5
100
AcDbBlockReference
  2
_OPEN30
 10
-39.99999999999998
 20
-14.50000100000006
 30
0.0
 41
1.25
 42
1.25
 43
1.25
 50
180.0
  0
INSERT
  5
4811
330
4048
100
AcDbEntity
  8
AM_5
100
AcDbBlockReference
  2
_OPEN30
 10
-0.0000000000000002
 20
-14.50000100000006
 30
0.0
 41
1.25
 42
1.25
 43
1.25
  0
MTEXT
  5
4812
330
4048
100
AcDbEntity
  8
AM_5
 62
     2
100
AcDbMText
 10
-19.99999999999999
 20
-12.95000100000006
 30
0.0
 40
1.6
 41
0.0
 71
     5
 72
     1
  1
40
  7
ASAMI
1001
ACAD
1000
MTEXTBEGIN
1070
    73
1070
     1
1070
    44
1040
1.0
1070
    74
1070
     0
1000
MTEXTEND
  0
POINT
  5
4813
330
4048
100
AcDbEntity
  8
DEFPOINTS
 62
     0
100
AcDbPoint
 10
-39.99999999999998
 20
-1.200000000000046
 30
0.0
  0
POINT
  5
4814
330
4048
100
AcDbEntity
  8
DEFPOINTS
 62
     0
100
AcDbPoint
 10
0.0000000000000007
 20
-0.0000000000000005
 30
0.0
  0
POINT
  5
4815
330
4048
100
AcDbEntity
  8
DEFPOINTS
 62
     0
100
AcDbPoint
 10
-0.0000000000000002
 20
-14.50000100000006
 30
0.0
  0
ENDBLK
  5
4053
330
4048
100
AcDbEntity
  8
0
100
AcDbBlockEnd
  0
BLOCK
  5
4135
330
412B
100
AcDbEntity
  8
0
100
AcDbBlockBegin
  2
*D6
 70
     1
 10
0.0
 20
0.0
 30
0.0
  3
*D6
  1

  0
LINE
  5
4E0E
330
412B
100
AcDbEntity
  8
AM_5
100
AcDbLine
 10
-0.0000000000000142
 20
-0.5000000000000111
 30
0.0
 11
-0.0000000000000148
 21
-9.000001000000064
 31
0.0
  0
LINE
  5
4E0F
330
412B
100
AcDbEntity
  8
AM_5
100
AcDbLine
 10
-0.600000000000015
 20
-0.8000000000000015
 30
0.0
 11
-0.6000000000000156
 21
-9.000001000000064
 31
0.0
  0
LINE
  5
4E10
330
412B
100
AcDbEntity
  8
AM_5
100
AcDbLine
 10
1.249999999999985
 20
-8.500001000000064
 30
0.0
 11
2.499999999999985
 21
-8.500001000000064
 31
0.0
  0
LINE
  5
4E11
330
412B
100
AcDbEntity
  8
AM_5
100
AcDbLine
 10
-1.850000000000015
 20
-8.500001000000064
 30
0.0
 11
-7.87619047619049
 21
-8.500001000000064
 31
0.0
  0
LINE
  5
4E12
330
412B
100
AcDbEntity
  8
AM_5
100
AcDbLine
 10
-0.0000000000000147
 20
-8.500001000000064
 30
0.0
 11
-0.6000000000000156
 21
-8.500001000000064
 31
0.0
  0
INSERT
  5
4E13
330
412B
100
AcDbEntity
  8
AM_5
100
AcDbBlockReference
  2
_OPEN30
 10
-0.0000000000000147
 20
-8.500001000000064
 30
0.0
 41
1.25
 42
1.25
 43
1.25
 50
180.0
  0
INSERT
  5
4E14
330
412B
100
AcDbEntity
  8
AM_5
100
AcDbBlockReference
  2
_OPEN30
 10
-0.6000000000000156
 20
-8.500001000000064
 30
0.0
 41
1.25
 42
1.25
 43
1.25
  0
MTEXT
  5
4E15
330
412B
100
AcDbEntity
  8
AM_5
 62
     2
100
AcDbMText
 10
-5.488095238095253
 20
-6.950001000000065
 30
0.0
 40
1.6
 41
0.0
 71
     5
 72
     1
  1
0.6
  7
ASAMI
1001
ACAD
1000
MTEXTBEGIN
1070
    73
1070
     1
1070
    44
1040
1.0
1070
    74
1070
     0
1000
MTEXTEND
  0
POINT
  5
4E16
330
412B
100
AcDbEntity
  8
DEFPOINTS
 62
     0
100
AcDbPoint
 10
-0.0000000000000142
 20
-0.0000000000000111
 30
0.0
  0
POINT
  5
4E17
330
412B
100
AcDbEntity
  8
DEFPOINTS
 62
     0
100
AcDbPoint
 10
-0.600000000000015
 20
-0.3000000000000016
 30
0.0
  0
POINT
  5
4E18
330
412B
100
AcDbEntity
  8
DEFPOINTS
 62
     0
100
AcDbPoint
 10
-0.6000000000000156
 20
-8.500001000000064
 30
0.0
  0
ENDBLK
  5
4136
330
412B
100
AcDbEntity
  8
0
100
AcDbBlockEnd
  0
BLOCK
  5
42FF
330
42F5
100
AcDbEntity
  8
0
100
AcDbBlockBegin
  2
*D7
 70
     1
 10
0.0
 20
0.0
 30
0.0
  3
*D7
  1

  0
LINE
  5
4E1A
330
42F5
100
AcDbEntity
  8
AM_5
100
AcDbLine
 10
0.2
 20
0.2999999999999999
 30
0.0
 11
8.841627940564762
 21
0.2999999999999975
 31
0.0
  0
LINE
  5
4E1B
330
42F5
100
AcDbEntity
  8
AM_5
100
AcDbLine
 10
0.2000000000000006
 20
-0.3000000000000002
 30
0.0
 11
8.841627940564762
 21
-0.3000000000000025
 31
0.0
  0
LINE
  5
4E1C
330
42F5
100
AcDbEntity
  8
AM_5
100
AcDbLine
 10
8.341627940564762
 20
1.549999999999997
 30
0.0
 11
8.341627940564762
 21
2.799999999999997
 31
0.0
  0
LINE
  5
4E1D
330
42F5
100
AcDbEntity
  8
AM_5
100
AcDbLine
 10
8.341627940564762
 20
-1.550000000000002
 30
0.0
 11
8.341627940564761
 21
-9.023809523809525
 31
0.0
  0
LINE
  5
4E1E
330
42F5
100
AcDbEntity
  8
AM_5
100
AcDbLine
 10
8.341627940564762
 20
0.2999999999999976
 30
0.0
 11
8.341627940564762
 21
-0.3000000000000024
 31
0.0
  0
INSERT
  5
4E1F
330
42F5
100
AcDbEntity
  8
AM_5
100
AcDbBlockReference
  2
_OPEN30
 10
8.341627940564762
 20
0.2999999999999976
 30
0.0
 41
1.25
 42
1.25
 43
1.25
 50
270.0
  0
INSERT
  5
4E20
330
42F5
100
AcDbEntity
  8
AM_5
100
AcDbBlockReference
  2
_OPEN30
 10
8.341627940564762
 20
-0.3000000000000024
 30
0.0
 41
1.25
 42
1.25
 43
1.25
 50
90.0
  0
MTEXT
  5
4E21
330
42F5
100
AcDbEntity
  8
AM_5
 62
     2
100
AcDbMText
 10
6.791627940564762
 20
-5.911904761904762
 30
0.0
 40
1.6
 41
0.0
 71
     5
 72
     1
  1
%%c0.6
  7
ASAMI
 11
0.0000000000000001
 21
1.0
 31
0.0
1001
ACAD
1000
MTEXTBEGIN
1070
    73
1070
     1
1070
    44
1040
1.0
1070
    74
1070
     0
1000
MTEXTEND
  0
POINT
  5
4E22
330
42F5
100
AcDbEntity
  8
DEFPOINTS
 62
     0
100
AcDbPoint
 10
-0.3
 20
0.3
 30
0.0
  0
POINT
  5
4E23
330
42F5
100
AcDbEntity
  8
DEFPOINTS
 62
     0
100
AcDbPoint
 10
-0.2999999999999994
 20
-0.3
 30
0.0
  0
POINT
  5
4E24
330
42F5
100
AcDbEntity
  8
DEFPOINTS
 62
     0
100
AcDbPoint
 10
8.341627940564762
 20
-0.3000000000000024
 30
0.0
  0
ENDBLK
  5
4300
330
42F5
100
AcDbEntity
  8
0
100
AcDbBlockEnd
  0
BLOCK
  5
4671
330
4665
100
AcDbEntity
  8
0
100
AcDbBlockBegin
  2
*D8
 70
     1
 10
0.0
 20
0.0
 30
0.0
  3
*D8
  1

  0
LINE
  5
4816
330
4665
100
AcDbEntity
  8
AM_5
100
AcDbLine
 10
-40.19999999999999
 20
1.499999999999921
 30
0.0
 11
-49.55619512995955
 21
1.499999999999924
 31
0.0
  0
LINE
  5
4817
330
4665
100
AcDbEntity
  8
AM_5
100
AcDbLine
 10
-40.19999999999998
 20
-1.500000000000044
 30
0.0
 11
-49.55619512995955
 21
-1.500000000000041
 31
0.0
  0
LINE
  5
4818
330
4665
100
AcDbEntity
  8
AM_5
100
AcDbLine
 10
-49.05619512995954
 20
2.749999999999924
 30
0.0
 11
-49.05619512995954
 21
3.999999999999923
 31
0.0
  0
LINE
  5
4819
330
4665
100
AcDbEntity
  8
AM_5
100
AcDbLine
 10
-49.05619512995954
 20
-2.750000000000042
 30
0.0
 11
-49.05619512995954
 21
-8.014285714285756
 31
0.0
  0
LINE
  5
481A
330
4665
100
AcDbEntity
  8
AM_5
100
AcDbLine
 10
-49.05619512995954
 20
1.499999999999923
 30
0.0
 11
-49.05619512995954
 21
-1.500000000000042
 31
0.0
  0
INSERT
  5
481B
330
4665
100
AcDbEntity
  8
AM_5
100
AcDbBlockReference
  2
_OPEN30
 10
-49.05619512995954
 20
1.499999999999923
 30
0.0
 41
1.25
 42
1.25
 43
1.25
 50
270.0
  0
INSERT
  5
481C
330
4665
100
AcDbEntity
  8
AM_5
100
AcDbBlockReference
  2
_OPEN30
 10
-49.05619512995954
 20
-1.500000000000042
 30
0.0
 41
1.25
 42
1.25
 43
1.25
 50
90.0
  0
MTEXT
  5
481D
330
4665
100
AcDbEntity
  8
AM_5
 62
     2
100
AcDbMText
 10
-50.60619512995955
 20
-6.007142857142907
 30
0.0
 40
1.6
 41
0.0
 71
     5
 72
     1
  1
%%c3
  7
ASAMI
 11
0.0000000000000001
 21
1.0
 31
0.0
1001
ACAD
1000
MTEXTBEGIN
1070
    73
1070
     1
1070
    44
1040
1.0
1070
    74
1070
     0
1000
MTEXTEND
  0
POINT
  5
481E
330
4665
100
AcDbEntity
  8
DEFPOINTS
 62
     0
100
AcDbPoint
 10
-39.69999999999999
 20
1.499999999999921
 30
0.0
  0
POINT
  5
481F
330
4665
100
AcDbEntity
  8
DEFPOINTS
 62
     0
100
AcDbPoint
 10
-39.69999999999998
 20
-1.500000000000044
 30
0.0
  0
POINT
  5
4820
330
4665
100
AcDbEntity
  8
DEFPOINTS
 62
     0
100
AcDbPoint
 10
-49.05619512995954
 20
-1.500000000000042
 30
0.0
  0
ENDBLK
  5
4672
330
4665
100
AcDbEntity
  8
0
100
AcDbBlockEnd
  0
BLOCK
  5
4E36
330
4E30
100
AcDbEntity
  8
0
100
AcDbBlockBegin
  2
*D9
 70
     1
 10
0.0
 20
0.0
 30
0.0
  3
*D9
  1

  0
LINE
  5
4F78
330
4E30
100
AcDbEntity
  8
AM_5
100
AcDbLine
 10
3.401281616301671
 20
-8.475245842779168
 30
0.0
 11
0.320055154969713
 21
-1.416016718463349
 31
0.0
  0
MTEXT
  5
4F79
330
4E30
100
AcDbEntity
  8
AM_5
 62
     2
100
AcDbMText
 10
3.531265018102226
 20
-4.898388380715786
 30
0.0
 40
1.6
 41
0.0
 71
     5
 72
     1
  1
R0.3
  7
ASAMI
 11
0.4000355838514444
 21
-0.9164996081028261
 31
0.0
  0
LINE
  5
4F7A
330
4E30
100
AcDbEntity
  8
AM_5
100
AcDbLine
 10
-0.3000000000000256
 20
0.0045576740960311
 30
0.0
 11
-0.1799893248445923
 21
-0.2703922083348167
 31
0.0
  0
INSERT
  5
4F7B
330
4E30
100
AcDbEntity
  8
AM_5
100
AcDbBlockReference
  2
_OPEN30
 10
-0.1799893248445923
 20
-0.2703922083348167
 30
0.0
 41
1.25
 42
1.25
 43
1.25
 50
113.5804030151397
  0
POINT
  5
4F7C
330
4E30
100
AcDbEntity
  8
DEFPOINTS
 62
     0
100
AcDbPoint
 10
-0.1799893248445923
 20
-0.2703922083348167
 30
0.0
  0
POINT
  5
4F7D
330
4E30
100
AcDbEntity
  8
DEFPOINTS
 62
     0
100
AcDbPoint
 10
-0.3000000000000256
 20
0.0045576740960311
 30
0.0
  0
ENDBLK
  5
4E37
330
4E30
100
AcDbEntity
  8
0
100
AcDbBlockEnd
  0
ENDSEC
  0
SECTION
  2
ENTITIES
  0
TEXT
  5
1500
330
1F
100
AcDbEntity
  8
AM_6
100
AcDbText
 10
-30.71428571428569
 20
-25.75000100000006
 30
0.0
 40
2.5
  1
S-SSB2006
 72
     4
 11
-19.99999999999998
 21
-24.50000100000006
 31
0.0
100
AcDbText
  0
LINE
  5
3EE8
330
1F
100
AcDbEntity
  8
AM_7
  6
AM_ISO08W050X2
100
AcDbLine
 10
1.341626940564765
 20
0.0
 30
0.0
 11
-42.05619412995955
 21
-0.0000000000000426
 31
0.0
1001
GENIUS_GENODEF_13
1002
{
1000
HIER
1070
     0
1002
}
1002
{
1000
MANEDIT
1070
     0
1002
}
1002
{
1000
NOSEL
1070
     0
1002
}
1002
{
1000
BEHIND
1070
     0
1002
}
1002
{
1000
REACTOR
1002
}
1001
GENIUS_GENOBJ-N-CEN_13
1002
{
1000
OWNER
1000
GEN
1002
}
  0
DIMENSION
  5
4047
330
1F
100
AcDbEntity
  8
AM_5
100
AcDbDimension
  2
*D5
 10
-0.0000000000000002
 20
-14.50000100000006
 30
0.0
 11
-19.99999999999999
 21
-12.95000100000006
 31
0.0
 70
    32
  1
<>
  3
AM_JIS
100
AcDbAlignedDimension
 13
-39.99999999999998
 23
-1.200000000000046
 33
0.0
 14
0.0000000000000007
 24
-0.0000000000000005
 34
0.0
 50
0.0000000000001132
100
AcDbRotatedDimension
1001
GENIUS_GENDTOL_13
1000

1000
h7
1000

1040
0.0
  0
DIMENSION
  5
412A
330
1F
100
AcDbEntity
  8
AM_5
100
AcDbDimension
  2
*D6
 10
-0.6000000000000156
 20
-8.500001000000064
 30
0.0
 11
-5.488095238095253
 21
-6.950001000000065
 31
0.0
 70
    32
  1
<>
  3
AM_JIS
100
AcDbAlignedDimension
 13
-0.0000000000000142
 23
-0.0000000000000111
 33
0.0
 14
-0.600000000000015
 24
-0.3000000000000016
 34
0.0
 50
0.0000000000001132
100
AcDbRotatedDimension
1001
GENIUS_GENDTOL_13
1000

1000
h7
1000

1040
0.0
  0
DIMENSION
  5
42F4
330
1F
100
AcDbEntity
  8
AM_5
100
AcDbDimension
  2
*D7
 10
8.341627940564762
 20
-0.3000000000000024
 30
0.0
 11
6.791627940564762
 21
-5.911904761904762
 31
0.0
 70
    32
  1
%%c<>
  3
AM_JIS
100
AcDbAlignedDimension
 13
-0.3
 23
0.3
 33
0.0
 14
-0.2999999999999994
 24
-0.3
 34
0.0
 50
90.0
100
AcDbRotatedDimension
1001
GENIUS_GENDTOL_13
1000

1000
h7
1000

1040
0.0
  0
LINE
  5
465E
330
1F
100
AcDbEntity
  8
AM_0
100
AcDbLine
 10
-7.405538183542009
 20
-1.49999999999984
 30
0.0
 11
-39.69999999999998
 21
-1.500000000000044
 31
0.0
  0
LINE
  5
4660
330
1F
100
AcDbEntity
  8
AM_0
100
AcDbLine
 10
-39.69999999999999
 20
1.499999999999921
 30
0.0
 11
-39.69999999999998
 21
-1.500000000000048
 31
0.0
  0
LINE
  5
4661
330
1F
100
AcDbEntity
  8
AM_0
100
AcDbLine
 10
-39.99999999999999
 20
1.199999999999919
 30
0.0
 11
-39.99999999999998
 21
-1.200000000000046
 31
0.0
  0
LINE
  5
4663
330
1F
100
AcDbEntity
  8
AM_0
100
AcDbLine
 10
-7.405538183542018
 20
1.500000000000128
 30
0.0
 11
-39.69999999999999
 21
1.499999999999921
 31
0.0
  0
DIMENSION
  5
4664
330
1F
100
AcDbEntity
  8
AM_5
100
AcDbDimension
  2
*D8
 10
-49.05619512995954
 20
-1.500000000000042
 30
0.0
 11
-50.60619512995955
 21
-6.007142857142907
 31
0.0
 70
    32
  1
%%c<>
  3
AM_JIS
100
AcDbAlignedDimension
 13
-39.69999999999999
 23
1.499999999999921
 33
0.0
 14
-39.69999999999998
 24
-1.500000000000044
 34
0.0
 50
270.0
100
AcDbRotatedDimension
1001
GENIUS_GENDTOL_13
1000

1000
h7
1000

1040
0.0
  0
LINE
  5
46F6
330
1F
100
AcDbEntity
  8
AM_0
100
AcDbLine
 10
-39.69999999999999
 20
1.499999999999921
 30
0.0
 11
-39.99999999999999
 21
1.199999999999919
 31
0.0
1001
GENIUS_GENFIL_13
1070
     0
1040
0.3
1040
0.3
1040
20.0
1040
0.0
1002
{
1002
}
1001
GENIUS_GENODEF_13
1002
{
1000
HIER
1070
     0
1002
}
1002
{
1000
MANEDIT
1070
     0
1002
}
1002
{
1000
NOSEL
1070
     0
1002
}
1002
{
1000
BEHIND
1070
     0
1002
}
1002
{
1000
REACTOR
1002
}
1001
GENIUS_GENOBJ-N-CHA_13
1002
{
1000
OWNER
1000
GEN
1002
}
  0
LINE
  5
46FB
330
1F
100
AcDbEntity
  8
AM_0
100
AcDbLine
 10
-39.99999999999998
 20
-1.200000000000046
 30
0.0
 11
-39.69999999999998
 21
-1.500000000000044
 31
0.0
1001
GENIUS_GENFIL_13
1070
     0
1040
0.3
1040
0.3
1040
20.0
1040
0.0
1002
{
1002
}
1001
GENIUS_GENODEF_13
1002
{
1000
HIER
1070
     0
1002
}
1002
{
1000
MANEDIT
1070
     0
1002
}
1002
{
1000
NOSEL
1070
     0
1002
}
1002
{
1000
BEHIND
1070
     0
1002
}
1002
{
1000
REACTOR
1002
}
1001
GENIUS_GENOBJ-N-CHA_13
1002
{
1000
OWNER
1000
GEN
1002
}
  0
LINE
  5
475D
330
1F
100
AcDbEntity
  8
AM_0
100
AcDbLine
 10
-7.405538183542018
 20
1.500000000000128
 30
0.0
 11
-7.405538183542009
 21
-1.49999999999984
 31
0.0
  0
LINE
  5
4776
330
1F
100
AcDbEntity
  8
AM_0
100
AcDbLine
 10
-0.5999999999999979
 20
0.2999999999999929
 30
0.0
 11
-7.405538183542018
 21
1.500000000000128
 31
0.0
  0
LINE
  5
4778
330
1F
100
AcDbEntity
  8
AM_0
100
AcDbLine
 10
-0.5999999999999979
 20
-0.3000000000000016
 30
0.0
 11
-7.405538183542009
 21
-1.500000000000135
 31
0.0
  0
SPLINE
  5
4C61
330
1F
100
AcDbEntity
  8
AM_0
100
AcDbSpline
210
0.0
220
0.0
230
1.0
 70
     8
 71
     3
 72
     8
 73
     4
 74
     0
 42
0.0000000001
 43
0.0000000001
 40
1.794922859428793
 40
1.794922859428793
 40
1.794922859428793
 40
1.794922859428793
 40
6.932195611885338
 40
6.932195611885338
 40
6.932195611885338
 40
6.932195611885338
 10
-0.2999999999998071
 20
-0.295442325903682
 30
0.0
 10
-0.4015011857404529
 20
-0.2800059462348223
 30
0.0
 10
-0.4964839700742698
 20
-0.2516794695185274
 30
0.0
 10
-0.5999999999999992
 20
-0.2124013861338896
 30
0.0
  0
SPLINE
  5
4C63
330
1F
100
AcDbEntity
  8
AM_0
100
AcDbSpline
210
0.0
220
0.0
230
1.0
 70
     8
 71
     3
 72
     8
 73
     4
 74
     0
 42
0.0000000001
 43
0.0000000001
 40
6.513172597598655
 40
6.513172597598655
 40
6.513172597598655
 40
6.513172597598655
 40
11.78103907609898
 40
11.78103907609898
 40
11.78103907609898
 40
11.78103907609898
 10
-0.2999999999999963
 20
-0.2265212756615935
 30
0.0
 10
-0.4193629537305031
 20
-0.1872591183066188
 30
0.0
 10
-0.5090964819932014
 20
-0.1565286779456116
 30
0.0
 10
-0.5999999999999992
 20
-0.1158069929461267
 30
0.0
  0
SPLINE
  5
4C64
330
1F
100
AcDbEntity
  8
AM_0
100
AcDbSpline
210
0.0
220
0.0
230
1.0
 70
     8
 71
     3
 72
     8
 73
     4
 74
     0
 42
0.0000000001
 43
0.0000000001
 40
1.794922859432252
 40
1.794922859432252
 40
1.794922859432252
 40
1.794922859432252
 40
7.780064853036185
 40
7.780064853036185
 40
7.780064853036185
 40
7.780064853036185
 10
-0.2999999999999963
 20
0.2954423259036481
 30
0.0
 10
-0.3781721904557732
 20
0.285489691620951
 30
0.0
 10
-0.4934503933349392
 20
0.2598390521001303
 30
0.0
 10
-0.5693721037296872
 20
0.2331328426253168
 30
0.0
  0
SPLINE
  5
4C65
330
1F
100
AcDbEntity
  8
AM_0
100
AcDbSpline
210
0.0
220
0.0
230
1.0
 70
     8
 71
     3
 72
     8
 73
     4
 74
     2
 42
0.0000000001
 43
0.0000000001
 44
0.0000000001
 12
-0.8789112757303591
 22
0.4769852926391262
 32
0.0
 13
0.9988106394578341
 23
0.0487576302319218
 33
0.0
 40
0.0
 40
0.0
 40
0.0
 40
0.0
 40
0.1294469916197628
 40
0.1294469916197628
 40
0.1294469916197628
 40
0.1294469916197628
 10
-0.3136668816407564
 20
0.0833310989309486
 30
0.0
 10
-0.351591021822084
 20
0.1039125359906176
 30
0.0
 10
-0.3992314331330331
 20
0.2035100768362594
 30
0.0
 10
-0.356133755641157
 20
0.2056139196869364
 30
0.0
 11
-0.3136668816407564
 21
0.0833310989309486
 31
0.0
 11
-0.356133755641157
 21
0.2056139196869364
 31
0.0
  0
SPLINE
  5
4C66
330
1F
100
AcDbEntity
  8
AM_0
100
AcDbSpline
210
0.0
220
0.0
230
1.0
 70
     8
 71
     3
 72
     8
 73
     4
 74
     2
 42
0.0000000001
 43
0.0000000001
 44
0.0000000001
 12
0.4216926876958759
 22
-0.9067388141818064
 32
0.0
 13
-0.9928045895078733
 23
-0.1197457600589821
 33
0.0
 40
0.0
 40
0.0
 40
0.0
 40
0.0
 40
0.105925167387979
 40
0.105925167387979
 40
0.105925167387979
 40
0.105925167387979
 10
-0.2999999999999963
 20
0.2954423259036481
 30
0.0
 10
-0.2851107104898389
 20
0.2634268390138529
 30
0.0
 10
-0.3210794248683789
 20
0.20984194957955
 30
0.0
 10
-0.356133755644104
 20
0.2056139196868005
 30
0.0
 11
-0.2999999999999963
 21
0.2954423259036481
 31
0.0
 11
-0.356133755644104
 21
0.2056139196868005
 31
0.0
  0
SPLINE
  5
4C67
330
1F
100
AcDbEntity
  8
AM_0
100
AcDbSpline
210
0.0
220
0.0
230
1.0
 70
     8
 71
     3
 72
     9
 73
     5
 74
     3
 42
0.0000000001
 43
0.0000000001
 44
0.0000000001
 12
0.5867325161912575
 22
-0.8097808064185493
 32
0.0
 13
-0.8994987856269101
 23
0.4369232594583561
 33
0.0
 40
0.0
 40
0.0
 40
0.0
 40
0.0
 40
0.0268807909859364
 40
0.0800797429080935
 40
0.0800797429080935
 40
0.0800797429080935
 40
0.0800797429080935
 10
-0.2631848344490106
 20
-0.1825559501627094
 30
0.0
 10
-0.2579275564048808
 20
-0.1898117996966294
 30
0.0
 10
-0.2352496380726183
 20
-0.2157537890524791
 30
0.0
 10
-0.2840492024497947
 20
-0.2342692288194593
 30
0.0
 10
-0.2999999999999963
 20
-0.2265212756615935
 30
0.0
 11
-0.2631848344490106
 21
-0.1825559501627094
 31
0.0
 11
-0.2507566554529794
 21
-0.206391161319152
 31
0.0
 11
-0.2999999999999963
 21
-0.2265212756615935
 31
0.0
  0
ARC
  5
4C68
330
1F
100
AcDbEntity
  8
AM_0
100
AcDbCircle
 10
-1.082836466338685
 20
2.664102659052619
 30
0.0
 40
3.003170928640132
100
AcDbArc
 50
279.2519149359382
 51
282.5199022762564
  0
LINE
  5
4C69
330
1F
100
AcDbEntity
  8
AM_0
100
AcDbLine
 10
-0.5999999999999979
 20
0.2370854464828442
 30
0.0
 11
-0.356133755641185
 21
0.2056139196869364
 31
0.0
  0
LINE
  5
4C6A
330
1F
100
AcDbEntity
  8
AM_11
100
AcDbLine
 10
-0.5999999999999979
 20
-0.3000000000000016
 30
0.0
 11
-0.2999999999999963
 21
-0.3000000000000003
 31
0.0
  0
LINE
  5
4C6B
330
1F
100
AcDbEntity
  8
AM_11
100
AcDbLine
 10
-0.2999999999999963
 20
0.2999999999999929
 30
0.0
 11
-0.5999999999999979
 21
0.2999999999999929
 31
0.0
  0
ARC
  5
4C6F
330
1F
100
AcDbEntity
  8
AM_0
100
AcDbCircle
 10
-0.3761843170414494
 20
0.5815455117022382
 30
0.0
 40
0.7323892241680984
100
AcDbArc
 50
195.7898850740521
 51
252.2059374660802
  0
LINE
  5
4C70
330
1F
100
AcDbEntity
  8
AM_11
100
AcDbLine
 10
-0.5999999999999979
 20
-0.3000000000000003
 30
0.0
 11
-0.5999999999999979
 21
0.2999999999999929
 31
0.0
  0
LINE
  5
4C71
330
1F
100
AcDbEntity
  8
AM_0
100
AcDbLine
 10
-0.5999999999999979
 20
-0.1158069929461267
 30
0.0
 11
-0.6000000000000365
 21
-0.2124013861338982
 31
0.0
  0
POLYLINE
  5
4C72
330
1F
100
AcDbEntity
  8
AM_0
100
AcDb2dPolyline
 66
     1
 10
0.0
 20
0.0
 30
0.0
  0
VERTEX
  5
4C73
330
4C72
100
AcDbEntity
  8
AM_0
100
AcDbVertex
100
AcDb2dVertex
 10
-0.5999999999999846
 20
-0.2124013861338949
 30
0.0
 42
0.0159809323087668
  0
VERTEX
  5
4C74
330
4C72
100
AcDbEntity
  8
AM_0
100
AcDbVertex
100
AcDb2dVertex
 10
-0.6718933778720753
 20
-0.2190982713924914
 30
0.0
 42
0.0260500087038934
  0
VERTEX
  5
4C75
330
4C72
100
AcDbEntity
  8
AM_0
100
AcDbVertex
100
AcDb2dVertex
 10
-0.7159049873777206
 20
-0.2242528683124445
 30
0.0
 42
0.0130428312885885
  0
VERTEX
  5
4C76
330
4C72
100
AcDbEntity
  8
AM_0
100
AcDbVertex
100
AcDb2dVertex
 10
-0.8182783679526291
 20
-0.2472635810819295
 30
0.0
 42
0.0322710141744365
  0
VERTEX
  5
4C77
330
4C72
100
AcDbEntity
  8
AM_0
100
AcDbVertex
100
AcDb2dVertex
 10
-0.8580916197624567
 20
-0.2619775600446033
 30
0.0
 42
0.066302819305777
  0
VERTEX
  5
4C78
330
4C72
100
AcDbEntity
  8
AM_0
100
AcDbVertex
100
AcDb2dVertex
 10
-0.8858440865292882
 20
-0.2790285583339416
 30
0.0
 42
0.141835538265495
  0
VERTEX
  5
4C79
330
4C72
100
AcDbEntity
  8
AM_0
100
AcDbVertex
100
AcDb2dVertex
 10
-0.8946480597139725
 20
-0.2917423951846787
 30
0.0
 42
0.3019338394559296
  0
VERTEX
  5
4C7A
330
4C72
100
AcDbEntity
  8
AM_0
100
AcDbVertex
100
AcDb2dVertex
 10
-0.8898122449911856
 20
-0.3097325694693893
 30
0.0
 42
0.1448123473042558
  0
VERTEX
  5
4C7B
330
4C72
100
AcDbEntity
  8
AM_0
100
AcDbVertex
100
AcDb2dVertex
 10
-0.8568408551345116
 20
-0.3250184727201097
 30
0.0
 42
0.0233293908839008
  0
VERTEX
  5
4C7C
330
4C72
100
AcDbEntity
  8
AM_0
100
AcDbVertex
100
AcDb2dVertex
 10
-0.8277780993202551
 20
-0.3279297644384271
 30
0.0
 42
0.0034172218502885
  0
VERTEX
  5
4C7D
330
4C72
100
AcDbEntity
  8
AM_0
100
AcDbVertex
100
AcDb2dVertex
 10
-0.7728484383752483
 20
-0.3304778432588804
 30
0.0
 42
0.0093933844226459
  0
SEQEND
  5
4C7E
330
4C72
100
AcDbEntity
  8
AM_0
  0
ARC
  5
4C7F
330
1F
100
AcDbEntity
  8
AM_0
100
AcDbCircle
 10
-3.655445568633853
 20
-9.110157448689855
 30
0.0
 40
9.833956343417476
100
AcDbArc
 50
71.89836262596879
 51
75.08314152666779
  0
ARC
  5
4C80
330
1F
100
AcDbEntity
  8
AM_0
100
AcDbCircle
 10
-0.2999653773468391
 20
-0.0045576740963384
 30
0.0
 40
0.3
100
AcDbArc
 50
0.8704851212057665
 51
90.0
  0
ARC
  5
4C81
330
1F
100
AcDbEntity
  8
AM_11
100
AcDbCircle
 10
-0.3000000000000016
 20
0.0
 30
0.0
 40
0.3
100
AcDbArc
 50
270.0
 51
90.0
  0
ARC
  5
4C83
330
1F
100
AcDbEntity
  8
AM_0
100
AcDbCircle
 10
-0.0123084547704471
 20
0.0028119847872363
 30
0.0
 40
0.3119298465813122
100
AcDbArc
 50
165.040742132377
 51
216.4600123166024
  0
LINE
  5
4C84
330
1F
100
AcDbEntity
  8
AM_0
100
AcDbLine
 10
0.0
 20
0.0
 30
0.0
 11
-0.356133755641157
 21
0.2056139196869364
 31
0.0
  0
LINE
  5
4C85
330
1F
100
AcDbEntity
  8
AM_0
100
AcDbLine
 10
-0.0420000000000154
 20
-0.0105722808153039
 30
0.0
 11
-0.3136668816407564
 21
0.0833310989309486
 31
0.0
  0
LINE
  5
4C86
330
1F
100
AcDbEntity
  8
AM_0
100
AcDbLine
 10
-0.0000000000000178
 20
0.0000000000001085
 30
0.0
 11
-0.0419653773468529
 21
-0.0105722808152974
 31
0.0
  0
ARC
  5
4C87
330
1F
100
AcDbEntity
  8
AM_0
100
AcDbCircle
 10
-0.2903439329344763
 20
0.0805954154886839
 30
0.0
 40
0.2645491596560778
100
AcDbArc
 50
275.8924707062756
 51
339.8416840647174
  0
ARC
  5
4C88
330
1F
100
AcDbEntity
  8
AM_0
100
AcDbCircle
 10
-0.2999653773468631
 20
0.0045576740960377
 30
0.0
 40
0.3
100
AcDbArc
 50
270.0000000000781
 51
359.1295148788724
  0
LINE
  5
4C8B
330
1F
100
AcDbEntity
  8
AM_0
100
AcDbLine
 10
-0.2999999999996163
 20
-0.2954423259039689
 30
0.0
 11
-0.3000000000000256
 21
-0.2265212756615935
 31
0.0
  0
DIMENSION
  5
4E2F
330
1F
100
AcDbEntity
  8
AM_5
100
AcDbDimension
  2
*D9
 10
-0.3000000000000256
 20
0.0045576740960311
 30
0.0
 11
3.531265018102226
 21
-4.898388380715786
 31
0.0
 70
    36
  1
<>
  3
AM_JIS$4
100
AcDbRadialDimension
 15
-0.1799893248445923
 25
-0.2703922083348167
 35
0.0
 40
0.0
1001
GENIUS_GENDTOL_13
1000

1000
h7
1000

1040
0.0
1001
ACAD
1000
DSTYLE
1002
{
1070
   287
1070
     3
1070
   271
1070
     3
1070
   288
1070
     1
1070
   289
1070
     3
1070
   172
1070
     1
1070
    74
1070
     0
1002
}
  0
VIEWPORT
  5
110
330
101
100
AcDbEntity
 67
     1
  8
0
100
AcDbViewport
 10
420.5
 20
297.0
 30
0.0
 40
948.9782706766916
 41
628.452
 68
     1
 69
     1
1001
ACAD
1000
MVIEW
1002
{
1070
    16
1010
0.0
1020
0.0
1030
0.0
1010
0.0
1020
0.0
1030
1.0
1040
0.0
1040
628.452
1040
420.5
1040
297.0
1040
50.0
1040
0.0
1040
0.0
1070
     0
1070
   100
1070
     1
1070
     1
1070
     0
1070
     0
1070
     0
1070
     0
1040
0.0
1040
0.0
1040
0.0
1040
10.0
1040
10.0
1040
10.0
1040
10.0
1070
     0
1002
{
1002
}
1002
}
  0
ENDSEC
  0
SECTION
  2
OBJECTS
  0
DICTIONARY
  5
C
330
0
100
AcDbDictionary
  3
ACAD_GROUP
350
D
  3
ACAD_LAYOUT
350
1A
  3
ACAD_MLINESTYLE
350
17
  3
ACAD_PLOTSETTINGS
350
19
  3
ACAD_PLOTSTYLENAME
350
E
  3
ACDBVARIABLEDICTIONARY
350
34
  3
ACMDICTIONARY
350
43
  3
AMG
350
2B
  3
AMGSNAPSETTINGS
350
6E
  3
ASE_INDEX_DICTIONARY
350
151A
  3
DWGPROPS
350
4F42
  3
ACDBHEADERROUNDTRIPXREC
350
4F4E
  0
DICTIONARY
  5
74
330
1F
100
AcDbDictionary
280
     1
  3
ACAD_INDEX
360
4F44
  3
ACAD_LAYOUTSELFREF
360
4F71
  0
DICTIONARY
  5
4F76
330
101
100
AcDbDictionary
280
     1
  3
ACAD_LAYOUTSELFREF
360
4F77
  0
DICTIONARY
  5
D
102
{ACAD_REACTORS
330
C
102
}
330
C
100
AcDbDictionary
  0
DICTIONARY
  5
1A
102
{ACAD_REACTORS
330
C
102
}
330
C
100
AcDbDictionary
  0
DICTIONARY
  5
17
102
{ACAD_REACTORS
330
C
102
}
330
C
100
AcDbDictionary
  3
STANDARD
350
18
  0
DICTIONARY
  5
19
102
{ACAD_REACTORS
330
C
102
}
330
C
100
AcDbDictionary
  0
ACDBDICTIONARYWDFLT
  5
E
102
{ACAD_REACTORS
330
C
102
}
330
C
100
AcDbDictionary
281
     1
  3
Normal
350
F
100
AcDbDictionaryWithDefault
340
F
  0
DICTIONARY
  5
34
102
{ACAD_REACTORS
330
C
102
}
330
C
100
AcDbDictionary
  3
INDEXCTL
350
35
  3
SORTENTS
350
B5E
  0
DICTIONARY
  5
43
102
{ACAD_REACTORS
330
C
102
}
330
C
100
AcDbDictionary
  3
ACMSTDDICTIONARY
350
260
  0
DICTIONARY
  5
2B
102
{ACAD_REACTORS
330
C
102
}
330
C
100
AcDbDictionary
  3
ACMGSETTINGS
350
2C
  0
DICTIONARY
  5
6E
102
{ACAD_REACTORS
330
C
102
}
330
C
100
AcDbDictionary
  0
DICTIONARY
  5
151A
102
{ACAD_REACTORS
330
C
102
}
330
C
100
AcDbDictionary
  3
ASEBLOCKHIERARCHYINDEXRECORD
350
151C
1001
DCO15
1040
1471862535.906
  0
XRECORD
  5
4F42
102
{ACAD_REACTORS
330
C
102
}
330
C
100
AcDbXrecord
  1
DWGPROPS COOKIE
  2

  3

  4

  6

  7

  8

  9

300
AmdtFileType=82
301
=
302
=
303
=
304
=
305
=
306
=
307
=
308
=
309
=
 40
0.1961654050925926
 41
2452838.430434386
 42
2453045.627549861
  1

 90
        1
  0
DICTIONARY
  5
4F4E
102
{ACAD_REACTORS
330
C
102
}
330
C
100
AcDbDictionary
  3
TSTACKALIGN
350
4F4F
  3
TSTACKSIZE
350
4F50
  3
HYPERLINKBASE
350
4F51
  3
STYLESHEET
350
4F52
  3
LAYOUTDICT
350
4F53
  3
PLOTSETDICT
350
4F54
  3
PLOTSTYLNAMDICT
350
4F55
  3
LWETCUNION
350
4F56
  3
INSUNITS
350
4F57
  3
CEPSNTYPE
350
4F58
  3
FINGERPRINTGUID
350
4F59
  3
VERSIONGUID
350
4F5A
  3
PSVPSCALE
350
4F5B
  3
DIMSTYLEDATA
350
4F5C
  3
PUCSORTHOREF
350
4F5D
  3
PUCSORTHOVIEW
350
4F5E
  3
PUCSBASE
350
4F5F
  3
PUCSORGTOP
350
4F60
  3
PUCSORGBOTTOM
350
4F61
  3
PUCSORGLEFT
350
4F62
  3
PUCSORGRIGHT
350
4F63
  3
PUCSORGFRONT
350
4F64
  3
PUCSORGBACK
350
4F65
  3
UCSORTHOREF
350
4F66
  3
UCSORTHOVIEW
350
4F67
  3
UCSBASE
350
4F68
  3
UCSORGTOP
350
4F69
  3
UCSORGBOTTOM
350
4F6A
  3
UCSORGLEFT
350
4F6B
  3
UCSORGRIGHT
350
4F6C
  3
UCSORGFRONT
350
4F6D
  3
UCSORGBACK
350
4F6E
  0
DICTIONARY
  5
4F44
102
{ACAD_REACTORS
330
74
102
}
330
74
100
AcDbDictionary
  3
*A1
350
4F45
  0
XRECORD
  5
4F71
102
{ACAD_REACTORS
330
74
102
}
330
74
100
AcDbXrecord
340
1F
  0
XRECORD
  5
4F77
102
{ACAD_REACTORS
330
4F76
102
}
330
4F76
100
AcDbXrecord
340
101
  0
MLINESTYLE
  5
18
102
{ACAD_REACTORS
330
17
102
}
330
17
100
AcDbMlineStyle
  2
STANDARD
 70
     0
  3

 62
   256
 51
90.0
 52
90.0
 71
     2
 49
0.5
 62
   256
  6
BYLAYER
 49
-0.5
 62
   256
  6
BYLAYER
  0
ACDBPLACEHOLDER
  5
F
102
{ACAD_REACTORS
330
E
102
}
330
E
100
AcDbPlaceHolder
280
     0
  0
DICTIONARYVAR
  5
35
102
{ACAD_REACTORS
330
34
102
}
330
34
100
DictionaryVariables
280
     0
  1
1
  0
DICTIONARYVAR
  5
B5E
102
{ACAD_REACTORS
330
34
102
}
330
34
100
DictionaryVariables
280
     0
  1
96
  0
DICTIONARY
  5
260
102
{ACAD_REACTORS
330
43
102
}
330
43
100
AcDbDictionary
  0
DICTIONARY
  5
2C
102
{ACAD_REACTORS
330
2B
102
}
330
2B
100
AcDbDictionary
  3
DWGSETTINGS
350
2D
  0
XRECORD
  5
151C
102
{ACAD_REACTORS
330
151A
102
}
330
151A
100
AcDbXrecord
330
0
330
0
330
0
330
0
330
0
330
0
330
0
330
0
  0
XRECORD
  5
4F4F
102
{ACAD_REACTORS
330
4F4E
102
}
330
4F4E
100
AcDbXrecord
 90
        1
  0
XRECORD
  5
4F50
102
{ACAD_REACTORS
330
4F4E
102
}
330
4F4E
100
AcDbXrecord
 90
       70
  0
XRECORD
  5
4F51
102
{ACAD_REACTORS
330
4F4E
102
}
330
4F4E
100
AcDbXrecord
  1

  0
XRECORD
  5
4F52
102
{ACAD_REACTORS
330
4F4E
102
}
330
4F4E
100
AcDbXrecord
  1
ASAMI.ctb
  0
XRECORD
  5
4F53
102
{ACAD_REACTORS
330
4F4E
102
}
330
4F4E
100
AcDbXrecord
340
1A
  0
XRECORD
  5
4F54
102
{ACAD_REACTORS
330
4F4E
102
}
330
4F4E
100
AcDbXrecord
340
19
  0
XRECORD
  5
4F55
102
{ACAD_REACTORS
330
4F4E
102
}
330
4F4E
100
AcDbXrecord
340
E
  0
XRECORD
  5
4F56
102
{ACAD_REACTORS
330
4F4E
102
}
330
4F4E
100
AcDbXrecord
 90
    10781
  0
XRECORD
  5
4F57
102
{ACAD_REACTORS
330
4F4E
102
}
330
4F4E
100
AcDbXrecord
 90
        4
  0
XRECORD
  5
4F58
102
{ACAD_REACTORS
330
4F4E
102
}
330
4F4E
100
AcDbXrecord
 90
        0
  0
XRECORD
  5
4F59
102
{ACAD_REACTORS
330
4F4E
102
}
330
4F4E
100
AcDbXrecord
  1
{AFB28963-8C59-40AE-9337-C84526B81ACE}
  0
XRECORD
  5
4F5A
102
{ACAD_REACTORS
330
4F4E
102
}
330
4F4E
100
AcDbXrecord
  1
{A75B12E8-33E6-4098-9494-42F21101BE92}
  0
XRECORD
  5
4F5B
102
{ACAD_REACTORS
330
4F4E
102
}
330
4F4E
100
AcDbXrecord
 40
0.0
  0
XRECORD
  5
4F5C
102
{ACAD_REACTORS
330
4F4E
102
}
330
4F4E
100
AcDbXrecord
1000
DSTYLE
1002
{
1070
    79
 70
     2
1070
   341
340
59
1070
   342
340
59
1070
   371
 70
    -1
1070
   372
 70
    -1
1002
}
  0
XRECORD
  5
4F5D
102
{ACAD_REACTORS
330
4F4E
102
}
330
4F4E
100
AcDbXrecord
340
0
  0
XRECORD
  5
4F5E
102
{ACAD_REACTORS
330
4F4E
102
}
330
4F4E
100
AcDbXrecord
 70
     0
  0
XRECORD
  5
4F5F
102
{ACAD_REACTORS
330
4F4E
102
}
330
4F4E
100
AcDbXrecord
340
0
  0
XRECORD
  5
4F60
102
{ACAD_REACTORS
330
4F4E
102
}
330
4F4E
100
AcDbXrecord
 10
0.0
 20
0.0
 30
0.0
  0
XRECORD
  5
4F61
102
{ACAD_REACTORS
330
4F4E
102
}
330
4F4E
100
AcDbXrecord
 10
0.0
 20
0.0
 30
0.0
  0
XRECORD
  5
4F62
102
{ACAD_REACTORS
330
4F4E
102
}
330
4F4E
100
AcDbXrecord
 10
0.0
 20
0.0
 30
0.0
  0
XRECORD
  5
4F63
102
{ACAD_REACTORS
330
4F4E
102
}
330
4F4E
100
AcDbXrecord
 10
0.0
 20
0.0
 30
0.0
  0
XRECORD
  5
4F64
102
{ACAD_REACTORS
330
4F4E
102
}
330
4F4E
100
AcDbXrecord
 10
0.0
 20
0.0
 30
0.0
  0
XRECORD
  5
4F65
102
{ACAD_REACTORS
330
4F4E
102
}
330
4F4E
100
AcDbXrecord
 10
0.0
 20
0.0
 30
0.0
  0
XRECORD
  5
4F66
102
{ACAD_REACTORS
330
4F4E
102
}
330
4F4E
100
AcDbXrecord
340
0
  0
XRECORD
  5
4F67
102
{ACAD_REACTORS
330
4F4E
102
}
330
4F4E
100
AcDbXrecord
 70
     0
  0
XRECORD
  5
4F68
102
{ACAD_REACTORS
330
4F4E
102
}
330
4F4E
100
AcDbXrecord
340
0
  0
XRECORD
  5
4F69
102
{ACAD_REACTORS
330
4F4E
102
}
330
4F4E
100
AcDbXrecord
 10
0.0
 20
0.0
 30
0.0
  0
XRECORD
  5
4F6A
102
{ACAD_REACTORS
330
4F4E
102
}
330
4F4E
100
AcDbXrecord
 10
0.0
 20
0.0
 30
0.0
  0
XRECORD
  5
4F6B
102
{ACAD_REACTORS
330
4F4E
102
}
330
4F4E
100
AcDbXrecord
 10
0.0
 20
0.0
 30
0.0
  0
XRECORD
  5
4F6C
102
{ACAD_REACTORS
330
4F4E
102
}
330
4F4E
100
AcDbXrecord
 10
0.0
 20
0.0
 30
0.0
  0
XRECORD
  5
4F6D
102
{ACAD_REACTORS
330
4F4E
102
}
330
4F4E
100
AcDbXrecord
 10
0.0
 20
0.0
 30
0.0
  0
XRECORD
  5
4F6E
102
{ACAD_REACTORS
330
4F4E
102
}
330
4F4E
100
AcDbXrecord
 10
0.0
 20
0.0
 30
0.0
  0
LAYER_INDEX
  5
4F45
102
{ACAD_REACTORS
330
4F44
102
}
330
4F44
100
AcDbIndex
 40
2453151.772678657
100
AcDbLayerIndex
  8
0
360
4F46
 90
        0
  8
AM_0
360
4F47
 90
       29
  8
AM_11
360
4F48
 90
        4
  8
AM_7
360
4F49
 90
        1
  8
AM_5
360
4F4A
 90
        5
  8
Defpoints
360
4F4B
 90
        0
  8
AM_6
360
4F4C
 90
        1
  0
XRECORD
  5
2D
102
{ACAD_REACTORS
330
2C
102
}
330
2C
100
AcDbXrecord
  1
VERSION
140
15.0
  1
PRODUCT
  2
AutoCAD Mechanical 2000
  0
IDBUFFER
  5
4F46
330
0
100
AcDbIdBuffer
  0
IDBUFFER
  5
4F47
330
0
100
AcDbIdBuffer
330
4C69
330
4C6F
330
4C71
330
4C72
330
4C7F
330
4C80
330
4C83
330
4C84
330
4C85
330
4C86
330
4C87
330
4C88
330
4C8B
330
465E
330
4660
330
4661
330
4663
330
46F6
330
46FB
330
475D
330
4776
330
4778
330
4C61
330
4C63
330
4C64
330
4C65
330
4C66
330
4C67
330
4C68
  0
IDBUFFER
  5
4F48
330
0
100
AcDbIdBuffer
330
4C6A
330
4C6B
330
4C70
330
4C81
  0
IDBUFFER
  5
4F49
330
0
100
AcDbIdBuffer
330
3EE8
  0
IDBUFFER
  5
4F4A
330
0
100
AcDbIdBuffer
330
4047
330
412A
330
42F4
330
4664
330
4E2F
  0
IDBUFFER
  5
4F4B
330
0
100
AcDbIdBuffer
  0
IDBUFFER
  5
4F4C
330
0
100
AcDbIdBuffer
330
1500
  0
ENDSEC
  0
EOF
