  0
SECTION
  2
HEADER
  9
$ACADVER
  1
AC1014
  9
$ACADMAINTVER
 70
     9
  9
$DWGCODEPAGE
  3
ANSI_932
  9
$INSBASE
 10
0.0
 20
0.0
 30
0.0
  9
$EXTMIN
 10
-61.40619512995955
 20
-25.75000100000008
 30
-0.00000001
  9
$EXTMAX
 10
8.841627940564762
 20
3.999999999999923
 30
0.00000001
  9
$LIMMIN
 10
-64.59939751435678
 20
-33.44184856464693
  9
$LIMMAX
 10
11.9043852594433
 20
13.60260968473585
  9
$ORTHOMODE
 70
     0
  9
$REGENMODE
 70
     1
  9
$FILLMODE
 70
     1
  9
$QTEXTMODE
 70
     0
  9
$MIRRTEXT
 70
     0
  9
$DRAGMODE
 70
     2
  9
$LTSCALE
 40
1.0
  9
$OSMODE
 70
    55
  9
$ATTMODE
 70
     1
  9
$TEXTSIZE
 40
2.5
  9
$TRACEWID
 40
1.0
  9
$TEXTSTYLE
  7
STANDARD
  9
$CLAYER
  8
AM_0
  9
$CELTYPE
  6
BYLAYER
  9
$CECOLOR
 62
   256
  9
$CELTSCALE
 40
1.0
  9
$DELOBJ
 70
     1
  9
$DISPSILH
 70
     0
  9
$DIMSCALE
 40
0.5
  9
$DIMASZ
 40
2.5
  9
$DIMEXO
 40
1.0
  9
$DIMDLI
 40
12.0
  9
$DIMRND
 40
0.0
  9
$DIMDLE
 40
0.0
  9
$DIMEXE
 40
1.0
  9
$DIMTP
 40
0.1
  9
$DIMTM
 40
0.1
  9
$DIMTXT
 40
3.2
  9
$DIMCEN
 40
0.0
  9
$DIMTSZ
 40
0.0
  9
$DIMTOL
 70
     0
  9
$DIMLIM
 70
     0
  9
$DIMTIH
 70
     0
  9
$DIMTOH
 70
     0
  9
$DIMSE1
 70
     0
  9
$DIMSE2
 70
     0
  9
$DIMTAD
 70
     3
  9
$DIMZIN
 70
     8
  9
$DIMBLK
  1
OPEN30
  9
$DIMASO
 70
     1
  9
$DIMSHO
 70
     1
  9
$DIMPOST
  1

  9
$DIMAPOST
  1
"
  9
$DIMALT
 70
     0
  9
$DIMALTD
 70
     2
  9
$DIMALTF
 40
0.0393701
  9
$DIMLFAC
 40
1.0
  9
$DIMTOFL
 70
     1
  9
$DIMTVP
 40
0.0
  9
$DIMTIX
 70
     0
  9
$DIMSOXD
 70
     0
  9
$DIMSAH
 70
     0
  9
$DIMBLK1
  1

  9
$DIMBLK2
  1

  9
$DIMSTYLE
  2
AM_JIS
  9
$DIMCLRD
 70
   256
  9
$DIMCLRE
 70
   256
  9
$DIMCLRT
 70
     2
  9
$DIMTFAC
 40
0.71
  9
$DIMGAP
 40
1.5
  9
$DIMJUST
 70
     0
  9
$DIMSD1
 70
     0
  9
$DIMSD2
 70
     0
  9
$DIMTOLJ
 70
     0
  9
$DIMTZIN
 70
     0
  9
$DIMALTZ
 70
     0
  9
$DIMALTTZ
 70
     0
  9
$DIMFIT
 70
     3
  9
$DIMUPT
 70
     0
  9
$DIMUNIT
 70
     2
  9
$DIMDEC
 70
     3
  9
$DIMTDEC
 70
     3
  9
$DIMALTU
 70
     2
  9
$DIMALTTD
 70
     2
  9
$DIMTXSTY
  7
ASAMI
  9
$DIMAUNIT
 70
     0
  9
$LUNITS
 70
     2
  9
$LUPREC
 70
     2
  9
$SKETCHINC
 40
1.0
  9
$FILLETRAD
 40
2.5
  9
$AUNITS
 70
     0
  9
$AUPREC
 70
     0
  9
$MENU
  1
.
  9
$ELEVATION
 40
0.0
  9
$PELEVATION
 40
0.0
  9
$THICKNESS
 40
0.0
  9
$LIMCHECK
 70
     0
  9
$BLIPMODE
 70
     0
  9
$CHAMFERA
 40
0.3
  9
$CHAMFERB
 40
0.3
  9
$CHAMFERC
 40
20.0
  9
$CHAMFERD
 40
0.0
  9
$SKPOLY
 70
     0
  9
$TDCREATE
 40
2452838.430434386
  9
$TDUPDATE
 40
2453151.775031991
  9
$TDINDWG
 40
0.1759535185
  9
$TDUSRTIMER
 40
0.1759535185
  9
$USRTIMER
 70
     1
  9
$ANGBASE
 50
0.0
  9
$ANGDIR
 70
     0
  9
$PDMODE
 70
     0
  9
$PDSIZE
 40
0.0
  9
$PLINEWID
 40
0.0
  9
$COORDS
 70
     1
  9
$SPLFRAME
 70
     0
  9
$SPLINETYPE
 70
     6
  9
$SPLINESEGS
 70
     8
  9
$ATTDIA
 70
     1
  9
$ATTREQ
 70
     1
  9
$HANDLING
 70
 12289
  9
$HANDSEED
  5
4E9F
  9
$SURFTAB1
 70
     6
  9
$SURFTAB2
 70
     6
  9
$SURFTYPE
 70
     6
  9
$SURFU
 70
     6
  9
$SURFV
 70
     6
  9
$UCSNAME
  2

  9
$UCSORG
 10
0.0
 20
0.0
 30
0.0
  9
$UCSXDIR
 10
1.0
 20
0.0
 30
0.0
  9
$UCSYDIR
 10
0.0
 20
1.0
 30
0.0
  9
$PUCSNAME
  2

  9
$PUCSORG
 10
0.0
 20
0.0
 30
0.0
  9
$PUCSXDIR
 10
1.0
 20
0.0
 30
0.0
  9
$PUCSYDIR
 10
0.0
 20
1.0
 30
0.0
  9
$USERI1
 70
     0
  9
$USERI2
 70
     0
  9
$USERI3
 70
     0
  9
$USERI4
 70
     0
  9
$USERI5
 70
     0
  9
$USERR1
 40
0.0
  9
$USERR2
 40
0.0
  9
$USERR3
 40
0.0
  9
$USERR4
 40
0.0
  9
$USERR5
 40
0.0
  9
$WORLDVIEW
 70
     1
  9
$SHADEDGE
 70
     3
  9
$SHADEDIF
 70
    70
  9
$TILEMODE
 70
     1
  9
$MAXACTVP
 70
    64
  9
$PINSBASE
 10
0.0
 20
0.0
 30
0.0
  9
$PLIMCHECK
 70
     0
  9
$PEXTMIN
 10
1.000000000000000E+20
 20
1.000000000000000E+20
 30
1.000000000000000E+20
  9
$PEXTMAX
 10
-1.000000000000000E+20
 20
-1.000000000000000E+20
 30
-1.000000000000000E+20
  9
$PLIMMIN
 10
0.0
 20
0.0
  9
$PLIMMAX
 10
841.0
 20
594.0
  9
$UNITMODE
 70
     0
  9
$VISRETAIN
 70
     1
  9
$PLINEGEN
 70
     0
  9
$PSLTSCALE
 70
     0
  9
$TREEDEPTH
 70
  3020
  9
$PICKSTYLE
 70
     0
  9
$CMLSTYLE
  2
STANDARD
  9
$CMLJUST
 70
     0
  9
$CMLSCALE
 40
20.0
  9
$PROXYGRAPHICS
 70
     1
  9
$MEASUREMENT
 70
     1
  0
ENDSEC
  0
SECTION
  2
CLASSES
  0
CLASS
  1
ACDBDICTIONARYWDFLT
  2
AcDbDictionaryWithDefault
  3
AutoCAD 2000
 90
        0
280
     0
281
     0
  0
CLASS
  1
ACDBPLACEHOLDER
  2
AcDbPlaceHolder
  3
AutoCAD 2000
 90
        0
280
     0
281
     0
  0
CLASS
  1
LAYOUT
  2
AcDbLayout
  3
AutoCAD 2000
 90
        0
280
     0
281
     0
  0
CLASS
  1
AMGSETTINGSOBJ
  2
AmgSettingsObj
  3
"AcadM|Product Description: AutoCAD Mechanical 2000|Company: Autodesk"
 90
        0
280
     0
281
     0
  0
CLASS
  1
ACME_DOCUMENT
  2
AcMeDbDoc
  3
AcMeServices
 90
        0
280
     0
281
     0
  0
CLASS
  1
ACMESCOPE
  2
AcMeScope
  3
AcMeServices
 90
        0
280
     0
281
     0
  0
CLASS
  1
ACMECOMMANDHISTORY
  2
AcMeCommandHistory
  3
AcMeServices
 90
        0
280
     0
281
     0
  0
CLASS
  1
DICTIONARYVAR
  2
AcDbDictionaryVar
  3
AutoCAD 2000
 90
        0
280
     0
281
     0
  0
CLASS
  1
ACIMSYSVARMAN
  2
AcImSysVarManager
  3
AcMeServices
 90
        0
280
     0
281
     0
  0
CLASS
  1
ACIMREALSYSVAR
  2
AcImRealSysVar
  3
AcMeServices
 90
        0
280
     0
281
     0
  0
CLASS
  1
ACIMINTSYSVAR
  2
AcImIntSysVar
  3
AcMeServices
 90
        0
280
     0
281
     0
  0
CLASS
  1
ACMEDRAWINGMAN
  2
AcMeDrawingMan
  3
AcMeServices
 90
        0
280
     0
281
     0
  0
CLASS
  1
ACMEVIEW
  2
AcMeView
  3
AcMeServices
 90
        0
280
     0
281
     0
  0
CLASS
  1
ACDBENTITYCACHE
  2
AcMeEntityCache
  3
AcMeServices
 90
        0
280
     0
281
     0
  0
CLASS
  1
GSMANAGER
  2
AcMeGSManager
  3
AcMeServices
 90
        0
280
     0
281
     0
  0
CLASS
  1
AmdtInternalReactor
  2
AmdtInternalReactor
  3
AcMeServices
 90
        0
280
     0
281
     0
  0
CLASS
  1
ACMESTATEMGR
  2
AcMeStateMgr
  3
AcMeServices
 90
        0
280
     0
281
     0
  0
CLASS
  1
ACME_DATABASE
  2
AcMeDbDatabase
  3
AcMeServices
 90
        0
280
     0
281
     0
  0
CLASS
  1
ACRFINSADJUSTERMGR
  2
AcRfInsAdjusterMgr
  3
AcMeServices
 90
        0
280
     0
281
     0
  0
CLASS
  1
ACMDATADICTIONARY
  2
AcmDataDictionary
  3
"AcmSymBB|Product Description: AutoCAD Mechanical 2000|Company: Autodesk"
 90
        0
280
     0
281
     0
  0
CLASS
  1
ACMDATAENTRYBLOCK
  2
AcmDataEntryBlock
  3
"AcmSymBB|Product Description: AutoCAD Mechanical 2000|Company: Autodesk"
 90
        0
280
     0
281
     0
  0
CLASS
  1
AMGOBJPROPCFG
  2
AmgObjPropCfg
  3
"AmgLay|Product Description: AutoCAD Mechanical 2000|Company: Autodesk"
 90
        1
280
     0
281
     0
  0
CLASS
  1
ACAMGFILTERDAT
  2
AcAmgFilterDat
  3
"AcadM|Product Description: AutoCAD Mechanical 2000|Company: Autodesk"
 90
        0
280
     0
281
     0
  0
CLASS
  1
LAYER_INDEX
  2
AcDbLayerIndex
  3
AutoCAD 2000
 90
        0
280
     0
281
     0
  0
CLASS
  1
IDBUFFER
  2
AcDbIdBuffer
  3
AutoCAD 2000
 90
        0
280
     0
281
     0
  0
CLASS
  1
ACIMSTRSYSVAR
  2
AcImStrSysVar
  3
AcMeServices
 90
        0
280
     0
281
     0
  0
CLASS
  1
ACMSTANDARDJIS
  2
AcmStandardJIS
  3
"AcmSymBB|Product Description: AutoCAD Mechanical 2000|Company: Autodesk"
 90
        0
280
     0
281
     0
  0
CLASS
  1
ACMSURFSTANDARDJIS
  2
AcmSurfTextStdJIS
  3
"AcmSymBB|Product Description: AutoCAD Mechanical 2000|Company: Autodesk"
 90
        0
280
     0
281
     0
  0
CLASS
  1
ACMFCFSTANDARDJIS
  2
AcmFCFStdJIS
  3
"AcmSymBB|Product Description: AutoCAD Mechanical 2000|Company: Autodesk"
 90
        0
280
     0
281
     0
  0
CLASS
  1
ACMWELDSTANDARDJIS
  2
AcmWeldingStdJIS
  3
"AcmSymBB|Product Description: AutoCAD Mechanical 2000|Company: Autodesk"
 90
        0
280
     0
281
     0
  0
CLASS
  1
ACMIDSTANDARDJIS
  2
AcmIdStdJIS
  3
"AcmSymBB|Product Description: AutoCAD Mechanical 2000|Company: Autodesk"
 90
        0
280
     0
281
     0
  0
CLASS
  1
ACMDATUMSTANDARDJIS
  2
AcmDatumStdJIS
  3
"AcmSymBB|Product Description: AutoCAD Mechanical 2000|Company: Autodesk"
 90
        0
280
     0
281
     0
  0
CLASS
  1
ACMBOMSTANDARDJIS
  2
AcmBOMStdJIS
  3
"AcmSymBB|Product Description: AutoCAD Mechanical 2000|Company: Autodesk"
 90
        0
280
     0
281
     0
  0
CLASS
  1
ACMSTANDARDANSI
  2
AcmStandardANSI
  3
"AcmSymBB|Product Description: AutoCAD Mechanical 2000|Company: Autodesk"
 90
        0
280
     0
281
     0
  0
CLASS
  1
ACMSURFSTANDARDANSI
  2
AcmSurfTextStdANSI
  3
"AcmSymBB|Product Description: AutoCAD Mechanical 2000|Company: Autodesk"
 90
        0
280
     0
281
     0
  0
CLASS
  1
ACMFCFSTANDARDANSI
  2
AcmFCFStdANSI
  3
"AcmSymBB|Product Description: AutoCAD Mechanical 2000|Company: Autodesk"
 90
        0
280
     0
281
     0
  0
CLASS
  1
ACMWELDSTANDARDANSI
  2
AcmWeldingStdANSI
  3
"AcmSymBB|Product Description: AutoCAD Mechanical 2000|Company: Autodesk"
 90
        0
280
     0
281
     0
  0
CLASS
  1
ACMIDSTANDARDANSI
  2
AcmIdStdANSI
  3
"AcmSymBB|Product Description: AutoCAD Mechanical 2000|Company: Autodesk"
 90
        0
280
     0
281
     0
  0
CLASS
  1
ACMDATUMSTANDARDANSI
  2
AcmDatumStdANSI
  3
"AcmSymBB|Product Description: AutoCAD Mechanical 2000|Company: Autodesk"
 90
        0
280
     0
281
     0
  0
CLASS
  1
ACMBOMSTANDARDANSI
  2
AcmBOMStdANSI
  3
"AcmSymBB|Product Description: AutoCAD Mechanical 2000|Company: Autodesk"
 90
        0
280
     0
281
     0
  0
CLASS
  1
ACMSTANDARDBSI
  2
AcmStandardBSI
  3
"AcmSymBB|Product Description: AutoCAD Mechanical 2000|Company: Autodesk"
 90
        0
280
     0
281
     0
  0
CLASS
  1
ACMSURFSTANDARDBSI
  2
AcmSurfTextStdBSI
  3
"AcmSymBB|Product Description: AutoCAD Mechanical 2000|Company: Autodesk"
 90
        0
280
     0
281
     0
  0
CLASS
  1
ACMFCFSTANDARDBSI
  2
AcmFCFStdBSI
  3
"AcmSymBB|Product Description: AutoCAD Mechanical 2000|Company: Autodesk"
 90
        0
280
     0
281
     0
  0
CLASS
  1
ACMWELDSTANDARDBSI
  2
AcmWeldingStdBSI
  3
"AcmSymBB|Product Description: AutoCAD Mechanical 2000|Company: Autodesk"
 90
        0
280
     0
281
     0
  0
CLASS
  1
ACMIDSTANDARDBSI
  2
AcmIdStdBSI
  3
"AcmSymBB|Product Description: AutoCAD Mechanical 2000|Company: Autodesk"
 90
        0
280
     0
281
     0
  0
CLASS
  1
ACMDATUMSTANDARDBSI
  2
AcmDatumStdBSI
  3
"AcmSymBB|Product Description: AutoCAD Mechanical 2000|Company: Autodesk"
 90
        0
280
     0
281
     0
  0
CLASS
  1
ACMBOMSTANDARDBSI
  2
AcmBOMStdBSI
  3
"AcmSymBB|Product Description: AutoCAD Mechanical 2000|Company: Autodesk"
 90
        0
280
     0
281
     0
  0
CLASS
  1
LONG_TRANSACTION
  2
AcDbLongTransaction
  3
AutoCAD 2000
 90
        0
280
     0
281
     0
  0
CLASS
  1
LWPOLYLINE
  2
AcDbPolyline
  3
AutoCAD 2000
 90
        0
280
     0
281
     1
  0
CLASS
  1
HATCH
  2
AcDbHatch
  3
AutoCAD 2000
 90
        0
280
     0
281
     1
  0
CLASS
  1
XRECORD
  2
AcDbXrecord
  3
AutoCAD 2000
 90
        0
280
     0
281
     0
  0
ENDSEC
  0
SECTION
  2
TABLES
  0
TABLE
  2
VPORT
  5
8
330
0
100
AcDbSymbolTable
 70
     3
  0
VPORT
  5
4E6E
330
8
100
AcDbSymbolTableRecord
100
AcDbViewportTableRecord
  2
*ACTIVE
 70
     0
 10
0.0
 20
0.0
 11
1.0
 21
1.0
 12
-12.20543938648934
 22
-1.273127919540314
 13
0.0
 23
0.0
 14
2.5
 24
2.5
 15
10.0
 25
10.0
 16
0.0
 26
0.0
 36
1.0
 17
0.0
 27
0.0
 37
0.0
 40
85.53199685929696
 41
1.56570841889117
 42
50.0
 43
0.0
 44
0.0
 50
0.0
 51
0.0
 71
     0
 72
   100
 73
     1
 74
     3
 75
     0
 76
     0
 77
     0
 78
     0
  0
ENDTAB
  0
TABLE
  2
LTYPE
  5
5
330
0
100
AcDbSymbolTable
 70
    10
  0
LTYPE
  5
14
330
5
100
AcDbSymbolTableRecord
100
AcDbLinetypeTableRecord
  2
BYBLOCK
 70
     0
  3

 72
    65
 73
     0
 40
0.0
  0
LTYPE
  5
15
330
5
100
AcDbSymbolTableRecord
100
AcDbLinetypeTableRecord
  2
BYLAYER
 70
     0
  3

 72
    65
 73
     0
 40
0.0
  0
LTYPE
  5
16
330
5
100
AcDbSymbolTableRecord
100
AcDbLinetypeTableRecord
  2
CONTINUOUS
 70
     0
  3
Solid line
 72
    65
 73
     0
 40
0.0
  0
LTYPE
  5
4B
330
5
100
AcDbSymbolTableRecord
100
AcDbLinetypeTableRecord
  2
AM_ISO02W050
 70
     0
  3
__ __ __ __ __ __ __ __ __ __ __ __ __ __ __
 72
    65
 73
     2
 40
7.5
 49
6.0
 74
     0
 49
-1.5
 74
     0
  0
LTYPE
  5
4C
330
5
100
AcDbSymbolTableRecord
100
AcDbLinetypeTableRecord
  2
AM_ISO08W050
 70
     0
  3
____ . ____ . ____ . ____ . ____ . ____ . ____
 72
    65
 73
     4
 40
18.0
 49
12.0
 74
     0
 49
-1.5
 74
     0
 49
3.0
 74
     0
 49
-1.5
 74
     0
  0
LTYPE
  5
4D
330
5
100
AcDbSymbolTableRecord
100
AcDbLinetypeTableRecord
  2
AM_ISO09W050
 70
     0
  3
_____ . . _____ . . _____ . . ____ .. ____
 72
    65
 73
     6
 40
22.5
 49
12.0
 74
     0
 49
-1.5
 74
     0
 49
3.0
 74
     0
 49
-1.5
 74
     0
 49
3.0
 74
     0
 49
-1.5
 74
     0
  0
LTYPE
  5
4E
330
5
100
AcDbSymbolTableRecord
100
AcDbLinetypeTableRecord
  2
AMCONSTR
 70
     0
  3
_______________________
 72
    65
 73
     2
 40
9999.0
 49
9999.0
 74
     0
 49
0.0
 74
     0
  0
LTYPE
  5
4F
330
5
100
AcDbSymbolTableRecord
100
AcDbLinetypeTableRecord
  2
AM_ISO02W050X2
 70
     0
  3
 _ _ _ _ _ _ _ _ _ _ _ _
 72
    65
 73
     2
 40
3.75
 49
3.0
 74
     0
 49
-0.75
 74
     0
  0
LTYPE
  5
50
330
5
100
AcDbSymbolTableRecord
100
AcDbLinetypeTableRecord
  2
AM_ISO08W050X2
 70
     0
  3
__ . __ . __ . __ . __ . __
 72
    65
 73
     4
 40
9.0
 49
6.0
 74
     0
 49
-0.75
 74
     0
 49
1.5
 74
     0
 49
-0.75
 74
     0
  0
LTYPE
  5
53
330
5
100
AcDbSymbolTableRecord
100
AcDbLinetypeTableRecord
  2
AMZIGZAG
 70
     0
  3
/\/-/\/-/\/-/\/-/\/-/\/
 72
    65
 73
     2
 40
11.00009999999999
 49
0.0001
 74
     4
 75
   135
340
52
 46
0.04
 50
0.0
 44
0.0
 45
0.0
 49
-11.0
 74
     0
  0
LTYPE
  5
166
330
5
100
AcDbSymbolTableRecord
100
AcDbLinetypeTableRecord
  2
ACJISTGL
 70
     0
  3
_ _ _ _ _
 72
    65
 73
     2
 40
3.0
 49
2.0
 74
     0
 49
-1.0
 74
     0
  0
LTYPE
  5
26A
330
5
100
AcDbSymbolTableRecord
100
AcDbLinetypeTableRecord
  2
ACJISTGB
 70
     0
  3
__ . . __ . .
 72
    65
 73
     6
 40
9.0
 49
4.0
 74
     0
 49
-1.0
 74
     0
 49
1.0
 74
     0
 49
-1.0
 74
     0
 49
1.0
 74
     0
 49
-1.0
 74
     0
  0
ENDTAB
  0
TABLE
  2
LAYER
  5
2
330
0
100
AcDbSymbolTable
 70
     7
  0
LAYER
  5
10
330
2
100
AcDbSymbolTableRecord
100
AcDbLayerTableRecord
  2
0
 70
     0
 62
     7
  6
CONTINUOUS
  0
LAYER
  5
3F9
330
2
100
AcDbSymbolTableRecord
100
AcDbLayerTableRecord
  2
AM_0
 70
     0
 62
     7
  6
CONTINUOUS
  0
LAYER
  5
BDD
330
2
100
AcDbSymbolTableRecord
100
AcDbLayerTableRecord
  2
AM_11
 70
     0
 62
     3
  6
AM_ISO09W050
  0
LAYER
  5
BDE
330
2
100
AcDbSymbolTableRecord
100
AcDbLayerTableRecord
  2
AM_7
 70
     0
 62
     4
  6
AM_ISO08W050
  0
LAYER
  5
BDF
330
2
100
AcDbSymbolTableRecord
100
AcDbLayerTableRecord
  2
AM_5
 70
     0
 62
     3
  6
CONTINUOUS
  0
LAYER
  5
BE0
330
2
100
AcDbSymbolTableRecord
100
AcDbLayerTableRecord
  2
DEFPOINTS
 70
     0
 62
     7
  6
CONTINUOUS
  0
LAYER
  5
14FF
330
2
100
AcDbSymbolTableRecord
100
AcDbLayerTableRecord
  2
AM_6
 70
     0
 62
     2
  6
CONTINUOUS
  0
ENDTAB
  0
TABLE
  2
STYLE
  5
3
330
0
100
AcDbSymbolTable
 70
     5
  0
STYLE
  5
11
330
3
100
AcDbSymbolTableRecord
100
AcDbTextStyleTableRecord
  2
STANDARD
 70
     0
 40
0.0
 41
1.0
 50
0.0
 71
     0
 42
2.5
  3
simplex.shx
  4
EXTFONT.SHX
  0
STYLE
  5
52
330
3
100
AcDbSymbolTableRecord
100
AcDbTextStyleTableRecord
  2

 70
     1
 40
0.0
 41
1.0
 50
0.0
 71
     0
 42
2.5
  3
ltypeshp.shx
  4

  0
STYLE
  5
6B
330
3
100
AcDbSymbolTableRecord
100
AcDbTextStyleTableRecord
  2
ASAMI
 70
     0
 40
0.0
 41
1.0
 50
0.0
 71
     0
 42
2.5
  3
simplex.shx
  4
EXTFONT.SHX
  0
STYLE
  5
262
330
3
100
AcDbSymbolTableRecord
100
AcDbTextStyleTableRecord
  2
ACJISTS
 70
     0
 40
1.0
 41
1.0
 50
0.0
 71
     0
 42
2.5
  3
simplex.shx
  4
bigfont.shx
  0
STYLE
  5
269
330
3
100
AcDbSymbolTableRecord
100
AcDbTextStyleTableRecord
  2
ACJISGDT
 70
     0
 40
0.0
 41
1.0
 50
0.0
 71
     0
 42
2.5
  3
amgdtans.shx
  4

  0
ENDTAB
  0
TABLE
  2
VIEW
  5
6
330
0
100
AcDbSymbolTable
 70
     0
  0
ENDTAB
  0
TABLE
  2
UCS
  5
7
330
0
100
AcDbSymbolTable
 70
     0
  0
ENDTAB
  0
TABLE
  2
APPID
  5
9
330
0
100
AcDbSymbolTable
 70
    14
  0
APPID
  5
12
330
9
100
AcDbSymbolTableRecord
100
AcDbRegAppTableRecord
  2
ACAD
 70
     0
  0
APPID
  5
30
330
9
100
AcDbSymbolTableRecord
100
AcDbRegAppTableRecord
  2
MCAD_NO_VIS
 70
     0
  0
APPID
  5
31
330
9
100
AcDbSymbolTableRecord
100
AcDbRegAppTableRecord
  2
ACAD_TEMP_GRAPHIC
 70
     0
  0
APPID
  5
2C2
330
9
100
AcDbSymbolTableRecord
100
AcDbRegAppTableRecord
  2
GENIUS_GENDTOL_13
 70
     0
  0
APPID
  5
339
330
9
100
AcDbSymbolTableRecord
100
AcDbRegAppTableRecord
  2
GENIUS_GENODEF_13
 70
     0
  0
APPID
  5
33A
330
9
100
AcDbSymbolTableRecord
100
AcDbRegAppTableRecord
  2
GENIUS_GENOBJ-N-RSBK_13
 70
     0
  0
APPID
  5
33B
330
9
100
AcDbSymbolTableRecord
100
AcDbRegAppTableRecord
  2
GENIUS_GENOBJ-N-LIB_13
 70
     0
  0
APPID
  5
33C
330
9
100
AcDbSymbolTableRecord
100
AcDbRegAppTableRecord
  2
GENIUS_GENSCALE_13
 70
     0
  0
APPID
  5
378
330
9
100
AcDbSymbolTableRecord
100
AcDbRegAppTableRecord
  2
GENIUS_GENDIMSH_14
 70
     0
  0
APPID
  5
BE1
330
9
100
AcDbSymbolTableRecord
100
AcDbRegAppTableRecord
  2
GENIUS_GENFIL_13
 70
     0
  0
APPID
  5
BE2
330
9
100
AcDbSymbolTableRecord
100
AcDbRegAppTableRecord
  2
GENIUS_GENOBJ-N-CHA_13
 70
     0
  0
APPID
  5
151B
330
9
100
AcDbSymbolTableRecord
100
AcDbRegAppTableRecord
  2
DCO15
 70
     0
  0
APPID
  5
1860
330
9
100
AcDbSymbolTableRecord
100
AcDbRegAppTableRecord
  2
GENIUS_GENOBJ-N-CEN_13
 70
     0
  0
APPID
  5
359C
330
9
100
AcDbSymbolTableRecord
100
AcDbRegAppTableRecord
  2
GENIUS_GENOBJ-N-FIL_13
 70
     0
  0
ENDTAB
  0
TABLE
  2
DIMSTYLE
  5
A
330
0
100
AcDbSymbolTable
 70
     8
  0
DIMSTYLE
105
58
102
{ACAD_REACTORS
330
4047
330
412A
330
42F4
330
4664
102
}
330
A
100
AcDbSymbolTableRecord
100
AcDbDimStyleTableRecord
  2
AM_JIS
 70
     0
  3

  4
"
  5
OPEN30
  6

  7

 40
0.5
 41
2.5
 42
1.0
 43
12.0
 44
1.0
 45
0.0
 46
0.0
 47
0.1
 48
0.1
140
3.2
141
0.0
142
0.0
143
0.0393701
144
1.0
145
0.0
146
0.71
147
1.5
 71
     0
 72
     0
 73
     0
 74
     0
 75
     0
 76
     0
 77
     3
 78
     8
170
     0
171
     2
172
     1
173
     0
174
     0
175
     0
176
   256
177
   256
178
     2
270
     2
271
     3
272
     3
273
     2
274
     2
340
6B
275
     0
280
     0
281
     0
282
     0
283
     0
284
     0
285
     0
286
     0
287
     3
288
     0
  0
DIMSTYLE
105
5F
330
A
100
AcDbSymbolTableRecord
100
AcDbDimStyleTableRecord
  2
AM_JIS$3
 70
     0
  3

  4
"
  5
OPEN30
  6

  7

 40
0.5
 41
2.5
 42
1.0
 43
10.0
 44
1.0
 45
0.0
 46
0.0
 47
0.1
 48
0.1
140
3.2
141
0.0
142
0.0
143
0.0393701
144
1.0
145
0.0
146
0.71
147
1.5
 71
     0
 72
     0
 73
     0
 74
     1
 75
     0
 76
     0
 77
     3
 78
     8
170
     0
171
     2
172
     0
173
     0
174
     0
175
     0
176
   256
177
   256
178
     2
270
     2
271
     2
272
     3
273
     2
274
     2
340
6B
275
     0
280
     0
281
     0
282
     0
283
     0
284
     0
285
     0
286
     0
287
     0
288
     1
  0
DIMSTYLE
105
60
102
{ACAD_REACTORS
330
4CD4
102
}
330
A
100
AcDbSymbolTableRecord
100
AcDbDimStyleTableRecord
  2
AM_JIS$4
 70
     0
  3

  4
"
  5
OPEN30
  6

  7

 40
0.5
 41
2.5
 42
1.0
 43
10.0
 44
1.0
 45
0.0
 46
0.0
 47
0.1
 48
0.1
140
3.2
141
0.0
142
0.0
143
0.0393701
144
1.0
145
0.0
146
0.71
147
1.5
 71
     0
 72
     0
 73
     0
 74
     1
 75
     0
 76
     0
 77
     3
 78
     8
170
     0
171
     2
172
     0
173
     0
174
     0
175
     0
176
   256
177
   256
178
     2
270
     2
271
     2
272
     3
273
     2
274
     2
340
6B
275
     0
280
     0
281
     0
282
     0
283
     0
284
     0
285
     0
286
     0
287
     0
288
     1
  0
DIMSTYLE
105
61
330
A
100
AcDbSymbolTableRecord
100
AcDbDimStyleTableRecord
  2
AM_JIS$6
 70
     0
  3

  4
"
  5
OPEN30
  6

  7

 40
0.5
 41
2.5
 42
1.0
 43
10.0
 44
1.0
 45
0.0
 46
0.0
 47
0.1
 48
0.1
140
3.2
141
0.0
142
0.0
143
0.0393701
144
1.0
145
0.0
146
0.71
147
1.5
 71
     0
 72
     0
 73
     0
 74
     0
 75
     0
 76
     0
 77
     0
 78
     8
170
     0
171
     2
172
     1
173
     0
174
     0
175
     0
176
   256
177
   256
178
     2
270
     2
271
     2
272
     2
273
     2
274
     2
340
6B
275
     0
280
     0
281
     0
282
     0
283
     0
284
     0
285
     0
286
     0
287
     3
288
     0
  0
DIMSTYLE
105
62
330
A
100
AcDbSymbolTableRecord
100
AcDbDimStyleTableRecord
  2
AM_JIS$7
 70
     0
  3

  4
"
  5
OPEN30
  6

  7

 40
0.5
 41
2.5
 42
1.0
 43
10.0
 44
1.0
 45
0.0
 46
0.0
 47
0.1
 48
0.1
140
3.2
141
0.0
142
0.0
143
0.0393701
144
1.0
145
0.0
146
0.71
147
1.5
 71
     0
 72
     0
 73
     0
 74
     0
 75
     0
 76
     0
 77
     3
 78
     8
170
     0
171
     2
172
     1
173
     0
174
     0
175
     0
176
   256
177
   256
178
     2
270
     2
271
     2
272
     3
273
     2
274
     2
340
6B
275
     0
280
     0
281
     0
282
     0
283
     0
284
     0
285
     0
286
     0
287
     3
288
     0
  0
DIMSTYLE
105
63
330
A
100
AcDbSymbolTableRecord
100
AcDbDimStyleTableRecord
  2
AM_JIS$SF
 70
     0
  3

  4
"
  5
OPEN30
  6

  7

 40
0.5
 41
2.5
 42
1.0
 43
10.0
 44
1.0
 45
0.0
 46
0.0
 47
0.1
 48
0.1
140
3.2
141
0.0
142
0.0
143
0.0393701
144
1.0
145
0.0
146
0.71
147
1.5
 71
     0
 72
     0
 73
     0
 74
     0
 75
     1
 76
     1
 77
     3
 78
     8
170
     0
171
     2
172
     1
173
     0
174
     0
175
     0
176
   256
177
   256
178
     2
270
     2
271
     2
272
     2
273
     2
274
     2
340
6B
275
     0
280
     0
281
     0
282
     0
283
     0
284
     0
285
     0
286
     0
287
     3
288
     0
  0
DIMSTYLE
105
68
330
A
100
AcDbSymbolTableRecord
100
AcDbDimStyleTableRecord
  2
AM_JIS$SH
 70
     0
  3

  4
"
  5

  6
GENAXEH
  7
OPEN30
 40
0.5
 41
2.5
 42
1.0
 43
10.0
 44
1.0
 45
0.0
 46
0.0
 47
0.1
 48
0.1
140
3.2
141
0.0
142
0.0
143
0.0393701
144
2.0
145
0.0
146
0.71
147
1.5
 71
     0
 72
     0
 73
     0
 74
     0
 75
     1
 76
     1
 77
     3
 78
     8
170
     0
171
     2
172
     1
173
     1
174
     0
175
     0
176
   256
177
   256
178
     2
270
     2
271
     2
272
     2
273
     2
274
     2
340
6B
275
     0
280
     0
281
     0
282
     0
283
     0
284
     0
285
     0
286
     0
287
     3
288
     0
  0
DIMSTYLE
105
B34
330
A
100
AcDbSymbolTableRecord
100
AcDbDimStyleTableRecord
  2
AM_JIS$2
 70
     0
  3

  4
"
  5
OPEN30
  6

  7

 40
0.5
 41
2.5
 42
1.0
 43
12.0
 44
1.0
 45
0.0
 46
0.0
 47
0.1
 48
0.1
140
3.2
141
0.0
142
0.0
143
0.0393701
144
1.0
145
0.0
146
0.71
147
1.5
 71
     0
 72
     0
 73
     0
 74
     0
 75
     0
 76
     0
 77
     3
 78
     8
170
     0
171
     2
172
     1
173
     0
174
     0
175
     0
176
   256
177
   256
178
     2
270
     2
271
     3
272
     3
273
     2
274
     2
340
6B
275
     0
280
     0
281
     0
282
     0
283
     0
284
     0
285
     0
286
     0
287
     3
288
     0
  0
ENDTAB
  0
TABLE
  2
BLOCK_RECORD
  5
1
330
0
100
AcDbSymbolTable
 70
    10
  0
BLOCK_RECORD
  5
1F
102
{ACAD_XDICTIONARY
360
74
102
}
330
1
100
AcDbSymbolTableRecord
100
AcDbBlockTableRecord
  2
*MODEL_SPACE
  0
BLOCK_RECORD
  5
101
102
{ACAD_XDICTIONARY
360
4E97
102
}
330
1
100
AcDbSymbolTableRecord
100
AcDbBlockTableRecord
  2
*PAPER_SPACE
  0
BLOCK_RECORD
  5
59
330
1
100
AcDbSymbolTableRecord
100
AcDbBlockTableRecord
  2
_OPEN30
  0
BLOCK_RECORD
  5
64
330
1
100
AcDbSymbolTableRecord
100
AcDbBlockTableRecord
  2
GENAXEH
  0
BLOCK_RECORD
  5
4048
330
1
100
AcDbSymbolTableRecord
100
AcDbBlockTableRecord
  2
*D5
  0
BLOCK_RECORD
  5
412B
330
1
100
AcDbSymbolTableRecord
100
AcDbBlockTableRecord
  2
*D6
  0
BLOCK_RECORD
  5
42F5
330
1
100
AcDbSymbolTableRecord
100
AcDbBlockTableRecord
  2
*D7
  0
BLOCK_RECORD
  5
4665
330
1
100
AcDbSymbolTableRecord
100
AcDbBlockTableRecord
  2
*D8
  0
BLOCK_RECORD
  5
4CD5
330
1
100
AcDbSymbolTableRecord
100
AcDbBlockTableRecord
  2
*D9
  0
ENDTAB
  0
ENDSEC
  0
SECTION
  2
BLOCKS
  0
BLOCK
  5
20
330
1F
100
AcDbEntity
  8
0
100
AcDbBlockBegin
  2
*MODEL_SPACE
 70
     0
 10
0.0
 20
0.0
 30
0.0
  3
*MODEL_SPACE
  1

  0
ENDBLK
  5
21
330
1F
100
AcDbEntity
  8
0
100
AcDbBlockEnd
  0
BLOCK
  5
103
330
101
100
AcDbEntity
 67
     1
  8
0
100
AcDbBlockBegin
  2
*PAPER_SPACE
 70
     0
 10
0.0
 20
0.0
 30
0.0
  3
*PAPER_SPACE
  1

  0
ENDBLK
  5
104
330
101
100
AcDbEntity
 67
     1
  8
0
100
AcDbBlockEnd
  0
BLOCK
  5
5D
330
59
100
AcDbEntity
  8
0
100
AcDbBlockBegin
  2
_OPEN30
 70
     0
 10
0.0
 20
0.0
 30
0.0
  3
_OPEN30
  1

  0
LINE
  5
5A
330
59
100
AcDbEntity
  8
0
 62
     0
100
AcDbLine
 10
-1.0
 20
0.26794919
 30
0.0
 11
0.0
 21
0.0
 31
0.0
  0
LINE
  5
5B
330
59
100
AcDbEntity
  8
0
 62
     0
100
AcDbLine
 10
0.0
 20
0.0
 30
0.0
 11
-1.0
 21
-0.26794919
 31
0.0
  0
LINE
  5
5C
330
59
100
AcDbEntity
  8
0
 62
     0
100
AcDbLine
 10
0.0
 20
0.0
 30
0.0
 11
-1.0
 21
0.0
 31
0.0
  0
ENDBLK
  5
5E
330
59
100
AcDbEntity
  8
0
100
AcDbBlockEnd
  0
BLOCK
  5
66
330
64
100
AcDbEntity
  8
0
100
AcDbBlockBegin
  2
GENAXEH
 70
     0
 10
0.0
 20
0.0
 30
0.0
  3
GENAXEH
  1

  0
LINE
  5
65
330
64
100
AcDbEntity
  8
0
100
AcDbLine
 10
-1.0
 20
0.0
 30
0.0
 11
1.0
 21
0.0
 31
0.0
  0
ENDBLK
  5
67
330
64
100
AcDbEntity
  8
0
100
AcDbBlockEnd
  0
BLOCK
  5
4052
330
4048
100
AcDbEntity
  8
0
100
AcDbBlockBegin
  2
*D5
 70
     1
 10
0.0
 20
0.0
 30
0.0
  3
*D5
  1

  0
LINE
  5
4728
330
4048
100
AcDbEntity
  8
AM_5
100
AcDbLine
 10
-49.99999999999999
 20
-1.700000000000046
 30
0.0
 11
-49.99999999999999
 21
-15.00000100000006
 31
0.0
  0
LINE
  5
4729
330
4048
100
AcDbEntity
  8
AM_5
100
AcDbLine
 10
0.0000000000000006
 20
-0.5000000000000005
 30
0.0
 11
-0.0000000000000003
 21
-15.00000100000006
 31
0.0
  0
LINE
  5
472A
330
4048
100
AcDbEntity
  8
AM_5
100
AcDbLine
 10
-48.74999999999999
 20
-14.50000100000006
 30
0.0
 11
-1.25
 21
-14.50000100000006
 31
0.0
  0
INSERT
  5
472B
330
4048
100
AcDbEntity
  8
AM_5
100
AcDbBlockReference
  2
_OPEN30
 10
-49.99999999999999
 20
-14.50000100000006
 30
0.0
 41
1.25
 42
1.25
 43
1.25
 50
180.0
  0
INSERT
  5
472C
330
4048
100
AcDbEntity
  8
AM_5
100
AcDbBlockReference
  2
_OPEN30
 10
-0.0000000000000002
 20
-14.50000100000006
 30
0.0
 41
1.25
 42
1.25
 43
1.25
  0
MTEXT
  5
472D
330
4048
100
AcDbEntity
  8
AM_5
 62
     2
100
AcDbMText
 10
-24.99999999999999
 20
-12.95000100000006
 30
0.0
 40
1.6
 41
0.0
 71
     5
 72
     1
  1
50
  7
ASAMI
1001
ACAD
1000
MTEXTBEGIN
1070
    73
1070
     1
1070
    44
1040
1.0
1070
    74
1070
     0
1000
MTEXTEND
  0
POINT
  5
472E
330
4048
100
AcDbEntity
  8
DEFPOINTS
 62
     0
100
AcDbPoint
 10
-49.99999999999999
 20
-1.200000000000046
 30
0.0
  0
POINT
  5
472F
330
4048
100
AcDbEntity
  8
DEFPOINTS
 62
     0
100
AcDbPoint
 10
0.0000000000000007
 20
-0.0000000000000005
 30
0.0
  0
POINT
  5
4730
330
4048
100
AcDbEntity
  8
DEFPOINTS
 62
     0
100
AcDbPoint
 10
-0.0000000000000002
 20
-14.50000100000006
 30
0.0
  0
ENDBLK
  5
4053
330
4048
100
AcDbEntity
  8
0
100
AcDbBlockEnd
  0
BLOCK
  5
4135
330
412B
100
AcDbEntity
  8
0
100
AcDbBlockBegin
  2
*D6
 70
     1
 10
0.0
 20
0.0
 30
0.0
  3
*D6
  1

  0
LINE
  5
4C7C
330
412B
100
AcDbEntity
  8
AM_5
100
AcDbLine
 10
-0.0000000000000142
 20
-0.5000000000000111
 30
0.0
 11
-0.0000000000000148
 21
-9.000001000000064
 31
0.0
  0
LINE
  5
4C7D
330
412B
100
AcDbEntity
  8
AM_5
100
AcDbLine
 10
-2.400000000000187
 20
-1.299999999999899
 30
0.0
 11
-2.400000000000188
 21
-9.000001000000063
 31
0.0
  0
LINE
  5
4C7E
330
412B
100
AcDbEntity
  8
AM_5
100
AcDbLine
 10
1.249999999999985
 20
-8.500001000000064
 30
0.0
 11
2.499999999999985
 21
-8.500001000000064
 31
0.0
  0
LINE
  5
4C7F
330
412B
100
AcDbEntity
  8
AM_5
100
AcDbLine
 10
-3.650000000000188
 20
-8.500001000000064
 30
0.0
 11
-9.828571428571617
 21
-8.500001000000064
 31
0.0
  0
LINE
  5
4C80
330
412B
100
AcDbEntity
  8
AM_5
100
AcDbLine
 10
-0.0000000000000147
 20
-8.500001000000064
 30
0.0
 11
-2.400000000000188
 21
-8.500001000000064
 31
0.0
  0
INSERT
  5
4C81
330
412B
100
AcDbEntity
  8
AM_5
100
AcDbBlockReference
  2
_OPEN30
 10
-0.0000000000000147
 20
-8.500001000000064
 30
0.0
 41
1.25
 42
1.25
 43
1.25
 50
180.0
  0
INSERT
  5
4C82
330
412B
100
AcDbEntity
  8
AM_5
100
AcDbBlockReference
  2
_OPEN30
 10
-2.400000000000188
 20
-8.500001000000064
 30
0.0
 41
1.25
 42
1.25
 43
1.25
  0
MTEXT
  5
4C83
330
412B
100
AcDbEntity
  8
AM_5
 62
     2
100
AcDbMText
 10
-7.364285714285902
 20
-6.950001000000065
 30
0.0
 40
1.6
 41
0.0
 71
     5
 72
     1
  1
2.4
  7
ASAMI
1001
ACAD
1000
MTEXTBEGIN
1070
    73
1070
     1
1070
    44
1040
1.0
1070
    74
1070
     0
1000
MTEXTEND
  0
POINT
  5
4C84
330
412B
100
AcDbEntity
  8
DEFPOINTS
 62
     0
100
AcDbPoint
 10
-0.0000000000000142
 20
-0.0000000000000111
 30
0.0
  0
POINT
  5
4C85
330
412B
100
AcDbEntity
  8
DEFPOINTS
 62
     0
100
AcDbPoint
 10
-2.400000000000187
 20
-0.7999999999999
 30
0.0
  0
POINT
  5
4C86
330
412B
100
AcDbEntity
  8
DEFPOINTS
 62
     0
100
AcDbPoint
 10
-2.400000000000188
 20
-8.500001000000064
 30
0.0
  0
ENDBLK
  5
4136
330
412B
100
AcDbEntity
  8
0
100
AcDbBlockEnd
  0
BLOCK
  5
42FF
330
42F5
100
AcDbEntity
  8
0
100
AcDbBlockBegin
  2
*D7
 70
     1
 10
0.0
 20
0.0
 30
0.0
  3
*D7
  1

  0
LINE
  5
4CC1
330
42F5
100
AcDbEntity
  8
AM_5
100
AcDbLine
 10
-0.3
 20
0.8
 30
0.0
 11
8.841627940564762
 21
0.7999999999999973
 31
0.0
  0
LINE
  5
4CC2
330
42F5
100
AcDbEntity
  8
AM_5
100
AcDbLine
 10
-0.2999999999999983
 20
-0.8
 30
0.0
 11
8.841627940564762
 21
-0.8000000000000026
 31
0.0
  0
LINE
  5
4CC3
330
42F5
100
AcDbEntity
  8
AM_5
100
AcDbLine
 10
8.341627940564762
 20
2.049999999999997
 30
0.0
 11
8.341627940564762
 21
3.299999999999997
 31
0.0
  0
LINE
  5
4CC4
330
42F5
100
AcDbEntity
  8
AM_5
100
AcDbLine
 10
8.341627940564762
 20
-2.050000000000002
 30
0.0
 11
8.341627940564761
 21
-9.219047619047621
 31
0.0
  0
LINE
  5
4CC5
330
42F5
100
AcDbEntity
  8
AM_5
100
AcDbLine
 10
8.341627940564762
 20
0.7999999999999974
 30
0.0
 11
8.341627940564762
 21
-0.8000000000000026
 31
0.0
  0
INSERT
  5
4CC6
330
42F5
100
AcDbEntity
  8
AM_5
100
AcDbBlockReference
  2
_OPEN30
 10
8.341627940564762
 20
0.7999999999999974
 30
0.0
 41
1.25
 42
1.25
 43
1.25
 50
270.0
  0
INSERT
  5
4CC7
330
42F5
100
AcDbEntity
  8
AM_5
100
AcDbBlockReference
  2
_OPEN30
 10
8.341627940564762
 20
-0.8000000000000026
 30
0.0
 41
1.25
 42
1.25
 43
1.25
 50
90.0
  0
MTEXT
  5
4CC8
330
42F5
100
AcDbEntity
  8
AM_5
 62
     2
100
AcDbMText
 10
6.791627940564762
 20
-6.25952380952381
 30
0.0
 40
1.6
 41
0.0
 71
     5
 72
     1
  1
%%c1.6
  7
ASAMI
 11
0.0000000000000001
 21
1.0
 31
0.0
1001
ACAD
1000
MTEXTBEGIN
1070
    73
1070
     1
1070
    44
1040
1.0
1070
    74
1070
     0
1000
MTEXTEND
  0
POINT
  5
4CC9
330
42F5
100
AcDbEntity
  8
DEFPOINTS
 62
     0
100
AcDbPoint
 10
-0.8
 20
0.8
 30
0.0
  0
POINT
  5
4CCA
330
42F5
100
AcDbEntity
  8
DEFPOINTS
 62
     0
100
AcDbPoint
 10
-0.7999999999999984
 20
-0.8
 30
0.0
  0
POINT
  5
4CCB
330
42F5
100
AcDbEntity
  8
DEFPOINTS
 62
     0
100
AcDbPoint
 10
8.341627940564762
 20
-0.8000000000000026
 30
0.0
  0
ENDBLK
  5
4300
330
42F5
100
AcDbEntity
  8
0
100
AcDbBlockEnd
  0
BLOCK
  5
4671
330
4665
100
AcDbEntity
  8
0
100
AcDbBlockBegin
  2
*D8
 70
     1
 10
0.0
 20
0.0
 30
0.0
  3
*D8
  1

  0
LINE
  5
471D
330
4665
100
AcDbEntity
  8
AM_5
100
AcDbLine
 10
-50.19999999999999
 20
1.499999999999921
 30
0.0
 11
-59.55619512995955
 21
1.499999999999924
 31
0.0
  0
LINE
  5
471E
330
4665
100
AcDbEntity
  8
AM_5
100
AcDbLine
 10
-50.19999999999999
 20
-1.500000000000044
 30
0.0
 11
-59.55619512995955
 21
-1.500000000000041
 31
0.0
  0
LINE
  5
471F
330
4665
100
AcDbEntity
  8
AM_5
100
AcDbLine
 10
-59.05619512995954
 20
2.749999999999924
 30
0.0
 11
-59.05619512995954
 21
3.999999999999923
 31
0.0
  0
LINE
  5
4720
330
4665
100
AcDbEntity
  8
AM_5
100
AcDbLine
 10
-59.05619512995954
 20
-2.750000000000041
 30
0.0
 11
-59.05619512995954
 21
-8.014285714285756
 31
0.0
  0
LINE
  5
4721
330
4665
100
AcDbEntity
  8
AM_5
100
AcDbLine
 10
-59.05619512995954
 20
1.499999999999923
 30
0.0
 11
-59.05619512995954
 21
-1.500000000000042
 31
0.0
  0
INSERT
  5
4722
330
4665
100
AcDbEntity
  8
AM_5
100
AcDbBlockReference
  2
_OPEN30
 10
-59.05619512995954
 20
1.499999999999923
 30
0.0
 41
1.25
 42
1.25
 43
1.25
 50
270.0
  0
INSERT
  5
4723
330
4665
100
AcDbEntity
  8
AM_5
100
AcDbBlockReference
  2
_OPEN30
 10
-59.05619512995954
 20
-1.500000000000042
 30
0.0
 41
1.25
 42
1.25
 43
1.25
 50
90.0
  0
MTEXT
  5
4724
330
4665
100
AcDbEntity
  8
AM_5
 62
     2
100
AcDbMText
 10
-60.60619512995955
 20
-6.007142857142908
 30
0.0
 40
1.6
 41
0.0
 71
     5
 72
     1
  1
%%c3
  7
ASAMI
 11
0.0000000000000001
 21
1.0
 31
0.0
1001
ACAD
1000
MTEXTBEGIN
1070
    73
1070
     1
1070
    44
1040
1.0
1070
    74
1070
     0
1000
MTEXTEND
  0
POINT
  5
4725
330
4665
100
AcDbEntity
  8
DEFPOINTS
 62
     0
100
AcDbPoint
 10
-49.69999999999999
 20
1.499999999999921
 30
0.0
  0
POINT
  5
4726
330
4665
100
AcDbEntity
  8
DEFPOINTS
 62
     0
100
AcDbPoint
 10
-49.69999999999998
 20
-1.500000000000044
 30
0.0
  0
POINT
  5
4727
330
4665
100
AcDbEntity
  8
DEFPOINTS
 62
     0
100
AcDbPoint
 10
-59.05619512995954
 20
-1.500000000000042
 30
0.0
  0
ENDBLK
  5
4672
330
4665
100
AcDbEntity
  8
0
100
AcDbBlockEnd
  0
BLOCK
  5
4CDB
330
4CD5
100
AcDbEntity
  8
0
100
AcDbBlockBegin
  2
*D9
 70
     1
 10
0.0
 20
0.0
 30
0.0
  3
*D9
  1

  0
LINE
  5
4E99
330
4CD5
100
AcDbEntity
  8
AM_5
100
AcDbLine
 10
3.607321836281708
 20
-8.68752714321485
 30
0.0
 11
0.1264414309174073
 21
-1.816563314234831
 31
0.0
  0
MTEXT
  5
4E9A
330
4CD5
100
AcDbEntity
  8
AM_5
 62
     2
100
AcDbMText
 10
3.532021837331898
 20
-5.109100827245735
 30
0.0
 40
1.6
 41
0.0
 71
     5
 72
     1
  1
R0.8
  7
ASAMI
 11
0.4519226492281318
 21
-0.8920571277191987
 31
0.0
  0
LINE
  5
4E9B
330
4CD5
100
AcDbEntity
  8
AM_5
100
AcDbLine
 10
-0.8000000000002627
 20
0.0121537975895262
 30
0.0
 11
-0.4384618806177575
 21
-0.7014919045858328
 31
0.0
  0
INSERT
  5
4E9C
330
4CD5
100
AcDbEntity
  8
AM_5
100
AcDbBlockReference
  2
_OPEN30
 10
-0.4384618806177575
 20
-0.7014919045858328
 30
0.0
 41
1.25
 42
1.25
 43
1.25
 50
116.8671061981154
  0
POINT
  5
4E9D
330
4CD5
100
AcDbEntity
  8
DEFPOINTS
 62
     0
100
AcDbPoint
 10
-0.4384618806177575
 20
-0.7014919045858328
 30
0.0
  0
POINT
  5
4E9E
330
4CD5
100
AcDbEntity
  8
DEFPOINTS
 62
     0
100
AcDbPoint
 10
-0.8000000000002627
 20
0.0121537975895262
 30
0.0
  0
ENDBLK
  5
4CDC
330
4CD5
100
AcDbEntity
  8
0
100
AcDbBlockEnd
  0
ENDSEC
  0
SECTION
  2
ENTITIES
  0
TEXT
  5
1500
330
1F
100
AcDbEntity
  8
AM_6
100
AcDbText
 10
-35.47619047619046
 20
-25.75000100000006
 30
0.0
 40
2.5
  1
S-SSB2016
 72
     4
 11
-24.99999999999998
 21
-24.50000100000006
 31
0.0
100
AcDbText
  0
LINE
  5
3EE8
330
1F
100
AcDbEntity
  8
AM_7
  6
AM_ISO08W050X2
100
AcDbLine
 10
1.341626940564765
 20
0.0
 30
0.0
 11
-52.05619412995955
 21
-0.0000000000000426
 31
0.0
1001
GENIUS_GENODEF_13
1002
{
1000
HIER
1070
     0
1002
}
1002
{
1000
MANEDIT
1070
     0
1002
}
1002
{
1000
NOSEL
1070
     0
1002
}
1002
{
1000
BEHIND
1070
     0
1002
}
1002
{
1000
REACTOR
1002
}
1001
GENIUS_GENOBJ-N-CEN_13
1002
{
1000
OWNER
1000
GEN
1002
}
  0
DIMENSION
  5
4047
330
1F
100
AcDbEntity
  8
AM_5
100
AcDbDimension
  2
*D5
 10
-0.0000000000000002
 20
-14.50000100000006
 30
0.0
 11
-24.99999999999999
 21
-12.95000100000006
 31
0.0
 70
    32
  1
<>
  3
AM_JIS
100
AcDbAlignedDimension
 13
-49.99999999999999
 23
-1.200000000000046
 33
0.0
 14
0.0000000000000007
 24
-0.0000000000000005
 34
0.0
 50
0.0000000000001132
100
AcDbRotatedDimension
1001
GENIUS_GENDTOL_13
1000

1000
h7
1000

1040
0.0
  0
DIMENSION
  5
412A
330
1F
100
AcDbEntity
  8
AM_5
100
AcDbDimension
  2
*D6
 10
-2.400000000000188
 20
-8.500001000000064
 30
0.0
 11
-7.364285714285902
 21
-6.950001000000065
 31
0.0
 70
    32
  1
<>
  3
AM_JIS
100
AcDbAlignedDimension
 13
-0.0000000000000142
 23
-0.0000000000000111
 33
0.0
 14
-2.400000000000187
 24
-0.7999999999999
 34
0.0
 50
0.0000000000001132
100
AcDbRotatedDimension
1001
GENIUS_GENDTOL_13
1000

1000
h7
1000

1040
0.0
  0
DIMENSION
  5
42F4
330
1F
100
AcDbEntity
  8
AM_5
100
AcDbDimension
  2
*D7
 10
8.341627940564762
 20
-0.8000000000000026
 30
0.0
 11
6.791627940564762
 21
-6.25952380952381
 31
0.0
 70
    32
  1
%%c<>
  3
AM_JIS
100
AcDbAlignedDimension
 13
-0.8
 23
0.8
 33
0.0
 14
-0.7999999999999984
 24
-0.8
 34
0.0
 50
90.0
100
AcDbRotatedDimension
1001
GENIUS_GENDTOL_13
1000

1000
h7
1000

1040
0.0
  0
SPLINE
  5
44D1
330
1F
100
AcDbEntity
  8
AM_0
100
AcDbSpline
210
0.0
220
0.0
230
1.0
 70
     8
 71
     3
 72
     9
 73
     5
 74
     3
 42
0.0000000001
 43
0.0000000001
 44
0.0000000001
 12
0.5867325161912575
 22
-0.8097808064185493
 32
0.0
 13
-0.8994987856269101
 23
0.4369232594583563
 33
0.0
 40
0.0
 40
0.0
 40
0.0
 40
0.0
 40
0.0716821092958331
 40
0.2135459810882636
 40
0.2135459810882636
 40
0.2135459810882636
 40
0.2135459810882636
 10
-0.7018262251975523
 20
-0.4868158671004494
 30
0.0
 10
-0.6878068170798719
 20
-0.5061647991909036
 30
0.0
 10
-0.6273323681938273
 20
-0.5753434374731708
 30
0.0
 10
-0.7574645398663133
 20
-0.6247179435184515
 30
0.0
 10
-0.8000000000001875
 20
-0.6040567350974744
 30
0.0
 11
-0.7018262251975523
 21
-0.4868158671004494
 31
0.0
 11
-0.6686844145414637
 21
-0.5503764301842967
 31
0.0
 11
-0.8000000000001875
 21
-0.6040567350974744
 31
0.0
  0
SPLINE
  5
44D2
330
1F
100
AcDbEntity
  8
AM_0
100
AcDbSpline
210
0.0
220
0.0
230
1.0
 70
     8
 71
     3
 72
     8
 73
     4
 74
     2
 42
0.0000000001
 43
0.0000000001
 44
0.0000000001
 12
0.4216926876958761
 22
-0.9067388141818064
 32
0.0
 13
-0.9928045895078733
 23
-0.1197457600589821
 33
0.0
 40
0.0
 40
0.0
 40
0.0
 40
0.0
 40
0.282467113034607
 40
0.282467113034607
 40
0.282467113034607
 40
0.282467113034607
 10
-0.8000000000001875
 20
0.7878462024098373
 30
0.0
 10
-0.7602952279731016
 20
0.7024715707037181
 30
0.0
 10
-0.8562117996492016
 20
0.5595785322122419
 30
0.0
 10
-0.949690015051134
 20
0.5483037858315767
 30
0.0
 11
-0.8000000000001875
 21
0.7878462024098373
 31
0.0
 11
-0.949690015051134
 21
0.5483037858315767
 31
0.0
  0
SPLINE
  5
44D3
330
1F
100
AcDbEntity
  8
AM_0
100
AcDbSpline
210
0.0
220
0.0
230
1.0
 70
     8
 71
     3
 72
     8
 73
     4
 74
     2
 42
0.0000000001
 43
0.0000000001
 44
0.0000000001
 12
-0.8789112757303589
 22
0.4769852926391262
 32
0.0
 13
0.9988106394578339
 23
0.0487576302319218
 33
0.0
 40
0.0
 40
0.0
 40
0.0
 40
0.0
 40
0.345191977652703
 40
0.345191977652703
 40
0.345191977652703
 40
0.345191977652703
 10
-0.8364450177088713
 20
0.2222162638159716
 30
0.0
 10
-0.9375760581924122
 20
0.2771000959750893
 30
0.0
 10
-1.064617155021612
 20
0.5426935382301349
 30
0.0
 10
-0.9496900150432759
 20
0.5483037858319403
 30
0.0
 11
-0.8364450177088713
 21
0.2222162638159716
 31
0.0
 11
-0.9496900150432759
 21
0.5483037858319403
 31
0.0
  0
SPLINE
  5
44D4
330
1F
100
AcDbEntity
  8
AM_0
100
AcDbSpline
210
0.0
220
0.0
230
1.0
 70
     8
 71
     3
 72
     8
 73
     4
 74
     0
 42
0.0000000001
 43
0.0000000001
 40
1.794922859432252
 40
1.794922859432252
 40
1.794922859432252
 40
1.794922859432252
 40
8.217791785374707
 40
8.217791785374707
 40
8.217791785374707
 40
8.217791785374707
 10
-0.8000000000001875
 20
0.7878462024098373
 30
0.0
 10
-1.138404619599574
 20
0.7593647993915331
 30
0.0
 10
-1.469787566514175
 20
0.6826750312013794
 30
0.0
 10
-1.797015319394091
 20
0.5774571443730566
 30
0.0
  0
SPLINE
  5
44D5
330
1F
100
AcDbEntity
  8
AM_0
100
AcDbSpline
210
0.0
220
0.0
230
1.0
 70
     8
 71
     3
 72
     8
 73
     4
 74
     0
 42
0.0000000001
 43
0.0000000001
 40
6.513172597598655
 40
6.513172597598655
 40
6.513172597598655
 40
6.513172597598655
 40
17.00040327533524
 40
17.00040327533524
 40
17.00040327533524
 40
17.00040327533524
 10
-0.8000000000001875
 20
-0.6040567350974744
 30
0.0
 10
-1.341037087913588
 20
-0.4687323737257067
 30
0.0
 10
-1.870738900327192
 20
-0.2495031411601121
 30
0.0
 10
-2.400000000000187
 20
-0.027011707712345
 30
0.0
  0
SPLINE
  5
44D7
330
1F
100
AcDbEntity
  8
AM_0
100
AcDbSpline
210
0.0
220
0.0
230
1.0
 70
     8
 71
     3
 72
     8
 73
     4
 74
     0
 42
0.0000000001
 43
0.0000000001
 40
1.794922859428793
 40
1.794922859428793
 40
1.794922859428793
 40
1.794922859428793
 40
12.18970013411803
 40
12.18970013411803
 40
12.18970013411803
 40
12.18970013411803
 10
-0.7999999999996783
 20
-0.7878462024097097
 30
0.0
 10
-1.347674363281936
 20
-0.7417518722499152
 30
0.0
 10
-1.876957409189605
 20
-0.5693891465382423
 30
0.0
 10
-2.400000000000205
 20
-0.3541816241992364
 30
0.0
  0
LINE
  5
44D9
330
1F
100
AcDbEntity
  8
AM_11
100
AcDbLine
 10
-0.8000000000001875
 20
0.8000000000000907
 30
0.0
 11
-2.400000000000196
 21
0.8000000000000907
 31
0.0
  0
LINE
  5
44DA
330
1F
100
AcDbEntity
  8
AM_11
100
AcDbLine
 10
-2.400000000000196
 20
-0.7999999999999
 30
0.0
 11
-0.8000000000001875
 21
-0.7999999999998911
 31
0.0
  0
LINE
  5
44DB
330
1F
100
AcDbEntity
  8
AM_0
100
AcDbLine
 10
-0.1120000000002324
 20
-0.0281927488407018
 30
0.0
 11
-0.8364450177088713
 21
0.2222162638159716
 31
0.0
  0
LINE
  5
44DC
330
1F
100
AcDbEntity
  8
AM_0
100
AcDbLine
 10
-0.0000000000001887
 20
0.0000000000001091
 30
0.0
 11
-0.9496900150432759
 21
0.5483037858319403
 31
0.0
  0
ARC
  5
44DD
330
1F
100
AcDbEntity
  8
AM_0
100
AcDbCircle
 10
-0.0328225460547117
 20
0.0074986260994046
 30
0.0
 40
0.8318129242168327
100
AcDbArc
 50
165.040742132377
 51
216.4600123166023
  0
LINE
  5
44DF
330
1F
100
AcDbEntity
  8
AM_0
100
AcDbLine
 10
-0.7999999999991715
 20
-0.7878462024104738
 30
0.0
 11
-0.8000000000002604
 21
-0.6040567350974744
 31
0.0
  0
ARC
  5
44E1
330
1F
100
AcDbEntity
  8
AM_0
100
AcDbCircle
 10
-0.7999076729249201
 20
0.0121537975891439
 30
0.0
 40
0.8
100
AcDbArc
 50
270.0000000000781
 51
359.1295148788724
  0
ARC
  5
44E2
330
1F
100
AcDbEntity
  8
AM_11
100
AcDbCircle
 10
-0.8000000000001898
 20
0.0000000000001091
 30
0.0
 40
0.8
100
AcDbArc
 50
270.0
 51
90.0
  0
ARC
  5
44E3
330
1F
100
AcDbEntity
  8
AM_0
100
AcDbCircle
 10
-0.7742504878254556
 20
0.2149211079699308
 30
0.0
 40
0.7054644257495407
100
AcDbArc
 50
275.8924707062755
 51
339.8416840647174
  0
ARC
  5
44E4
330
1F
100
AcDbEntity
  8
AM_0
100
AcDbCircle
 10
-0.7999076729248472
 20
-0.012153797590527
 30
0.0
 40
0.8
100
AcDbArc
 50
0.8704851212057906
 51
90.0
  0
LINE
  5
44E6
330
1F
100
AcDbEntity
  8
AM_0
100
AcDbLine
 10
0.0000000000000007
 20
-0.0000000000000005
 30
0.0
 11
-0.1119076729248897
 21
-0.0281927488410841
 31
0.0
  0
LINE
  5
44E8
330
1F
100
AcDbEntity
  8
AM_11
100
AcDbLine
 10
-2.400000000000187
 20
-0.7999999999998911
 30
0.0
 11
-2.400000000000187
 21
0.8000000000000907
 31
0.0
  0
ARC
  5
44E9
330
1F
100
AcDbEntity
  8
AM_0
100
AcDbCircle
 10
-3.866559833198006
 20
8.679828998587804
 30
0.0
 40
9.48579786982982
100
AcDbArc
 50
272.0326826401118
 51
282.601744247531
  0
LINE
  5
44FB
330
1F
100
AcDbEntity
  8
AM_0
100
AcDbLine
 10
-2.400000000000214
 20
0.5982036374829386
 30
0.0
 11
-0.9496900150433488
 21
0.5483037858319403
 31
0.0
  0
LINE
  5
44FC
330
1F
100
AcDbEntity
  8
AM_0
100
AcDbLine
 10
-2.400000000000187
 20
-0.027011707712345
 30
0.0
 11
-2.400000000000187
 21
-0.3541816241992455
 31
0.0
  0
LINE
  5
465E
330
1F
100
AcDbEntity
  8
AM_0
100
AcDbLine
 10
-7.499999999999986
 20
-1.499999999999841
 30
0.0
 11
-49.69999999999998
 21
-1.500000000000044
 31
0.0
  0
LINE
  5
4660
330
1F
100
AcDbEntity
  8
AM_0
100
AcDbLine
 10
-49.69999999999999
 20
1.499999999999921
 30
0.0
 11
-49.69999999999998
 21
-1.500000000000048
 31
0.0
  0
LINE
  5
4661
330
1F
100
AcDbEntity
  8
AM_0
100
AcDbLine
 10
-50.0
 20
1.199999999999919
 30
0.0
 11
-49.99999999999999
 21
-1.200000000000046
 31
0.0
  0
LINE
  5
4663
330
1F
100
AcDbEntity
  8
AM_0
100
AcDbLine
 10
-7.499999999999996
 20
1.500000000000126
 30
0.0
 11
-49.69999999999999
 21
1.499999999999921
 31
0.0
  0
DIMENSION
  5
4664
330
1F
100
AcDbEntity
  8
AM_5
100
AcDbDimension
  2
*D8
 10
-59.05619512995954
 20
-1.500000000000042
 30
0.0
 11
-60.60619512995955
 21
-6.007142857142908
 31
0.0
 70
    32
  1
%%c<>
  3
AM_JIS
100
AcDbAlignedDimension
 13
-49.69999999999999
 23
1.499999999999921
 33
0.0
 14
-49.69999999999998
 24
-1.500000000000044
 34
0.0
 50
270.0
100
AcDbRotatedDimension
1001
GENIUS_GENDTOL_13
1000

1000
h7
1000

1040
0.0
  0
LINE
  5
46F6
330
1F
100
AcDbEntity
  8
AM_0
100
AcDbLine
 10
-49.69999999999999
 20
1.499999999999921
 30
0.0
 11
-50.0
 21
1.199999999999919
 31
0.0
1001
GENIUS_GENFIL_13
1070
     0
1040
0.3
1040
0.3
1040
20.0
1040
0.0
1002
{
1002
}
1001
GENIUS_GENODEF_13
1002
{
1000
HIER
1070
     0
1002
}
1002
{
1000
MANEDIT
1070
     0
1002
}
1002
{
1000
NOSEL
1070
     0
1002
}
1002
{
1000
BEHIND
1070
     0
1002
}
1002
{
1000
REACTOR
1002
}
1001
GENIUS_GENOBJ-N-CHA_13
1002
{
1000
OWNER
1000
GEN
1002
}
  0
LINE
  5
46FB
330
1F
100
AcDbEntity
  8
AM_0
100
AcDbLine
 10
-49.99999999999999
 20
-1.200000000000046
 30
0.0
 11
-49.69999999999998
 21
-1.500000000000044
 31
0.0
1001
GENIUS_GENFIL_13
1070
     0
1040
0.3
1040
0.3
1040
20.0
1040
0.0
1002
{
1002
}
1001
GENIUS_GENODEF_13
1002
{
1000
HIER
1070
     0
1002
}
1002
{
1000
MANEDIT
1070
     0
1002
}
1002
{
1000
NOSEL
1070
     0
1002
}
1002
{
1000
BEHIND
1070
     0
1002
}
1002
{
1000
REACTOR
1002
}
1001
GENIUS_GENOBJ-N-CHA_13
1002
{
1000
OWNER
1000
GEN
1002
}
  0
LINE
  5
475D
330
1F
100
AcDbEntity
  8
AM_0
100
AcDbLine
 10
-7.499999999999995
 20
1.500000000000124
 30
0.0
 11
-7.499999999999986
 21
-1.499999999999844
 31
0.0
  0
LINE
  5
4776
330
1F
100
AcDbEntity
  8
AM_0
100
AcDbLine
 10
-3.530102726267405
 20
0.80000000000009
 30
0.0
 11
-7.499999999999995
 21
1.500000000000124
 31
0.0
  0
LINE
  5
4778
330
1F
100
AcDbEntity
  8
AM_0
100
AcDbLine
 10
-3.53010272626784
 20
-0.7999999999998888
 30
0.0
 11
-7.499999999999986
 21
-1.499999999999844
 31
0.0
  0
ARC
  5
4883
330
1F
100
AcDbEntity
  8
AM_0
100
AcDbCircle
 10
-4.305806704958484
 20
-6.809414430775253
 30
0.0
 40
7.648849890137046
100
AcDbArc
 50
75.57204008930641
 51
84.17937282905853
  0
ARC
  5
4884
330
1F
100
AcDbEntity
  8
AM_0
100
AcDbCircle
 10
0.0918587144925405
 20
5.958316845214591
 30
0.0
 40
6.483326132432009
100
AcDbArc
 50
231.7088666815818
 51
247.396680163815
  0
LINE
  5
4C8A
330
1F
100
AcDbEntity
  8
AM_0
100
AcDbLine
 10
-3.53010272626784
 20
-0.7999999999998888
 30
0.0
 11
-3.530102726267807
 21
-0.6809136242216102
 31
0.0
  0
POLYLINE
  5
4CAE
330
1F
100
AcDbEntity
  8
AM_0
100
AcDb2dPolyline
 66
     1
 10
0.0
 20
0.0
 30
0.0
  0
VERTEX
  5
4CAF
330
4CAE
100
AcDbEntity
  8
AM_0
100
AcDbVertex
100
AcDb2dVertex
 10
-2.400000000000206
 20
-0.3541816241992364
 30
0.0
 42
0.0131545102846567
  0
VERTEX
  5
4CB0
330
4CAE
100
AcDbEntity
  8
AM_0
100
AcDbVertex
100
AcDb2dVertex
 10
-2.788945148357067
 20
-0.3550777671802337
 30
0.0
 42
0.0244127365443984
  0
VERTEX
  5
4CB1
330
4CAE
100
AcDbEntity
  8
AM_0
100
AcDbVertex
100
AcDb2dVertex
 10
-2.962045037020867
 20
-0.3698424928134188
 30
0.0
 42
0.0112036525485219
  0
VERTEX
  5
4CB2
330
4CAE
100
AcDbEntity
  8
AM_0
100
AcDbVertex
100
AcDb2dVertex
 10
-3.310649969167607
 20
-0.4247818719618605
 30
0.0
 42
0.0258724796968456
  0
VERTEX
  5
4CB3
330
4CAE
100
AcDbEntity
  8
AM_0
100
AcDbVertex
100
AcDb2dVertex
 10
-3.459511608448917
 20
-0.4597078122229422
 30
0.0
 42
0.075133859641983
  0
VERTEX
  5
4CB4
330
4CAE
100
AcDbEntity
  8
AM_0
100
AcDbVertex
100
AcDb2dVertex
 10
-3.628797262593868
 20
-0.5377910970142638
 30
0.0
 42
0.2716149979859391
  0
VERTEX
  5
4CB5
330
4CAE
100
AcDbEntity
  8
AM_0
100
AcDbVertex
100
AcDb2dVertex
 10
-3.653153654300456
 20
-0.5871738501378606
 30
0.0
 42
0.2534307105139857
  0
VERTEX
  5
4CB6
330
4CAE
100
AcDbEntity
  8
AM_0
100
AcDbVertex
100
AcDb2dVertex
 10
-3.619162882022567
 20
-0.6403636455480736
 30
0.0
 42
0.0780756412043667
  0
VERTEX
  5
4CB7
330
4CAE
100
AcDbEntity
  8
AM_0
100
AcDbVertex
100
AcDb2dVertex
 10
-3.437197587329205
 20
-0.7067685423593196
 30
0.0
 42
0.0124925950205272
  0
VERTEX
  5
4CB8
330
4CAE
100
AcDbEntity
  8
AM_0
100
AcDbVertex
100
AcDb2dVertex
 10
-3.318018669130361
 20
-0.7271154612230301
 30
0.0
 42
0.0072181574374038
  0
VERTEX
  5
4CB9
330
4CAE
100
AcDbEntity
  8
AM_0
100
AcDbVertex
100
AcDb2dVertex
 10
-3.11054757294164
 20
-0.7541712150069798
 30
0.0
 42
0.0198093533555468
  0
VERTEX
  5
4CBA
330
4CAE
100
AcDbEntity
  8
AM_0
100
AcDbVertex
100
AcDb2dVertex
 10
-2.982179517862007
 20
-0.763897722851235
 30
0.0
 42
0.0004060786710526
  0
VERTEX
  5
4CBB
330
4CAE
100
AcDbEntity
  8
AM_0
100
AcDbVertex
100
AcDb2dVertex
 10
-2.976335308428775
 20
-0.7641035256717453
 30
0.0
  0
SEQEND
  5
4CBC
330
4CAE
100
AcDbEntity
  8
AM_0
  0
LINE
  5
4CBE
330
1F
100
AcDbEntity
  8
AM_0
100
AcDbLine
 10
-3.530102726267755
 20
-0.4848602155875802
 30
0.0
 11
-3.530102726267465
 21
0.5810579653461963
 31
0.0
  0
DIMENSION
  5
4CD4
330
1F
100
AcDbEntity
  8
AM_5
100
AcDbDimension
  2
*D9
 10
-0.8000000000002627
 20
0.0121537975895262
 30
0.0
 11
3.532021837331898
 21
-5.109100827245735
 31
0.0
 70
    36
  1
<>
  3
AM_JIS$4
100
AcDbRadialDimension
 15
-0.4384618806177575
 25
-0.7014919045858328
 35
0.0
 40
0.0
1001
GENIUS_GENDTOL_13
1000

1000
h7
1000

1040
0.0
1001
ACAD
1000
DSTYLE
1002
{
1070
   287
1070
     3
1070
   271
1070
     3
1070
   288
1070
     1
1070
   289
1070
     3
1070
   172
1070
     1
1070
    74
1070
     0
1002
}
  0
VIEWPORT
  5
110
330
101
100
AcDbEntity
 67
     1
  8
0
100
AcDbViewport
 10
420.5
 20
297.0
 30
0.0
 40
948.9782706766916
 41
628.452
 68
     1
 69
     1
1001
ACAD
1000
MVIEW
1002
{
1070
    16
1010
0.0
1020
0.0
1030
0.0
1010
0.0
1020
0.0
1030
1.0
1040
0.0
1040
628.452
1040
420.5
1040
297.0
1040
50.0
1040
0.0
1040
0.0
1070
     0
1070
   100
1070
     1
1070
     1
1070
     0
1070
     0
1070
     0
1070
     0
1040
0.0
1040
0.0
1040
0.0
1040
10.0
1040
10.0
1040
10.0
1040
10.0
1070
     0
1002
{
1002
}
1002
}
  0
ENDSEC
  0
SECTION
  2
OBJECTS
  0
DICTIONARY
  5
C
330
0
100
AcDbDictionary
  3
ACAD_GROUP
350
D
  3
ACAD_LAYOUT
350
1A
  3
ACAD_MLINESTYLE
350
17
  3
ACAD_PLOTSETTINGS
350
19
  3
ACAD_PLOTSTYLENAME
350
E
  3
ACDBVARIABLEDICTIONARY
350
34
  3
ACMDICTIONARY
350
43
  3
AMG
350
2B
  3
AMGSNAPSETTINGS
350
6E
  3
ASE_INDEX_DICTIONARY
350
151A
  3
DWGPROPS
350
4E63
  3
ACDBHEADERROUNDTRIPXREC
350
4E6F
  0
DICTIONARY
  5
74
330
1F
100
AcDbDictionary
280
     1
  3
ACAD_INDEX
360
4E65
  3
ACAD_LAYOUTSELFREF
360
4E92
  0
DICTIONARY
  5
4E97
330
101
100
AcDbDictionary
280
     1
  3
ACAD_LAYOUTSELFREF
360
4E98
  0
DICTIONARY
  5
D
102
{ACAD_REACTORS
330
C
102
}
330
C
100
AcDbDictionary
  0
DICTIONARY
  5
1A
102
{ACAD_REACTORS
330
C
102
}
330
C
100
AcDbDictionary
  0
DICTIONARY
  5
17
102
{ACAD_REACTORS
330
C
102
}
330
C
100
AcDbDictionary
  3
STANDARD
350
18
  0
DICTIONARY
  5
19
102
{ACAD_REACTORS
330
C
102
}
330
C
100
AcDbDictionary
  0
ACDBDICTIONARYWDFLT
  5
E
102
{ACAD_REACTORS
330
C
102
}
330
C
100
AcDbDictionary
281
     1
  3
Normal
350
F
100
AcDbDictionaryWithDefault
340
F
  0
DICTIONARY
  5
34
102
{ACAD_REACTORS
330
C
102
}
330
C
100
AcDbDictionary
  3
INDEXCTL
350
35
  3
SORTENTS
350
B5E
  0
DICTIONARY
  5
43
102
{ACAD_REACTORS
330
C
102
}
330
C
100
AcDbDictionary
  3
ACMSTDDICTIONARY
350
260
  0
DICTIONARY
  5
2B
102
{ACAD_REACTORS
330
C
102
}
330
C
100
AcDbDictionary
  3
ACMGSETTINGS
350
2C
  0
DICTIONARY
  5
6E
102
{ACAD_REACTORS
330
C
102
}
330
C
100
AcDbDictionary
  0
DICTIONARY
  5
151A
102
{ACAD_REACTORS
330
C
102
}
330
C
100
AcDbDictionary
  3
ASEBLOCKHIERARCHYINDEXRECORD
350
151C
1001
DCO15
1040
1471862535.906
  0
XRECORD
  5
4E63
102
{ACAD_REACTORS
330
C
102
}
330
C
100
AcDbXrecord
  1
DWGPROPS COOKIE
  2

  3

  4

  6

  7

  8

  9

300
AmdtFileType=82
301
=
302
=
303
=
304
=
305
=
306
=
307
=
308
=
309
=
 40
0.1757556712962963
 41
2452838.430434386
 42
2453045.627710509
  1

 90
        1
  0
DICTIONARY
  5
4E6F
102
{ACAD_REACTORS
330
C
102
}
330
C
100
AcDbDictionary
  3
TSTACKALIGN
350
4E70
  3
TSTACKSIZE
350
4E71
  3
HYPERLINKBASE
350
4E72
  3
STYLESHEET
350
4E73
  3
LAYOUTDICT
350
4E74
  3
PLOTSETDICT
350
4E75
  3
PLOTSTYLNAMDICT
350
4E76
  3
LWETCUNION
350
4E77
  3
INSUNITS
350
4E78
  3
CEPSNTYPE
350
4E79
  3
FINGERPRINTGUID
350
4E7A
  3
VERSIONGUID
350
4E7B
  3
PSVPSCALE
350
4E7C
  3
DIMSTYLEDATA
350
4E7D
  3
PUCSORTHOREF
350
4E7E
  3
PUCSORTHOVIEW
350
4E7F
  3
PUCSBASE
350
4E80
  3
PUCSORGTOP
350
4E81
  3
PUCSORGBOTTOM
350
4E82
  3
PUCSORGLEFT
350
4E83
  3
PUCSORGRIGHT
350
4E84
  3
PUCSORGFRONT
350
4E85
  3
PUCSORGBACK
350
4E86
  3
UCSORTHOREF
350
4E87
  3
UCSORTHOVIEW
350
4E88
  3
UCSBASE
350
4E89
  3
UCSORGTOP
350
4E8A
  3
UCSORGBOTTOM
350
4E8B
  3
UCSORGLEFT
350
4E8C
  3
UCSORGRIGHT
350
4E8D
  3
UCSORGFRONT
350
4E8E
  3
UCSORGBACK
350
4E8F
  0
DICTIONARY
  5
4E65
102
{ACAD_REACTORS
330
74
102
}
330
74
100
AcDbDictionary
  3
*A1
350
4E66
  0
XRECORD
  5
4E92
102
{ACAD_REACTORS
330
74
102
}
330
74
100
AcDbXrecord
340
1F
  0
XRECORD
  5
4E98
102
{ACAD_REACTORS
330
4E97
102
}
330
4E97
100
AcDbXrecord
340
101
  0
MLINESTYLE
  5
18
102
{ACAD_REACTORS
330
17
102
}
330
17
100
AcDbMlineStyle
  2
STANDARD
 70
     0
  3

 62
   256
 51
90.0
 52
90.0
 71
     2
 49
0.5
 62
   256
  6
BYLAYER
 49
-0.5
 62
   256
  6
BYLAYER
  0
ACDBPLACEHOLDER
  5
F
102
{ACAD_REACTORS
330
E
102
}
330
E
100
AcDbPlaceHolder
280
     0
  0
DICTIONARYVAR
  5
35
102
{ACAD_REACTORS
330
34
102
}
330
34
100
DictionaryVariables
280
     0
  1
1
  0
DICTIONARYVAR
  5
B5E
102
{ACAD_REACTORS
330
34
102
}
330
34
100
DictionaryVariables
280
     0
  1
96
  0
DICTIONARY
  5
260
102
{ACAD_REACTORS
330
43
102
}
330
43
100
AcDbDictionary
  0
DICTIONARY
  5
2C
102
{ACAD_REACTORS
330
2B
102
}
330
2B
100
AcDbDictionary
  3
DWGSETTINGS
350
2D
  0
XRECORD
  5
151C
102
{ACAD_REACTORS
330
151A
102
}
330
151A
100
AcDbXrecord
330
0
330
0
330
0
330
0
330
0
330
0
330
0
330
0
  0
XRECORD
  5
4E70
102
{ACAD_REACTORS
330
4E6F
102
}
330
4E6F
100
AcDbXrecord
 90
        1
  0
XRECORD
  5
4E71
102
{ACAD_REACTORS
330
4E6F
102
}
330
4E6F
100
AcDbXrecord
 90
       70
  0
XRECORD
  5
4E72
102
{ACAD_REACTORS
330
4E6F
102
}
330
4E6F
100
AcDbXrecord
  1

  0
XRECORD
  5
4E73
102
{ACAD_REACTORS
330
4E6F
102
}
330
4E6F
100
AcDbXrecord
  1
ASAMI.ctb
  0
XRECORD
  5
4E74
102
{ACAD_REACTORS
330
4E6F
102
}
330
4E6F
100
AcDbXrecord
340
1A
  0
XRECORD
  5
4E75
102
{ACAD_REACTORS
330
4E6F
102
}
330
4E6F
100
AcDbXrecord
340
19
  0
XRECORD
  5
4E76
102
{ACAD_REACTORS
330
4E6F
102
}
330
4E6F
100
AcDbXrecord
340
E
  0
XRECORD
  5
4E77
102
{ACAD_REACTORS
330
4E6F
102
}
330
4E6F
100
AcDbXrecord
 90
    10781
  0
XRECORD
  5
4E78
102
{ACAD_REACTORS
330
4E6F
102
}
330
4E6F
100
AcDbXrecord
 90
        4
  0
XRECORD
  5
4E79
102
{ACAD_REACTORS
330
4E6F
102
}
330
4E6F
100
AcDbXrecord
 90
        0
  0
XRECORD
  5
4E7A
102
{ACAD_REACTORS
330
4E6F
102
}
330
4E6F
100
AcDbXrecord
  1
{AFB28963-8C59-40AE-9337-C84526B81ACE}
  0
XRECORD
  5
4E7B
102
{ACAD_REACTORS
330
4E6F
102
}
330
4E6F
100
AcDbXrecord
  1
{EF209A9C-7BA4-44F7-A47B-12F21818DB91}
  0
XRECORD
  5
4E7C
102
{ACAD_REACTORS
330
4E6F
102
}
330
4E6F
100
AcDbXrecord
 40
0.0
  0
XRECORD
  5
4E7D
102
{ACAD_REACTORS
330
4E6F
102
}
330
4E6F
100
AcDbXrecord
1000
DSTYLE
1002
{
1070
    79
 70
     2
1070
   341
340
59
1070
   342
340
59
1070
   371
 70
    -1
1070
   372
 70
    -1
1002
}
  0
XRECORD
  5
4E7E
102
{ACAD_REACTORS
330
4E6F
102
}
330
4E6F
100
AcDbXrecord
340
0
  0
XRECORD
  5
4E7F
102
{ACAD_REACTORS
330
4E6F
102
}
330
4E6F
100
AcDbXrecord
 70
     0
  0
XRECORD
  5
4E80
102
{ACAD_REACTORS
330
4E6F
102
}
330
4E6F
100
AcDbXrecord
340
0
  0
XRECORD
  5
4E81
102
{ACAD_REACTORS
330
4E6F
102
}
330
4E6F
100
AcDbXrecord
 10
0.0
 20
0.0
 30
0.0
  0
XRECORD
  5
4E82
102
{ACAD_REACTORS
330
4E6F
102
}
330
4E6F
100
AcDbXrecord
 10
0.0
 20
0.0
 30
0.0
  0
XRECORD
  5
4E83
102
{ACAD_REACTORS
330
4E6F
102
}
330
4E6F
100
AcDbXrecord
 10
0.0
 20
0.0
 30
0.0
  0
XRECORD
  5
4E84
102
{ACAD_REACTORS
330
4E6F
102
}
330
4E6F
100
AcDbXrecord
 10
0.0
 20
0.0
 30
0.0
  0
XRECORD
  5
4E85
102
{ACAD_REACTORS
330
4E6F
102
}
330
4E6F
100
AcDbXrecord
 10
0.0
 20
0.0
 30
0.0
  0
XRECORD
  5
4E86
102
{ACAD_REACTORS
330
4E6F
102
}
330
4E6F
100
AcDbXrecord
 10
0.0
 20
0.0
 30
0.0
  0
XRECORD
  5
4E87
102
{ACAD_REACTORS
330
4E6F
102
}
330
4E6F
100
AcDbXrecord
340
0
  0
XRECORD
  5
4E88
102
{ACAD_REACTORS
330
4E6F
102
}
330
4E6F
100
AcDbXrecord
 70
     0
  0
XRECORD
  5
4E89
102
{ACAD_REACTORS
330
4E6F
102
}
330
4E6F
100
AcDbXrecord
340
0
  0
XRECORD
  5
4E8A
102
{ACAD_REACTORS
330
4E6F
102
}
330
4E6F
100
AcDbXrecord
 10
0.0
 20
0.0
 30
0.0
  0
XRECORD
  5
4E8B
102
{ACAD_REACTORS
330
4E6F
102
}
330
4E6F
100
AcDbXrecord
 10
0.0
 20
0.0
 30
0.0
  0
XRECORD
  5
4E8C
102
{ACAD_REACTORS
330
4E6F
102
}
330
4E6F
100
AcDbXrecord
 10
0.0
 20
0.0
 30
0.0
  0
XRECORD
  5
4E8D
102
{ACAD_REACTORS
330
4E6F
102
}
330
4E6F
100
AcDbXrecord
 10
0.0
 20
0.0
 30
0.0
  0
XRECORD
  5
4E8E
102
{ACAD_REACTORS
330
4E6F
102
}
330
4E6F
100
AcDbXrecord
 10
0.0
 20
0.0
 30
0.0
  0
XRECORD
  5
4E8F
102
{ACAD_REACTORS
330
4E6F
102
}
330
4E6F
100
AcDbXrecord
 10
0.0
 20
0.0
 30
0.0
  0
LAYER_INDEX
  5
4E66
102
{ACAD_REACTORS
330
4E65
102
}
330
4E65
100
AcDbIndex
 40
2453151.775031991
100
AcDbLayerIndex
  8
0
360
4E67
 90
        0
  8
AM_0
360
4E68
 90
       31
  8
AM_11
360
4E69
 90
        4
  8
AM_7
360
4E6A
 90
        1
  8
AM_5
360
4E6B
 90
        5
  8
Defpoints
360
4E6C
 90
        0
  8
AM_6
360
4E6D
 90
        1
  0
XRECORD
  5
2D
102
{ACAD_REACTORS
330
2C
102
}
330
2C
100
AcDbXrecord
  1
VERSION
140
15.0
  1
PRODUCT
  2
AutoCAD Mechanical 2000
  0
IDBUFFER
  5
4E67
330
0
100
AcDbIdBuffer
  0
IDBUFFER
  5
4E68
330
0
100
AcDbIdBuffer
330
44FC
330
465E
330
4660
330
4661
330
4663
330
46F6
330
46FB
330
475D
330
4776
330
4778
330
4883
330
4884
330
4C8A
330
4CAE
330
4CBE
330
44D1
330
44D2
330
44D3
330
44D4
330
44D5
330
44D7
330
44DB
330
44DC
330
44DD
330
44DF
330
44E1
330
44E3
330
44E4
330
44E6
330
44E9
330
44FB
  0
IDBUFFER
  5
4E69
330
0
100
AcDbIdBuffer
330
44D9
330
44DA
330
44E2
330
44E8
  0
IDBUFFER
  5
4E6A
330
0
100
AcDbIdBuffer
330
3EE8
  0
IDBUFFER
  5
4E6B
330
0
100
AcDbIdBuffer
330
4047
330
412A
330
42F4
330
4664
330
4CD4
  0
IDBUFFER
  5
4E6C
330
0
100
AcDbIdBuffer
  0
IDBUFFER
  5
4E6D
330
0
100
AcDbIdBuffer
330
1500
  0
ENDSEC
  0
EOF
