  0
SECTION
  2
HEADER
  9
$ACADVER
  1
AC1014
  9
$ACADMAINTVER
 70
     9
  9
$DWGCODEPAGE
  3
ANSI_932
  9
$INSBASE
 10
0.0
 20
0.0
 30
0.0
  9
$EXTMIN
 10
-70.82008461608499
 20
-26.25000099999994
 30
-0.00000001
  9
$EXTMAX
 10
10.18325488112952
 20
4.499999999999918
 30
0.00000001
  9
$LIMMIN
 10
-74.67633142330504
 20
-35.33784452750071
  9
$LIMMAX
 10
18.94194621340287
 20
18.73502959182061
  9
$ORTHOMODE
 70
     0
  9
$REGENMODE
 70
     1
  9
$FILLMODE
 70
     1
  9
$QTEXTMODE
 70
     0
  9
$MIRRTEXT
 70
     0
  9
$DRAGMODE
 70
     2
  9
$LTSCALE
 40
1.0
  9
$OSMODE
 70
    55
  9
$ATTMODE
 70
     1
  9
$TEXTSIZE
 40
2.5
  9
$TRACEWID
 40
1.0
  9
$TEXTSTYLE
  7
STANDARD
  9
$CLAYER
  8
AM_0
  9
$CELTYPE
  6
BYLAYER
  9
$CECOLOR
 62
   256
  9
$CELTSCALE
 40
1.0
  9
$DELOBJ
 70
     1
  9
$DISPSILH
 70
     0
  9
$DIMSCALE
 40
0.5
  9
$DIMASZ
 40
2.5
  9
$DIMEXO
 40
1.0
  9
$DIMDLI
 40
12.0
  9
$DIMRND
 40
0.0
  9
$DIMDLE
 40
0.0
  9
$DIMEXE
 40
1.0
  9
$DIMTP
 40
0.1
  9
$DIMTM
 40
0.1
  9
$DIMTXT
 40
3.2
  9
$DIMCEN
 40
0.0
  9
$DIMTSZ
 40
0.0
  9
$DIMTOL
 70
     0
  9
$DIMLIM
 70
     0
  9
$DIMTIH
 70
     0
  9
$DIMTOH
 70
     0
  9
$DIMSE1
 70
     0
  9
$DIMSE2
 70
     0
  9
$DIMTAD
 70
     3
  9
$DIMZIN
 70
     8
  9
$DIMBLK
  1
OPEN30
  9
$DIMASO
 70
     1
  9
$DIMSHO
 70
     1
  9
$DIMPOST
  1

  9
$DIMAPOST
  1
"
  9
$DIMALT
 70
     0
  9
$DIMALTD
 70
     2
  9
$DIMALTF
 40
0.0393701
  9
$DIMLFAC
 40
1.0
  9
$DIMTOFL
 70
     1
  9
$DIMTVP
 40
0.0
  9
$DIMTIX
 70
     0
  9
$DIMSOXD
 70
     0
  9
$DIMSAH
 70
     0
  9
$DIMBLK1
  1

  9
$DIMBLK2
  1

  9
$DIMSTYLE
  2
AM_JIS
  9
$DIMCLRD
 70
   256
  9
$DIMCLRE
 70
   256
  9
$DIMCLRT
 70
     2
  9
$DIMTFAC
 40
0.71
  9
$DIMGAP
 40
1.5
  9
$DIMJUST
 70
     0
  9
$DIMSD1
 70
     0
  9
$DIMSD2
 70
     0
  9
$DIMTOLJ
 70
     0
  9
$DIMTZIN
 70
     0
  9
$DIMALTZ
 70
     0
  9
$DIMALTTZ
 70
     0
  9
$DIMFIT
 70
     3
  9
$DIMUPT
 70
     0
  9
$DIMUNIT
 70
     2
  9
$DIMDEC
 70
     3
  9
$DIMTDEC
 70
     3
  9
$DIMALTU
 70
     2
  9
$DIMALTTD
 70
     2
  9
$DIMTXSTY
  7
ASAMI
  9
$DIMAUNIT
 70
     0
  9
$LUNITS
 70
     2
  9
$LUPREC
 70
     2
  9
$SKETCHINC
 40
1.0
  9
$FILLETRAD
 40
2.5
  9
$AUNITS
 70
     0
  9
$AUPREC
 70
     0
  9
$MENU
  1
.
  9
$ELEVATION
 40
0.0
  9
$PELEVATION
 40
0.0
  9
$THICKNESS
 40
0.0
  9
$LIMCHECK
 70
     0
  9
$BLIPMODE
 70
     0
  9
$CHAMFERA
 40
0.5
  9
$CHAMFERB
 40
0.5
  9
$CHAMFERC
 40
20.0
  9
$CHAMFERD
 40
0.0
  9
$SKPOLY
 70
     0
  9
$TDCREATE
 40
2452838.430434386
  9
$TDUPDATE
 40
2453151.775970220
  9
$TDINDWG
 40
0.1935546181
  9
$TDUSRTIMER
 40
0.1935546181
  9
$USRTIMER
 70
     1
  9
$ANGBASE
 50
0.0
  9
$ANGDIR
 70
     0
  9
$PDMODE
 70
     0
  9
$PDSIZE
 40
0.0
  9
$PLINEWID
 40
0.0
  9
$COORDS
 70
     1
  9
$SPLFRAME
 70
     0
  9
$SPLINETYPE
 70
     6
  9
$SPLINESEGS
 70
     8
  9
$ATTDIA
 70
     1
  9
$ATTREQ
 70
     1
  9
$HANDLING
 70
 12289
  9
$HANDSEED
  5
4EBC
  9
$SURFTAB1
 70
     6
  9
$SURFTAB2
 70
     6
  9
$SURFTYPE
 70
     6
  9
$SURFU
 70
     6
  9
$SURFV
 70
     6
  9
$UCSNAME
  2

  9
$UCSORG
 10
0.0
 20
0.0
 30
0.0
  9
$UCSXDIR
 10
1.0
 20
0.0
 30
0.0
  9
$UCSYDIR
 10
0.0
 20
1.0
 30
0.0
  9
$PUCSNAME
  2

  9
$PUCSORG
 10
0.0
 20
0.0
 30
0.0
  9
$PUCSXDIR
 10
1.0
 20
0.0
 30
0.0
  9
$PUCSYDIR
 10
0.0
 20
1.0
 30
0.0
  9
$USERI1
 70
     0
  9
$USERI2
 70
     0
  9
$USERI3
 70
     0
  9
$USERI4
 70
     0
  9
$USERI5
 70
     0
  9
$USERR1
 40
0.0
  9
$USERR2
 40
0.0
  9
$USERR3
 40
0.0
  9
$USERR4
 40
0.0
  9
$USERR5
 40
0.0
  9
$WORLDVIEW
 70
     1
  9
$SHADEDGE
 70
     3
  9
$SHADEDIF
 70
    70
  9
$TILEMODE
 70
     1
  9
$MAXACTVP
 70
    64
  9
$PINSBASE
 10
0.0
 20
0.0
 30
0.0
  9
$PLIMCHECK
 70
     0
  9
$PEXTMIN
 10
1.000000000000000E+20
 20
1.000000000000000E+20
 30
1.000000000000000E+20
  9
$PEXTMAX
 10
-1.000000000000000E+20
 20
-1.000000000000000E+20
 30
-1.000000000000000E+20
  9
$PLIMMIN
 10
0.0
 20
0.0
  9
$PLIMMAX
 10
841.0
 20
594.0
  9
$UNITMODE
 70
     0
  9
$VISRETAIN
 70
     1
  9
$PLINEGEN
 70
     0
  9
$PSLTSCALE
 70
     0
  9
$TREEDEPTH
 70
  3020
  9
$PICKSTYLE
 70
     0
  9
$CMLSTYLE
  2
STANDARD
  9
$CMLJUST
 70
     0
  9
$CMLSCALE
 40
20.0
  9
$PROXYGRAPHICS
 70
     1
  9
$MEASUREMENT
 70
     1
  0
ENDSEC
  0
SECTION
  2
CLASSES
  0
CLASS
  1
ACDBDICTIONARYWDFLT
  2
AcDbDictionaryWithDefault
  3
AutoCAD 2000
 90
        0
280
     0
281
     0
  0
CLASS
  1
ACDBPLACEHOLDER
  2
AcDbPlaceHolder
  3
AutoCAD 2000
 90
        0
280
     0
281
     0
  0
CLASS
  1
LAYOUT
  2
AcDbLayout
  3
AutoCAD 2000
 90
        0
280
     0
281
     0
  0
CLASS
  1
AMGSETTINGSOBJ
  2
AmgSettingsObj
  3
"AcadM|Product Description: AutoCAD Mechanical 2000|Company: Autodesk"
 90
        0
280
     0
281
     0
  0
CLASS
  1
ACME_DOCUMENT
  2
AcMeDbDoc
  3
AcMeServices
 90
        0
280
     0
281
     0
  0
CLASS
  1
ACMESCOPE
  2
AcMeScope
  3
AcMeServices
 90
        0
280
     0
281
     0
  0
CLASS
  1
ACMECOMMANDHISTORY
  2
AcMeCommandHistory
  3
AcMeServices
 90
        0
280
     0
281
     0
  0
CLASS
  1
DICTIONARYVAR
  2
AcDbDictionaryVar
  3
AutoCAD 2000
 90
        0
280
     0
281
     0
  0
CLASS
  1
ACIMSYSVARMAN
  2
AcImSysVarManager
  3
AcMeServices
 90
        0
280
     0
281
     0
  0
CLASS
  1
ACIMREALSYSVAR
  2
AcImRealSysVar
  3
AcMeServices
 90
        0
280
     0
281
     0
  0
CLASS
  1
ACIMINTSYSVAR
  2
AcImIntSysVar
  3
AcMeServices
 90
        0
280
     0
281
     0
  0
CLASS
  1
ACMEDRAWINGMAN
  2
AcMeDrawingMan
  3
AcMeServices
 90
        0
280
     0
281
     0
  0
CLASS
  1
ACMEVIEW
  2
AcMeView
  3
AcMeServices
 90
        0
280
     0
281
     0
  0
CLASS
  1
ACDBENTITYCACHE
  2
AcMeEntityCache
  3
AcMeServices
 90
        0
280
     0
281
     0
  0
CLASS
  1
GSMANAGER
  2
AcMeGSManager
  3
AcMeServices
 90
        0
280
     0
281
     0
  0
CLASS
  1
AmdtInternalReactor
  2
AmdtInternalReactor
  3
AcMeServices
 90
        0
280
     0
281
     0
  0
CLASS
  1
ACMESTATEMGR
  2
AcMeStateMgr
  3
AcMeServices
 90
        0
280
     0
281
     0
  0
CLASS
  1
ACME_DATABASE
  2
AcMeDbDatabase
  3
AcMeServices
 90
        0
280
     0
281
     0
  0
CLASS
  1
ACRFINSADJUSTERMGR
  2
AcRfInsAdjusterMgr
  3
AcMeServices
 90
        0
280
     0
281
     0
  0
CLASS
  1
ACMDATADICTIONARY
  2
AcmDataDictionary
  3
"AcmSymBB|Product Description: AutoCAD Mechanical 2000|Company: Autodesk"
 90
        0
280
     0
281
     0
  0
CLASS
  1
ACMDATAENTRYBLOCK
  2
AcmDataEntryBlock
  3
"AcmSymBB|Product Description: AutoCAD Mechanical 2000|Company: Autodesk"
 90
        0
280
     0
281
     0
  0
CLASS
  1
AMGOBJPROPCFG
  2
AmgObjPropCfg
  3
"AmgLay|Product Description: AutoCAD Mechanical 2000|Company: Autodesk"
 90
        1
280
     0
281
     0
  0
CLASS
  1
ACAMGFILTERDAT
  2
AcAmgFilterDat
  3
"AcadM|Product Description: AutoCAD Mechanical 2000|Company: Autodesk"
 90
        0
280
     0
281
     0
  0
CLASS
  1
LAYER_INDEX
  2
AcDbLayerIndex
  3
AutoCAD 2000
 90
        0
280
     0
281
     0
  0
CLASS
  1
IDBUFFER
  2
AcDbIdBuffer
  3
AutoCAD 2000
 90
        0
280
     0
281
     0
  0
CLASS
  1
ACIMSTRSYSVAR
  2
AcImStrSysVar
  3
AcMeServices
 90
        0
280
     0
281
     0
  0
CLASS
  1
ACMSTANDARDJIS
  2
AcmStandardJIS
  3
"AcmSymBB|Product Description: AutoCAD Mechanical 2000|Company: Autodesk"
 90
        0
280
     0
281
     0
  0
CLASS
  1
ACMSURFSTANDARDJIS
  2
AcmSurfTextStdJIS
  3
"AcmSymBB|Product Description: AutoCAD Mechanical 2000|Company: Autodesk"
 90
        0
280
     0
281
     0
  0
CLASS
  1
ACMFCFSTANDARDJIS
  2
AcmFCFStdJIS
  3
"AcmSymBB|Product Description: AutoCAD Mechanical 2000|Company: Autodesk"
 90
        0
280
     0
281
     0
  0
CLASS
  1
ACMWELDSTANDARDJIS
  2
AcmWeldingStdJIS
  3
"AcmSymBB|Product Description: AutoCAD Mechanical 2000|Company: Autodesk"
 90
        0
280
     0
281
     0
  0
CLASS
  1
ACMIDSTANDARDJIS
  2
AcmIdStdJIS
  3
"AcmSymBB|Product Description: AutoCAD Mechanical 2000|Company: Autodesk"
 90
        0
280
     0
281
     0
  0
CLASS
  1
ACMDATUMSTANDARDJIS
  2
AcmDatumStdJIS
  3
"AcmSymBB|Product Description: AutoCAD Mechanical 2000|Company: Autodesk"
 90
        0
280
     0
281
     0
  0
CLASS
  1
ACMBOMSTANDARDJIS
  2
AcmBOMStdJIS
  3
"AcmSymBB|Product Description: AutoCAD Mechanical 2000|Company: Autodesk"
 90
        0
280
     0
281
     0
  0
CLASS
  1
ACMSTANDARDANSI
  2
AcmStandardANSI
  3
"AcmSymBB|Product Description: AutoCAD Mechanical 2000|Company: Autodesk"
 90
        0
280
     0
281
     0
  0
CLASS
  1
ACMSURFSTANDARDANSI
  2
AcmSurfTextStdANSI
  3
"AcmSymBB|Product Description: AutoCAD Mechanical 2000|Company: Autodesk"
 90
        0
280
     0
281
     0
  0
CLASS
  1
ACMFCFSTANDARDANSI
  2
AcmFCFStdANSI
  3
"AcmSymBB|Product Description: AutoCAD Mechanical 2000|Company: Autodesk"
 90
        0
280
     0
281
     0
  0
CLASS
  1
ACMWELDSTANDARDANSI
  2
AcmWeldingStdANSI
  3
"AcmSymBB|Product Description: AutoCAD Mechanical 2000|Company: Autodesk"
 90
        0
280
     0
281
     0
  0
CLASS
  1
ACMIDSTANDARDANSI
  2
AcmIdStdANSI
  3
"AcmSymBB|Product Description: AutoCAD Mechanical 2000|Company: Autodesk"
 90
        0
280
     0
281
     0
  0
CLASS
  1
ACMDATUMSTANDARDANSI
  2
AcmDatumStdANSI
  3
"AcmSymBB|Product Description: AutoCAD Mechanical 2000|Company: Autodesk"
 90
        0
280
     0
281
     0
  0
CLASS
  1
ACMBOMSTANDARDANSI
  2
AcmBOMStdANSI
  3
"AcmSymBB|Product Description: AutoCAD Mechanical 2000|Company: Autodesk"
 90
        0
280
     0
281
     0
  0
CLASS
  1
ACMSTANDARDBSI
  2
AcmStandardBSI
  3
"AcmSymBB|Product Description: AutoCAD Mechanical 2000|Company: Autodesk"
 90
        0
280
     0
281
     0
  0
CLASS
  1
ACMSURFSTANDARDBSI
  2
AcmSurfTextStdBSI
  3
"AcmSymBB|Product Description: AutoCAD Mechanical 2000|Company: Autodesk"
 90
        0
280
     0
281
     0
  0
CLASS
  1
ACMFCFSTANDARDBSI
  2
AcmFCFStdBSI
  3
"AcmSymBB|Product Description: AutoCAD Mechanical 2000|Company: Autodesk"
 90
        0
280
     0
281
     0
  0
CLASS
  1
ACMWELDSTANDARDBSI
  2
AcmWeldingStdBSI
  3
"AcmSymBB|Product Description: AutoCAD Mechanical 2000|Company: Autodesk"
 90
        0
280
     0
281
     0
  0
CLASS
  1
ACMIDSTANDARDBSI
  2
AcmIdStdBSI
  3
"AcmSymBB|Product Description: AutoCAD Mechanical 2000|Company: Autodesk"
 90
        0
280
     0
281
     0
  0
CLASS
  1
ACMDATUMSTANDARDBSI
  2
AcmDatumStdBSI
  3
"AcmSymBB|Product Description: AutoCAD Mechanical 2000|Company: Autodesk"
 90
        0
280
     0
281
     0
  0
CLASS
  1
ACMBOMSTANDARDBSI
  2
AcmBOMStdBSI
  3
"AcmSymBB|Product Description: AutoCAD Mechanical 2000|Company: Autodesk"
 90
        0
280
     0
281
     0
  0
CLASS
  1
LONG_TRANSACTION
  2
AcDbLongTransaction
  3
AutoCAD 2000
 90
        0
280
     0
281
     0
  0
CLASS
  1
LWPOLYLINE
  2
AcDbPolyline
  3
AutoCAD 2000
 90
        0
280
     0
281
     1
  0
CLASS
  1
HATCH
  2
AcDbHatch
  3
AutoCAD 2000
 90
        0
280
     0
281
     1
  0
CLASS
  1
XRECORD
  2
AcDbXrecord
  3
AutoCAD 2000
 90
        0
280
     0
281
     0
  0
ENDSEC
  0
SECTION
  2
TABLES
  0
TABLE
  2
VPORT
  5
8
330
0
100
AcDbSymbolTable
 70
     3
  0
VPORT
  5
4E8B
330
8
100
AcDbSymbolTableRecord
100
AcDbViewportTableRecord
  2
*ACTIVE
 70
     0
 10
0.0
 20
0.0
 11
1.0
 21
1.0
 12
-26.91557800581273
 22
-6.111893567411406
 13
0.0
 23
0.0
 14
2.5
 24
2.5
 15
10.0
 25
10.0
 16
0.0
 26
0.0
 36
1.0
 17
0.0
 27
0.0
 37
0.0
 40
74.27353268635268
 41
1.56570841889117
 42
50.0
 43
0.0
 44
0.0
 50
0.0
 51
0.0
 71
     0
 72
   100
 73
     1
 74
     3
 75
     0
 76
     0
 77
     0
 78
     0
  0
ENDTAB
  0
TABLE
  2
LTYPE
  5
5
330
0
100
AcDbSymbolTable
 70
    10
  0
LTYPE
  5
14
330
5
100
AcDbSymbolTableRecord
100
AcDbLinetypeTableRecord
  2
BYBLOCK
 70
     0
  3

 72
    65
 73
     0
 40
0.0
  0
LTYPE
  5
15
330
5
100
AcDbSymbolTableRecord
100
AcDbLinetypeTableRecord
  2
BYLAYER
 70
     0
  3

 72
    65
 73
     0
 40
0.0
  0
LTYPE
  5
16
330
5
100
AcDbSymbolTableRecord
100
AcDbLinetypeTableRecord
  2
CONTINUOUS
 70
     0
  3
Solid line
 72
    65
 73
     0
 40
0.0
  0
LTYPE
  5
4B
330
5
100
AcDbSymbolTableRecord
100
AcDbLinetypeTableRecord
  2
AM_ISO02W050
 70
     0
  3
__ __ __ __ __ __ __ __ __ __ __ __ __ __ __
 72
    65
 73
     2
 40
7.5
 49
6.0
 74
     0
 49
-1.5
 74
     0
  0
LTYPE
  5
4C
330
5
100
AcDbSymbolTableRecord
100
AcDbLinetypeTableRecord
  2
AM_ISO08W050
 70
     0
  3
____ . ____ . ____ . ____ . ____ . ____ . ____
 72
    65
 73
     4
 40
18.0
 49
12.0
 74
     0
 49
-1.5
 74
     0
 49
3.0
 74
     0
 49
-1.5
 74
     0
  0
LTYPE
  5
4D
330
5
100
AcDbSymbolTableRecord
100
AcDbLinetypeTableRecord
  2
AM_ISO09W050
 70
     0
  3
_____ . . _____ . . _____ . . ____ .. ____
 72
    65
 73
     6
 40
22.5
 49
12.0
 74
     0
 49
-1.5
 74
     0
 49
3.0
 74
     0
 49
-1.5
 74
     0
 49
3.0
 74
     0
 49
-1.5
 74
     0
  0
LTYPE
  5
4E
330
5
100
AcDbSymbolTableRecord
100
AcDbLinetypeTableRecord
  2
AMCONSTR
 70
     0
  3
_______________________
 72
    65
 73
     2
 40
9999.0
 49
9999.0
 74
     0
 49
0.0
 74
     0
  0
LTYPE
  5
4F
330
5
100
AcDbSymbolTableRecord
100
AcDbLinetypeTableRecord
  2
AM_ISO02W050X2
 70
     0
  3
 _ _ _ _ _ _ _ _ _ _ _ _
 72
    65
 73
     2
 40
3.75
 49
3.0
 74
     0
 49
-0.75
 74
     0
  0
LTYPE
  5
50
330
5
100
AcDbSymbolTableRecord
100
AcDbLinetypeTableRecord
  2
AM_ISO08W050X2
 70
     0
  3
__ . __ . __ . __ . __ . __
 72
    65
 73
     4
 40
9.0
 49
6.0
 74
     0
 49
-0.75
 74
     0
 49
1.5
 74
     0
 49
-0.75
 74
     0
  0
LTYPE
  5
53
330
5
100
AcDbSymbolTableRecord
100
AcDbLinetypeTableRecord
  2
AMZIGZAG
 70
     0
  3
/\/-/\/-/\/-/\/-/\/-/\/
 72
    65
 73
     2
 40
11.00009999999999
 49
0.0001
 74
     4
 75
   135
340
52
 46
0.04
 50
0.0
 44
0.0
 45
0.0
 49
-11.0
 74
     0
  0
LTYPE
  5
166
330
5
100
AcDbSymbolTableRecord
100
AcDbLinetypeTableRecord
  2
ACJISTGL
 70
     0
  3
_ _ _ _ _
 72
    65
 73
     2
 40
3.0
 49
2.0
 74
     0
 49
-1.0
 74
     0
  0
LTYPE
  5
26A
330
5
100
AcDbSymbolTableRecord
100
AcDbLinetypeTableRecord
  2
ACJISTGB
 70
     0
  3
__ . . __ . .
 72
    65
 73
     6
 40
9.0
 49
4.0
 74
     0
 49
-1.0
 74
     0
 49
1.0
 74
     0
 49
-1.0
 74
     0
 49
1.0
 74
     0
 49
-1.0
 74
     0
  0
ENDTAB
  0
TABLE
  2
LAYER
  5
2
330
0
100
AcDbSymbolTable
 70
     7
  0
LAYER
  5
10
330
2
100
AcDbSymbolTableRecord
100
AcDbLayerTableRecord
  2
0
 70
     0
 62
     7
  6
CONTINUOUS
  0
LAYER
  5
3F9
330
2
100
AcDbSymbolTableRecord
100
AcDbLayerTableRecord
  2
AM_0
 70
     0
 62
     7
  6
CONTINUOUS
  0
LAYER
  5
BDD
330
2
100
AcDbSymbolTableRecord
100
AcDbLayerTableRecord
  2
AM_11
 70
     0
 62
     3
  6
AM_ISO09W050
  0
LAYER
  5
BDE
330
2
100
AcDbSymbolTableRecord
100
AcDbLayerTableRecord
  2
AM_7
 70
     0
 62
     4
  6
AM_ISO08W050
  0
LAYER
  5
BDF
330
2
100
AcDbSymbolTableRecord
100
AcDbLayerTableRecord
  2
AM_5
 70
     0
 62
     3
  6
CONTINUOUS
  0
LAYER
  5
BE0
330
2
100
AcDbSymbolTableRecord
100
AcDbLayerTableRecord
  2
DEFPOINTS
 70
     0
 62
     7
  6
CONTINUOUS
  0
LAYER
  5
14FF
330
2
100
AcDbSymbolTableRecord
100
AcDbLayerTableRecord
  2
AM_6
 70
     0
 62
     2
  6
CONTINUOUS
  0
ENDTAB
  0
TABLE
  2
STYLE
  5
3
330
0
100
AcDbSymbolTable
 70
     5
  0
STYLE
  5
11
330
3
100
AcDbSymbolTableRecord
100
AcDbTextStyleTableRecord
  2
STANDARD
 70
     0
 40
0.0
 41
1.0
 50
0.0
 71
     0
 42
2.5
  3
simplex.shx
  4
EXTFONT.SHX
  0
STYLE
  5
52
330
3
100
AcDbSymbolTableRecord
100
AcDbTextStyleTableRecord
  2

 70
     1
 40
0.0
 41
1.0
 50
0.0
 71
     0
 42
2.5
  3
ltypeshp.shx
  4

  0
STYLE
  5
6B
330
3
100
AcDbSymbolTableRecord
100
AcDbTextStyleTableRecord
  2
ASAMI
 70
     0
 40
0.0
 41
1.0
 50
0.0
 71
     0
 42
2.5
  3
simplex.shx
  4
EXTFONT.SHX
  0
STYLE
  5
262
330
3
100
AcDbSymbolTableRecord
100
AcDbTextStyleTableRecord
  2
ACJISTS
 70
     0
 40
1.0
 41
1.0
 50
0.0
 71
     0
 42
2.5
  3
simplex.shx
  4
bigfont.shx
  0
STYLE
  5
269
330
3
100
AcDbSymbolTableRecord
100
AcDbTextStyleTableRecord
  2
ACJISGDT
 70
     0
 40
0.0
 41
1.0
 50
0.0
 71
     0
 42
2.5
  3
amgdtans.shx
  4

  0
ENDTAB
  0
TABLE
  2
VIEW
  5
6
330
0
100
AcDbSymbolTable
 70
     0
  0
ENDTAB
  0
TABLE
  2
UCS
  5
7
330
0
100
AcDbSymbolTable
 70
     0
  0
ENDTAB
  0
TABLE
  2
APPID
  5
9
330
0
100
AcDbSymbolTable
 70
    14
  0
APPID
  5
12
330
9
100
AcDbSymbolTableRecord
100
AcDbRegAppTableRecord
  2
ACAD
 70
     0
  0
APPID
  5
30
330
9
100
AcDbSymbolTableRecord
100
AcDbRegAppTableRecord
  2
MCAD_NO_VIS
 70
     0
  0
APPID
  5
31
330
9
100
AcDbSymbolTableRecord
100
AcDbRegAppTableRecord
  2
ACAD_TEMP_GRAPHIC
 70
     0
  0
APPID
  5
2C2
330
9
100
AcDbSymbolTableRecord
100
AcDbRegAppTableRecord
  2
GENIUS_GENDTOL_13
 70
     0
  0
APPID
  5
339
330
9
100
AcDbSymbolTableRecord
100
AcDbRegAppTableRecord
  2
GENIUS_GENODEF_13
 70
     0
  0
APPID
  5
33A
330
9
100
AcDbSymbolTableRecord
100
AcDbRegAppTableRecord
  2
GENIUS_GENOBJ-N-RSBK_13
 70
     0
  0
APPID
  5
33B
330
9
100
AcDbSymbolTableRecord
100
AcDbRegAppTableRecord
  2
GENIUS_GENOBJ-N-LIB_13
 70
     0
  0
APPID
  5
33C
330
9
100
AcDbSymbolTableRecord
100
AcDbRegAppTableRecord
  2
GENIUS_GENSCALE_13
 70
     0
  0
APPID
  5
378
330
9
100
AcDbSymbolTableRecord
100
AcDbRegAppTableRecord
  2
GENIUS_GENDIMSH_14
 70
     0
  0
APPID
  5
BE1
330
9
100
AcDbSymbolTableRecord
100
AcDbRegAppTableRecord
  2
GENIUS_GENFIL_13
 70
     0
  0
APPID
  5
BE2
330
9
100
AcDbSymbolTableRecord
100
AcDbRegAppTableRecord
  2
GENIUS_GENOBJ-N-CHA_13
 70
     0
  0
APPID
  5
151B
330
9
100
AcDbSymbolTableRecord
100
AcDbRegAppTableRecord
  2
DCO15
 70
     0
  0
APPID
  5
1860
330
9
100
AcDbSymbolTableRecord
100
AcDbRegAppTableRecord
  2
GENIUS_GENOBJ-N-CEN_13
 70
     0
  0
APPID
  5
359C
330
9
100
AcDbSymbolTableRecord
100
AcDbRegAppTableRecord
  2
GENIUS_GENOBJ-N-FIL_13
 70
     0
  0
ENDTAB
  0
TABLE
  2
DIMSTYLE
  5
A
330
0
100
AcDbSymbolTable
 70
     8
  0
DIMSTYLE
105
58
102
{ACAD_REACTORS
330
4047
330
412A
330
42F4
330
4821
102
}
330
A
100
AcDbSymbolTableRecord
100
AcDbDimStyleTableRecord
  2
AM_JIS
 70
     0
  3

  4
"
  5
OPEN30
  6

  7

 40
0.5
 41
2.5
 42
1.0
 43
12.0
 44
1.0
 45
0.0
 46
0.0
 47
0.1
 48
0.1
140
3.2
141
0.0
142
0.0
143
0.0393701
144
1.0
145
0.0
146
0.71
147
1.5
 71
     0
 72
     0
 73
     0
 74
     0
 75
     0
 76
     0
 77
     3
 78
     8
170
     0
171
     2
172
     1
173
     0
174
     0
175
     0
176
   256
177
   256
178
     2
270
     2
271
     3
272
     3
273
     2
274
     2
340
6B
275
     0
280
     0
281
     0
282
     0
283
     0
284
     0
285
     0
286
     0
287
     3
288
     0
  0
DIMSTYLE
105
5F
330
A
100
AcDbSymbolTableRecord
100
AcDbDimStyleTableRecord
  2
AM_JIS$3
 70
     0
  3

  4
"
  5
OPEN30
  6

  7

 40
0.5
 41
2.5
 42
1.0
 43
10.0
 44
1.0
 45
0.0
 46
0.0
 47
0.1
 48
0.1
140
3.2
141
0.0
142
0.0
143
0.0393701
144
1.0
145
0.0
146
0.71
147
1.5
 71
     0
 72
     0
 73
     0
 74
     1
 75
     0
 76
     0
 77
     3
 78
     8
170
     0
171
     2
172
     0
173
     0
174
     0
175
     0
176
   256
177
   256
178
     2
270
     2
271
     2
272
     3
273
     2
274
     2
340
6B
275
     0
280
     0
281
     0
282
     0
283
     0
284
     0
285
     0
286
     0
287
     0
288
     1
  0
DIMSTYLE
105
60
102
{ACAD_REACTORS
330
4CD6
102
}
330
A
100
AcDbSymbolTableRecord
100
AcDbDimStyleTableRecord
  2
AM_JIS$4
 70
     0
  3

  4
"
  5
OPEN30
  6

  7

 40
0.5
 41
2.5
 42
1.0
 43
10.0
 44
1.0
 45
0.0
 46
0.0
 47
0.1
 48
0.1
140
3.2
141
0.0
142
0.0
143
0.0393701
144
1.0
145
0.0
146
0.71
147
1.5
 71
     0
 72
     0
 73
     0
 74
     1
 75
     0
 76
     0
 77
     3
 78
     8
170
     0
171
     2
172
     0
173
     0
174
     0
175
     0
176
   256
177
   256
178
     2
270
     2
271
     2
272
     3
273
     2
274
     2
340
6B
275
     0
280
     0
281
     0
282
     0
283
     0
284
     0
285
     0
286
     0
287
     0
288
     1
  0
DIMSTYLE
105
61
330
A
100
AcDbSymbolTableRecord
100
AcDbDimStyleTableRecord
  2
AM_JIS$6
 70
     0
  3

  4
"
  5
OPEN30
  6

  7

 40
0.5
 41
2.5
 42
1.0
 43
10.0
 44
1.0
 45
0.0
 46
0.0
 47
0.1
 48
0.1
140
3.2
141
0.0
142
0.0
143
0.0393701
144
1.0
145
0.0
146
0.71
147
1.5
 71
     0
 72
     0
 73
     0
 74
     0
 75
     0
 76
     0
 77
     0
 78
     8
170
     0
171
     2
172
     1
173
     0
174
     0
175
     0
176
   256
177
   256
178
     2
270
     2
271
     2
272
     2
273
     2
274
     2
340
6B
275
     0
280
     0
281
     0
282
     0
283
     0
284
     0
285
     0
286
     0
287
     3
288
     0
  0
DIMSTYLE
105
62
330
A
100
AcDbSymbolTableRecord
100
AcDbDimStyleTableRecord
  2
AM_JIS$7
 70
     0
  3

  4
"
  5
OPEN30
  6

  7

 40
0.5
 41
2.5
 42
1.0
 43
10.0
 44
1.0
 45
0.0
 46
0.0
 47
0.1
 48
0.1
140
3.2
141
0.0
142
0.0
143
0.0393701
144
1.0
145
0.0
146
0.71
147
1.5
 71
     0
 72
     0
 73
     0
 74
     0
 75
     0
 76
     0
 77
     3
 78
     8
170
     0
171
     2
172
     1
173
     0
174
     0
175
     0
176
   256
177
   256
178
     2
270
     2
271
     2
272
     3
273
     2
274
     2
340
6B
275
     0
280
     0
281
     0
282
     0
283
     0
284
     0
285
     0
286
     0
287
     3
288
     0
  0
DIMSTYLE
105
63
330
A
100
AcDbSymbolTableRecord
100
AcDbDimStyleTableRecord
  2
AM_JIS$SF
 70
     0
  3

  4
"
  5
OPEN30
  6

  7

 40
0.5
 41
2.5
 42
1.0
 43
10.0
 44
1.0
 45
0.0
 46
0.0
 47
0.1
 48
0.1
140
3.2
141
0.0
142
0.0
143
0.0393701
144
1.0
145
0.0
146
0.71
147
1.5
 71
     0
 72
     0
 73
     0
 74
     0
 75
     1
 76
     1
 77
     3
 78
     8
170
     0
171
     2
172
     1
173
     0
174
     0
175
     0
176
   256
177
   256
178
     2
270
     2
271
     2
272
     2
273
     2
274
     2
340
6B
275
     0
280
     0
281
     0
282
     0
283
     0
284
     0
285
     0
286
     0
287
     3
288
     0
  0
DIMSTYLE
105
68
330
A
100
AcDbSymbolTableRecord
100
AcDbDimStyleTableRecord
  2
AM_JIS$SH
 70
     0
  3

  4
"
  5

  6
GENAXEH
  7
OPEN30
 40
0.5
 41
2.5
 42
1.0
 43
10.0
 44
1.0
 45
0.0
 46
0.0
 47
0.1
 48
0.1
140
3.2
141
0.0
142
0.0
143
0.0393701
144
2.0
145
0.0
146
0.71
147
1.5
 71
     0
 72
     0
 73
     0
 74
     0
 75
     1
 76
     1
 77
     3
 78
     8
170
     0
171
     2
172
     1
173
     1
174
     0
175
     0
176
   256
177
   256
178
     2
270
     2
271
     2
272
     2
273
     2
274
     2
340
6B
275
     0
280
     0
281
     0
282
     0
283
     0
284
     0
285
     0
286
     0
287
     3
288
     0
  0
DIMSTYLE
105
B34
330
A
100
AcDbSymbolTableRecord
100
AcDbDimStyleTableRecord
  2
AM_JIS$2
 70
     0
  3

  4
"
  5
OPEN30
  6

  7

 40
0.5
 41
2.5
 42
1.0
 43
12.0
 44
1.0
 45
0.0
 46
0.0
 47
0.1
 48
0.1
140
3.2
141
0.0
142
0.0
143
0.0393701
144
1.0
145
0.0
146
0.71
147
1.5
 71
     0
 72
     0
 73
     0
 74
     0
 75
     0
 76
     0
 77
     3
 78
     8
170
     0
171
     2
172
     1
173
     0
174
     0
175
     0
176
   256
177
   256
178
     2
270
     2
271
     3
272
     3
273
     2
274
     2
340
6B
275
     0
280
     0
281
     0
282
     0
283
     0
284
     0
285
     0
286
     0
287
     3
288
     0
  0
ENDTAB
  0
TABLE
  2
BLOCK_RECORD
  5
1
330
0
100
AcDbSymbolTable
 70
    10
  0
BLOCK_RECORD
  5
1F
102
{ACAD_XDICTIONARY
360
74
102
}
330
1
100
AcDbSymbolTableRecord
100
AcDbBlockTableRecord
  2
*MODEL_SPACE
  0
BLOCK_RECORD
  5
101
102
{ACAD_XDICTIONARY
360
4EB4
102
}
330
1
100
AcDbSymbolTableRecord
100
AcDbBlockTableRecord
  2
*PAPER_SPACE
  0
BLOCK_RECORD
  5
59
330
1
100
AcDbSymbolTableRecord
100
AcDbBlockTableRecord
  2
_OPEN30
  0
BLOCK_RECORD
  5
64
330
1
100
AcDbSymbolTableRecord
100
AcDbBlockTableRecord
  2
GENAXEH
  0
BLOCK_RECORD
  5
4048
330
1
100
AcDbSymbolTableRecord
100
AcDbBlockTableRecord
  2
*D5
  0
BLOCK_RECORD
  5
412B
330
1
100
AcDbSymbolTableRecord
100
AcDbBlockTableRecord
  2
*D6
  0
BLOCK_RECORD
  5
42F5
330
1
100
AcDbSymbolTableRecord
100
AcDbBlockTableRecord
  2
*D7
  0
BLOCK_RECORD
  5
4822
330
1
100
AcDbSymbolTableRecord
100
AcDbBlockTableRecord
  2
*D8
  0
BLOCK_RECORD
  5
4CD7
330
1
100
AcDbSymbolTableRecord
100
AcDbBlockTableRecord
  2
*D9
  0
ENDTAB
  0
ENDSEC
  0
SECTION
  2
BLOCKS
  0
BLOCK
  5
20
330
1F
100
AcDbEntity
  8
0
100
AcDbBlockBegin
  2
*MODEL_SPACE
 70
     0
 10
0.0
 20
0.0
 30
0.0
  3
*MODEL_SPACE
  1

  0
ENDBLK
  5
21
330
1F
100
AcDbEntity
  8
0
100
AcDbBlockEnd
  0
BLOCK
  5
103
330
101
100
AcDbEntity
 67
     1
  8
0
100
AcDbBlockBegin
  2
*PAPER_SPACE
 70
     0
 10
0.0
 20
0.0
 30
0.0
  3
*PAPER_SPACE
  1

  0
ENDBLK
  5
104
330
101
100
AcDbEntity
 67
     1
  8
0
100
AcDbBlockEnd
  0
BLOCK
  5
5D
330
59
100
AcDbEntity
  8
0
100
AcDbBlockBegin
  2
_OPEN30
 70
     0
 10
0.0
 20
0.0
 30
0.0
  3
_OPEN30
  1

  0
LINE
  5
5A
330
59
100
AcDbEntity
  8
0
 62
     0
100
AcDbLine
 10
-1.0
 20
0.26794919
 30
0.0
 11
0.0
 21
0.0
 31
0.0
  0
LINE
  5
5B
330
59
100
AcDbEntity
  8
0
 62
     0
100
AcDbLine
 10
0.0
 20
0.0
 30
0.0
 11
-1.0
 21
-0.26794919
 31
0.0
  0
LINE
  5
5C
330
59
100
AcDbEntity
  8
0
 62
     0
100
AcDbLine
 10
0.0
 20
0.0
 30
0.0
 11
-1.0
 21
0.0
 31
0.0
  0
ENDBLK
  5
5E
330
59
100
AcDbEntity
  8
0
100
AcDbBlockEnd
  0
BLOCK
  5
66
330
64
100
AcDbEntity
  8
0
100
AcDbBlockBegin
  2
GENAXEH
 70
     0
 10
0.0
 20
0.0
 30
0.0
  3
GENAXEH
  1

  0
LINE
  5
65
330
64
100
AcDbEntity
  8
0
100
AcDbLine
 10
-1.0
 20
0.0
 30
0.0
 11
1.0
 21
0.0
 31
0.0
  0
ENDBLK
  5
67
330
64
100
AcDbEntity
  8
0
100
AcDbBlockEnd
  0
BLOCK
  5
4052
330
4048
100
AcDbEntity
  8
0
100
AcDbBlockBegin
  2
*D5
 70
     1
 10
0.0
 20
0.0
 30
0.0
  3
*D5
  1

  0
LINE
  5
4899
330
4048
100
AcDbEntity
  8
AM_5
100
AcDbLine
 10
-59.99999999999999
 20
-2.00000000000004
 30
0.0
 11
-59.99999999999999
 21
-15.50000099999992
 31
0.0
  0
LINE
  5
489A
330
4048
100
AcDbEntity
  8
AM_5
100
AcDbLine
 10
0.0000000000000006
 20
-0.5000000000000005
 30
0.0
 11
-0.0000000000000003
 21
-15.50000099999992
 31
0.0
  0
LINE
  5
489B
330
4048
100
AcDbEntity
  8
AM_5
100
AcDbLine
 10
-58.74999999999999
 20
-15.00000099999992
 30
0.0
 11
-1.25
 21
-15.00000099999992
 31
0.0
  0
INSERT
  5
489C
330
4048
100
AcDbEntity
  8
AM_5
100
AcDbBlockReference
  2
_OPEN30
 10
-59.99999999999999
 20
-15.00000099999992
 30
0.0
 41
1.25
 42
1.25
 43
1.25
 50
180.0
  0
INSERT
  5
489D
330
4048
100
AcDbEntity
  8
AM_5
100
AcDbBlockReference
  2
_OPEN30
 10
-0.0000000000000003
 20
-15.00000099999992
 30
0.0
 41
1.25
 42
1.25
 43
1.25
  0
MTEXT
  5
489E
330
4048
100
AcDbEntity
  8
AM_5
 62
     2
100
AcDbMText
 10
-29.99999999999999
 20
-13.45000099999992
 30
0.0
 40
1.6
 41
0.0
 71
     5
 72
     1
  1
60
  7
ASAMI
1001
ACAD
1000
MTEXTBEGIN
1070
    73
1070
     1
1070
    44
1040
1.0
1070
    74
1070
     0
1000
MTEXTEND
  0
POINT
  5
489F
330
4048
100
AcDbEntity
  8
DEFPOINTS
 62
     0
100
AcDbPoint
 10
-59.99999999999999
 20
-1.50000000000004
 30
0.0
  0
POINT
  5
48A0
330
4048
100
AcDbEntity
  8
DEFPOINTS
 62
     0
100
AcDbPoint
 10
0.0000000000000007
 20
-0.0000000000000005
 30
0.0
  0
POINT
  5
48A1
330
4048
100
AcDbEntity
  8
DEFPOINTS
 62
     0
100
AcDbPoint
 10
-0.0000000000000003
 20
-15.00000099999992
 30
0.0
  0
ENDBLK
  5
4053
330
4048
100
AcDbEntity
  8
0
100
AcDbBlockEnd
  0
BLOCK
  5
4135
330
412B
100
AcDbEntity
  8
0
100
AcDbBlockBegin
  2
*D6
 70
     1
 10
0.0
 20
0.0
 30
0.0
  3
*D6
  1

  0
LINE
  5
48AD
330
412B
100
AcDbEntity
  8
AM_5
100
AcDbLine
 10
-0.0000000000000142
 20
-0.5000000000000111
 30
0.0
 11
-0.0000000000000148
 21
-9.500000999999931
 31
0.0
  0
LINE
  5
48AE
330
412B
100
AcDbEntity
  8
AM_5
100
AcDbLine
 10
-3.000000000000234
 20
-1.499999999999874
 30
0.0
 11
-3.000000000000234
 21
-9.500000999999931
 31
0.0
  0
LINE
  5
48AF
330
412B
100
AcDbEntity
  8
AM_5
100
AcDbLine
 10
1.249999999999985
 20
-9.000000999999931
 30
0.0
 11
2.499999999999985
 21
-9.000000999999931
 31
0.0
  0
LINE
  5
48B0
330
412B
100
AcDbEntity
  8
AM_5
100
AcDbLine
 10
-4.250000000000234
 20
-9.000000999999931
 30
0.0
 11
-5.500000000000234
 21
-9.000000999999931
 31
0.0
  0
LINE
  5
48B1
330
412B
100
AcDbEntity
  8
AM_5
100
AcDbLine
 10
-0.0000000000000148
 20
-9.000000999999931
 30
0.0
 11
-3.000000000000234
 21
-9.000000999999931
 31
0.0
  0
INSERT
  5
48B2
330
412B
100
AcDbEntity
  8
AM_5
100
AcDbBlockReference
  2
_OPEN30
 10
-0.0000000000000148
 20
-9.000000999999931
 30
0.0
 41
1.25
 42
1.25
 43
1.25
 50
180.0
  0
INSERT
  5
48B3
330
412B
100
AcDbEntity
  8
AM_5
100
AcDbBlockReference
  2
_OPEN30
 10
-3.000000000000234
 20
-9.000000999999931
 30
0.0
 41
1.25
 42
1.25
 43
1.25
  0
MTEXT
  5
48B4
330
412B
100
AcDbEntity
  8
AM_5
 62
     2
100
AcDbMText
 10
-1.500000000000124
 20
-7.450000999999931
 30
0.0
 40
1.6
 41
0.0
 71
     5
 72
     1
  1
3
  7
ASAMI
1001
ACAD
1000
MTEXTBEGIN
1070
    73
1070
     1
1070
    44
1040
1.0
1070
    74
1070
     0
1000
MTEXTEND
  0
POINT
  5
48B5
330
412B
100
AcDbEntity
  8
DEFPOINTS
 62
     0
100
AcDbPoint
 10
-0.0000000000000142
 20
-0.0000000000000111
 30
0.0
  0
POINT
  5
48B6
330
412B
100
AcDbEntity
  8
DEFPOINTS
 62
     0
100
AcDbPoint
 10
-3.000000000000234
 20
-0.9999999999998749
 30
0.0
  0
POINT
  5
48B7
330
412B
100
AcDbEntity
  8
DEFPOINTS
 62
     0
100
AcDbPoint
 10
-3.000000000000234
 20
-9.000000999999931
 30
0.0
  0
ENDBLK
  5
4136
330
412B
100
AcDbEntity
  8
0
100
AcDbBlockEnd
  0
BLOCK
  5
42FF
330
42F5
100
AcDbEntity
  8
0
100
AcDbBlockBegin
  2
*D7
 70
     1
 10
0.0
 20
0.0
 30
0.0
  3
*D7
  1

  0
LINE
  5
4BC8
330
42F5
100
AcDbEntity
  8
AM_5
100
AcDbLine
 10
-0.5
 20
1.0
 30
0.0
 11
10.18325488112952
 21
0.9999999999999971
 31
0.0
  0
LINE
  5
4BC9
330
42F5
100
AcDbEntity
  8
AM_5
100
AcDbLine
 10
-0.4999999999999982
 20
-1.0
 30
0.0
 11
10.18325488112952
 21
-1.000000000000003
 31
0.0
  0
LINE
  5
4BCA
330
42F5
100
AcDbEntity
  8
AM_5
100
AcDbLine
 10
9.683254881129526
 20
2.249999999999996
 30
0.0
 11
9.683254881129526
 21
3.499999999999996
 31
0.0
  0
LINE
  5
4BCB
330
42F5
100
AcDbEntity
  8
AM_5
100
AcDbLine
 10
9.683254881129526
 20
-2.250000000000003
 30
0.0
 11
9.683254881129524
 21
-7.514285714285716
 31
0.0
  0
LINE
  5
4BCC
330
42F5
100
AcDbEntity
  8
AM_5
100
AcDbLine
 10
9.683254881129526
 20
0.9999999999999971
 30
0.0
 11
9.683254881129526
 21
-1.000000000000003
 31
0.0
  0
INSERT
  5
4BCD
330
42F5
100
AcDbEntity
  8
AM_5
100
AcDbBlockReference
  2
_OPEN30
 10
9.683254881129526
 20
0.9999999999999971
 30
0.0
 41
1.25
 42
1.25
 43
1.25
 50
270.0
  0
INSERT
  5
4BCE
330
42F5
100
AcDbEntity
  8
AM_5
100
AcDbBlockReference
  2
_OPEN30
 10
9.683254881129526
 20
-1.000000000000003
 30
0.0
 41
1.25
 42
1.25
 43
1.25
 50
90.0
  0
MTEXT
  5
4BCF
330
42F5
100
AcDbEntity
  8
AM_5
 62
     2
100
AcDbMText
 10
8.133254881129525
 20
-5.507142857142858
 30
0.0
 40
1.6
 41
0.0
 71
     5
 72
     1
  1
%%c2
  7
ASAMI
 11
0.0000000000000001
 21
1.0
 31
0.0
1001
ACAD
1000
MTEXTBEGIN
1070
    73
1070
     1
1070
    44
1040
1.0
1070
    74
1070
     0
1000
MTEXTEND
  0
POINT
  5
4BD0
330
42F5
100
AcDbEntity
  8
DEFPOINTS
 62
     0
100
AcDbPoint
 10
-1.0
 20
1.0
 30
0.0
  0
POINT
  5
4BD1
330
42F5
100
AcDbEntity
  8
DEFPOINTS
 62
     0
100
AcDbPoint
 10
-0.999999999999998
 20
-1.0
 30
0.0
  0
POINT
  5
4BD2
330
42F5
100
AcDbEntity
  8
DEFPOINTS
 62
     0
100
AcDbPoint
 10
9.683254881129526
 20
-1.000000000000003
 30
0.0
  0
ENDBLK
  5
4300
330
42F5
100
AcDbEntity
  8
0
100
AcDbBlockEnd
  0
BLOCK
  5
482E
330
4822
100
AcDbEntity
  8
0
100
AcDbBlockBegin
  2
*D8
 70
     1
 10
0.0
 20
0.0
 30
0.0
  3
*D8
  1

  0
LINE
  5
4BBD
330
4822
100
AcDbEntity
  8
AM_5
100
AcDbLine
 10
-60.0
 20
1.999999999999915
 30
0.0
 11
-68.97008461608499
 21
1.999999999999918
 31
0.0
  0
LINE
  5
4BBE
330
4822
100
AcDbEntity
  8
AM_5
100
AcDbLine
 10
-59.99999999999999
 20
-2.000000000000038
 30
0.0
 11
-68.97008461608499
 21
-2.000000000000036
 31
0.0
  0
LINE
  5
4BBF
330
4822
100
AcDbEntity
  8
AM_5
100
AcDbLine
 10
-68.47008461608499
 20
3.249999999999918
 30
0.0
 11
-68.47008461608499
 21
4.499999999999918
 31
0.0
  0
LINE
  5
4BC0
330
4822
100
AcDbEntity
  8
AM_5
100
AcDbLine
 10
-68.47008461608499
 20
-3.250000000000036
 30
0.0
 11
-68.47008461608499
 21
-8.590476190476225
 31
0.0
  0
LINE
  5
4BC1
330
4822
100
AcDbEntity
  8
AM_5
100
AcDbLine
 10
-68.47008461608499
 20
1.999999999999918
 30
0.0
 11
-68.47008461608499
 21
-2.000000000000036
 31
0.0
  0
INSERT
  5
4BC2
330
4822
100
AcDbEntity
  8
AM_5
100
AcDbBlockReference
  2
_OPEN30
 10
-68.47008461608499
 20
1.999999999999918
 30
0.0
 41
1.25
 42
1.25
 43
1.25
 50
270.0
  0
INSERT
  5
4BC3
330
4822
100
AcDbEntity
  8
AM_5
100
AcDbBlockReference
  2
_OPEN30
 10
-68.47008461608499
 20
-2.000000000000036
 30
0.0
 41
1.25
 42
1.25
 43
1.25
 50
90.0
  0
MTEXT
  5
4BC4
330
4822
100
AcDbEntity
  8
AM_5
 62
     2
100
AcDbMText
 10
-70.02008461608498
 20
-6.545238095238142
 30
0.0
 40
1.6
 41
0.0
 71
     5
 72
     1
  1
%%c4
  7
ASAMI
 11
0.0000000000000001
 21
1.0
 31
0.0
1001
ACAD
1000
MTEXTBEGIN
1070
    73
1070
     1
1070
    44
1040
1.0
1070
    74
1070
     0
1000
MTEXTEND
  0
POINT
  5
4BC5
330
4822
100
AcDbEntity
  8
DEFPOINTS
 62
     0
100
AcDbPoint
 10
-59.49999999999999
 20
1.999999999999915
 30
0.0
  0
POINT
  5
4BC6
330
4822
100
AcDbEntity
  8
DEFPOINTS
 62
     0
100
AcDbPoint
 10
-59.49999999999999
 20
-2.000000000000038
 30
0.0
  0
POINT
  5
4BC7
330
4822
100
AcDbEntity
  8
DEFPOINTS
 62
     0
100
AcDbPoint
 10
-68.47008461608499
 20
-2.000000000000036
 30
0.0
  0
ENDBLK
  5
482F
330
4822
100
AcDbEntity
  8
0
100
AcDbBlockEnd
  0
BLOCK
  5
4CDD
330
4CD7
100
AcDbEntity
  8
0
100
AcDbBlockBegin
  2
*D9
 70
     1
 10
0.0
 20
0.0
 30
0.0
  3
*D9
  1

  0
LINE
  5
4EB6
330
4CD7
100
AcDbEntity
  8
AM_5
100
AcDbLine
 10
2.785918357988626
 20
-5.850003259709091
 30
0.0
 11
0.220222663130491
 21
-1.875193071508221
 31
0.0
  0
MTEXT
  5
4EB7
330
4CD7
100
AcDbEntity
  8
AM_5
 62
     2
100
AcDbMText
 10
3.144286691948098
 20
-3.547107363922739
 30
0.0
 40
1.6
 41
0.0
 71
     5
 72
     1
  1
R1
  7
ASAMI
 11
0.5423211836136975
 21
-0.8401712526645018
 31
0.0
  0
LINE
  5
4EB8
330
4CD7
100
AcDbEntity
  8
AM_5
100
AcDbLine
 10
-1.000000000000329
 20
0.0151922469869076
 30
0.0
 11
-0.4576788163866308
 21
-0.8249790056775944
 31
0.0
  0
INSERT
  5
4EB9
330
4CD7
100
AcDbEntity
  8
AM_5
100
AcDbBlockReference
  2
_OPEN30
 10
-0.4576788163866308
 20
-0.8249790056775944
 30
0.0
 41
1.25
 42
1.25
 43
1.25
 50
122.841792101168
  0
POINT
  5
4EBA
330
4CD7
100
AcDbEntity
  8
DEFPOINTS
 62
     0
100
AcDbPoint
 10
-0.4576788163866308
 20
-0.8249790056775944
 30
0.0
  0
POINT
  5
4EBB
330
4CD7
100
AcDbEntity
  8
DEFPOINTS
 62
     0
100
AcDbPoint
 10
-1.000000000000329
 20
0.0151922469869076
 30
0.0
  0
ENDBLK
  5
4CDE
330
4CD7
100
AcDbEntity
  8
0
100
AcDbBlockEnd
  0
ENDSEC
  0
SECTION
  2
ENTITIES
  0
TEXT
  5
1500
330
1F
100
AcDbEntity
  8
AM_6
100
AcDbText
 10
-40.77380952380951
 20
-26.25000099999992
 30
0.0
 40
2.5
  1
S-SSB2020
 72
     4
 11
-29.99999999999998
 21
-25.00000099999992
 31
0.0
100
AcDbText
  0
LINE
  5
3EE8
330
1F
100
AcDbEntity
  8
AM_7
  6
AM_ISO08W050X2
100
AcDbLine
 10
2.68325388112953
 20
0.0
 30
0.0
 11
-61.47008361608499
 21
-0.0000000000000853
 31
0.0
1001
GENIUS_GENODEF_13
1002
{
1000
HIER
1070
     0
1002
}
1002
{
1000
MANEDIT
1070
     0
1002
}
1002
{
1000
NOSEL
1070
     0
1002
}
1002
{
1000
BEHIND
1070
     0
1002
}
1002
{
1000
REACTOR
1002
}
1001
GENIUS_GENOBJ-N-CEN_13
1002
{
1000
OWNER
1000
GEN
1002
}
  0
DIMENSION
  5
4047
330
1F
100
AcDbEntity
  8
AM_5
100
AcDbDimension
  2
*D5
 10
-0.0000000000000003
 20
-15.00000099999992
 30
0.0
 11
-29.99999999999999
 21
-13.45000099999992
 31
0.0
 70
    32
  1
<>
  3
AM_JIS
100
AcDbAlignedDimension
 13
-59.99999999999999
 23
-1.50000000000004
 33
0.0
 14
0.0000000000000007
 24
-0.0000000000000005
 34
0.0
 50
0.0000000000001132
100
AcDbRotatedDimension
1001
GENIUS_GENDTOL_13
1000

1000
h7
1000

1040
0.0
  0
DIMENSION
  5
412A
330
1F
100
AcDbEntity
  8
AM_5
100
AcDbDimension
  2
*D6
 10
-3.000000000000234
 20
-9.000000999999931
 30
0.0
 11
-1.500000000000124
 21
-7.450000999999931
 31
0.0
 70
    32
  1
<>
  3
AM_JIS
100
AcDbAlignedDimension
 13
-0.0000000000000142
 23
-0.0000000000000111
 33
0.0
 14
-3.000000000000234
 24
-0.9999999999998749
 34
0.0
 50
0.0000000000001132
100
AcDbRotatedDimension
1001
GENIUS_GENDTOL_13
1000

1000
h7
1000

1040
0.0
  0
DIMENSION
  5
42F4
330
1F
100
AcDbEntity
  8
AM_5
100
AcDbDimension
  2
*D7
 10
9.683254881129526
 20
-1.000000000000003
 30
0.0
 11
8.133254881129525
 21
-5.507142857142858
 31
0.0
 70
    32
  1
%%c<>
  3
AM_JIS
100
AcDbAlignedDimension
 13
-1.0
 23
1.0
 33
0.0
 14
-0.999999999999998
 24
-1.0
 34
0.0
 50
90.0
100
AcDbRotatedDimension
1001
GENIUS_GENDTOL_13
1000

1000
h7
1000

1040
0.0
  0
SPLINE
  5
44D1
330
1F
100
AcDbEntity
  8
AM_0
100
AcDbSpline
210
0.0
220
0.0
230
1.0
 70
     8
 71
     3
 72
     9
 73
     5
 74
     3
 42
0.0000000001
 43
0.0000000001
 44
0.0000000001
 12
0.5867325161912575
 22
-0.8097808064185491
 32
0.0
 13
-0.8994987856269101
 23
0.4369232594583562
 33
0.0
 40
0.0
 40
0.0
 40
0.0
 40
0.0
 40
0.0896026366197914
 40
0.2669324763603295
 40
0.2669324763603295
 40
0.2669324763603295
 40
0.2669324763603295
 10
-0.8772827814969403
 20
-0.6085198338755618
 30
0.0
 10
-0.8597585213498399
 20
-0.6327059989886294
 30
0.0
 10
-0.7841654602422841
 20
-0.7191792968414634
 30
0.0
 10
-0.9468306748328917
 20
-0.7808974293980643
 30
0.0
 10
-1.000000000000234
 20
-0.755070918871843
 30
0.0
 11
-0.8772827814969403
 21
-0.6085198338755618
 31
0.0
 11
-0.8358555181768295
 21
-0.6879705377303709
 31
0.0
 11
-1.000000000000234
 21
-0.755070918871843
 31
0.0
  0
SPLINE
  5
44D2
330
1F
100
AcDbEntity
  8
AM_0
100
AcDbSpline
210
0.0
220
0.0
230
1.0
 70
     8
 71
     3
 72
     8
 73
     4
 74
     2
 42
0.0000000001
 43
0.0000000001
 44
0.0000000001
 12
0.421692687695876
 22
-0.9067388141818064
 32
0.0
 13
-0.9928045895078733
 23
-0.1197457600589821
 33
0.0
 40
0.0
 40
0.0
 40
0.0
 40
0.0
 40
0.353083891293259
 40
0.353083891293259
 40
0.353083891293259
 40
0.353083891293259
 10
-1.000000000000234
 20
0.9848077530122964
 30
0.0
 10
-0.9503690349663768
 20
0.8780894633796473
 30
0.0
 10
-1.070264749561502
 20
0.6994731652653022
 30
0.0
 10
-1.187112518813917
 20
0.6853797322894707
 30
0.0
 11
-1.000000000000234
 21
0.9848077530122964
 31
0.0
 11
-1.187112518813917
 21
0.6853797322894707
 31
0.0
  0
SPLINE
  5
44D3
330
1F
100
AcDbEntity
  8
AM_0
100
AcDbSpline
210
0.0
220
0.0
230
1.0
 70
     8
 71
     3
 72
     8
 73
     4
 74
     2
 42
0.0000000001
 43
0.0000000001
 44
0.0000000001
 12
-0.8789112757303591
 22
0.4769852926391262
 32
0.0
 13
0.9988106394578339
 23
0.0487576302319218
 33
0.0
 40
0.0
 40
0.0
 40
0.0
 40
0.0
 40
0.4314899720658788
 40
0.4314899720658788
 40
0.4314899720658788
 40
0.4314899720658788
 10
-1.045556272136089
 20
0.2777703297699645
 30
0.0
 10
-1.171970072740515
 20
0.3463751199688617
 30
0.0
 10
-1.330771443777015
 20
0.6783669227876687
 30
0.0
 10
-1.187112518804094
 20
0.6853797322899255
 30
0.0
 11
-1.045556272136089
 21
0.2777703297699645
 31
0.0
 11
-1.187112518804094
 21
0.6853797322899255
 31
0.0
  0
SPLINE
  5
44D4
330
1F
100
AcDbEntity
  8
AM_0
100
AcDbSpline
210
0.0
220
0.0
230
1.0
 70
     8
 71
     3
 72
     8
 73
     4
 74
     0
 42
0.0000000001
 43
0.0000000001
 40
1.794922859432252
 40
1.794922859432252
 40
1.794922859432252
 40
1.794922859432252
 40
7.792304916313982
 40
7.792304916313982
 40
7.792304916313982
 40
7.792304916313982
 10
-1.000000000000234
 20
0.9848077530122964
 30
0.0
 10
-1.394983498992751
 20
0.9515644591302462
 30
0.0
 10
-1.782314276507489
 20
0.8657802383037353
 30
0.0
 10
-2.164909468663357
 20
0.7474831336477598
 30
0.0
  0
SPLINE
  5
44D5
330
1F
100
AcDbEntity
  8
AM_0
100
AcDbSpline
210
0.0
220
0.0
230
1.0
 70
     8
 71
     3
 72
     8
 73
     4
 74
     0
 42
0.0000000001
 43
0.0000000001
 40
6.513172597598655
 40
6.513172597598655
 40
6.513172597598655
 40
6.513172597598655
 40
17.00040327533524
 40
17.00040327533524
 40
17.00040327533524
 40
17.00040327533524
 10
-1.000000000000234
 20
-0.755070918871843
 30
0.0
 10
-1.676296359891985
 20
-0.5859154671571333
 30
0.0
 10
-2.338423625408991
 20
-0.3118789264501402
 30
0.0
 10
-3.000000000000234
 20
-0.0337646346404313
 30
0.0
  0
SPLINE
  5
44D7
330
1F
100
AcDbEntity
  8
AM_0
100
AcDbSpline
210
0.0
220
0.0
230
1.0
 70
     8
 71
     3
 72
     8
 73
     4
 74
     0
 42
0.0000000001
 43
0.0000000001
 40
1.794922859428793
 40
1.794922859428793
 40
1.794922859428793
 40
1.794922859428793
 40
12.18970013411803
 40
12.18970013411803
 40
12.18970013411803
 40
12.18970013411803
 10
-0.9999999999995978
 20
-0.9848077530121372
 30
0.0
 10
-1.68459295410242
 20
-0.9271898403123941
 30
0.0
 10
-2.346196761487006
 20
-0.7117364331728027
 30
0.0
 10
-3.000000000000257
 20
-0.4427270302490456
 30
0.0
  0
LINE
  5
44D9
330
1F
100
AcDbEntity
  8
AM_11
100
AcDbLine
 10
-1.000000000000234
 20
1.000000000000113
 30
0.0
 11
-3.000000000000246
 21
1.000000000000113
 31
0.0
  0
LINE
  5
44DA
330
1F
100
AcDbEntity
  8
AM_11
100
AcDbLine
 10
-3.000000000000246
 20
-0.9999999999998749
 30
0.0
 11
-1.000000000000234
 21
-0.9999999999998635
 31
0.0
  0
LINE
  5
44DB
330
1F
100
AcDbEntity
  8
AM_0
100
AcDbLine
 10
-0.1400000000002905
 20
-0.0352409360508773
 30
0.0
 11
-1.045556272136089
 21
0.2777703297699645
 31
0.0
  0
LINE
  5
44DC
330
1F
100
AcDbEntity
  8
AM_0
100
AcDbLine
 10
-0.0000000000002359
 20
0.0000000000001364
 30
0.0
 11
-1.187112518804094
 21
0.6853797322899255
 31
0.0
  0
ARC
  5
44DD
330
1F
100
AcDbEntity
  8
AM_0
100
AcDbCircle
 10
-0.0410281825683896
 20
0.0093732826242558
 30
0.0
 40
1.03976615527104
100
AcDbArc
 50
165.040742132377
 51
216.4600123166023
  0
LINE
  5
44DF
330
1F
100
AcDbEntity
  8
AM_0
100
AcDbLine
 10
-0.9999999999989643
 20
-0.9848077530130922
 30
0.0
 11
-1.000000000000325
 21
-0.755070918871843
 31
0.0
  0
ARC
  5
44E1
330
1F
100
AcDbEntity
  8
AM_0
100
AcDbCircle
 10
-1.000000000000328
 20
0.0151922469869078
 30
0.0
 40
1.0
100
AcDbArc
 50
270.0000000000781
 51
359.1295148788724
  0
ARC
  5
44E2
330
1F
100
AcDbEntity
  8
AM_11
100
AcDbCircle
 10
-1.000000000000237
 20
0.0000000000001364
 30
0.0
 40
1.0
100
AcDbArc
 50
270.0
 51
90.0
  0
ARC
  5
44E3
330
1F
100
AcDbEntity
  8
AM_0
100
AcDbCircle
 10
-0.9678131097818194
 20
0.2686513849624134
 30
0.0
 40
0.881830532186926
100
AcDbArc
 50
275.8924707062755
 51
339.8416840647174
  0
ARC
  5
44E4
330
1F
100
AcDbEntity
  8
AM_0
100
AcDbCircle
 10
-1.000000000000237
 20
-0.0151922469876809
 30
0.0
 40
1.0
100
AcDbArc
 50
0.8704851212057906
 51
90.0
  0
LINE
  5
44E6
330
1F
100
AcDbEntity
  8
AM_0
100
AcDbLine
 10
-0.0001154088441847
 20
-0.0000000000000036
 30
0.0
 11
-0.1400000000002905
 21
-0.0352409360508773
 31
0.0
  0
LINE
  5
44E8
330
1F
100
AcDbEntity
  8
AM_11
100
AcDbLine
 10
-3.000000000000234
 20
-0.9999999999998635
 30
0.0
 11
-3.000000000000234
 21
1.000000000000113
 31
0.0
  0
ARC
  5
44E9
330
1F
100
AcDbEntity
  8
AM_0
100
AcDbCircle
 10
-4.102966851222582
 20
5.200149323885844
 30
0.0
 40
6.206211724710806
100
AcDbArc
 50
272.5326899028331
 51
287.4076163951074
  0
POLYLINE
  5
44EA
330
1F
100
AcDbEntity
  8
AM_0
100
AcDb2dPolyline
 66
     1
 10
0.0
 20
0.0
 30
0.0
 70
     2
  0
VERTEX
  5
4B85
330
44EA
100
AcDbEntity
  8
AM_0
100
AcDbVertex
100
AcDb2dVertex
 10
-3.000000000000237
 20
-0.4427270302490563
 30
0.0
 42
0.0164048895758115
  0
VERTEX
  5
4B8D
330
44EA
100
AcDbEntity
  8
AM_0
100
AcDbVertex
100
AcDb2dVertex
 10
-3.323057305127656
 20
-0.4438472089753027
 30
0.0
 42
0.0244127365443984
 70
     1
  0
VERTEX
  5
4B86
330
44EA
100
AcDbEntity
  8
AM_0
100
AcDbVertex
100
AcDb2dVertex
 10
-3.539432165957407
 20
-0.4623031160167841
 30
0.0
 42
0.0112036525485219
  0
VERTEX
  5
4B8E
330
44EA
100
AcDbEntity
  8
AM_0
100
AcDbVertex
100
AcDb2dVertex
 10
-3.975188331140831
 20
-0.5309773399523361
 30
0.0
 42
0.0258724796968456
 70
     1
  0
VERTEX
  5
4B87
330
44EA
100
AcDbEntity
  8
AM_0
100
AcDbVertex
100
AcDb2dVertex
 10
-4.161265380242468
 20
-0.5746347652786881
 30
0.0
 42
0.075133859641983
  0
VERTEX
  5
4B8F
330
44EA
100
AcDbEntity
  8
AM_0
100
AcDbVertex
100
AcDb2dVertex
 10
-4.372872447923658
 20
-0.6722388712678401
 30
0.0
 42
0.2716149979859391
 70
     1
  0
VERTEX
  5
4B88
330
44EA
100
AcDbEntity
  8
AM_0
100
AcDbVertex
100
AcDb2dVertex
 10
-4.403317937556892
 20
-0.7339673126723363
 30
0.0
 42
0.2534307105139857
  0
VERTEX
  5
4B90
330
44EA
100
AcDbEntity
  8
AM_0
100
AcDbVertex
100
AcDb2dVertex
 10
-4.36082947220953
 20
-0.8004545569351027
 30
0.0
 42
0.0780756412043667
 70
     1
  0
VERTEX
  5
4B89
330
44EA
100
AcDbEntity
  8
AM_0
100
AcDbVertex
100
AcDb2dVertex
 10
-4.133372853842828
 20
-0.8834606779491601
 30
0.0
 42
0.0124925950205272
  0
VERTEX
  5
4B92
330
44EA
100
AcDbEntity
  8
AM_0
100
AcDbVertex
100
AcDb2dVertex
 10
-3.984399206094273
 20
-0.9088943265287978
 30
0.0
 42
0.0072181574374038
 70
     1
  0
VERTEX
  5
4B8A
330
44EA
100
AcDbEntity
  8
AM_0
100
AcDbVertex
100
AcDb2dVertex
 10
-3.725060335858373
 20
-0.9427140187587355
 30
0.0
 42
0.0198093533555468
  0
VERTEX
  5
4B91
330
44EA
100
AcDbEntity
  8
AM_0
100
AcDbVertex
100
AcDb2dVertex
 10
-3.564600267008831
 20
-0.9548721535640542
 30
0.0
 42
0.0133071331253821
 70
     1
  0
VERTEX
  5
4B8B
330
44EA
100
AcDbEntity
  8
AM_0
100
AcDbVertex
100
AcDb2dVertex
 10
-3.325112569971078
 20
-0.9571233425693783
 30
0.0
  0
SEQEND
  5
4B8C
330
44EA
100
AcDbEntity
  8
AM_0
  0
ARC
  5
44F9
330
1F
100
AcDbEntity
  8
AM_0
100
AcDbCircle
 10
-4.457400570085899
 20
-3.433001603596941
 30
0.0
 40
4.477359128394415
100
AcDbArc
 50
71.00385688974244
 51
81.92821623718545
  0
ARC
  5
44FA
330
1F
100
AcDbEntity
  8
AM_0
100
AcDbCircle
 10
0.1781994283048249
 20
5.354496307871559
 30
0.0
 40
6.255741969637088
100
AcDbArc
 50
222.8189404496083
 51
239.4662936771896
  0
LINE
  5
44FB
330
1F
100
AcDbEntity
  8
AM_0
100
AcDbLine
 10
-3.000000000000184
 20
0.8005227370595093
 30
0.0
 11
-1.187112518804186
 21
0.6853797322899255
 31
0.0
  0
LINE
  5
44FC
330
1F
100
AcDbEntity
  8
AM_0
100
AcDbLine
 10
-3.000000000000234
 20
-0.0337646346404313
 30
0.0
 11
-3.000000000000234
 21
-0.442727030249057
 31
0.0
  0
LINE
  5
4776
330
1F
100
AcDbEntity
  8
AM_0
100
AcDbLine
 10
-3.828718180381897
 20
1.00000000000011
 30
0.0
 11
-9.499999999999994
 21
2.000000000000178
 31
0.0
  0
LINE
  5
4778
330
1F
100
AcDbEntity
  8
AM_0
100
AcDbLine
 10
-3.828718180382803
 20
-0.9999999999998722
 30
0.0
 11
-9.499999999999982
 21
-1.999999999999778
 31
0.0
  0
LINE
  5
481C
330
1F
100
AcDbEntity
  8
AM_0
100
AcDbLine
 10
-9.499999999999982
 20
-1.999999999999778
 30
0.0
 11
-59.49999999999999
 21
-2.000000000000037
 31
0.0
  0
LINE
  5
481E
330
1F
100
AcDbEntity
  8
AM_0
100
AcDbLine
 10
-59.49999999999999
 20
1.999999999999915
 30
0.0
 11
-59.49999999999998
 21
-2.000000000000043
 31
0.0
  0
LINE
  5
481F
330
1F
100
AcDbEntity
  8
AM_0
100
AcDbLine
 10
-60.0
 20
1.499999999999914
 30
0.0
 11
-59.99999999999999
 21
-1.50000000000004
 31
0.0
  0
DIMENSION
  5
4821
330
1F
100
AcDbEntity
  8
AM_5
100
AcDbDimension
  2
*D8
 10
-68.47008461608499
 20
-2.000000000000036
 30
0.0
 11
-70.02008461608498
 21
-6.545238095238142
 31
0.0
 70
    32
  1
%%c<>
  3
AM_JIS
100
AcDbAlignedDimension
 13
-59.49999999999999
 23
1.999999999999915
 33
0.0
 14
-59.49999999999999
 24
-2.000000000000038
 34
0.0
 50
270.0
100
AcDbRotatedDimension
1001
GENIUS_GENDTOL_13
1000

1000
h7
1000

1040
0.0
  0
LINE
  5
4830
330
1F
100
AcDbEntity
  8
AM_0
100
AcDbLine
 10
-9.499999999999994
 20
2.000000000000178
 30
0.0
 11
-59.49999999999999
 21
1.999999999999916
 31
0.0
  0
LINE
  5
4845
330
1F
100
AcDbEntity
  8
AM_0
100
AcDbLine
 10
-60.0
 20
1.499999999999914
 30
0.0
 11
-59.49999999999999
 21
1.999999999999916
 31
0.0
1001
GENIUS_GENFIL_13
1070
     0
1040
0.5
1040
0.5
1040
20.0
1040
0.0
1002
{
1002
}
1001
GENIUS_GENODEF_13
1002
{
1000
HIER
1070
     0
1002
}
1002
{
1000
MANEDIT
1070
     0
1002
}
1002
{
1000
NOSEL
1070
     0
1002
}
1002
{
1000
BEHIND
1070
     0
1002
}
1002
{
1000
REACTOR
1002
}
1001
GENIUS_GENOBJ-N-CHA_13
1002
{
1000
OWNER
1000
GEN
1002
}
  0
LINE
  5
4849
330
1F
100
AcDbEntity
  8
AM_0
100
AcDbLine
 10
-59.49999999999999
 20
-2.000000000000037
 30
0.0
 11
-59.99999999999999
 21
-1.50000000000004
 31
0.0
1001
GENIUS_GENFIL_13
1070
     0
1040
0.5
1040
0.5
1040
20.0
1040
0.0
1002
{
1002
}
1001
GENIUS_GENODEF_13
1002
{
1000
HIER
1070
     0
1002
}
1002
{
1000
MANEDIT
1070
     0
1002
}
1002
{
1000
NOSEL
1070
     0
1002
}
1002
{
1000
BEHIND
1070
     0
1002
}
1002
{
1000
REACTOR
1002
}
1001
GENIUS_GENOBJ-N-CHA_13
1002
{
1000
OWNER
1000
GEN
1002
}
  0
LINE
  5
4871
330
1F
100
AcDbEntity
  8
AM_0
100
AcDbLine
 10
-9.499999999999994
 20
2.000000000000178
 30
0.0
 11
-9.499999999999984
 21
-1.999999999999778
 31
0.0
  0
LINE
  5
4887
330
1F
100
AcDbEntity
  8
AM_0
100
AcDbLine
 10
-3.828718180382821
 20
-0.9999999999998756
 30
0.0
 11
-3.828718180382821
 21
-0.9301095187270984
 31
0.0
  0
LINE
  5
4B93
330
1F
100
AcDbEntity
  8
AM_0
100
AcDbLine
 10
-3.828718180382821
 20
-0.5056584095523445
 30
0.0
 11
-3.828718180382822
 21
0.5504439697024815
 31
0.0
  0
DIMENSION
  5
4CD6
330
1F
100
AcDbEntity
  8
AM_5
100
AcDbDimension
  2
*D9
 10
-1.000000000000329
 20
0.0151922469869076
 30
0.0
 11
3.144286691948098
 21
-3.547107363922739
 31
0.0
 70
    36
  1
<>
  3
AM_JIS$4
100
AcDbRadialDimension
 15
-0.4576788163866308
 25
-0.8249790056775944
 35
0.0
 40
0.0
1001
GENIUS_GENDTOL_13
1000

1000
h7
1000

1040
0.0
1001
ACAD
1000
DSTYLE
1002
{
1070
   287
1070
     3
1070
   271
1070
     3
1070
   288
1070
     1
1070
   289
1070
     3
1070
   172
1070
     1
1070
    74
1070
     0
1002
}
  0
VIEWPORT
  5
110
330
101
100
AcDbEntity
 67
     1
  8
0
100
AcDbViewport
 10
420.5
 20
297.0
 30
0.0
 40
948.9782706766916
 41
628.452
 68
     1
 69
     1
1001
ACAD
1000
MVIEW
1002
{
1070
    16
1010
0.0
1020
0.0
1030
0.0
1010
0.0
1020
0.0
1030
1.0
1040
0.0
1040
628.452
1040
420.5
1040
297.0
1040
50.0
1040
0.0
1040
0.0
1070
     0
1070
   100
1070
     1
1070
     1
1070
     0
1070
     0
1070
     0
1070
     0
1040
0.0
1040
0.0
1040
0.0
1040
10.0
1040
10.0
1040
10.0
1040
10.0
1070
     0
1002
{
1002
}
1002
}
  0
ENDSEC
  0
SECTION
  2
OBJECTS
  0
DICTIONARY
  5
C
330
0
100
AcDbDictionary
  3
ACAD_GROUP
350
D
  3
ACAD_LAYOUT
350
1A
  3
ACAD_MLINESTYLE
350
17
  3
ACAD_PLOTSETTINGS
350
19
  3
ACAD_PLOTSTYLENAME
350
E
  3
ACDBVARIABLEDICTIONARY
350
34
  3
ACMDICTIONARY
350
43
  3
AMG
350
2B
  3
AMGSNAPSETTINGS
350
6E
  3
ASE_INDEX_DICTIONARY
350
151A
  3
DWGPROPS
350
4E80
  3
ACDBHEADERROUNDTRIPXREC
350
4E8C
  0
DICTIONARY
  5
74
330
1F
100
AcDbDictionary
280
     1
  3
ACAD_INDEX
360
4E82
  3
ACAD_LAYOUTSELFREF
360
4EAF
  0
DICTIONARY
  5
4EB4
330
101
100
AcDbDictionary
280
     1
  3
ACAD_LAYOUTSELFREF
360
4EB5
  0
DICTIONARY
  5
D
102
{ACAD_REACTORS
330
C
102
}
330
C
100
AcDbDictionary
  0
DICTIONARY
  5
1A
102
{ACAD_REACTORS
330
C
102
}
330
C
100
AcDbDictionary
  0
DICTIONARY
  5
17
102
{ACAD_REACTORS
330
C
102
}
330
C
100
AcDbDictionary
  3
STANDARD
350
18
  0
DICTIONARY
  5
19
102
{ACAD_REACTORS
330
C
102
}
330
C
100
AcDbDictionary
  0
ACDBDICTIONARYWDFLT
  5
E
102
{ACAD_REACTORS
330
C
102
}
330
C
100
AcDbDictionary
281
     1
  3
Normal
350
F
100
AcDbDictionaryWithDefault
340
F
  0
DICTIONARY
  5
34
102
{ACAD_REACTORS
330
C
102
}
330
C
100
AcDbDictionary
  3
INDEXCTL
350
35
  3
SORTENTS
350
B5E
  0
DICTIONARY
  5
43
102
{ACAD_REACTORS
330
C
102
}
330
C
100
AcDbDictionary
  3
ACMSTDDICTIONARY
350
260
  0
DICTIONARY
  5
2B
102
{ACAD_REACTORS
330
C
102
}
330
C
100
AcDbDictionary
  3
ACMGSETTINGS
350
2C
  0
DICTIONARY
  5
6E
102
{ACAD_REACTORS
330
C
102
}
330
C
100
AcDbDictionary
  0
DICTIONARY
  5
151A
102
{ACAD_REACTORS
330
C
102
}
330
C
100
AcDbDictionary
  3
ASEBLOCKHIERARCHYINDEXRECORD
350
151C
1001
DCO15
1040
1471862535.906
  0
XRECORD
  5
4E80
102
{ACAD_REACTORS
330
C
102
}
330
C
100
AcDbXrecord
  1
DWGPROPS COOKIE
  2

  3

  4

  6

  7

  8

  9

300
AmdtFileType=82
301
=
302
=
303
=
304
=
305
=
306
=
307
=
308
=
309
=
 40
0.1933576736111111
 41
2452838.430434386
 42
2453045.62780787
  1

 90
        1
  0
DICTIONARY
  5
4E8C
102
{ACAD_REACTORS
330
C
102
}
330
C
100
AcDbDictionary
  3
TSTACKALIGN
350
4E8D
  3
TSTACKSIZE
350
4E8E
  3
HYPERLINKBASE
350
4E8F
  3
STYLESHEET
350
4E90
  3
LAYOUTDICT
350
4E91
  3
PLOTSETDICT
350
4E92
  3
PLOTSTYLNAMDICT
350
4E93
  3
LWETCUNION
350
4E94
  3
INSUNITS
350
4E95
  3
CEPSNTYPE
350
4E96
  3
FINGERPRINTGUID
350
4E97
  3
VERSIONGUID
350
4E98
  3
PSVPSCALE
350
4E99
  3
DIMSTYLEDATA
350
4E9A
  3
PUCSORTHOREF
350
4E9B
  3
PUCSORTHOVIEW
350
4E9C
  3
PUCSBASE
350
4E9D
  3
PUCSORGTOP
350
4E9E
  3
PUCSORGBOTTOM
350
4E9F
  3
PUCSORGLEFT
350
4EA0
  3
PUCSORGRIGHT
350
4EA1
  3
PUCSORGFRONT
350
4EA2
  3
PUCSORGBACK
350
4EA3
  3
UCSORTHOREF
350
4EA4
  3
UCSORTHOVIEW
350
4EA5
  3
UCSBASE
350
4EA6
  3
UCSORGTOP
350
4EA7
  3
UCSORGBOTTOM
350
4EA8
  3
UCSORGLEFT
350
4EA9
  3
UCSORGRIGHT
350
4EAA
  3
UCSORGFRONT
350
4EAB
  3
UCSORGBACK
350
4EAC
  0
DICTIONARY
  5
4E82
102
{ACAD_REACTORS
330
74
102
}
330
74
100
AcDbDictionary
  3
*A1
350
4E83
  0
XRECORD
  5
4EAF
102
{ACAD_REACTORS
330
74
102
}
330
74
100
AcDbXrecord
340
1F
  0
XRECORD
  5
4EB5
102
{ACAD_REACTORS
330
4EB4
102
}
330
4EB4
100
AcDbXrecord
340
101
  0
MLINESTYLE
  5
18
102
{ACAD_REACTORS
330
17
102
}
330
17
100
AcDbMlineStyle
  2
STANDARD
 70
     0
  3

 62
   256
 51
90.0
 52
90.0
 71
     2
 49
0.5
 62
   256
  6
BYLAYER
 49
-0.5
 62
   256
  6
BYLAYER
  0
ACDBPLACEHOLDER
  5
F
102
{ACAD_REACTORS
330
E
102
}
330
E
100
AcDbPlaceHolder
280
     0
  0
DICTIONARYVAR
  5
35
102
{ACAD_REACTORS
330
34
102
}
330
34
100
DictionaryVariables
280
     0
  1
1
  0
DICTIONARYVAR
  5
B5E
102
{ACAD_REACTORS
330
34
102
}
330
34
100
DictionaryVariables
280
     0
  1
96
  0
DICTIONARY
  5
260
102
{ACAD_REACTORS
330
43
102
}
330
43
100
AcDbDictionary
  0
DICTIONARY
  5
2C
102
{ACAD_REACTORS
330
2B
102
}
330
2B
100
AcDbDictionary
  3
DWGSETTINGS
350
2D
  0
XRECORD
  5
151C
102
{ACAD_REACTORS
330
151A
102
}
330
151A
100
AcDbXrecord
330
0
330
0
330
0
330
0
330
0
330
0
330
0
330
0
  0
XRECORD
  5
4E8D
102
{ACAD_REACTORS
330
4E8C
102
}
330
4E8C
100
AcDbXrecord
 90
        1
  0
XRECORD
  5
4E8E
102
{ACAD_REACTORS
330
4E8C
102
}
330
4E8C
100
AcDbXrecord
 90
       70
  0
XRECORD
  5
4E8F
102
{ACAD_REACTORS
330
4E8C
102
}
330
4E8C
100
AcDbXrecord
  1

  0
XRECORD
  5
4E90
102
{ACAD_REACTORS
330
4E8C
102
}
330
4E8C
100
AcDbXrecord
  1
ASAMI.ctb
  0
XRECORD
  5
4E91
102
{ACAD_REACTORS
330
4E8C
102
}
330
4E8C
100
AcDbXrecord
340
1A
  0
XRECORD
  5
4E92
102
{ACAD_REACTORS
330
4E8C
102
}
330
4E8C
100
AcDbXrecord
340
19
  0
XRECORD
  5
4E93
102
{ACAD_REACTORS
330
4E8C
102
}
330
4E8C
100
AcDbXrecord
340
E
  0
XRECORD
  5
4E94
102
{ACAD_REACTORS
330
4E8C
102
}
330
4E8C
100
AcDbXrecord
 90
    10781
  0
XRECORD
  5
4E95
102
{ACAD_REACTORS
330
4E8C
102
}
330
4E8C
100
AcDbXrecord
 90
        4
  0
XRECORD
  5
4E96
102
{ACAD_REACTORS
330
4E8C
102
}
330
4E8C
100
AcDbXrecord
 90
        0
  0
XRECORD
  5
4E97
102
{ACAD_REACTORS
330
4E8C
102
}
330
4E8C
100
AcDbXrecord
  1
{AFB28963-8C59-40AE-9337-C84526B81ACE}
  0
XRECORD
  5
4E98
102
{ACAD_REACTORS
330
4E8C
102
}
330
4E8C
100
AcDbXrecord
  1
{70FB4860-6AF4-4B0C-B0E3-16CAB4C441C1}
  0
XRECORD
  5
4E99
102
{ACAD_REACTORS
330
4E8C
102
}
330
4E8C
100
AcDbXrecord
 40
0.0
  0
XRECORD
  5
4E9A
102
{ACAD_REACTORS
330
4E8C
102
}
330
4E8C
100
AcDbXrecord
1000
DSTYLE
1002
{
1070
    79
 70
     2
1070
   341
340
59
1070
   342
340
59
1070
   371
 70
    -1
1070
   372
 70
    -1
1002
}
  0
XRECORD
  5
4E9B
102
{ACAD_REACTORS
330
4E8C
102
}
330
4E8C
100
AcDbXrecord
340
0
  0
XRECORD
  5
4E9C
102
{ACAD_REACTORS
330
4E8C
102
}
330
4E8C
100
AcDbXrecord
 70
     0
  0
XRECORD
  5
4E9D
102
{ACAD_REACTORS
330
4E8C
102
}
330
4E8C
100
AcDbXrecord
340
0
  0
XRECORD
  5
4E9E
102
{ACAD_REACTORS
330
4E8C
102
}
330
4E8C
100
AcDbXrecord
 10
0.0
 20
0.0
 30
0.0
  0
XRECORD
  5
4E9F
102
{ACAD_REACTORS
330
4E8C
102
}
330
4E8C
100
AcDbXrecord
 10
0.0
 20
0.0
 30
0.0
  0
XRECORD
  5
4EA0
102
{ACAD_REACTORS
330
4E8C
102
}
330
4E8C
100
AcDbXrecord
 10
0.0
 20
0.0
 30
0.0
  0
XRECORD
  5
4EA1
102
{ACAD_REACTORS
330
4E8C
102
}
330
4E8C
100
AcDbXrecord
 10
0.0
 20
0.0
 30
0.0
  0
XRECORD
  5
4EA2
102
{ACAD_REACTORS
330
4E8C
102
}
330
4E8C
100
AcDbXrecord
 10
0.0
 20
0.0
 30
0.0
  0
XRECORD
  5
4EA3
102
{ACAD_REACTORS
330
4E8C
102
}
330
4E8C
100
AcDbXrecord
 10
0.0
 20
0.0
 30
0.0
  0
XRECORD
  5
4EA4
102
{ACAD_REACTORS
330
4E8C
102
}
330
4E8C
100
AcDbXrecord
340
0
  0
XRECORD
  5
4EA5
102
{ACAD_REACTORS
330
4E8C
102
}
330
4E8C
100
AcDbXrecord
 70
     0
  0
XRECORD
  5
4EA6
102
{ACAD_REACTORS
330
4E8C
102
}
330
4E8C
100
AcDbXrecord
340
0
  0
XRECORD
  5
4EA7
102
{ACAD_REACTORS
330
4E8C
102
}
330
4E8C
100
AcDbXrecord
 10
0.0
 20
0.0
 30
0.0
  0
XRECORD
  5
4EA8
102
{ACAD_REACTORS
330
4E8C
102
}
330
4E8C
100
AcDbXrecord
 10
0.0
 20
0.0
 30
0.0
  0
XRECORD
  5
4EA9
102
{ACAD_REACTORS
330
4E8C
102
}
330
4E8C
100
AcDbXrecord
 10
0.0
 20
0.0
 30
0.0
  0
XRECORD
  5
4EAA
102
{ACAD_REACTORS
330
4E8C
102
}
330
4E8C
100
AcDbXrecord
 10
0.0
 20
0.0
 30
0.0
  0
XRECORD
  5
4EAB
102
{ACAD_REACTORS
330
4E8C
102
}
330
4E8C
100
AcDbXrecord
 10
0.0
 20
0.0
 30
0.0
  0
XRECORD
  5
4EAC
102
{ACAD_REACTORS
330
4E8C
102
}
330
4E8C
100
AcDbXrecord
 10
0.0
 20
0.0
 30
0.0
  0
LAYER_INDEX
  5
4E83
102
{ACAD_REACTORS
330
4E82
102
}
330
4E82
100
AcDbIndex
 40
2453151.77597022
100
AcDbLayerIndex
  8
0
360
4E84
 90
        0
  8
AM_0
360
4E85
 90
       31
  8
AM_11
360
4E86
 90
        4
  8
AM_7
360
4E87
 90
        1
  8
AM_5
360
4E88
 90
        5
  8
Defpoints
360
4E89
 90
        0
  8
AM_6
360
4E8A
 90
        1
  0
XRECORD
  5
2D
102
{ACAD_REACTORS
330
2C
102
}
330
2C
100
AcDbXrecord
  1
VERSION
140
15.0
  1
PRODUCT
  2
AutoCAD Mechanical 2000
  0
IDBUFFER
  5
4E84
330
0
100
AcDbIdBuffer
  0
IDBUFFER
  5
4E85
330
0
100
AcDbIdBuffer
330
44F9
330
44FA
330
44FB
330
44FC
330
4776
330
4778
330
481C
330
481E
330
481F
330
4830
330
4845
330
4849
330
4871
330
4887
330
4B93
330
44D1
330
44D2
330
44D3
330
44D4
330
44D5
330
44D7
330
44DB
330
44DC
330
44DD
330
44DF
330
44E1
330
44E3
330
44E4
330
44E6
330
44E9
330
44EA
  0
IDBUFFER
  5
4E86
330
0
100
AcDbIdBuffer
330
44D9
330
44DA
330
44E2
330
44E8
  0
IDBUFFER
  5
4E87
330
0
100
AcDbIdBuffer
330
3EE8
  0
IDBUFFER
  5
4E88
330
0
100
AcDbIdBuffer
330
4047
330
412A
330
42F4
330
4821
330
4CD6
  0
IDBUFFER
  5
4E89
330
0
100
AcDbIdBuffer
  0
IDBUFFER
  5
4E8A
330
0
100
AcDbIdBuffer
330
1500
  0
ENDSEC
  0
EOF
