  0
SECTION
  2
HEADER
  9
$ACADVER
  1
AC1014
  9
$ACADMAINTVER
 70
     9
  9
$DWGCODEPAGE
  3
ANSI_932
  9
$INSBASE
 10
0.0
 20
0.0
 30
0.0
  9
$EXTMIN
 10
-69.34999999999996
 20
-26.35284357602596
 30
-0.00000001
  9
$EXTMAX
 10
8.649966949055508
 20
4.499999999999887
 30
0.00000001
  9
$LIMMIN
 10
-75.30133270202378
 20
-39.42603776243879
  9
$LIMMAX
 10
12.91214519615368
 20
19.14721920443997
  9
$ORTHOMODE
 70
     0
  9
$REGENMODE
 70
     1
  9
$FILLMODE
 70
     1
  9
$QTEXTMODE
 70
     0
  9
$MIRRTEXT
 70
     0
  9
$DRAGMODE
 70
     2
  9
$LTSCALE
 40
1.0
  9
$OSMODE
 70
    55
  9
$ATTMODE
 70
     1
  9
$TEXTSIZE
 40
2.5
  9
$TRACEWID
 40
1.0
  9
$TEXTSTYLE
  7
STANDARD
  9
$CLAYER
  8
AM_0
  9
$CELTYPE
  6
BYLAYER
  9
$CECOLOR
 62
   256
  9
$CELTSCALE
 40
1.0
  9
$DELOBJ
 70
     1
  9
$DISPSILH
 70
     0
  9
$DIMSCALE
 40
0.5
  9
$DIMASZ
 40
2.5
  9
$DIMEXO
 40
1.0
  9
$DIMDLI
 40
12.0
  9
$DIMRND
 40
0.0
  9
$DIMDLE
 40
0.0
  9
$DIMEXE
 40
1.0
  9
$DIMTP
 40
0.1
  9
$DIMTM
 40
0.1
  9
$DIMTXT
 40
3.2
  9
$DIMCEN
 40
0.0
  9
$DIMTSZ
 40
0.0
  9
$DIMTOL
 70
     0
  9
$DIMLIM
 70
     0
  9
$DIMTIH
 70
     0
  9
$DIMTOH
 70
     0
  9
$DIMSE1
 70
     0
  9
$DIMSE2
 70
     0
  9
$DIMTAD
 70
     3
  9
$DIMZIN
 70
     8
  9
$DIMBLK
  1
OPEN30
  9
$DIMASO
 70
     1
  9
$DIMSHO
 70
     1
  9
$DIMPOST
  1

  9
$DIMAPOST
  1
"
  9
$DIMALT
 70
     0
  9
$DIMALTD
 70
     2
  9
$DIMALTF
 40
0.0393701
  9
$DIMLFAC
 40
1.0
  9
$DIMTOFL
 70
     1
  9
$DIMTVP
 40
0.0
  9
$DIMTIX
 70
     0
  9
$DIMSOXD
 70
     0
  9
$DIMSAH
 70
     0
  9
$DIMBLK1
  1

  9
$DIMBLK2
  1

  9
$DIMSTYLE
  2
AM_JIS
  9
$DIMCLRD
 70
   256
  9
$DIMCLRE
 70
   256
  9
$DIMCLRT
 70
     2
  9
$DIMTFAC
 40
0.71
  9
$DIMGAP
 40
1.5
  9
$DIMJUST
 70
     0
  9
$DIMSD1
 70
     0
  9
$DIMSD2
 70
     0
  9
$DIMTOLJ
 70
     0
  9
$DIMTZIN
 70
     0
  9
$DIMALTZ
 70
     0
  9
$DIMALTTZ
 70
     0
  9
$DIMFIT
 70
     3
  9
$DIMUPT
 70
     0
  9
$DIMUNIT
 70
     2
  9
$DIMDEC
 70
     3
  9
$DIMTDEC
 70
     3
  9
$DIMALTU
 70
     2
  9
$DIMALTTD
 70
     2
  9
$DIMTXSTY
  7
ASAMI
  9
$DIMAUNIT
 70
     0
  9
$LUNITS
 70
     2
  9
$LUPREC
 70
     2
  9
$SKETCHINC
 40
1.0
  9
$FILLETRAD
 40
2.5
  9
$AUNITS
 70
     0
  9
$AUPREC
 70
     0
  9
$MENU
  1
.
  9
$ELEVATION
 40
0.0
  9
$PELEVATION
 40
0.0
  9
$THICKNESS
 40
0.0
  9
$LIMCHECK
 70
     0
  9
$BLIPMODE
 70
     0
  9
$CHAMFERA
 40
0.5
  9
$CHAMFERB
 40
0.5
  9
$CHAMFERC
 40
20.0
  9
$CHAMFERD
 40
0.0
  9
$SKPOLY
 70
     0
  9
$TDCREATE
 40
2452838.430434386
  9
$TDUPDATE
 40
2453151.770804386
  9
$TDINDWG
 40
0.1893122454
  9
$TDUSRTIMER
 40
0.1893122454
  9
$USRTIMER
 70
     1
  9
$ANGBASE
 50
0.0
  9
$ANGDIR
 70
     0
  9
$PDMODE
 70
     0
  9
$PDSIZE
 40
0.0
  9
$PLINEWID
 40
0.0
  9
$COORDS
 70
     1
  9
$SPLFRAME
 70
     0
  9
$SPLINETYPE
 70
     6
  9
$SPLINESEGS
 70
     8
  9
$ATTDIA
 70
     1
  9
$ATTREQ
 70
     1
  9
$HANDLING
 70
 12289
  9
$HANDSEED
  5
58FC
  9
$SURFTAB1
 70
     6
  9
$SURFTAB2
 70
     6
  9
$SURFTYPE
 70
     6
  9
$SURFU
 70
     6
  9
$SURFV
 70
     6
  9
$UCSNAME
  2

  9
$UCSORG
 10
0.0
 20
0.0
 30
0.0
  9
$UCSXDIR
 10
1.0
 20
0.0
 30
0.0
  9
$UCSYDIR
 10
0.0
 20
1.0
 30
0.0
  9
$PUCSNAME
  2

  9
$PUCSORG
 10
0.0
 20
0.0
 30
0.0
  9
$PUCSXDIR
 10
1.0
 20
0.0
 30
0.0
  9
$PUCSYDIR
 10
0.0
 20
1.0
 30
0.0
  9
$USERI1
 70
     0
  9
$USERI2
 70
     0
  9
$USERI3
 70
     0
  9
$USERI4
 70
     0
  9
$USERI5
 70
     0
  9
$USERR1
 40
0.0
  9
$USERR2
 40
0.0
  9
$USERR3
 40
0.0
  9
$USERR4
 40
0.0
  9
$USERR5
 40
0.0
  9
$WORLDVIEW
 70
     1
  9
$SHADEDGE
 70
     3
  9
$SHADEDIF
 70
    70
  9
$TILEMODE
 70
     1
  9
$MAXACTVP
 70
    64
  9
$PINSBASE
 10
0.0
 20
0.0
 30
0.0
  9
$PLIMCHECK
 70
     0
  9
$PEXTMIN
 10
1.000000000000000E+20
 20
1.000000000000000E+20
 30
1.000000000000000E+20
  9
$PEXTMAX
 10
-1.000000000000000E+20
 20
-1.000000000000000E+20
 30
-1.000000000000000E+20
  9
$PLIMMIN
 10
0.0
 20
0.0
  9
$PLIMMAX
 10
841.0
 20
594.0
  9
$UNITMODE
 70
     0
  9
$VISRETAIN
 70
     1
  9
$PLINEGEN
 70
     0
  9
$PSLTSCALE
 70
     0
  9
$TREEDEPTH
 70
  3020
  9
$PICKSTYLE
 70
     0
  9
$CMLSTYLE
  2
STANDARD
  9
$CMLJUST
 70
     0
  9
$CMLSCALE
 40
20.0
  9
$PROXYGRAPHICS
 70
     1
  9
$MEASUREMENT
 70
     1
  0
ENDSEC
  0
SECTION
  2
CLASSES
  0
CLASS
  1
ACDBDICTIONARYWDFLT
  2
AcDbDictionaryWithDefault
  3
AutoCAD 2000
 90
        0
280
     0
281
     0
  0
CLASS
  1
ACDBPLACEHOLDER
  2
AcDbPlaceHolder
  3
AutoCAD 2000
 90
        0
280
     0
281
     0
  0
CLASS
  1
LAYOUT
  2
AcDbLayout
  3
AutoCAD 2000
 90
        0
280
     0
281
     0
  0
CLASS
  1
AMGSETTINGSOBJ
  2
AmgSettingsObj
  3
"AcadM|Product Description: AutoCAD Mechanical 2000|Company: Autodesk"
 90
        0
280
     0
281
     0
  0
CLASS
  1
ACME_DOCUMENT
  2
AcMeDbDoc
  3
AcMeServices
 90
        0
280
     0
281
     0
  0
CLASS
  1
ACMESCOPE
  2
AcMeScope
  3
AcMeServices
 90
        0
280
     0
281
     0
  0
CLASS
  1
ACMECOMMANDHISTORY
  2
AcMeCommandHistory
  3
AcMeServices
 90
        0
280
     0
281
     0
  0
CLASS
  1
DICTIONARYVAR
  2
AcDbDictionaryVar
  3
AutoCAD 2000
 90
        0
280
     0
281
     0
  0
CLASS
  1
ACIMSYSVARMAN
  2
AcImSysVarManager
  3
AcMeServices
 90
        0
280
     0
281
     0
  0
CLASS
  1
ACIMREALSYSVAR
  2
AcImRealSysVar
  3
AcMeServices
 90
        0
280
     0
281
     0
  0
CLASS
  1
ACIMINTSYSVAR
  2
AcImIntSysVar
  3
AcMeServices
 90
        0
280
     0
281
     0
  0
CLASS
  1
ACMEDRAWINGMAN
  2
AcMeDrawingMan
  3
AcMeServices
 90
        0
280
     0
281
     0
  0
CLASS
  1
ACMEVIEW
  2
AcMeView
  3
AcMeServices
 90
        0
280
     0
281
     0
  0
CLASS
  1
ACDBENTITYCACHE
  2
AcMeEntityCache
  3
AcMeServices
 90
        0
280
     0
281
     0
  0
CLASS
  1
GSMANAGER
  2
AcMeGSManager
  3
AcMeServices
 90
        0
280
     0
281
     0
  0
CLASS
  1
AmdtInternalReactor
  2
AmdtInternalReactor
  3
AcMeServices
 90
        0
280
     0
281
     0
  0
CLASS
  1
ACMESTATEMGR
  2
AcMeStateMgr
  3
AcMeServices
 90
        0
280
     0
281
     0
  0
CLASS
  1
ACME_DATABASE
  2
AcMeDbDatabase
  3
AcMeServices
 90
        0
280
     0
281
     0
  0
CLASS
  1
ACRFINSADJUSTERMGR
  2
AcRfInsAdjusterMgr
  3
AcMeServices
 90
        0
280
     0
281
     0
  0
CLASS
  1
ACMDATADICTIONARY
  2
AcmDataDictionary
  3
"AcmSymBB|Product Description: AutoCAD Mechanical 2000|Company: Autodesk"
 90
        0
280
     0
281
     0
  0
CLASS
  1
ACMDATAENTRYBLOCK
  2
AcmDataEntryBlock
  3
"AcmSymBB|Product Description: AutoCAD Mechanical 2000|Company: Autodesk"
 90
        0
280
     0
281
     0
  0
CLASS
  1
AMGOBJPROPCFG
  2
AmgObjPropCfg
  3
"AmgLay|Product Description: AutoCAD Mechanical 2000|Company: Autodesk"
 90
        1
280
     0
281
     0
  0
CLASS
  1
ACAMGFILTERDAT
  2
AcAmgFilterDat
  3
"AcadM|Product Description: AutoCAD Mechanical 2000|Company: Autodesk"
 90
        0
280
     0
281
     0
  0
CLASS
  1
LAYER_INDEX
  2
AcDbLayerIndex
  3
AutoCAD 2000
 90
        0
280
     0
281
     0
  0
CLASS
  1
IDBUFFER
  2
AcDbIdBuffer
  3
AutoCAD 2000
 90
        0
280
     0
281
     0
  0
CLASS
  1
ACIMSTRSYSVAR
  2
AcImStrSysVar
  3
AcMeServices
 90
        0
280
     0
281
     0
  0
CLASS
  1
ACMSTANDARDJIS
  2
AcmStandardJIS
  3
"AcmSymBB|Product Description: AutoCAD Mechanical 2000|Company: Autodesk"
 90
        0
280
     0
281
     0
  0
CLASS
  1
ACMSURFSTANDARDJIS
  2
AcmSurfTextStdJIS
  3
"AcmSymBB|Product Description: AutoCAD Mechanical 2000|Company: Autodesk"
 90
        0
280
     0
281
     0
  0
CLASS
  1
ACMFCFSTANDARDJIS
  2
AcmFCFStdJIS
  3
"AcmSymBB|Product Description: AutoCAD Mechanical 2000|Company: Autodesk"
 90
        0
280
     0
281
     0
  0
CLASS
  1
ACMWELDSTANDARDJIS
  2
AcmWeldingStdJIS
  3
"AcmSymBB|Product Description: AutoCAD Mechanical 2000|Company: Autodesk"
 90
        0
280
     0
281
     0
  0
CLASS
  1
ACMIDSTANDARDJIS
  2
AcmIdStdJIS
  3
"AcmSymBB|Product Description: AutoCAD Mechanical 2000|Company: Autodesk"
 90
        0
280
     0
281
     0
  0
CLASS
  1
ACMDATUMSTANDARDJIS
  2
AcmDatumStdJIS
  3
"AcmSymBB|Product Description: AutoCAD Mechanical 2000|Company: Autodesk"
 90
        0
280
     0
281
     0
  0
CLASS
  1
ACMBOMSTANDARDJIS
  2
AcmBOMStdJIS
  3
"AcmSymBB|Product Description: AutoCAD Mechanical 2000|Company: Autodesk"
 90
        0
280
     0
281
     0
  0
CLASS
  1
ACMSTANDARDANSI
  2
AcmStandardANSI
  3
"AcmSymBB|Product Description: AutoCAD Mechanical 2000|Company: Autodesk"
 90
        0
280
     0
281
     0
  0
CLASS
  1
ACMSURFSTANDARDANSI
  2
AcmSurfTextStdANSI
  3
"AcmSymBB|Product Description: AutoCAD Mechanical 2000|Company: Autodesk"
 90
        0
280
     0
281
     0
  0
CLASS
  1
ACMFCFSTANDARDANSI
  2
AcmFCFStdANSI
  3
"AcmSymBB|Product Description: AutoCAD Mechanical 2000|Company: Autodesk"
 90
        0
280
     0
281
     0
  0
CLASS
  1
ACMWELDSTANDARDANSI
  2
AcmWeldingStdANSI
  3
"AcmSymBB|Product Description: AutoCAD Mechanical 2000|Company: Autodesk"
 90
        0
280
     0
281
     0
  0
CLASS
  1
ACMIDSTANDARDANSI
  2
AcmIdStdANSI
  3
"AcmSymBB|Product Description: AutoCAD Mechanical 2000|Company: Autodesk"
 90
        0
280
     0
281
     0
  0
CLASS
  1
ACMDATUMSTANDARDANSI
  2
AcmDatumStdANSI
  3
"AcmSymBB|Product Description: AutoCAD Mechanical 2000|Company: Autodesk"
 90
        0
280
     0
281
     0
  0
CLASS
  1
ACMBOMSTANDARDANSI
  2
AcmBOMStdANSI
  3
"AcmSymBB|Product Description: AutoCAD Mechanical 2000|Company: Autodesk"
 90
        0
280
     0
281
     0
  0
CLASS
  1
ACMSTANDARDBSI
  2
AcmStandardBSI
  3
"AcmSymBB|Product Description: AutoCAD Mechanical 2000|Company: Autodesk"
 90
        0
280
     0
281
     0
  0
CLASS
  1
ACMSURFSTANDARDBSI
  2
AcmSurfTextStdBSI
  3
"AcmSymBB|Product Description: AutoCAD Mechanical 2000|Company: Autodesk"
 90
        0
280
     0
281
     0
  0
CLASS
  1
ACMFCFSTANDARDBSI
  2
AcmFCFStdBSI
  3
"AcmSymBB|Product Description: AutoCAD Mechanical 2000|Company: Autodesk"
 90
        0
280
     0
281
     0
  0
CLASS
  1
ACMWELDSTANDARDBSI
  2
AcmWeldingStdBSI
  3
"AcmSymBB|Product Description: AutoCAD Mechanical 2000|Company: Autodesk"
 90
        0
280
     0
281
     0
  0
CLASS
  1
ACMIDSTANDARDBSI
  2
AcmIdStdBSI
  3
"AcmSymBB|Product Description: AutoCAD Mechanical 2000|Company: Autodesk"
 90
        0
280
     0
281
     0
  0
CLASS
  1
ACMDATUMSTANDARDBSI
  2
AcmDatumStdBSI
  3
"AcmSymBB|Product Description: AutoCAD Mechanical 2000|Company: Autodesk"
 90
        0
280
     0
281
     0
  0
CLASS
  1
ACMBOMSTANDARDBSI
  2
AcmBOMStdBSI
  3
"AcmSymBB|Product Description: AutoCAD Mechanical 2000|Company: Autodesk"
 90
        0
280
     0
281
     0
  0
CLASS
  1
LONG_TRANSACTION
  2
AcDbLongTransaction
  3
AutoCAD 2000
 90
        0
280
     0
281
     0
  0
CLASS
  1
LWPOLYLINE
  2
AcDbPolyline
  3
AutoCAD 2000
 90
        0
280
     0
281
     1
  0
CLASS
  1
HATCH
  2
AcDbHatch
  3
AutoCAD 2000
 90
        0
280
     0
281
     1
  0
CLASS
  1
XRECORD
  2
AcDbXrecord
  3
AutoCAD 2000
 90
        0
280
     0
281
     0
  0
ENDSEC
  0
SECTION
  2
TABLES
  0
TABLE
  2
VPORT
  5
8
330
0
100
AcDbSymbolTable
 70
     3
  0
VPORT
  5
58CB
330
8
100
AcDbSymbolTableRecord
100
AcDbViewportTableRecord
  2
*ACTIVE
 70
     0
 10
0.0
 20
0.0
 11
1.0
 21
1.0
 12
-30.34995918711084
 22
-10.92814967200289
 13
0.0
 23
0.0
 14
2.5
 24
2.5
 15
10.0
 25
10.0
 16
0.0
 26
0.0
 36
1.0
 17
0.0
 27
0.0
 37
0.0
 40
50.0287684516937
 41
1.56570841889117
 42
50.0
 43
0.0
 44
0.0
 50
0.0
 51
0.0
 71
     0
 72
   100
 73
     1
 74
     3
 75
     0
 76
     0
 77
     0
 78
     0
  0
ENDTAB
  0
TABLE
  2
LTYPE
  5
5
330
0
100
AcDbSymbolTable
 70
    10
  0
LTYPE
  5
14
330
5
100
AcDbSymbolTableRecord
100
AcDbLinetypeTableRecord
  2
BYBLOCK
 70
     0
  3

 72
    65
 73
     0
 40
0.0
  0
LTYPE
  5
15
330
5
100
AcDbSymbolTableRecord
100
AcDbLinetypeTableRecord
  2
BYLAYER
 70
     0
  3

 72
    65
 73
     0
 40
0.0
  0
LTYPE
  5
16
330
5
100
AcDbSymbolTableRecord
100
AcDbLinetypeTableRecord
  2
CONTINUOUS
 70
     0
  3
Solid line
 72
    65
 73
     0
 40
0.0
  0
LTYPE
  5
4B
330
5
100
AcDbSymbolTableRecord
100
AcDbLinetypeTableRecord
  2
AM_ISO02W050
 70
     0
  3
__ __ __ __ __ __ __ __ __ __ __ __ __ __ __
 72
    65
 73
     2
 40
7.5
 49
6.0
 74
     0
 49
-1.5
 74
     0
  0
LTYPE
  5
4C
330
5
100
AcDbSymbolTableRecord
100
AcDbLinetypeTableRecord
  2
AM_ISO08W050
 70
     0
  3
____ . ____ . ____ . ____ . ____ . ____ . ____
 72
    65
 73
     4
 40
18.0
 49
12.0
 74
     0
 49
-1.5
 74
     0
 49
3.0
 74
     0
 49
-1.5
 74
     0
  0
LTYPE
  5
4D
330
5
100
AcDbSymbolTableRecord
100
AcDbLinetypeTableRecord
  2
AM_ISO09W050
 70
     0
  3
_____ . . _____ . . _____ . . ____ .. ____
 72
    65
 73
     6
 40
22.5
 49
12.0
 74
     0
 49
-1.5
 74
     0
 49
3.0
 74
     0
 49
-1.5
 74
     0
 49
3.0
 74
     0
 49
-1.5
 74
     0
  0
LTYPE
  5
4E
330
5
100
AcDbSymbolTableRecord
100
AcDbLinetypeTableRecord
  2
AMCONSTR
 70
     0
  3
_______________________
 72
    65
 73
     2
 40
9999.0
 49
9999.0
 74
     0
 49
0.0
 74
     0
  0
LTYPE
  5
4F
330
5
100
AcDbSymbolTableRecord
100
AcDbLinetypeTableRecord
  2
AM_ISO02W050X2
 70
     0
  3
 _ _ _ _ _ _ _ _ _ _ _ _
 72
    65
 73
     2
 40
3.75
 49
3.0
 74
     0
 49
-0.75
 74
     0
  0
LTYPE
  5
50
330
5
100
AcDbSymbolTableRecord
100
AcDbLinetypeTableRecord
  2
AM_ISO08W050X2
 70
     0
  3
__ . __ . __ . __ . __ . __
 72
    65
 73
     4
 40
9.0
 49
6.0
 74
     0
 49
-0.75
 74
     0
 49
1.5
 74
     0
 49
-0.75
 74
     0
  0
LTYPE
  5
53
330
5
100
AcDbSymbolTableRecord
100
AcDbLinetypeTableRecord
  2
AMZIGZAG
 70
     0
  3
/\/-/\/-/\/-/\/-/\/-/\/
 72
    65
 73
     2
 40
11.00009999999999
 49
0.0001
 74
     4
 75
   135
340
52
 46
0.04
 50
0.0
 44
0.0
 45
0.0
 49
-11.0
 74
     0
  0
LTYPE
  5
166
330
5
100
AcDbSymbolTableRecord
100
AcDbLinetypeTableRecord
  2
ACJISTGL
 70
     0
  3
_ _ _ _ _
 72
    65
 73
     2
 40
3.0
 49
2.0
 74
     0
 49
-1.0
 74
     0
  0
LTYPE
  5
26A
330
5
100
AcDbSymbolTableRecord
100
AcDbLinetypeTableRecord
  2
ACJISTGB
 70
     0
  3
__ . . __ . .
 72
    65
 73
     6
 40
9.0
 49
4.0
 74
     0
 49
-1.0
 74
     0
 49
1.0
 74
     0
 49
-1.0
 74
     0
 49
1.0
 74
     0
 49
-1.0
 74
     0
  0
ENDTAB
  0
TABLE
  2
LAYER
  5
2
330
0
100
AcDbSymbolTable
 70
     7
  0
LAYER
  5
10
330
2
100
AcDbSymbolTableRecord
100
AcDbLayerTableRecord
  2
0
 70
     0
 62
     7
  6
CONTINUOUS
  0
LAYER
  5
3F9
330
2
100
AcDbSymbolTableRecord
100
AcDbLayerTableRecord
  2
AM_0
 70
     0
 62
     7
  6
CONTINUOUS
  0
LAYER
  5
BDD
330
2
100
AcDbSymbolTableRecord
100
AcDbLayerTableRecord
  2
AM_11
 70
     0
 62
     3
  6
AM_ISO09W050
  0
LAYER
  5
BDE
330
2
100
AcDbSymbolTableRecord
100
AcDbLayerTableRecord
  2
AM_7
 70
     0
 62
     4
  6
AM_ISO08W050
  0
LAYER
  5
BDF
330
2
100
AcDbSymbolTableRecord
100
AcDbLayerTableRecord
  2
AM_5
 70
     0
 62
     3
  6
CONTINUOUS
  0
LAYER
  5
BE0
330
2
100
AcDbSymbolTableRecord
100
AcDbLayerTableRecord
  2
DEFPOINTS
 70
     0
 62
     7
  6
CONTINUOUS
  0
LAYER
  5
14FF
330
2
100
AcDbSymbolTableRecord
100
AcDbLayerTableRecord
  2
AM_6
 70
     0
 62
     2
  6
CONTINUOUS
  0
ENDTAB
  0
TABLE
  2
STYLE
  5
3
330
0
100
AcDbSymbolTable
 70
     5
  0
STYLE
  5
11
330
3
100
AcDbSymbolTableRecord
100
AcDbTextStyleTableRecord
  2
STANDARD
 70
     0
 40
0.0
 41
1.0
 50
0.0
 71
     0
 42
2.5
  3
simplex.shx
  4
EXTFONT.SHX
  0
STYLE
  5
52
330
3
100
AcDbSymbolTableRecord
100
AcDbTextStyleTableRecord
  2

 70
     1
 40
0.0
 41
1.0
 50
0.0
 71
     0
 42
2.5
  3
ltypeshp.shx
  4

  0
STYLE
  5
6B
330
3
100
AcDbSymbolTableRecord
100
AcDbTextStyleTableRecord
  2
ASAMI
 70
     0
 40
0.0
 41
1.0
 50
0.0
 71
     0
 42
2.5
  3
simplex.shx
  4
EXTFONT.SHX
  0
STYLE
  5
262
330
3
100
AcDbSymbolTableRecord
100
AcDbTextStyleTableRecord
  2
ACJISTS
 70
     0
 40
1.0
 41
1.0
 50
0.0
 71
     0
 42
2.5
  3
simplex.shx
  4
bigfont.shx
  0
STYLE
  5
269
330
3
100
AcDbSymbolTableRecord
100
AcDbTextStyleTableRecord
  2
ACJISGDT
 70
     0
 40
0.0
 41
1.0
 50
0.0
 71
     0
 42
2.5
  3
amgdtans.shx
  4

  0
ENDTAB
  0
TABLE
  2
VIEW
  5
6
330
0
100
AcDbSymbolTable
 70
     0
  0
ENDTAB
  0
TABLE
  2
UCS
  5
7
330
0
100
AcDbSymbolTable
 70
     0
  0
ENDTAB
  0
TABLE
  2
APPID
  5
9
330
0
100
AcDbSymbolTable
 70
    14
  0
APPID
  5
12
330
9
100
AcDbSymbolTableRecord
100
AcDbRegAppTableRecord
  2
ACAD
 70
     0
  0
APPID
  5
30
330
9
100
AcDbSymbolTableRecord
100
AcDbRegAppTableRecord
  2
MCAD_NO_VIS
 70
     0
  0
APPID
  5
31
330
9
100
AcDbSymbolTableRecord
100
AcDbRegAppTableRecord
  2
ACAD_TEMP_GRAPHIC
 70
     0
  0
APPID
  5
2C2
330
9
100
AcDbSymbolTableRecord
100
AcDbRegAppTableRecord
  2
GENIUS_GENDTOL_13
 70
     0
  0
APPID
  5
339
330
9
100
AcDbSymbolTableRecord
100
AcDbRegAppTableRecord
  2
GENIUS_GENODEF_13
 70
     0
  0
APPID
  5
33A
330
9
100
AcDbSymbolTableRecord
100
AcDbRegAppTableRecord
  2
GENIUS_GENOBJ-N-RSBK_13
 70
     0
  0
APPID
  5
33B
330
9
100
AcDbSymbolTableRecord
100
AcDbRegAppTableRecord
  2
GENIUS_GENOBJ-N-LIB_13
 70
     0
  0
APPID
  5
33C
330
9
100
AcDbSymbolTableRecord
100
AcDbRegAppTableRecord
  2
GENIUS_GENSCALE_13
 70
     0
  0
APPID
  5
378
330
9
100
AcDbSymbolTableRecord
100
AcDbRegAppTableRecord
  2
GENIUS_GENDIMSH_14
 70
     0
  0
APPID
  5
BE1
330
9
100
AcDbSymbolTableRecord
100
AcDbRegAppTableRecord
  2
GENIUS_GENFIL_13
 70
     0
  0
APPID
  5
BE2
330
9
100
AcDbSymbolTableRecord
100
AcDbRegAppTableRecord
  2
GENIUS_GENOBJ-N-CHA_13
 70
     0
  0
APPID
  5
151B
330
9
100
AcDbSymbolTableRecord
100
AcDbRegAppTableRecord
  2
DCO15
 70
     0
  0
APPID
  5
1860
330
9
100
AcDbSymbolTableRecord
100
AcDbRegAppTableRecord
  2
GENIUS_GENOBJ-N-CEN_13
 70
     0
  0
APPID
  5
359C
330
9
100
AcDbSymbolTableRecord
100
AcDbRegAppTableRecord
  2
GENIUS_GENOBJ-N-FIL_13
 70
     0
  0
ENDTAB
  0
TABLE
  2
DIMSTYLE
  5
A
330
0
100
AcDbSymbolTable
 70
     8
  0
DIMSTYLE
105
58
102
{ACAD_REACTORS
330
4047
330
412A
330
42F4
330
5274
102
}
330
A
100
AcDbSymbolTableRecord
100
AcDbDimStyleTableRecord
  2
AM_JIS
 70
     0
  3

  4
"
  5
OPEN30
  6

  7

 40
0.5
 41
2.5
 42
1.0
 43
12.0
 44
1.0
 45
0.0
 46
0.0
 47
0.1
 48
0.1
140
3.2
141
0.0
142
0.0
143
0.0393701
144
1.0
145
0.0
146
0.71
147
1.5
 71
     0
 72
     0
 73
     0
 74
     0
 75
     0
 76
     0
 77
     3
 78
     8
170
     0
171
     2
172
     1
173
     0
174
     0
175
     0
176
   256
177
   256
178
     2
270
     2
271
     3
272
     3
273
     2
274
     2
340
6B
275
     0
280
     0
281
     0
282
     0
283
     0
284
     0
285
     0
286
     0
287
     3
288
     0
  0
DIMSTYLE
105
5F
330
A
100
AcDbSymbolTableRecord
100
AcDbDimStyleTableRecord
  2
AM_JIS$3
 70
     0
  3

  4
"
  5
OPEN30
  6

  7

 40
0.5
 41
2.5
 42
1.0
 43
10.0
 44
1.0
 45
0.0
 46
0.0
 47
0.1
 48
0.1
140
3.2
141
0.0
142
0.0
143
0.0393701
144
1.0
145
0.0
146
0.71
147
1.5
 71
     0
 72
     0
 73
     0
 74
     1
 75
     0
 76
     0
 77
     3
 78
     8
170
     0
171
     2
172
     0
173
     0
174
     0
175
     0
176
   256
177
   256
178
     2
270
     2
271
     2
272
     3
273
     2
274
     2
340
6B
275
     0
280
     0
281
     0
282
     0
283
     0
284
     0
285
     0
286
     0
287
     0
288
     1
  0
DIMSTYLE
105
60
102
{ACAD_REACTORS
330
562E
102
}
330
A
100
AcDbSymbolTableRecord
100
AcDbDimStyleTableRecord
  2
AM_JIS$4
 70
     0
  3

  4
"
  5
OPEN30
  6

  7

 40
0.5
 41
2.5
 42
1.0
 43
10.0
 44
1.0
 45
0.0
 46
0.0
 47
0.1
 48
0.1
140
3.2
141
0.0
142
0.0
143
0.0393701
144
1.0
145
0.0
146
0.71
147
1.5
 71
     0
 72
     0
 73
     0
 74
     1
 75
     0
 76
     0
 77
     3
 78
     8
170
     0
171
     2
172
     0
173
     0
174
     0
175
     0
176
   256
177
   256
178
     2
270
     2
271
     2
272
     3
273
     2
274
     2
340
6B
275
     0
280
     0
281
     0
282
     0
283
     0
284
     0
285
     0
286
     0
287
     0
288
     1
  0
DIMSTYLE
105
61
330
A
100
AcDbSymbolTableRecord
100
AcDbDimStyleTableRecord
  2
AM_JIS$6
 70
     0
  3

  4
"
  5
OPEN30
  6

  7

 40
0.5
 41
2.5
 42
1.0
 43
10.0
 44
1.0
 45
0.0
 46
0.0
 47
0.1
 48
0.1
140
3.2
141
0.0
142
0.0
143
0.0393701
144
1.0
145
0.0
146
0.71
147
1.5
 71
     0
 72
     0
 73
     0
 74
     0
 75
     0
 76
     0
 77
     0
 78
     8
170
     0
171
     2
172
     1
173
     0
174
     0
175
     0
176
   256
177
   256
178
     2
270
     2
271
     2
272
     2
273
     2
274
     2
340
6B
275
     0
280
     0
281
     0
282
     0
283
     0
284
     0
285
     0
286
     0
287
     3
288
     0
  0
DIMSTYLE
105
62
330
A
100
AcDbSymbolTableRecord
100
AcDbDimStyleTableRecord
  2
AM_JIS$7
 70
     0
  3

  4
"
  5
OPEN30
  6

  7

 40
0.5
 41
2.5
 42
1.0
 43
10.0
 44
1.0
 45
0.0
 46
0.0
 47
0.1
 48
0.1
140
3.2
141
0.0
142
0.0
143
0.0393701
144
1.0
145
0.0
146
0.71
147
1.5
 71
     0
 72
     0
 73
     0
 74
     0
 75
     0
 76
     0
 77
     3
 78
     8
170
     0
171
     2
172
     1
173
     0
174
     0
175
     0
176
   256
177
   256
178
     2
270
     2
271
     2
272
     3
273
     2
274
     2
340
6B
275
     0
280
     0
281
     0
282
     0
283
     0
284
     0
285
     0
286
     0
287
     3
288
     0
  0
DIMSTYLE
105
63
330
A
100
AcDbSymbolTableRecord
100
AcDbDimStyleTableRecord
  2
AM_JIS$SF
 70
     0
  3

  4
"
  5
OPEN30
  6

  7

 40
0.5
 41
2.5
 42
1.0
 43
10.0
 44
1.0
 45
0.0
 46
0.0
 47
0.1
 48
0.1
140
3.2
141
0.0
142
0.0
143
0.0393701
144
1.0
145
0.0
146
0.71
147
1.5
 71
     0
 72
     0
 73
     0
 74
     0
 75
     1
 76
     1
 77
     3
 78
     8
170
     0
171
     2
172
     1
173
     0
174
     0
175
     0
176
   256
177
   256
178
     2
270
     2
271
     2
272
     2
273
     2
274
     2
340
6B
275
     0
280
     0
281
     0
282
     0
283
     0
284
     0
285
     0
286
     0
287
     3
288
     0
  0
DIMSTYLE
105
68
330
A
100
AcDbSymbolTableRecord
100
AcDbDimStyleTableRecord
  2
AM_JIS$SH
 70
     0
  3

  4
"
  5

  6
GENAXEH
  7
OPEN30
 40
0.5
 41
2.5
 42
1.0
 43
10.0
 44
1.0
 45
0.0
 46
0.0
 47
0.1
 48
0.1
140
3.2
141
0.0
142
0.0
143
0.0393701
144
2.0
145
0.0
146
0.71
147
1.5
 71
     0
 72
     0
 73
     0
 74
     0
 75
     1
 76
     1
 77
     3
 78
     8
170
     0
171
     2
172
     1
173
     1
174
     0
175
     0
176
   256
177
   256
178
     2
270
     2
271
     2
272
     2
273
     2
274
     2
340
6B
275
     0
280
     0
281
     0
282
     0
283
     0
284
     0
285
     0
286
     0
287
     3
288
     0
  0
DIMSTYLE
105
B34
330
A
100
AcDbSymbolTableRecord
100
AcDbDimStyleTableRecord
  2
AM_JIS$2
 70
     0
  3

  4
"
  5
OPEN30
  6

  7

 40
0.5
 41
2.5
 42
1.0
 43
12.0
 44
1.0
 45
0.0
 46
0.0
 47
0.1
 48
0.1
140
3.2
141
0.0
142
0.0
143
0.0393701
144
1.0
145
0.0
146
0.71
147
1.5
 71
     0
 72
     0
 73
     0
 74
     0
 75
     0
 76
     0
 77
     3
 78
     8
170
     0
171
     2
172
     1
173
     0
174
     0
175
     0
176
   256
177
   256
178
     2
270
     2
271
     3
272
     3
273
     2
274
     2
340
6B
275
     0
280
     0
281
     0
282
     0
283
     0
284
     0
285
     0
286
     0
287
     3
288
     0
  0
ENDTAB
  0
TABLE
  2
BLOCK_RECORD
  5
1
330
0
100
AcDbSymbolTable
 70
    10
  0
BLOCK_RECORD
  5
1F
102
{ACAD_XDICTIONARY
360
74
102
}
330
1
100
AcDbSymbolTableRecord
100
AcDbBlockTableRecord
  2
*MODEL_SPACE
  0
BLOCK_RECORD
  5
101
102
{ACAD_XDICTIONARY
360
58F4
102
}
330
1
100
AcDbSymbolTableRecord
100
AcDbBlockTableRecord
  2
*PAPER_SPACE
  0
BLOCK_RECORD
  5
59
330
1
100
AcDbSymbolTableRecord
100
AcDbBlockTableRecord
  2
_OPEN30
  0
BLOCK_RECORD
  5
64
330
1
100
AcDbSymbolTableRecord
100
AcDbBlockTableRecord
  2
GENAXEH
  0
BLOCK_RECORD
  5
4048
330
1
100
AcDbSymbolTableRecord
100
AcDbBlockTableRecord
  2
*D5
  0
BLOCK_RECORD
  5
412B
330
1
100
AcDbSymbolTableRecord
100
AcDbBlockTableRecord
  2
*D6
  0
BLOCK_RECORD
  5
42F5
330
1
100
AcDbSymbolTableRecord
100
AcDbBlockTableRecord
  2
*D7
  0
BLOCK_RECORD
  5
5275
330
1
100
AcDbSymbolTableRecord
100
AcDbBlockTableRecord
  2
*D8
  0
BLOCK_RECORD
  5
562F
330
1
100
AcDbSymbolTableRecord
100
AcDbBlockTableRecord
  2
*D9
  0
ENDTAB
  0
ENDSEC
  0
SECTION
  2
BLOCKS
  0
BLOCK
  5
20
330
1F
100
AcDbEntity
  8
0
100
AcDbBlockBegin
  2
*MODEL_SPACE
 70
     0
 10
0.0
 20
0.0
 30
0.0
  3
*MODEL_SPACE
  1

  0
ENDBLK
  5
21
330
1F
100
AcDbEntity
  8
0
100
AcDbBlockEnd
  0
BLOCK
  5
103
330
101
100
AcDbEntity
 67
     1
  8
0
100
AcDbBlockBegin
  2
*PAPER_SPACE
 70
     0
 10
0.0
 20
0.0
 30
0.0
  3
*PAPER_SPACE
  1

  0
ENDBLK
  5
104
330
101
100
AcDbEntity
 67
     1
  8
0
100
AcDbBlockEnd
  0
BLOCK
  5
5D
330
59
100
AcDbEntity
  8
0
100
AcDbBlockBegin
  2
_OPEN30
 70
     0
 10
0.0
 20
0.0
 30
0.0
  3
_OPEN30
  1

  0
LINE
  5
5A
330
59
100
AcDbEntity
  8
0
 62
     0
100
AcDbLine
 10
-1.0
 20
0.26794919
 30
0.0
 11
0.0
 21
0.0
 31
0.0
  0
LINE
  5
5B
330
59
100
AcDbEntity
  8
0
 62
     0
100
AcDbLine
 10
0.0
 20
0.0
 30
0.0
 11
-1.0
 21
-0.26794919
 31
0.0
  0
LINE
  5
5C
330
59
100
AcDbEntity
  8
0
 62
     0
100
AcDbLine
 10
0.0
 20
0.0
 30
0.0
 11
-1.0
 21
0.0
 31
0.0
  0
ENDBLK
  5
5E
330
59
100
AcDbEntity
  8
0
100
AcDbBlockEnd
  0
BLOCK
  5
66
330
64
100
AcDbEntity
  8
0
100
AcDbBlockBegin
  2
GENAXEH
 70
     0
 10
0.0
 20
0.0
 30
0.0
  3
GENAXEH
  1

  0
LINE
  5
65
330
64
100
AcDbEntity
  8
0
100
AcDbLine
 10
-1.0
 20
0.0
 30
0.0
 11
1.0
 21
0.0
 31
0.0
  0
ENDBLK
  5
67
330
64
100
AcDbEntity
  8
0
100
AcDbBlockEnd
  0
BLOCK
  5
4052
330
4048
100
AcDbEntity
  8
0
100
AcDbBlockBegin
  2
*D5
 70
     1
 10
0.0
 20
0.0
 30
0.0
  3
*D5
  1

  0
LINE
  5
55F0
330
4048
100
AcDbEntity
  8
AM_5
100
AcDbLine
 10
-59.99999999999997
 20
-2.000000000000072
 30
0.0
 11
-59.99999999999997
 21
-15.60284357602594
 31
0.0
  0
LINE
  5
55F1
330
4048
100
AcDbEntity
  8
AM_5
100
AcDbLine
 10
0.0000000000000006
 20
-0.5000000000000005
 30
0.0
 11
-0.0000000000000003
 21
-15.60284357602594
 31
0.0
  0
LINE
  5
55F2
330
4048
100
AcDbEntity
  8
AM_5
100
AcDbLine
 10
-58.74999999999997
 20
-15.10284357602594
 30
0.0
 11
-1.25
 21
-15.10284357602594
 31
0.0
  0
INSERT
  5
55F3
330
4048
100
AcDbEntity
  8
AM_5
100
AcDbBlockReference
  2
_OPEN30
 10
-59.99999999999997
 20
-15.10284357602594
 30
0.0
 41
1.25
 42
1.25
 43
1.25
 50
180.0
  0
INSERT
  5
55F4
330
4048
100
AcDbEntity
  8
AM_5
100
AcDbBlockReference
  2
_OPEN30
 10
-0.0000000000000003
 20
-15.10284357602594
 30
0.0
 41
1.25
 42
1.25
 43
1.25
  0
MTEXT
  5
55F5
330
4048
100
AcDbEntity
  8
AM_5
 62
     2
100
AcDbMText
 10
-29.99999999999998
 20
-13.55284357602594
 30
0.0
 40
1.6
 41
0.0
 71
     5
 72
     1
  1
60
  7
ASAMI
1001
ACAD
1000
MTEXTBEGIN
1070
    73
1070
     1
1070
    44
1040
1.0
1070
    74
1070
     0
1000
MTEXTEND
  0
POINT
  5
55F6
330
4048
100
AcDbEntity
  8
DEFPOINTS
 62
     0
100
AcDbPoint
 10
-59.99999999999997
 20
-1.500000000000072
 30
0.0
  0
POINT
  5
55F7
330
4048
100
AcDbEntity
  8
DEFPOINTS
 62
     0
100
AcDbPoint
 10
0.0000000000000007
 20
-0.0000000000000005
 30
0.0
  0
POINT
  5
55F8
330
4048
100
AcDbEntity
  8
DEFPOINTS
 62
     0
100
AcDbPoint
 10
-0.0000000000000003
 20
-15.10284357602594
 30
0.0
  0
ENDBLK
  5
4053
330
4048
100
AcDbEntity
  8
0
100
AcDbBlockEnd
  0
BLOCK
  5
4135
330
412B
100
AcDbEntity
  8
0
100
AcDbBlockBegin
  2
*D6
 70
     1
 10
0.0
 20
0.0
 30
0.0
  3
*D6
  1

  0
LINE
  5
5604
330
412B
100
AcDbEntity
  8
AM_5
100
AcDbLine
 10
-0.0000000000000142
 20
-0.5000000000000111
 30
0.0
 11
-0.0000000000000148
 21
-9.602843576025954
 31
0.0
  0
LINE
  5
5605
330
412B
100
AcDbEntity
  8
AM_5
100
AcDbLine
 10
-4.499999999999999
 20
-1.999999999999984
 30
0.0
 11
-4.5
 21
-9.602843576025954
 31
0.0
  0
LINE
  5
5606
330
412B
100
AcDbEntity
  8
AM_5
100
AcDbLine
 10
-1.250000000000014
 20
-9.102843576025954
 30
0.0
 11
-3.25
 21
-9.102843576025954
 31
0.0
  0
LINE
  5
5607
330
412B
100
AcDbEntity
  8
AM_5
100
AcDbLine
 10
-4.5
 20
-9.102843576025954
 30
0.0
 11
-10.60238095238095
 21
-9.102843576025954
 31
0.0
  0
INSERT
  5
5608
330
412B
100
AcDbEntity
  8
AM_5
100
AcDbBlockReference
  2
_OPEN30
 10
-0.0000000000000148
 20
-9.102843576025954
 30
0.0
 41
1.25
 42
1.25
 43
1.25
  0
INSERT
  5
5609
330
412B
100
AcDbEntity
  8
AM_5
100
AcDbBlockReference
  2
_OPEN30
 10
-4.5
 20
-9.102843576025954
 30
0.0
 41
1.25
 42
1.25
 43
1.25
 50
180.0
  0
MTEXT
  5
560A
330
412B
100
AcDbEntity
  8
AM_5
 62
     2
100
AcDbMText
 10
-8.176190476190475
 20
-7.552843576025954
 30
0.0
 40
1.6
 41
0.0
 71
     5
 72
     1
  1
4.5
  7
ASAMI
1001
ACAD
1000
MTEXTBEGIN
1070
    73
1070
     1
1070
    44
1040
1.0
1070
    74
1070
     0
1000
MTEXTEND
  0
POINT
  5
560B
330
412B
100
AcDbEntity
  8
DEFPOINTS
 62
     0
100
AcDbPoint
 10
-0.0000000000000142
 20
-0.0000000000000111
 30
0.0
  0
POINT
  5
560C
330
412B
100
AcDbEntity
  8
DEFPOINTS
 62
     0
100
AcDbPoint
 10
-4.499999999999999
 20
-1.499999999999984
 30
0.0
  0
POINT
  5
560D
330
412B
100
AcDbEntity
  8
DEFPOINTS
 62
     0
100
AcDbPoint
 10
-4.5
 20
-9.102843576025954
 30
0.0
  0
ENDBLK
  5
4136
330
412B
100
AcDbEntity
  8
0
100
AcDbBlockEnd
  0
BLOCK
  5
42FF
330
42F5
100
AcDbEntity
  8
0
100
AcDbBlockBegin
  2
*D7
 70
     1
 10
0.0
 20
0.0
 30
0.0
  3
*D7
  1

  0
LINE
  5
560E
330
42F5
100
AcDbEntity
  8
AM_5
100
AcDbLine
 10
-1.000000000000029
 20
1.500000000000014
 30
0.0
 11
8.649966949055508
 21
1.500000000000011
 31
0.0
  0
LINE
  5
560F
330
42F5
100
AcDbEntity
  8
AM_5
100
AcDbLine
 10
-1.000000000000021
 20
-1.499999999999985
 30
0.0
 11
8.649966949055508
 21
-1.499999999999988
 31
0.0
  0
LINE
  5
5610
330
42F5
100
AcDbEntity
  8
AM_5
100
AcDbLine
 10
8.149966949055508
 20
2.750000000000011
 30
0.0
 11
8.14996694905551
 21
4.000000000000012
 31
0.0
  0
LINE
  5
5611
330
42F5
100
AcDbEntity
  8
AM_5
100
AcDbLine
 10
8.149966949055508
 20
-2.749999999999988
 30
0.0
 11
8.149966949055507
 21
-8.014285714285703
 31
0.0
  0
LINE
  5
5612
330
42F5
100
AcDbEntity
  8
AM_5
100
AcDbLine
 10
8.149966949055508
 20
1.500000000000011
 30
0.0
 11
8.149966949055508
 21
-1.499999999999988
 31
0.0
  0
INSERT
  5
5613
330
42F5
100
AcDbEntity
  8
AM_5
100
AcDbBlockReference
  2
_OPEN30
 10
8.149966949055508
 20
1.500000000000011
 30
0.0
 41
1.25
 42
1.25
 43
1.25
 50
270.0
  0
INSERT
  5
5614
330
42F5
100
AcDbEntity
  8
AM_5
100
AcDbBlockReference
  2
_OPEN30
 10
8.149966949055508
 20
-1.499999999999988
 30
0.0
 41
1.25
 42
1.25
 43
1.25
 50
90.0
  0
MTEXT
  5
5615
330
42F5
100
AcDbEntity
  8
AM_5
 62
     2
100
AcDbMText
 10
6.599966949055508
 20
-6.007142857142843
 30
0.0
 40
1.6
 41
0.0
 71
     5
 72
     1
  1
%%c3
  7
ASAMI
 11
0.0000000000000001
 21
1.0
 31
0.0
1001
ACAD
1000
MTEXTBEGIN
1070
    73
1070
     1
1070
    44
1040
1.0
1070
    74
1070
     0
1000
MTEXTEND
  0
POINT
  5
5616
330
42F5
100
AcDbEntity
  8
DEFPOINTS
 62
     0
100
AcDbPoint
 10
-1.50000000000003
 20
1.500000000000014
 30
0.0
  0
POINT
  5
5617
330
42F5
100
AcDbEntity
  8
DEFPOINTS
 62
     0
100
AcDbPoint
 10
-1.500000000000021
 20
-1.499999999999985
 30
0.0
  0
POINT
  5
5618
330
42F5
100
AcDbEntity
  8
DEFPOINTS
 62
     0
100
AcDbPoint
 10
8.149966949055508
 20
-1.499999999999988
 30
0.0
  0
ENDBLK
  5
4300
330
42F5
100
AcDbEntity
  8
0
100
AcDbBlockEnd
  0
BLOCK
  5
5281
330
5275
100
AcDbEntity
  8
0
100
AcDbBlockBegin
  2
*D8
 70
     1
 10
0.0
 20
0.0
 30
0.0
  3
*D8
  1

  0
LINE
  5
57BD
330
5275
100
AcDbEntity
  8
AM_5
100
AcDbLine
 10
-59.99999999999997
 20
1.999999999999885
 30
0.0
 11
-67.49999999999997
 21
1.999999999999887
 31
0.0
  0
LINE
  5
57BE
330
5275
100
AcDbEntity
  8
AM_5
100
AcDbLine
 10
-59.99999999999994
 20
-2.0000000000001
 30
0.0
 11
-67.49999999999997
 21
-2.000000000000098
 31
0.0
  0
LINE
  5
57BF
330
5275
100
AcDbEntity
  8
AM_5
100
AcDbLine
 10
-66.99999999999997
 20
3.249999999999886
 30
0.0
 11
-66.99999999999997
 21
4.499999999999887
 31
0.0
  0
LINE
  5
57C0
330
5275
100
AcDbEntity
  8
AM_5
100
AcDbLine
 10
-66.99999999999997
 20
-3.250000000000099
 30
0.0
 11
-66.99999999999997
 21
-4.500000000000098
 31
0.0
  0
LINE
  5
57C1
330
5275
100
AcDbEntity
  8
AM_5
100
AcDbLine
 10
-66.99999999999997
 20
1.999999999999887
 30
0.0
 11
-66.99999999999997
 21
-2.000000000000099
 31
0.0
  0
INSERT
  5
57C2
330
5275
100
AcDbEntity
  8
AM_5
100
AcDbBlockReference
  2
_OPEN30
 10
-66.99999999999997
 20
1.999999999999887
 30
0.0
 41
1.25
 42
1.25
 43
1.25
 50
270.0
  0
INSERT
  5
57C3
330
5275
100
AcDbEntity
  8
AM_5
100
AcDbBlockReference
  2
_OPEN30
 10
-66.99999999999997
 20
-2.000000000000099
 30
0.0
 41
1.25
 42
1.25
 43
1.25
 50
90.0
  0
MTEXT
  5
57C4
330
5275
100
AcDbEntity
  8
AM_5
 62
     2
100
AcDbMText
 10
-68.54999999999996
 20
-0.0000000000001164
 30
0.0
 40
1.6
 41
0.0
 71
     5
 72
     1
  1
%%c4
  7
ASAMI
 11
0.0000000000000001
 21
1.0
 31
0.0
1001
ACAD
1000
MTEXTBEGIN
1070
    73
1070
     1
1070
    44
1040
1.0
1070
    74
1070
     0
1000
MTEXTEND
  0
POINT
  5
57C5
330
5275
100
AcDbEntity
  8
DEFPOINTS
 62
     0
100
AcDbPoint
 10
-59.49999999999997
 20
1.999999999999884
 30
0.0
  0
POINT
  5
57C6
330
5275
100
AcDbEntity
  8
DEFPOINTS
 62
     0
100
AcDbPoint
 10
-59.49999999999994
 20
-2.0000000000001
 30
0.0
  0
POINT
  5
57C7
330
5275
100
AcDbEntity
  8
DEFPOINTS
 62
     0
100
AcDbPoint
 10
-66.99999999999997
 20
-2.000000000000099
 30
0.0
  0
ENDBLK
  5
5282
330
5275
100
AcDbEntity
  8
0
100
AcDbBlockEnd
  0
BLOCK
  5
5635
330
562F
100
AcDbEntity
  8
0
100
AcDbBlockBegin
  2
*D9
 70
     1
 10
0.0
 20
0.0
 30
0.0
  3
*D9
  1

  0
LINE
  5
58F6
330
562F
100
AcDbEntity
  8
AM_5
100
AcDbLine
 10
3.569935682800916
 20
-8.767542937716422
 30
0.0
 11
-0.1260498090956028
 21
-2.359387289061608
 31
0.0
  0
MTEXT
  5
58F7
330
562F
100
AcDbEntity
  8
AM_5
 62
     2
100
AcDbMText
 10
3.376885170163607
 20
-5.330460382956847
 30
0.0
 40
1.6
 41
0.0
 71
     5
 72
     1
  1
R1.5
  7
ASAMI
 11
0.4996182512380234
 21
-0.8662456943788289
 31
0.0
  0
LINE
  5
58F8
330
562F
100
AcDbEntity
  8
AM_5
100
AcDbLine
 10
-1.500000000000166
 20
0.0227883704801718
 30
0.0
 11
-0.7505726231431318
 21
-1.276580171088072
 31
0.0
  0
INSERT
  5
58F9
330
562F
100
AcDbEntity
  8
AM_5
100
AcDbBlockReference
  2
_OPEN30
 10
-0.7505726231431318
 20
-1.276580171088072
 30
0.0
 41
1.25
 42
1.25
 43
1.25
 50
119.9747469174256
  0
POINT
  5
58FA
330
562F
100
AcDbEntity
  8
DEFPOINTS
 62
     0
100
AcDbPoint
 10
-0.7505726231431318
 20
-1.276580171088072
 30
0.0
  0
POINT
  5
58FB
330
562F
100
AcDbEntity
  8
DEFPOINTS
 62
     0
100
AcDbPoint
 10
-1.500000000000166
 20
0.0227883704801718
 30
0.0
  0
ENDBLK
  5
5636
330
562F
100
AcDbEntity
  8
0
100
AcDbBlockEnd
  0
ENDSEC
  0
SECTION
  2
ENTITIES
  0
TEXT
  5
1500
330
1F
100
AcDbEntity
  8
AM_6
100
AcDbText
 10
-43.15476190476188
 20
-26.35284357602595
 30
0.0
 40
2.5
  1
S-SSB2030ZX
 72
     4
 11
-29.99999999999998
 21
-25.10284357602595
 31
0.0
100
AcDbText
  0
LINE
  5
3EE8
330
1F
100
AcDbEntity
  8
AM_7
  6
AM_ISO08W050X2
100
AcDbLine
 10
1.149965949055513
 20
0.0
 30
0.0
 11
-61.17962019587157
 21
-0.0000000000000822
 31
0.0
1001
GENIUS_GENODEF_13
1002
{
1000
HIER
1070
     0
1002
}
1002
{
1000
MANEDIT
1070
     0
1002
}
1002
{
1000
NOSEL
1070
     0
1002
}
1002
{
1000
BEHIND
1070
     0
1002
}
1002
{
1000
REACTOR
1002
}
1001
GENIUS_GENOBJ-N-CEN_13
1002
{
1000
OWNER
1000
GEN
1002
}
  0
DIMENSION
  5
4047
330
1F
100
AcDbEntity
  8
AM_5
100
AcDbDimension
  2
*D5
 10
-0.0000000000000003
 20
-15.10284357602594
 30
0.0
 11
-29.99999999999998
 21
-13.55284357602594
 31
0.0
 70
    32
  1
<>
  3
AM_JIS
100
AcDbAlignedDimension
 13
-59.99999999999997
 23
-1.500000000000072
 33
0.0
 14
0.0000000000000007
 24
-0.0000000000000005
 34
0.0
 50
0.0000000000001132
100
AcDbRotatedDimension
1001
GENIUS_GENDTOL_13
1000

1000
h7
1000

1040
0.0
  0
DIMENSION
  5
412A
330
1F
100
AcDbEntity
  8
AM_5
100
AcDbDimension
  2
*D6
 10
-4.5
 20
-9.102843576025954
 30
0.0
 11
-8.176190476190475
 21
-7.552843576025954
 31
0.0
 70
    32
  1
<>
  3
AM_JIS
100
AcDbAlignedDimension
 13
-0.0000000000000142
 23
-0.0000000000000111
 33
0.0
 14
-4.499999999999999
 24
-1.499999999999984
 34
0.0
 50
0.0000000000001132
100
AcDbRotatedDimension
1001
GENIUS_GENDTOL_13
1000

1000
h7
1000

1040
0.0
  0
DIMENSION
  5
42F4
330
1F
100
AcDbEntity
  8
AM_5
100
AcDbDimension
  2
*D7
 10
8.149966949055508
 20
-1.499999999999988
 30
0.0
 11
6.599966949055508
 21
-6.007142857142843
 31
0.0
 70
    32
  1
%%c<>
  3
AM_JIS
100
AcDbAlignedDimension
 13
-1.50000000000003
 23
1.500000000000014
 33
0.0
 14
-1.500000000000021
 24
-1.499999999999985
 34
0.0
 50
90.0
100
AcDbRotatedDimension
1001
GENIUS_GENDTOL_13
1000

1000
h7
1000

1040
0.0
  0
SPLINE
  5
499C
330
1F
100
AcDbEntity
  8
AM_0
100
AcDbSpline
210
0.0
220
0.0
230
1.0
 70
     8
 71
     3
 72
     9
 73
     5
 74
     3
 42
0.0000000001
 43
0.0000000001
 44
0.0000000001
 12
0.5867325161912577
 22
-0.8097808064185491
 32
0.0
 13
-0.8994987856269101
 23
0.4369232594583562
 33
0.0
 40
0.0
 40
0.0
 40
0.0
 40
0.0
 40
0.1344039549296868
 40
0.4003987145404942
 40
0.4003987145404942
 40
0.4003987145404942
 40
0.4003987145404942
 10
-1.315924172245088
 20
-0.9127797508135301
 30
0.0
 10
-1.289637782024438
 20
-0.9490589984831315
 30
0.0
 10
-1.176248190363103
 20
-1.078768945262382
 30
0.0
 10
-1.420246012249015
 20
-1.171346144097283
 30
0.0
 10
-1.50000000000003
 20
-1.132606378307951
 30
0.0
 11
-1.315924172245088
 21
-0.9127797508135301
 31
0.0
 11
-1.253783277264922
 21
-1.031955806595743
 31
0.0
 11
-1.50000000000003
 21
-1.132606378307951
 31
0.0
  0
SPLINE
  5
499D
330
1F
100
AcDbEntity
  8
AM_0
100
AcDbSpline
210
0.0
220
0.0
230
1.0
 70
     8
 71
     3
 72
     8
 73
     4
 74
     2
 42
0.0000000001
 43
0.0000000001
 44
0.0000000001
 12
0.421692687695876
 22
-0.9067388141818065
 32
0.0
 13
-0.9928045895078733
 23
-0.1197457600589821
 33
0.0
 40
0.0
 40
0.0
 40
0.0
 40
0.0
 40
0.5296258369398894
 40
0.5296258369398894
 40
0.5296258369398894
 40
0.5296258369398894
 10
-1.500000000000027
 20
1.477211629518256
 30
0.0
 10
-1.42555355244924
 20
1.317134195069282
 30
0.0
 10
-1.60539712434193
 20
1.049209747897765
 30
0.0
 10
-1.780668778220554
 20
1.028069598434018
 30
0.0
 11
-1.500000000000027
 21
1.477211629518256
 31
0.0
 11
-1.780668778220554
 21
1.028069598434018
 31
0.0
  0
SPLINE
  5
499E
330
1F
100
AcDbEntity
  8
AM_0
100
AcDbSpline
210
0.0
220
0.0
230
1.0
 70
     8
 71
     3
 72
     8
 73
     4
 74
     2
 42
0.0000000001
 43
0.0000000001
 44
0.0000000001
 12
-0.8789112757303591
 22
0.4769852926391261
 32
0.0
 13
0.9988106394578341
 23
0.0487576302319218
 33
0.0
 40
0.0
 40
0.0
 40
0.0
 40
0.0
 40
0.6472349580988182
 40
0.6472349580988182
 40
0.6472349580988182
 40
0.6472349580988182
 10
-1.568334408203812
 20
0.4166554946547592
 30
0.0
 10
-1.757955109110451
 20
0.519562679953105
 30
0.0
 10
-1.996157165665202
 20
1.017550384181315
 30
0.0
 10
-1.78066877820582
 20
1.0280695984347
 30
0.0
 11
-1.568334408203812
 21
0.4166554946547592
 31
0.0
 11
-1.78066877820582
 21
1.0280695984347
 31
0.0
  0
SPLINE
  5
499F
330
1F
100
AcDbEntity
  8
AM_0
100
AcDbSpline
210
0.0
220
0.0
230
1.0
 70
     8
 71
     3
 72
     8
 73
     4
 74
     0
 42
0.0000000001
 43
0.0000000001
 40
1.794922859432252
 40
1.794922859432252
 40
1.794922859432252
 40
1.794922859432252
 40
7.613101219209459
 40
7.613101219209459
 40
7.613101219209459
 40
7.613101219209459
 10
-1.500000000000027
 20
1.477211629518256
 30
0.0
 10
-2.074771898266138
 20
1.428836669101071
 30
0.0
 10
-2.638740462713772
 20
1.306289771999506
 30
0.0
 10
-3.276605045437864
 20
1.090405027935333
 30
0.0
  0
SPLINE
  5
49A0
330
1F
100
AcDbEntity
  8
AM_0
100
AcDbSpline
210
0.0
220
0.0
230
1.0
 70
     8
 71
     3
 72
     8
 73
     4
 74
     0
 42
0.0000000001
 43
0.0000000001
 40
6.513172597598655
 40
6.513172597598655
 40
6.513172597598655
 40
6.513172597598655
 40
17.00040327533524
 40
17.00040327533524
 40
17.00040327533524
 40
17.00040327533524
 10
-1.50000000000003
 20
-1.132606378307951
 30
0.0
 10
-2.514444539837656
 20
-0.8788732007358872
 30
0.0
 10
-3.507635438113165
 20
-0.467818389675398
 30
0.0
 10
-4.285714285714282
 20
-0.1006606483369816
 30
0.0
  0
SPLINE
  5
49A1
330
1F
100
AcDbEntity
  8
AM_0
100
AcDbSpline
210
0.0
220
0.0
230
1.0
 70
     8
 71
     3
 72
     8
 73
     4
 74
     0
 42
0.0000000001
 43
0.0000000001
 40
3.732786119440464
 40
3.732786119440464
 40
3.732786119440464
 40
3.732786119440464
 40
13.65440114149501
 40
13.65440114149501
 40
13.65440114149501
 40
13.65440114149501
 10
-1.435425893361191
 20
-1.362692883285609
 30
0.0
 10
-2.405316382324222
 20
-1.205260609140765
 30
0.0
 10
-3.349145704282229
 20
-0.8636037223199201
 30
0.0
 10
-4.499999999999999
 20
-0.3107696481678133
 30
0.0
  0
SPLINE
  5
49A2
330
1F
100
AcDbEntity
  8
AM_0
100
AcDbSpline
210
0.0
220
0.0
230
1.0
 70
     8
 71
     3
 72
     8
 73
     4
 74
     0
 42
0.0000000001
 43
0.0000000001
 40
1.794922859428793
 40
1.794922859428793
 40
1.794922859428793
 40
1.794922859428793
 40
11.43329556321472
 40
11.43329556321472
 40
11.43329556321472
 40
11.43329556321472
 10
-1.499999999999074
 20
-1.477211629518393
 30
0.0
 10
-2.452164996082564
 20
-1.397073849409353
 30
0.0
 10
-3.374682281322696
 20
-1.179833236329159
 30
0.0
 10
-4.500000000000031
 20
-0.5869611997521183
 30
0.0
  0
LINE
  5
49A3
330
1F
100
AcDbEntity
  8
AM_11
100
AcDbLine
 10
-1.500000000000027
 20
1.499999999999982
 30
0.0
 11
-4.499999999999999
 21
1.499999999999982
 31
0.0
  0
LINE
  5
49A4
330
1F
100
AcDbEntity
  8
AM_11
100
AcDbLine
 10
-4.499999999999999
 20
-1.499999999999998
 30
0.0
 11
-1.50000000000003
 21
-1.499999999999982
 31
0.0
  0
LINE
  5
49A5
330
1F
100
AcDbEntity
  8
AM_0
100
AcDbLine
 10
-0.2100000000001117
 20
-0.0528614040765035
 30
0.0
 11
-1.568334408203812
 21
0.4166554946547592
 31
0.0
  0
LINE
  5
49A6
330
1F
100
AcDbEntity
  8
AM_0
100
AcDbLine
 10
-0.0000000000000298
 20
0.0000000000000149
 30
0.0
 11
-1.78066877820582
 21
1.0280695984347
 31
0.0
  0
ARC
  5
49A7
330
1F
100
AcDbEntity
  8
AM_0
100
AcDbCircle
 10
-0.0615422738522582
 20
0.014059923936194
 30
0.0
 40
1.559649232906561
100
AcDbArc
 50
165.040742132377
 51
216.4600123166023
  0
LINE
  5
49A8
330
1F
100
AcDbEntity
  8
AM_0
100
AcDbLine
 10
-1.435425893361191
 20
-1.362692883285541
 30
0.0
 11
-1.500000000000166
 21
-1.132606378307951
 31
0.0
  0
ARC
  5
49A9
330
1F
100
AcDbEntity
  8
AM_0
100
AcDbCircle
 10
-1.54105634303831
 20
0.1151501257421309
 30
0.0
 40
1.481613225923371
100
AcDbArc
 50
274.0883259404363
 51
353.4887846299623
  0
ARC
  5
49AA
330
1F
100
AcDbEntity
  8
AM_0
100
AcDbCircle
 10
-1.500000000000166
 20
0.022788370480172
 30
0.0
 40
1.5
100
AcDbArc
 50
270.0000000000781
 51
359.1295148788724
  0
ARC
  5
49AB
330
1F
100
AcDbEntity
  8
AM_11
100
AcDbCircle
 10
-1.50000000000003
 20
0.0000000000000149
 30
0.0
 40
1.5
100
AcDbArc
 50
270.0
 51
90.0
  0
ARC
  5
49AC
330
1F
100
AcDbEntity
  8
AM_0
100
AcDbCircle
 10
-1.451719664672403
 20
0.4029770774434305
 30
0.0
 40
1.322745798280388
100
AcDbArc
 50
275.8924707062755
 51
339.8416840647174
  0
ARC
  5
49AD
330
1F
100
AcDbEntity
  8
AM_0
100
AcDbCircle
 10
-1.50000000000003
 20
-0.022788370481711
 30
0.0
 40
1.5
100
AcDbArc
 50
0.8704851212057906
 51
90.0
  0
LINE
  5
49AE
330
1F
100
AcDbEntity
  8
AM_0
100
AcDbLine
 10
-0.0000000000000298
 20
0.0000000000000149
 30
0.0
 11
-0.0690000000000353
 21
-0.0528614040765056
 31
0.0
  0
LINE
  5
49AF
330
1F
100
AcDbEntity
  8
AM_0
100
AcDbLine
 10
-0.0690000000000353
 20
-0.0528614040765056
 30
0.0
 11
-0.2100000000001117
 21
-0.0528614040765035
 31
0.0
  0
LINE
  5
49B0
330
1F
100
AcDbEntity
  8
AM_0
100
AcDbLine
 10
-1.499999999981885
 20
-1.477211629519825
 30
0.0
 11
-1.435425893361191
 21
-1.362692883285541
 31
0.0
  0
LINE
  5
49C4
330
1F
100
AcDbEntity
  8
AM_0
100
AcDbLine
 10
-4.285714285714314
 20
1.13245445161973
 30
0.0
 11
-1.780668778205956
 21
1.0280695984347
 31
0.0
  0
LINE
  5
49C5
330
1F
100
AcDbEntity
  8
AM_0
100
AcDbLine
 10
-4.5
 20
0.0353707739587982
 30
0.0
 11
-4.500000000000031
 21
-0.5869611997521183
 31
0.0
  0
LINE
  5
526F
330
1F
100
AcDbEntity
  8
AM_0
100
AcDbLine
 10
-9.999999999999971
 20
-2.000000000000018
 30
0.0
 11
-59.49999999999997
 21
-2.000000000000072
 31
0.0
  0
LINE
  5
5272
330
1F
100
AcDbEntity
  8
AM_0
100
AcDbLine
 10
-59.99999999999997
 20
1.499999999999884
 30
0.0
 11
-59.99999999999997
 21
-1.500000000000072
 31
0.0
  0
LINE
  5
5273
330
1F
100
AcDbEntity
  8
AM_0
100
AcDbLine
 10
-59.49999999999997
 20
1.999999999999884
 30
0.0
 11
-59.49999999999994
 21
-2.000000000000075
 31
0.0
  0
DIMENSION
  5
5274
330
1F
100
AcDbEntity
  8
AM_5
100
AcDbDimension
  2
*D8
 10
-66.99999999999997
 20
-2.000000000000099
 30
0.0
 11
-66.99999999999997
 21
-0.0000000000001166
 31
0.0
 70
   160
  1
%%c<>
  3
AM_JIS
100
AcDbAlignedDimension
 13
-59.49999999999997
 23
1.999999999999884
 33
0.0
 14
-59.49999999999994
 24
-2.0000000000001
 34
0.0
 50
270.0
100
AcDbRotatedDimension
1001
GENIUS_GENDTOL_13
1000

1000
h7
1000

1040
0.0
  0
LINE
  5
5283
330
1F
100
AcDbEntity
  8
AM_0
100
AcDbLine
 10
-9.999999999999969
 20
1.999999999999935
 30
0.0
 11
-59.49999999999997
 21
1.999999999999884
 31
0.0
  0
LINE
  5
5291
330
1F
100
AcDbEntity
  8
AM_0
100
AcDbLine
 10
-59.99999999999997
 20
1.499999999999884
 30
0.0
 11
-59.49999999999997
 21
1.999999999999884
 31
0.0
1001
GENIUS_GENFIL_13
1070
     0
1040
0.5
1040
0.5
1040
20.0
1040
0.0
1002
{
1002
}
1001
GENIUS_GENODEF_13
1002
{
1000
HIER
1070
     0
1002
}
1002
{
1000
MANEDIT
1070
     0
1002
}
1002
{
1000
NOSEL
1070
     0
1002
}
1002
{
1000
BEHIND
1070
     0
1002
}
1002
{
1000
REACTOR
1002
}
1001
GENIUS_GENOBJ-N-CHA_13
1002
{
1000
OWNER
1000
GEN
1002
}
  0
LINE
  5
5294
330
1F
100
AcDbEntity
  8
AM_0
100
AcDbLine
 10
-59.99999999999997
 20
-1.500000000000072
 30
0.0
 11
-59.49999999999997
 21
-2.000000000000072
 31
0.0
1001
GENIUS_GENFIL_13
1070
     0
1040
0.5
1040
0.5
1040
20.0
1040
0.0
1002
{
1002
}
1001
GENIUS_GENODEF_13
1002
{
1000
HIER
1070
     0
1002
}
1002
{
1000
MANEDIT
1070
     0
1002
}
1002
{
1000
NOSEL
1070
     0
1002
}
1002
{
1000
BEHIND
1070
     0
1002
}
1002
{
1000
REACTOR
1002
}
1001
GENIUS_GENOBJ-N-CHA_13
1002
{
1000
OWNER
1000
GEN
1002
}
  0
LINE
  5
52E2
330
1F
100
AcDbEntity
  8
AM_0
100
AcDbLine
 10
-9.999999999999971
 20
1.999999999999934
 30
0.0
 11
-9.999999999999973
 21
-2.000000000000019
 31
0.0
  0
LINE
  5
52FA
330
1F
100
AcDbEntity
  8
AM_0
100
AcDbLine
 10
-6.482913432859352
 20
1.49999999999998
 30
0.0
 11
-6.927582467224955
 21
1.499999999999981
 31
0.0
  0
LINE
  5
52FB
330
1F
100
AcDbEntity
  8
AM_0
100
AcDbLine
 10
-7.164359090191376
 20
1.49999999999998
 30
0.0
 11
-9.999999999999973
 21
1.999999999999935
 31
0.0
  0
LINE
  5
52FC
330
1F
100
AcDbEntity
  8
AM_0
100
AcDbLine
 10
-6.237018429742684
 20
-1.5
 30
0.0
 11
-6.927582467224663
 21
-1.5
 31
0.0
  0
LINE
  5
52FD
330
1F
100
AcDbEntity
  8
AM_0
100
AcDbLine
 10
-7.16435909019101
 20
-1.5
 30
0.0
 11
-9.999999999999971
 21
-2.000000000000019
 31
0.0
  0
LINE
  5
52FE
330
1F
100
AcDbEntity
  8
AM_0
100
AcDbLine
 10
-7.164359090191375
 20
-1.500000000000065
 30
0.0
 11
-7.164359090191377
 21
1.49999999999998
 31
0.0
  0
POLYLINE
  5
5361
330
1F
100
AcDbEntity
  8
AM_0
100
AcDb2dPolyline
 66
     1
 10
0.0
 20
0.0
 30
0.0
 70
     2
  0
VERTEX
  5
5362
330
5361
100
AcDbEntity
  8
AM_0
100
AcDbVertex
100
AcDb2dVertex
 10
-4.499999999999999
 20
-0.5869611997521355
 30
0.0
 42
0.0160858170366855
  0
VERTEX
  5
5363
330
5361
100
AcDbEntity
  8
AM_0
100
AcDbVertex
100
AcDb2dVertex
 10
-4.85418964345561
 20
-0.6434696223096463
 30
0.0
 42
0.0255658539637609
 70
     1
  0
VERTEX
  5
5364
330
5361
100
AcDbEntity
  8
AM_0
100
AcDbVertex
100
AcDb2dVertex
 10
-5.076108962181946
 20
-0.6849243355353414
 30
0.0
 42
0.0131237556233285
  0
VERTEX
  5
5365
330
5361
100
AcDbEntity
  8
AM_0
100
AcDbVertex
100
AcDb2dVertex
 10
-5.587975865056496
 20
-0.7841882741384083
 30
0.0
 42
0.0324292364459304
 70
     1
  0
VERTEX
  5
5366
330
5361
100
AcDbEntity
  8
AM_0
100
AcDbVertex
100
AcDb2dVertex
 10
-5.783663482144884
 20
-0.8636101484883962
 30
0.0
 42
0.0573801561783456
  0
VERTEX
  5
5367
330
5361
100
AcDbEntity
  8
AM_0
100
AcDbVertex
100
AcDb2dVertex
 10
-5.925804457939795
 20
-0.9869370048182904
 30
0.0
 42
0.141835538265495
 70
     1
  0
VERTEX
  5
5368
330
5361
100
AcDbEntity
  8
AM_0
100
AcDbVertex
100
AcDb2dVertex
 10
-5.969824323863207
 20
-1.050506189071975
 30
0.0
 42
0.3019338394559296
  0
VERTEX
  5
5369
330
5361
100
AcDbEntity
  8
AM_0
100
AcDbVertex
100
AcDb2dVertex
 10
-5.945645250249283
 20
-1.140457060495529
 30
0.0
 42
0.1448123473042558
 70
     1
  0
VERTEX
  5
536A
330
5361
100
AcDbEntity
  8
AM_0
100
AcDbVertex
100
AcDb2dVertex
 10
-5.780788300965913
 20
-1.216886576749134
 30
0.0
 42
0.0239628723152531
  0
VERTEX
  5
536B
330
5361
100
AcDbEntity
  8
AM_0
100
AcDbVertex
100
AcDb2dVertex
 10
-5.640533198966766
 20
-1.240204921048735
 30
0.0
 42
0.0064225791573419
 70
     1
  0
VERTEX
  5
536C
330
5361
100
AcDbEntity
  8
AM_0
100
AcDbVertex
100
AcDb2dVertex
 10
-5.112466715574988
 20
-1.287873858781304
 30
0.0
 42
0.0093642087067463
  0
VERTEX
  5
536D
330
5361
100
AcDbEntity
  8
AM_0
100
AcDbVertex
100
AcDb2dVertex
 10
-4.846387608196023
 20
-1.309012836137156
 30
0.0
 42
0.0072217871935121
 70
     1
  0
VERTEX
  5
536E
330
5361
100
AcDbEntity
  8
AM_0
100
AcDbVertex
100
AcDb2dVertex
 10
-4.5
 20
-1.332370351125991
 30
0.0
  0
SEQEND
  5
536F
330
5361
100
AcDbEntity
  8
AM_0
  0
ARC
  5
5370
330
1F
100
AcDbEntity
  8
AM_0
100
AcDbCircle
 10
-8.172795990872439
 20
27.64250369551258
 30
0.0
 40
29.20672450668062
100
AcDbArc
 50
273.8002634713789
 51
279.7786240119306
  0
ARC
  5
5372
330
1F
100
AcDbEntity
  8
AM_0
100
AcDbCircle
 10
-7.29745999832968
 20
-10.12062212141686
 30
0.0
 40
11.64913492908731
100
AcDbArc
 50
75.01666160618359
 51
85.99041515971773
  0
ARC
  5
5373
330
1F
100
AcDbEntity
  8
AM_0
100
AcDbCircle
 10
-0.8351367543805118
 20
5.571712069502444
 30
0.0
 40
6.639450093933571
100
AcDbArc
 50
218.2479158931125
 51
238.6873110050203
  0
LINE
  5
55C2
330
1F
100
AcDbEntity
  8
AM_0
100
AcDbLine
 10
-6.482913432859366
 20
1.49999999999998
 30
0.0
 11
-7.164359090191377
 21
1.49999999999998
 31
0.0
  0
LINE
  5
55C3
330
1F
100
AcDbEntity
  8
AM_0
100
AcDbLine
 10
-6.23701842974262
 20
-1.5
 30
0.0
 11
-7.164359090191009
 21
-1.5
 31
0.0
  0
LINE
  5
55DC
330
1F
100
AcDbEntity
  8
AM_11
100
AcDbLine
 10
-4.499999999999999
 20
-1.499999999999984
 30
0.0
 11
-4.499999999999999
 21
1.499999999999982
 31
0.0
  0
DIMENSION
  5
562E
330
1F
100
AcDbEntity
  8
AM_5
100
AcDbDimension
  2
*D9
 10
-1.500000000000166
 20
0.0227883704801718
 30
0.0
 11
3.376885170163607
 21
-5.330460382956847
 31
0.0
 70
    36
  1
<>
  3
AM_JIS$4
100
AcDbRadialDimension
 15
-0.7505726231431318
 25
-1.276580171088072
 35
0.0
 40
0.0
1001
GENIUS_GENDTOL_13
1000

1000
h7
1000

1040
0.0
1001
ACAD
1000
DSTYLE
1002
{
1070
   287
1070
     3
1070
   271
1070
     3
1070
   288
1070
     1
1070
   289
1070
     3
1070
   172
1070
     1
1070
    74
1070
     0
1002
}
  0
VIEWPORT
  5
110
330
101
100
AcDbEntity
 67
     1
  8
0
100
AcDbViewport
 10
420.5
 20
297.0
 30
0.0
 40
948.9782706766916
 41
628.452
 68
     1
 69
     1
1001
ACAD
1000
MVIEW
1002
{
1070
    16
1010
0.0
1020
0.0
1030
0.0
1010
0.0
1020
0.0
1030
1.0
1040
0.0
1040
628.452
1040
420.5
1040
297.0
1040
50.0
1040
0.0
1040
0.0
1070
     0
1070
   100
1070
     1
1070
     1
1070
     0
1070
     0
1070
     0
1070
     0
1040
0.0
1040
0.0
1040
0.0
1040
10.0
1040
10.0
1040
10.0
1040
10.0
1070
     0
1002
{
1002
}
1002
}
  0
ENDSEC
  0
SECTION
  2
OBJECTS
  0
DICTIONARY
  5
C
330
0
100
AcDbDictionary
  3
ACAD_GROUP
350
D
  3
ACAD_LAYOUT
350
1A
  3
ACAD_MLINESTYLE
350
17
  3
ACAD_PLOTSETTINGS
350
19
  3
ACAD_PLOTSTYLENAME
350
E
  3
ACDBVARIABLEDICTIONARY
350
34
  3
ACMDICTIONARY
350
43
  3
AMG
350
2B
  3
AMGSNAPSETTINGS
350
6E
  3
ASE_INDEX_DICTIONARY
350
151A
  3
DWGPROPS
350
58C0
  3
ACDBHEADERROUNDTRIPXREC
350
58CC
  0
DICTIONARY
  5
74
330
1F
100
AcDbDictionary
280
     1
  3
ACAD_INDEX
360
58C2
  3
ACAD_LAYOUTSELFREF
360
58EF
  0
DICTIONARY
  5
58F4
330
101
100
AcDbDictionary
280
     1
  3
ACAD_LAYOUTSELFREF
360
58F5
  0
DICTIONARY
  5
D
102
{ACAD_REACTORS
330
C
102
}
330
C
100
AcDbDictionary
  0
DICTIONARY
  5
1A
102
{ACAD_REACTORS
330
C
102
}
330
C
100
AcDbDictionary
  0
DICTIONARY
  5
17
102
{ACAD_REACTORS
330
C
102
}
330
C
100
AcDbDictionary
  3
STANDARD
350
18
  0
DICTIONARY
  5
19
102
{ACAD_REACTORS
330
C
102
}
330
C
100
AcDbDictionary
  0
ACDBDICTIONARYWDFLT
  5
E
102
{ACAD_REACTORS
330
C
102
}
330
C
100
AcDbDictionary
281
     1
  3
Normal
350
F
100
AcDbDictionaryWithDefault
340
F
  0
DICTIONARY
  5
34
102
{ACAD_REACTORS
330
C
102
}
330
C
100
AcDbDictionary
  3
INDEXCTL
350
35
  3
SORTENTS
350
B5E
  0
DICTIONARY
  5
43
102
{ACAD_REACTORS
330
C
102
}
330
C
100
AcDbDictionary
  3
ACMSTDDICTIONARY
350
260
  0
DICTIONARY
  5
2B
102
{ACAD_REACTORS
330
C
102
}
330
C
100
AcDbDictionary
  3
ACMGSETTINGS
350
2C
  0
DICTIONARY
  5
6E
102
{ACAD_REACTORS
330
C
102
}
330
C
100
AcDbDictionary
  0
DICTIONARY
  5
151A
102
{ACAD_REACTORS
330
C
102
}
330
C
100
AcDbDictionary
  3
ASEBLOCKHIERARCHYINDEXRECORD
350
151C
1001
DCO15
1040
1471862535.906
  0
XRECORD
  5
58C0
102
{ACAD_REACTORS
330
C
102
}
330
C
100
AcDbXrecord
  1
DWGPROPS COOKIE
  2

  3

  4

  6

  7

  8

  9

300
AmdtFileType=82
301
=
302
=
303
=
304
=
305
=
306
=
307
=
308
=
309
=
 40
0.1891030092592593
 41
2452838.430434386
 42
2452901.602434166
  1

 90
        1
  0
DICTIONARY
  5
58CC
102
{ACAD_REACTORS
330
C
102
}
330
C
100
AcDbDictionary
  3
TSTACKALIGN
350
58CD
  3
TSTACKSIZE
350
58CE
  3
HYPERLINKBASE
350
58CF
  3
STYLESHEET
350
58D0
  3
LAYOUTDICT
350
58D1
  3
PLOTSETDICT
350
58D2
  3
PLOTSTYLNAMDICT
350
58D3
  3
LWETCUNION
350
58D4
  3
INSUNITS
350
58D5
  3
CEPSNTYPE
350
58D6
  3
FINGERPRINTGUID
350
58D7
  3
VERSIONGUID
350
58D8
  3
PSVPSCALE
350
58D9
  3
DIMSTYLEDATA
350
58DA
  3
PUCSORTHOREF
350
58DB
  3
PUCSORTHOVIEW
350
58DC
  3
PUCSBASE
350
58DD
  3
PUCSORGTOP
350
58DE
  3
PUCSORGBOTTOM
350
58DF
  3
PUCSORGLEFT
350
58E0
  3
PUCSORGRIGHT
350
58E1
  3
PUCSORGFRONT
350
58E2
  3
PUCSORGBACK
350
58E3
  3
UCSORTHOREF
350
58E4
  3
UCSORTHOVIEW
350
58E5
  3
UCSBASE
350
58E6
  3
UCSORGTOP
350
58E7
  3
UCSORGBOTTOM
350
58E8
  3
UCSORGLEFT
350
58E9
  3
UCSORGRIGHT
350
58EA
  3
UCSORGFRONT
350
58EB
  3
UCSORGBACK
350
58EC
  0
DICTIONARY
  5
58C2
102
{ACAD_REACTORS
330
74
102
}
330
74
100
AcDbDictionary
  3
*A1
350
58C3
  0
XRECORD
  5
58EF
102
{ACAD_REACTORS
330
74
102
}
330
74
100
AcDbXrecord
340
1F
  0
XRECORD
  5
58F5
102
{ACAD_REACTORS
330
58F4
102
}
330
58F4
100
AcDbXrecord
340
101
  0
MLINESTYLE
  5
18
102
{ACAD_REACTORS
330
17
102
}
330
17
100
AcDbMlineStyle
  2
STANDARD
 70
     0
  3

 62
   256
 51
90.0
 52
90.0
 71
     2
 49
0.5
 62
   256
  6
BYLAYER
 49
-0.5
 62
   256
  6
BYLAYER
  0
ACDBPLACEHOLDER
  5
F
102
{ACAD_REACTORS
330
E
102
}
330
E
100
AcDbPlaceHolder
280
     0
  0
DICTIONARYVAR
  5
35
102
{ACAD_REACTORS
330
34
102
}
330
34
100
DictionaryVariables
280
     0
  1
1
  0
DICTIONARYVAR
  5
B5E
102
{ACAD_REACTORS
330
34
102
}
330
34
100
DictionaryVariables
280
     0
  1
96
  0
DICTIONARY
  5
260
102
{ACAD_REACTORS
330
43
102
}
330
43
100
AcDbDictionary
  0
DICTIONARY
  5
2C
102
{ACAD_REACTORS
330
2B
102
}
330
2B
100
AcDbDictionary
  3
DWGSETTINGS
350
2D
  0
XRECORD
  5
151C
102
{ACAD_REACTORS
330
151A
102
}
330
151A
100
AcDbXrecord
330
0
330
0
330
0
330
0
330
0
330
0
330
0
330
0
  0
XRECORD
  5
58CD
102
{ACAD_REACTORS
330
58CC
102
}
330
58CC
100
AcDbXrecord
 90
        1
  0
XRECORD
  5
58CE
102
{ACAD_REACTORS
330
58CC
102
}
330
58CC
100
AcDbXrecord
 90
       70
  0
XRECORD
  5
58CF
102
{ACAD_REACTORS
330
58CC
102
}
330
58CC
100
AcDbXrecord
  1

  0
XRECORD
  5
58D0
102
{ACAD_REACTORS
330
58CC
102
}
330
58CC
100
AcDbXrecord
  1
ASAMI.ctb
  0
XRECORD
  5
58D1
102
{ACAD_REACTORS
330
58CC
102
}
330
58CC
100
AcDbXrecord
340
1A
  0
XRECORD
  5
58D2
102
{ACAD_REACTORS
330
58CC
102
}
330
58CC
100
AcDbXrecord
340
19
  0
XRECORD
  5
58D3
102
{ACAD_REACTORS
330
58CC
102
}
330
58CC
100
AcDbXrecord
340
E
  0
XRECORD
  5
58D4
102
{ACAD_REACTORS
330
58CC
102
}
330
58CC
100
AcDbXrecord
 90
    10781
  0
XRECORD
  5
58D5
102
{ACAD_REACTORS
330
58CC
102
}
330
58CC
100
AcDbXrecord
 90
        4
  0
XRECORD
  5
58D6
102
{ACAD_REACTORS
330
58CC
102
}
330
58CC
100
AcDbXrecord
 90
        0
  0
XRECORD
  5
58D7
102
{ACAD_REACTORS
330
58CC
102
}
330
58CC
100
AcDbXrecord
  1
{AFB28963-8C59-40AE-9337-C84526B81ACE}
  0
XRECORD
  5
58D8
102
{ACAD_REACTORS
330
58CC
102
}
330
58CC
100
AcDbXrecord
  1
{2D28C51A-1DFB-42CA-A3CC-DE99802BAC6B}
  0
XRECORD
  5
58D9
102
{ACAD_REACTORS
330
58CC
102
}
330
58CC
100
AcDbXrecord
 40
0.0
  0
XRECORD
  5
58DA
102
{ACAD_REACTORS
330
58CC
102
}
330
58CC
100
AcDbXrecord
1000
DSTYLE
1002
{
1070
    79
 70
     2
1070
   341
340
59
1070
   342
340
59
1070
   371
 70
    -1
1070
   372
 70
    -1
1002
}
  0
XRECORD
  5
58DB
102
{ACAD_REACTORS
330
58CC
102
}
330
58CC
100
AcDbXrecord
340
0
  0
XRECORD
  5
58DC
102
{ACAD_REACTORS
330
58CC
102
}
330
58CC
100
AcDbXrecord
 70
     0
  0
XRECORD
  5
58DD
102
{ACAD_REACTORS
330
58CC
102
}
330
58CC
100
AcDbXrecord
340
0
  0
XRECORD
  5
58DE
102
{ACAD_REACTORS
330
58CC
102
}
330
58CC
100
AcDbXrecord
 10
0.0
 20
0.0
 30
0.0
  0
XRECORD
  5
58DF
102
{ACAD_REACTORS
330
58CC
102
}
330
58CC
100
AcDbXrecord
 10
0.0
 20
0.0
 30
0.0
  0
XRECORD
  5
58E0
102
{ACAD_REACTORS
330
58CC
102
}
330
58CC
100
AcDbXrecord
 10
0.0
 20
0.0
 30
0.0
  0
XRECORD
  5
58E1
102
{ACAD_REACTORS
330
58CC
102
}
330
58CC
100
AcDbXrecord
 10
0.0
 20
0.0
 30
0.0
  0
XRECORD
  5
58E2
102
{ACAD_REACTORS
330
58CC
102
}
330
58CC
100
AcDbXrecord
 10
0.0
 20
0.0
 30
0.0
  0
XRECORD
  5
58E3
102
{ACAD_REACTORS
330
58CC
102
}
330
58CC
100
AcDbXrecord
 10
0.0
 20
0.0
 30
0.0
  0
XRECORD
  5
58E4
102
{ACAD_REACTORS
330
58CC
102
}
330
58CC
100
AcDbXrecord
340
0
  0
XRECORD
  5
58E5
102
{ACAD_REACTORS
330
58CC
102
}
330
58CC
100
AcDbXrecord
 70
     0
  0
XRECORD
  5
58E6
102
{ACAD_REACTORS
330
58CC
102
}
330
58CC
100
AcDbXrecord
340
0
  0
XRECORD
  5
58E7
102
{ACAD_REACTORS
330
58CC
102
}
330
58CC
100
AcDbXrecord
 10
0.0
 20
0.0
 30
0.0
  0
XRECORD
  5
58E8
102
{ACAD_REACTORS
330
58CC
102
}
330
58CC
100
AcDbXrecord
 10
0.0
 20
0.0
 30
0.0
  0
XRECORD
  5
58E9
102
{ACAD_REACTORS
330
58CC
102
}
330
58CC
100
AcDbXrecord
 10
0.0
 20
0.0
 30
0.0
  0
XRECORD
  5
58EA
102
{ACAD_REACTORS
330
58CC
102
}
330
58CC
100
AcDbXrecord
 10
0.0
 20
0.0
 30
0.0
  0
XRECORD
  5
58EB
102
{ACAD_REACTORS
330
58CC
102
}
330
58CC
100
AcDbXrecord
 10
0.0
 20
0.0
 30
0.0
  0
XRECORD
  5
58EC
102
{ACAD_REACTORS
330
58CC
102
}
330
58CC
100
AcDbXrecord
 10
0.0
 20
0.0
 30
0.0
  0
LAYER_INDEX
  5
58C3
102
{ACAD_REACTORS
330
58C2
102
}
330
58C2
100
AcDbIndex
 40
2453151.770804386
100
AcDbLayerIndex
  8
0
360
58C4
 90
        0
  8
AM_0
360
58C5
 90
       38
  8
AM_11
360
58C6
 90
        4
  8
AM_7
360
58C7
 90
        1
  8
AM_5
360
58C8
 90
        5
  8
Defpoints
360
58C9
 90
        0
  8
AM_6
360
58CA
 90
        1
  0
XRECORD
  5
2D
102
{ACAD_REACTORS
330
2C
102
}
330
2C
100
AcDbXrecord
  1
VERSION
140
15.0
  1
PRODUCT
  2
AutoCAD Mechanical 2000
  0
IDBUFFER
  5
58C4
330
0
100
AcDbIdBuffer
  0
IDBUFFER
  5
58C5
330
0
100
AcDbIdBuffer
330
49AF
330
49B0
330
49C4
330
49C5
330
526F
330
5272
330
5273
330
5283
330
5291
330
5294
330
52E2
330
52FA
330
52FB
330
52FC
330
52FD
330
52FE
330
5361
330
5370
330
5372
330
5373
330
55C2
330
55C3
330
499C
330
499D
330
499E
330
499F
330
49A0
330
49A1
330
49A2
330
49A5
330
49A6
330
49A7
330
49A8
330
49A9
330
49AA
330
49AC
330
49AD
330
49AE
  0
IDBUFFER
  5
58C6
330
0
100
AcDbIdBuffer
330
49A3
330
49A4
330
49AB
330
55DC
  0
IDBUFFER
  5
58C7
330
0
100
AcDbIdBuffer
330
3EE8
  0
IDBUFFER
  5
58C8
330
0
100
AcDbIdBuffer
330
4047
330
412A
330
42F4
330
5274
330
562E
  0
IDBUFFER
  5
58C9
330
0
100
AcDbIdBuffer
  0
IDBUFFER
  5
58CA
330
0
100
AcDbIdBuffer
330
1500
  0
ENDSEC
  0
EOF
