  0
SECTION
  2
HEADER
  9
$ACADVER
  1
AC1014
  9
$ACADMAINTVER
 70
     9
  9
$DWGCODEPAGE
  3
ANSI_932
  9
$INSBASE
 10
0.0
 20
0.0
 30
0.0
  9
$EXTMIN
 10
-130.7561951299595
 20
-56.91137130410382
 30
-0.00000001
  9
$EXTMAX
 10
16.34162794056475
 20
6.14755628557922
 30
0.00000001
  9
$LIMMIN
 10
-139.0025157327257
 20
-75.05596353458305
  9
$LIMMAX
 10
28.36551995164427
 20
31.23280585970053
  9
$ORTHOMODE
 70
     0
  9
$REGENMODE
 70
     1
  9
$FILLMODE
 70
     1
  9
$QTEXTMODE
 70
     0
  9
$MIRRTEXT
 70
     0
  9
$DRAGMODE
 70
     2
  9
$LTSCALE
 40
1.0
  9
$OSMODE
 70
    55
  9
$ATTMODE
 70
     1
  9
$TEXTSIZE
 40
2.5
  9
$TRACEWID
 40
1.0
  9
$TEXTSTYLE
  7
STANDARD
  9
$CLAYER
  8
AM_0
  9
$CELTYPE
  6
BYLAYER
  9
$CECOLOR
 62
   256
  9
$CELTSCALE
 40
1.0
  9
$DELOBJ
 70
     1
  9
$DISPSILH
 70
     0
  9
$DIMSCALE
 40
1.0
  9
$DIMASZ
 40
2.5
  9
$DIMEXO
 40
1.0
  9
$DIMDLI
 40
12.0
  9
$DIMRND
 40
0.0
  9
$DIMDLE
 40
0.0
  9
$DIMEXE
 40
1.0
  9
$DIMTP
 40
0.1
  9
$DIMTM
 40
0.1
  9
$DIMTXT
 40
3.2
  9
$DIMCEN
 40
0.0
  9
$DIMTSZ
 40
0.0
  9
$DIMTOL
 70
     0
  9
$DIMLIM
 70
     0
  9
$DIMTIH
 70
     0
  9
$DIMTOH
 70
     0
  9
$DIMSE1
 70
     0
  9
$DIMSE2
 70
     0
  9
$DIMTAD
 70
     3
  9
$DIMZIN
 70
     8
  9
$DIMBLK
  1
OPEN30
  9
$DIMASO
 70
     1
  9
$DIMSHO
 70
     1
  9
$DIMPOST
  1

  9
$DIMAPOST
  1
"
  9
$DIMALT
 70
     0
  9
$DIMALTD
 70
     2
  9
$DIMALTF
 40
0.0393701
  9
$DIMLFAC
 40
1.0
  9
$DIMTOFL
 70
     1
  9
$DIMTVP
 40
0.0
  9
$DIMTIX
 70
     0
  9
$DIMSOXD
 70
     0
  9
$DIMSAH
 70
     0
  9
$DIMBLK1
  1

  9
$DIMBLK2
  1

  9
$DIMSTYLE
  2
AM_JIS
  9
$DIMCLRD
 70
   256
  9
$DIMCLRE
 70
   256
  9
$DIMCLRT
 70
     2
  9
$DIMTFAC
 40
0.71
  9
$DIMGAP
 40
1.5
  9
$DIMJUST
 70
     0
  9
$DIMSD1
 70
     0
  9
$DIMSD2
 70
     0
  9
$DIMTOLJ
 70
     0
  9
$DIMTZIN
 70
     0
  9
$DIMALTZ
 70
     0
  9
$DIMALTTZ
 70
     0
  9
$DIMFIT
 70
     3
  9
$DIMUPT
 70
     0
  9
$DIMUNIT
 70
     2
  9
$DIMDEC
 70
     3
  9
$DIMTDEC
 70
     3
  9
$DIMALTU
 70
     2
  9
$DIMALTTD
 70
     2
  9
$DIMTXSTY
  7
ASAMI
  9
$DIMAUNIT
 70
     0
  9
$LUNITS
 70
     2
  9
$LUPREC
 70
     2
  9
$SKETCHINC
 40
1.0
  9
$FILLETRAD
 40
2.5
  9
$AUNITS
 70
     0
  9
$AUPREC
 70
     0
  9
$MENU
  1
.
  9
$ELEVATION
 40
0.0
  9
$PELEVATION
 40
0.0
  9
$THICKNESS
 40
0.0
  9
$LIMCHECK
 70
     0
  9
$BLIPMODE
 70
     0
  9
$CHAMFERA
 40
0.75
  9
$CHAMFERB
 40
0.75
  9
$CHAMFERC
 40
20.0
  9
$CHAMFERD
 40
0.0
  9
$SKPOLY
 70
     0
  9
$TDCREATE
 40
2452838.430434386
  9
$TDUPDATE
 40
2453151.778576007
  9
$TDINDWG
 40
0.1598243981
  9
$TDUSRTIMER
 40
0.1598243981
  9
$USRTIMER
 70
     1
  9
$ANGBASE
 50
0.0
  9
$ANGDIR
 70
     0
  9
$PDMODE
 70
     0
  9
$PDSIZE
 40
0.0
  9
$PLINEWID
 40
0.0
  9
$COORDS
 70
     1
  9
$SPLFRAME
 70
     0
  9
$SPLINETYPE
 70
     6
  9
$SPLINESEGS
 70
     8
  9
$ATTDIA
 70
     1
  9
$ATTREQ
 70
     1
  9
$HANDLING
 70
 12289
  9
$HANDSEED
  5
482C
  9
$SURFTAB1
 70
     6
  9
$SURFTAB2
 70
     6
  9
$SURFTYPE
 70
     6
  9
$SURFU
 70
     6
  9
$SURFV
 70
     6
  9
$UCSNAME
  2

  9
$UCSORG
 10
0.0
 20
0.0
 30
0.0
  9
$UCSXDIR
 10
1.0
 20
0.0
 30
0.0
  9
$UCSYDIR
 10
0.0
 20
1.0
 30
0.0
  9
$PUCSNAME
  2

  9
$PUCSORG
 10
0.0
 20
0.0
 30
0.0
  9
$PUCSXDIR
 10
1.0
 20
0.0
 30
0.0
  9
$PUCSYDIR
 10
0.0
 20
1.0
 30
0.0
  9
$USERI1
 70
     0
  9
$USERI2
 70
     0
  9
$USERI3
 70
     0
  9
$USERI4
 70
     0
  9
$USERI5
 70
     0
  9
$USERR1
 40
0.0
  9
$USERR2
 40
0.0
  9
$USERR3
 40
0.0
  9
$USERR4
 40
0.0
  9
$USERR5
 40
0.0
  9
$WORLDVIEW
 70
     1
  9
$SHADEDGE
 70
     3
  9
$SHADEDIF
 70
    70
  9
$TILEMODE
 70
     1
  9
$MAXACTVP
 70
    64
  9
$PINSBASE
 10
0.0
 20
0.0
 30
0.0
  9
$PLIMCHECK
 70
     0
  9
$PEXTMIN
 10
1.000000000000000E+20
 20
1.000000000000000E+20
 30
1.000000000000000E+20
  9
$PEXTMAX
 10
-1.000000000000000E+20
 20
-1.000000000000000E+20
 30
-1.000000000000000E+20
  9
$PLIMMIN
 10
0.0
 20
0.0
  9
$PLIMMAX
 10
841.0
 20
594.0
  9
$UNITMODE
 70
     0
  9
$VISRETAIN
 70
     1
  9
$PLINEGEN
 70
     0
  9
$PSLTSCALE
 70
     0
  9
$TREEDEPTH
 70
  3020
  9
$PICKSTYLE
 70
     0
  9
$CMLSTYLE
  2
STANDARD
  9
$CMLJUST
 70
     0
  9
$CMLSCALE
 40
20.0
  9
$PROXYGRAPHICS
 70
     1
  9
$MEASUREMENT
 70
     1
  0
ENDSEC
  0
SECTION
  2
CLASSES
  0
CLASS
  1
ACDBDICTIONARYWDFLT
  2
AcDbDictionaryWithDefault
  3
AutoCAD 2000
 90
        0
280
     0
281
     0
  0
CLASS
  1
ACDBPLACEHOLDER
  2
AcDbPlaceHolder
  3
AutoCAD 2000
 90
        0
280
     0
281
     0
  0
CLASS
  1
LAYOUT
  2
AcDbLayout
  3
AutoCAD 2000
 90
        0
280
     0
281
     0
  0
CLASS
  1
AMGSETTINGSOBJ
  2
AmgSettingsObj
  3
"AcadM|Product Description: AutoCAD Mechanical 2000|Company: Autodesk"
 90
        0
280
     0
281
     0
  0
CLASS
  1
ACME_DOCUMENT
  2
AcMeDbDoc
  3
AcMeServices
 90
        0
280
     0
281
     0
  0
CLASS
  1
ACMESCOPE
  2
AcMeScope
  3
AcMeServices
 90
        0
280
     0
281
     0
  0
CLASS
  1
ACMECOMMANDHISTORY
  2
AcMeCommandHistory
  3
AcMeServices
 90
        0
280
     0
281
     0
  0
CLASS
  1
DICTIONARYVAR
  2
AcDbDictionaryVar
  3
AutoCAD 2000
 90
        0
280
     0
281
     0
  0
CLASS
  1
ACIMSYSVARMAN
  2
AcImSysVarManager
  3
AcMeServices
 90
        0
280
     0
281
     0
  0
CLASS
  1
ACIMREALSYSVAR
  2
AcImRealSysVar
  3
AcMeServices
 90
        0
280
     0
281
     0
  0
CLASS
  1
ACIMINTSYSVAR
  2
AcImIntSysVar
  3
AcMeServices
 90
        0
280
     0
281
     0
  0
CLASS
  1
ACMEDRAWINGMAN
  2
AcMeDrawingMan
  3
AcMeServices
 90
        0
280
     0
281
     0
  0
CLASS
  1
ACMEVIEW
  2
AcMeView
  3
AcMeServices
 90
        0
280
     0
281
     0
  0
CLASS
  1
ACDBENTITYCACHE
  2
AcMeEntityCache
  3
AcMeServices
 90
        0
280
     0
281
     0
  0
CLASS
  1
GSMANAGER
  2
AcMeGSManager
  3
AcMeServices
 90
        0
280
     0
281
     0
  0
CLASS
  1
AmdtInternalReactor
  2
AmdtInternalReactor
  3
AcMeServices
 90
        0
280
     0
281
     0
  0
CLASS
  1
ACMESTATEMGR
  2
AcMeStateMgr
  3
AcMeServices
 90
        0
280
     0
281
     0
  0
CLASS
  1
ACME_DATABASE
  2
AcMeDbDatabase
  3
AcMeServices
 90
        0
280
     0
281
     0
  0
CLASS
  1
ACRFINSADJUSTERMGR
  2
AcRfInsAdjusterMgr
  3
AcMeServices
 90
        0
280
     0
281
     0
  0
CLASS
  1
ACMDATADICTIONARY
  2
AcmDataDictionary
  3
"AcmSymBB|Product Description: AutoCAD Mechanical 2000|Company: Autodesk"
 90
        0
280
     0
281
     0
  0
CLASS
  1
ACMDATAENTRYBLOCK
  2
AcmDataEntryBlock
  3
"AcmSymBB|Product Description: AutoCAD Mechanical 2000|Company: Autodesk"
 90
        0
280
     0
281
     0
  0
CLASS
  1
AMGOBJPROPCFG
  2
AmgObjPropCfg
  3
"AmgLay|Product Description: AutoCAD Mechanical 2000|Company: Autodesk"
 90
        1
280
     0
281
     0
  0
CLASS
  1
ACAMGFILTERDAT
  2
AcAmgFilterDat
  3
"AcadM|Product Description: AutoCAD Mechanical 2000|Company: Autodesk"
 90
        0
280
     0
281
     0
  0
CLASS
  1
LAYER_INDEX
  2
AcDbLayerIndex
  3
AutoCAD 2000
 90
        0
280
     0
281
     0
  0
CLASS
  1
IDBUFFER
  2
AcDbIdBuffer
  3
AutoCAD 2000
 90
        0
280
     0
281
     0
  0
CLASS
  1
ACIMSTRSYSVAR
  2
AcImStrSysVar
  3
AcMeServices
 90
        0
280
     0
281
     0
  0
CLASS
  1
ACMSTANDARDJIS
  2
AcmStandardJIS
  3
"AcmSymBB|Product Description: AutoCAD Mechanical 2000|Company: Autodesk"
 90
        0
280
     0
281
     0
  0
CLASS
  1
ACMSURFSTANDARDJIS
  2
AcmSurfTextStdJIS
  3
"AcmSymBB|Product Description: AutoCAD Mechanical 2000|Company: Autodesk"
 90
        0
280
     0
281
     0
  0
CLASS
  1
ACMFCFSTANDARDJIS
  2
AcmFCFStdJIS
  3
"AcmSymBB|Product Description: AutoCAD Mechanical 2000|Company: Autodesk"
 90
        0
280
     0
281
     0
  0
CLASS
  1
ACMWELDSTANDARDJIS
  2
AcmWeldingStdJIS
  3
"AcmSymBB|Product Description: AutoCAD Mechanical 2000|Company: Autodesk"
 90
        0
280
     0
281
     0
  0
CLASS
  1
ACMIDSTANDARDJIS
  2
AcmIdStdJIS
  3
"AcmSymBB|Product Description: AutoCAD Mechanical 2000|Company: Autodesk"
 90
        0
280
     0
281
     0
  0
CLASS
  1
ACMDATUMSTANDARDJIS
  2
AcmDatumStdJIS
  3
"AcmSymBB|Product Description: AutoCAD Mechanical 2000|Company: Autodesk"
 90
        0
280
     0
281
     0
  0
CLASS
  1
ACMBOMSTANDARDJIS
  2
AcmBOMStdJIS
  3
"AcmSymBB|Product Description: AutoCAD Mechanical 2000|Company: Autodesk"
 90
        0
280
     0
281
     0
  0
CLASS
  1
ACMSTANDARDANSI
  2
AcmStandardANSI
  3
"AcmSymBB|Product Description: AutoCAD Mechanical 2000|Company: Autodesk"
 90
        0
280
     0
281
     0
  0
CLASS
  1
ACMSURFSTANDARDANSI
  2
AcmSurfTextStdANSI
  3
"AcmSymBB|Product Description: AutoCAD Mechanical 2000|Company: Autodesk"
 90
        0
280
     0
281
     0
  0
CLASS
  1
ACMFCFSTANDARDANSI
  2
AcmFCFStdANSI
  3
"AcmSymBB|Product Description: AutoCAD Mechanical 2000|Company: Autodesk"
 90
        0
280
     0
281
     0
  0
CLASS
  1
ACMWELDSTANDARDANSI
  2
AcmWeldingStdANSI
  3
"AcmSymBB|Product Description: AutoCAD Mechanical 2000|Company: Autodesk"
 90
        0
280
     0
281
     0
  0
CLASS
  1
ACMIDSTANDARDANSI
  2
AcmIdStdANSI
  3
"AcmSymBB|Product Description: AutoCAD Mechanical 2000|Company: Autodesk"
 90
        0
280
     0
281
     0
  0
CLASS
  1
ACMDATUMSTANDARDANSI
  2
AcmDatumStdANSI
  3
"AcmSymBB|Product Description: AutoCAD Mechanical 2000|Company: Autodesk"
 90
        0
280
     0
281
     0
  0
CLASS
  1
ACMBOMSTANDARDANSI
  2
AcmBOMStdANSI
  3
"AcmSymBB|Product Description: AutoCAD Mechanical 2000|Company: Autodesk"
 90
        0
280
     0
281
     0
  0
CLASS
  1
ACMSTANDARDBSI
  2
AcmStandardBSI
  3
"AcmSymBB|Product Description: AutoCAD Mechanical 2000|Company: Autodesk"
 90
        0
280
     0
281
     0
  0
CLASS
  1
ACMSURFSTANDARDBSI
  2
AcmSurfTextStdBSI
  3
"AcmSymBB|Product Description: AutoCAD Mechanical 2000|Company: Autodesk"
 90
        0
280
     0
281
     0
  0
CLASS
  1
ACMFCFSTANDARDBSI
  2
AcmFCFStdBSI
  3
"AcmSymBB|Product Description: AutoCAD Mechanical 2000|Company: Autodesk"
 90
        0
280
     0
281
     0
  0
CLASS
  1
ACMWELDSTANDARDBSI
  2
AcmWeldingStdBSI
  3
"AcmSymBB|Product Description: AutoCAD Mechanical 2000|Company: Autodesk"
 90
        0
280
     0
281
     0
  0
CLASS
  1
ACMIDSTANDARDBSI
  2
AcmIdStdBSI
  3
"AcmSymBB|Product Description: AutoCAD Mechanical 2000|Company: Autodesk"
 90
        0
280
     0
281
     0
  0
CLASS
  1
ACMDATUMSTANDARDBSI
  2
AcmDatumStdBSI
  3
"AcmSymBB|Product Description: AutoCAD Mechanical 2000|Company: Autodesk"
 90
        0
280
     0
281
     0
  0
CLASS
  1
ACMBOMSTANDARDBSI
  2
AcmBOMStdBSI
  3
"AcmSymBB|Product Description: AutoCAD Mechanical 2000|Company: Autodesk"
 90
        0
280
     0
281
     0
  0
CLASS
  1
LONG_TRANSACTION
  2
AcDbLongTransaction
  3
AutoCAD 2000
 90
        0
280
     0
281
     0
  0
CLASS
  1
LWPOLYLINE
  2
AcDbPolyline
  3
AutoCAD 2000
 90
        0
280
     0
281
     1
  0
CLASS
  1
HATCH
  2
AcDbHatch
  3
AutoCAD 2000
 90
        0
280
     0
281
     1
  0
CLASS
  1
XRECORD
  2
AcDbXrecord
  3
AutoCAD 2000
 90
        0
280
     0
281
     0
  0
ENDSEC
  0
SECTION
  2
TABLES
  0
TABLE
  2
VPORT
  5
8
330
0
100
AcDbSymbolTable
 70
     3
  0
VPORT
  5
47FB
330
8
100
AcDbSymbolTableRecord
100
AcDbViewportTableRecord
  2
*ACTIVE
 70
     0
 10
0.0
 20
0.0
 11
1.0
 21
1.0
 12
-57.20833433176821
 22
-24.295680323237
 13
0.0
 23
0.0
 14
2.5
 24
2.5
 15
10.0
 25
10.0
 16
0.0
 26
0.0
 36
1.0
 17
0.0
 27
0.0
 37
0.0
 40
94.32086747826009
 41
1.56570841889117
 42
50.0
 43
0.0
 44
0.0
 50
0.0
 51
0.0
 71
     0
 72
   100
 73
     1
 74
     3
 75
     0
 76
     0
 77
     0
 78
     0
  0
ENDTAB
  0
TABLE
  2
LTYPE
  5
5
330
0
100
AcDbSymbolTable
 70
    10
  0
LTYPE
  5
14
330
5
100
AcDbSymbolTableRecord
100
AcDbLinetypeTableRecord
  2
BYBLOCK
 70
     0
  3

 72
    65
 73
     0
 40
0.0
  0
LTYPE
  5
15
330
5
100
AcDbSymbolTableRecord
100
AcDbLinetypeTableRecord
  2
BYLAYER
 70
     0
  3

 72
    65
 73
     0
 40
0.0
  0
LTYPE
  5
16
330
5
100
AcDbSymbolTableRecord
100
AcDbLinetypeTableRecord
  2
CONTINUOUS
 70
     0
  3
Solid line
 72
    65
 73
     0
 40
0.0
  0
LTYPE
  5
4B
330
5
100
AcDbSymbolTableRecord
100
AcDbLinetypeTableRecord
  2
AM_ISO02W050
 70
     0
  3
__ __ __ __ __ __ __ __ __ __ __ __ __ __ __
 72
    65
 73
     2
 40
7.5
 49
6.0
 74
     0
 49
-1.5
 74
     0
  0
LTYPE
  5
4C
330
5
100
AcDbSymbolTableRecord
100
AcDbLinetypeTableRecord
  2
AM_ISO08W050
 70
     0
  3
____ . ____ . ____ . ____ . ____ . ____ . ____
 72
    65
 73
     4
 40
18.0
 49
12.0
 74
     0
 49
-1.5
 74
     0
 49
3.0
 74
     0
 49
-1.5
 74
     0
  0
LTYPE
  5
4D
330
5
100
AcDbSymbolTableRecord
100
AcDbLinetypeTableRecord
  2
AM_ISO09W050
 70
     0
  3
_____ . . _____ . . _____ . . ____ .. ____
 72
    65
 73
     6
 40
22.5
 49
12.0
 74
     0
 49
-1.5
 74
     0
 49
3.0
 74
     0
 49
-1.5
 74
     0
 49
3.0
 74
     0
 49
-1.5
 74
     0
  0
LTYPE
  5
4E
330
5
100
AcDbSymbolTableRecord
100
AcDbLinetypeTableRecord
  2
AMCONSTR
 70
     0
  3
_______________________
 72
    65
 73
     2
 40
9999.0
 49
9999.0
 74
     0
 49
0.0
 74
     0
  0
LTYPE
  5
4F
330
5
100
AcDbSymbolTableRecord
100
AcDbLinetypeTableRecord
  2
AM_ISO02W050X2
 70
     0
  3
 _ _ _ _ _ _ _ _ _ _ _ _
 72
    65
 73
     2
 40
3.75
 49
3.0
 74
     0
 49
-0.75
 74
     0
  0
LTYPE
  5
50
330
5
100
AcDbSymbolTableRecord
100
AcDbLinetypeTableRecord
  2
AM_ISO08W050X2
 70
     0
  3
__ . __ . __ . __ . __ . __
 72
    65
 73
     4
 40
9.0
 49
6.0
 74
     0
 49
-0.75
 74
     0
 49
1.5
 74
     0
 49
-0.75
 74
     0
  0
LTYPE
  5
53
330
5
100
AcDbSymbolTableRecord
100
AcDbLinetypeTableRecord
  2
AMZIGZAG
 70
     0
  3
/\/-/\/-/\/-/\/-/\/-/\/
 72
    65
 73
     2
 40
11.00009999999999
 49
0.0001
 74
     4
 75
   135
340
52
 46
0.04
 50
0.0
 44
0.0
 45
0.0
 49
-11.0
 74
     0
  0
LTYPE
  5
166
330
5
100
AcDbSymbolTableRecord
100
AcDbLinetypeTableRecord
  2
ACJISTGL
 70
     0
  3
_ _ _ _ _
 72
    65
 73
     2
 40
3.0
 49
2.0
 74
     0
 49
-1.0
 74
     0
  0
LTYPE
  5
26A
330
5
100
AcDbSymbolTableRecord
100
AcDbLinetypeTableRecord
  2
ACJISTGB
 70
     0
  3
__ . . __ . .
 72
    65
 73
     6
 40
9.0
 49
4.0
 74
     0
 49
-1.0
 74
     0
 49
1.0
 74
     0
 49
-1.0
 74
     0
 49
1.0
 74
     0
 49
-1.0
 74
     0
  0
ENDTAB
  0
TABLE
  2
LAYER
  5
2
330
0
100
AcDbSymbolTable
 70
     7
  0
LAYER
  5
10
330
2
100
AcDbSymbolTableRecord
100
AcDbLayerTableRecord
  2
0
 70
     0
 62
     7
  6
CONTINUOUS
  0
LAYER
  5
3F9
330
2
100
AcDbSymbolTableRecord
100
AcDbLayerTableRecord
  2
AM_0
 70
     0
 62
     7
  6
CONTINUOUS
  0
LAYER
  5
BDD
330
2
100
AcDbSymbolTableRecord
100
AcDbLayerTableRecord
  2
AM_11
 70
     0
 62
     3
  6
AM_ISO09W050
  0
LAYER
  5
BDE
330
2
100
AcDbSymbolTableRecord
100
AcDbLayerTableRecord
  2
AM_7
 70
     0
 62
     4
  6
AM_ISO08W050
  0
LAYER
  5
BDF
330
2
100
AcDbSymbolTableRecord
100
AcDbLayerTableRecord
  2
AM_5
 70
     0
 62
     3
  6
CONTINUOUS
  0
LAYER
  5
BE0
330
2
100
AcDbSymbolTableRecord
100
AcDbLayerTableRecord
  2
DEFPOINTS
 70
     0
 62
     7
  6
CONTINUOUS
  0
LAYER
  5
14FF
330
2
100
AcDbSymbolTableRecord
100
AcDbLayerTableRecord
  2
AM_6
 70
     0
 62
     2
  6
CONTINUOUS
  0
ENDTAB
  0
TABLE
  2
STYLE
  5
3
330
0
100
AcDbSymbolTable
 70
     5
  0
STYLE
  5
11
330
3
100
AcDbSymbolTableRecord
100
AcDbTextStyleTableRecord
  2
STANDARD
 70
     0
 40
0.0
 41
1.0
 50
0.0
 71
     0
 42
2.5
  3
simplex.shx
  4
EXTFONT.SHX
  0
STYLE
  5
52
330
3
100
AcDbSymbolTableRecord
100
AcDbTextStyleTableRecord
  2

 70
     1
 40
0.0
 41
1.0
 50
0.0
 71
     0
 42
2.5
  3
ltypeshp.shx
  4

  0
STYLE
  5
6B
330
3
100
AcDbSymbolTableRecord
100
AcDbTextStyleTableRecord
  2
ASAMI
 70
     0
 40
0.0
 41
1.0
 50
0.0
 71
     0
 42
2.5
  3
simplex.shx
  4
EXTFONT.SHX
  0
STYLE
  5
262
330
3
100
AcDbSymbolTableRecord
100
AcDbTextStyleTableRecord
  2
ACJISTS
 70
     0
 40
1.0
 41
1.0
 50
0.0
 71
     0
 42
2.5
  3
simplex.shx
  4
bigfont.shx
  0
STYLE
  5
269
330
3
100
AcDbSymbolTableRecord
100
AcDbTextStyleTableRecord
  2
ACJISGDT
 70
     0
 40
0.0
 41
1.0
 50
0.0
 71
     0
 42
2.5
  3
amgdtans.shx
  4

  0
ENDTAB
  0
TABLE
  2
VIEW
  5
6
330
0
100
AcDbSymbolTable
 70
     0
  0
ENDTAB
  0
TABLE
  2
UCS
  5
7
330
0
100
AcDbSymbolTable
 70
     0
  0
ENDTAB
  0
TABLE
  2
APPID
  5
9
330
0
100
AcDbSymbolTable
 70
    14
  0
APPID
  5
12
330
9
100
AcDbSymbolTableRecord
100
AcDbRegAppTableRecord
  2
ACAD
 70
     0
  0
APPID
  5
30
330
9
100
AcDbSymbolTableRecord
100
AcDbRegAppTableRecord
  2
MCAD_NO_VIS
 70
     0
  0
APPID
  5
31
330
9
100
AcDbSymbolTableRecord
100
AcDbRegAppTableRecord
  2
ACAD_TEMP_GRAPHIC
 70
     0
  0
APPID
  5
2C2
330
9
100
AcDbSymbolTableRecord
100
AcDbRegAppTableRecord
  2
GENIUS_GENDTOL_13
 70
     0
  0
APPID
  5
339
330
9
100
AcDbSymbolTableRecord
100
AcDbRegAppTableRecord
  2
GENIUS_GENODEF_13
 70
     0
  0
APPID
  5
33A
330
9
100
AcDbSymbolTableRecord
100
AcDbRegAppTableRecord
  2
GENIUS_GENOBJ-N-RSBK_13
 70
     0
  0
APPID
  5
33B
330
9
100
AcDbSymbolTableRecord
100
AcDbRegAppTableRecord
  2
GENIUS_GENOBJ-N-LIB_13
 70
     0
  0
APPID
  5
33C
330
9
100
AcDbSymbolTableRecord
100
AcDbRegAppTableRecord
  2
GENIUS_GENSCALE_13
 70
     0
  0
APPID
  5
378
330
9
100
AcDbSymbolTableRecord
100
AcDbRegAppTableRecord
  2
GENIUS_GENDIMSH_14
 70
     0
  0
APPID
  5
BE1
330
9
100
AcDbSymbolTableRecord
100
AcDbRegAppTableRecord
  2
GENIUS_GENFIL_13
 70
     0
  0
APPID
  5
BE2
330
9
100
AcDbSymbolTableRecord
100
AcDbRegAppTableRecord
  2
GENIUS_GENOBJ-N-CHA_13
 70
     0
  0
APPID
  5
151B
330
9
100
AcDbSymbolTableRecord
100
AcDbRegAppTableRecord
  2
DCO15
 70
     0
  0
APPID
  5
1860
330
9
100
AcDbSymbolTableRecord
100
AcDbRegAppTableRecord
  2
GENIUS_GENOBJ-N-CEN_13
 70
     0
  0
APPID
  5
359C
330
9
100
AcDbSymbolTableRecord
100
AcDbRegAppTableRecord
  2
GENIUS_GENOBJ-N-FIL_13
 70
     0
  0
ENDTAB
  0
TABLE
  2
DIMSTYLE
  5
A
330
0
100
AcDbSymbolTable
 70
     8
  0
DIMSTYLE
105
58
102
{ACAD_REACTORS
330
4047
330
412A
330
42F4
330
46D0
102
}
330
A
100
AcDbSymbolTableRecord
100
AcDbDimStyleTableRecord
  2
AM_JIS
 70
     0
  3

  4
"
  5
OPEN30
  6

  7

 40
1.0
 41
2.5
 42
1.0
 43
12.0
 44
1.0
 45
0.0
 46
0.0
 47
0.1
 48
0.1
140
3.2
141
0.0
142
0.0
143
0.0393701
144
1.0
145
0.0
146
0.71
147
1.5
 71
     0
 72
     0
 73
     0
 74
     0
 75
     0
 76
     0
 77
     3
 78
     8
170
     0
171
     2
172
     1
173
     0
174
     0
175
     0
176
   256
177
   256
178
     2
270
     2
271
     3
272
     3
273
     2
274
     2
340
6B
275
     0
280
     0
281
     0
282
     0
283
     0
284
     0
285
     0
286
     0
287
     3
288
     0
  0
DIMSTYLE
105
5F
330
A
100
AcDbSymbolTableRecord
100
AcDbDimStyleTableRecord
  2
AM_JIS$3
 70
     0
  3

  4
"
  5
OPEN30
  6

  7

 40
1.0
 41
2.5
 42
1.0
 43
10.0
 44
1.0
 45
0.0
 46
0.0
 47
0.1
 48
0.1
140
3.2
141
0.0
142
0.0
143
0.0393701
144
1.0
145
0.0
146
0.71
147
1.5
 71
     0
 72
     0
 73
     0
 74
     1
 75
     0
 76
     0
 77
     3
 78
     8
170
     0
171
     2
172
     0
173
     0
174
     0
175
     0
176
   256
177
   256
178
     2
270
     2
271
     2
272
     3
273
     2
274
     2
340
6B
275
     0
280
     0
281
     0
282
     0
283
     0
284
     0
285
     0
286
     0
287
     0
288
     1
  0
DIMSTYLE
105
60
102
{ACAD_REACTORS
330
4722
102
}
330
A
100
AcDbSymbolTableRecord
100
AcDbDimStyleTableRecord
  2
AM_JIS$4
 70
     0
  3

  4
"
  5
OPEN30
  6

  7

 40
1.0
 41
2.5
 42
1.0
 43
10.0
 44
1.0
 45
0.0
 46
0.0
 47
0.1
 48
0.1
140
3.2
141
0.0
142
0.0
143
0.0393701
144
1.0
145
0.0
146
0.71
147
1.5
 71
     0
 72
     0
 73
     0
 74
     1
 75
     0
 76
     0
 77
     3
 78
     8
170
     0
171
     2
172
     0
173
     0
174
     0
175
     0
176
   256
177
   256
178
     2
270
     2
271
     2
272
     3
273
     2
274
     2
340
6B
275
     0
280
     0
281
     0
282
     0
283
     0
284
     0
285
     0
286
     0
287
     0
288
     1
  0
DIMSTYLE
105
61
330
A
100
AcDbSymbolTableRecord
100
AcDbDimStyleTableRecord
  2
AM_JIS$6
 70
     0
  3

  4
"
  5
OPEN30
  6

  7

 40
1.0
 41
2.5
 42
1.0
 43
10.0
 44
1.0
 45
0.0
 46
0.0
 47
0.1
 48
0.1
140
3.2
141
0.0
142
0.0
143
0.0393701
144
1.0
145
0.0
146
0.71
147
1.5
 71
     0
 72
     0
 73
     0
 74
     0
 75
     0
 76
     0
 77
     0
 78
     8
170
     0
171
     2
172
     1
173
     0
174
     0
175
     0
176
   256
177
   256
178
     2
270
     2
271
     2
272
     2
273
     2
274
     2
340
6B
275
     0
280
     0
281
     0
282
     0
283
     0
284
     0
285
     0
286
     0
287
     3
288
     0
  0
DIMSTYLE
105
62
330
A
100
AcDbSymbolTableRecord
100
AcDbDimStyleTableRecord
  2
AM_JIS$7
 70
     0
  3

  4
"
  5
OPEN30
  6

  7

 40
1.0
 41
2.5
 42
1.0
 43
10.0
 44
1.0
 45
0.0
 46
0.0
 47
0.1
 48
0.1
140
3.2
141
0.0
142
0.0
143
0.0393701
144
1.0
145
0.0
146
0.71
147
1.5
 71
     0
 72
     0
 73
     0
 74
     0
 75
     0
 76
     0
 77
     3
 78
     8
170
     0
171
     2
172
     1
173
     0
174
     0
175
     0
176
   256
177
   256
178
     2
270
     2
271
     2
272
     3
273
     2
274
     2
340
6B
275
     0
280
     0
281
     0
282
     0
283
     0
284
     0
285
     0
286
     0
287
     3
288
     0
  0
DIMSTYLE
105
63
330
A
100
AcDbSymbolTableRecord
100
AcDbDimStyleTableRecord
  2
AM_JIS$SF
 70
     0
  3

  4
"
  5
OPEN30
  6

  7

 40
1.0
 41
2.5
 42
1.0
 43
10.0
 44
1.0
 45
0.0
 46
0.0
 47
0.1
 48
0.1
140
3.2
141
0.0
142
0.0
143
0.0393701
144
1.0
145
0.0
146
0.71
147
1.5
 71
     0
 72
     0
 73
     0
 74
     0
 75
     1
 76
     1
 77
     3
 78
     8
170
     0
171
     2
172
     1
173
     0
174
     0
175
     0
176
   256
177
   256
178
     2
270
     2
271
     2
272
     2
273
     2
274
     2
340
6B
275
     0
280
     0
281
     0
282
     0
283
     0
284
     0
285
     0
286
     0
287
     3
288
     0
  0
DIMSTYLE
105
68
330
A
100
AcDbSymbolTableRecord
100
AcDbDimStyleTableRecord
  2
AM_JIS$SH
 70
     0
  3

  4
"
  5

  6
GENAXEH
  7
OPEN30
 40
1.0
 41
2.5
 42
1.0
 43
10.0
 44
1.0
 45
0.0
 46
0.0
 47
0.1
 48
0.1
140
3.2
141
0.0
142
0.0
143
0.0393701
144
2.0
145
0.0
146
0.71
147
1.5
 71
     0
 72
     0
 73
     0
 74
     0
 75
     1
 76
     1
 77
     3
 78
     8
170
     0
171
     2
172
     1
173
     1
174
     0
175
     0
176
   256
177
   256
178
     2
270
     2
271
     2
272
     2
273
     2
274
     2
340
6B
275
     0
280
     0
281
     0
282
     0
283
     0
284
     0
285
     0
286
     0
287
     3
288
     0
  0
DIMSTYLE
105
B34
330
A
100
AcDbSymbolTableRecord
100
AcDbDimStyleTableRecord
  2
AM_JIS$2
 70
     0
  3

  4
"
  5
OPEN30
  6

  7

 40
1.0
 41
2.5
 42
1.0
 43
12.0
 44
1.0
 45
0.0
 46
0.0
 47
0.1
 48
0.1
140
3.2
141
0.0
142
0.0
143
0.0393701
144
1.0
145
0.0
146
0.71
147
1.5
 71
     0
 72
     0
 73
     0
 74
     0
 75
     0
 76
     0
 77
     3
 78
     8
170
     0
171
     2
172
     1
173
     0
174
     0
175
     0
176
   256
177
   256
178
     2
270
     2
271
     3
272
     3
273
     2
274
     2
340
6B
275
     0
280
     0
281
     0
282
     0
283
     0
284
     0
285
     0
286
     0
287
     3
288
     0
  0
ENDTAB
  0
TABLE
  2
BLOCK_RECORD
  5
1
330
0
100
AcDbSymbolTable
 70
    10
  0
BLOCK_RECORD
  5
1F
102
{ACAD_XDICTIONARY
360
74
102
}
330
1
100
AcDbSymbolTableRecord
100
AcDbBlockTableRecord
  2
*MODEL_SPACE
  0
BLOCK_RECORD
  5
101
102
{ACAD_XDICTIONARY
360
4824
102
}
330
1
100
AcDbSymbolTableRecord
100
AcDbBlockTableRecord
  2
*PAPER_SPACE
  0
BLOCK_RECORD
  5
59
330
1
100
AcDbSymbolTableRecord
100
AcDbBlockTableRecord
  2
_OPEN30
  0
BLOCK_RECORD
  5
64
330
1
100
AcDbSymbolTableRecord
100
AcDbBlockTableRecord
  2
GENAXEH
  0
BLOCK_RECORD
  5
4048
330
1
100
AcDbSymbolTableRecord
100
AcDbBlockTableRecord
  2
*D5
  0
BLOCK_RECORD
  5
412B
330
1
100
AcDbSymbolTableRecord
100
AcDbBlockTableRecord
  2
*D6
  0
BLOCK_RECORD
  5
42F5
330
1
100
AcDbSymbolTableRecord
100
AcDbBlockTableRecord
  2
*D7
  0
BLOCK_RECORD
  5
46D1
330
1
100
AcDbSymbolTableRecord
100
AcDbBlockTableRecord
  2
*D8
  0
BLOCK_RECORD
  5
4723
330
1
100
AcDbSymbolTableRecord
100
AcDbBlockTableRecord
  2
*D9
  0
ENDTAB
  0
ENDSEC
  0
SECTION
  2
BLOCKS
  0
BLOCK
  5
20
330
1F
100
AcDbEntity
  8
0
100
AcDbBlockBegin
  2
*MODEL_SPACE
 70
     0
 10
0.0
 20
0.0
 30
0.0
  3
*MODEL_SPACE
  1

  0
ENDBLK
  5
21
330
1F
100
AcDbEntity
  8
0
100
AcDbBlockEnd
  0
BLOCK
  5
103
330
101
100
AcDbEntity
 67
     1
  8
0
100
AcDbBlockBegin
  2
*PAPER_SPACE
 70
     0
 10
0.0
 20
0.0
 30
0.0
  3
*PAPER_SPACE
  1

  0
ENDBLK
  5
104
330
101
100
AcDbEntity
 67
     1
  8
0
100
AcDbBlockEnd
  0
BLOCK
  5
5D
330
59
100
AcDbEntity
  8
0
100
AcDbBlockBegin
  2
_OPEN30
 70
     0
 10
0.0
 20
0.0
 30
0.0
  3
_OPEN30
  1

  0
LINE
  5
5A
330
59
100
AcDbEntity
  8
0
 62
     0
100
AcDbLine
 10
-1.0
 20
0.26794919
 30
0.0
 11
0.0
 21
0.0
 31
0.0
  0
LINE
  5
5B
330
59
100
AcDbEntity
  8
0
 62
     0
100
AcDbLine
 10
0.0
 20
0.0
 30
0.0
 11
-1.0
 21
-0.26794919
 31
0.0
  0
LINE
  5
5C
330
59
100
AcDbEntity
  8
0
 62
     0
100
AcDbLine
 10
0.0
 20
0.0
 30
0.0
 11
-1.0
 21
0.0
 31
0.0
  0
ENDBLK
  5
5E
330
59
100
AcDbEntity
  8
0
100
AcDbBlockEnd
  0
BLOCK
  5
66
330
64
100
AcDbEntity
  8
0
100
AcDbBlockBegin
  2
GENAXEH
 70
     0
 10
0.0
 20
0.0
 30
0.0
  3
GENAXEH
  1

  0
LINE
  5
65
330
64
100
AcDbEntity
  8
0
100
AcDbLine
 10
-1.0
 20
0.0
 30
0.0
 11
1.0
 21
0.0
 31
0.0
  0
ENDBLK
  5
67
330
64
100
AcDbEntity
  8
0
100
AcDbBlockEnd
  0
BLOCK
  5
4052
330
4048
100
AcDbEntity
  8
0
100
AcDbBlockBegin
  2
*D5
 70
     1
 10
0.0
 20
0.0
 30
0.0
  3
*D5
  1

  0
LINE
  5
4706
330
4048
100
AcDbEntity
  8
AM_5
100
AcDbLine
 10
-110.0
 20
-6.249999999999987
 30
0.0
 11
-110.0
 21
-35.41137130410378
 31
0.0
  0
LINE
  5
4707
330
4048
100
AcDbEntity
  8
AM_5
100
AcDbLine
 10
0.0000000000000006
 20
-1.0
 30
0.0
 11
-0.0000000000000015
 21
-35.41137130410378
 31
0.0
  0
LINE
  5
4708
330
4048
100
AcDbEntity
  8
AM_5
100
AcDbLine
 10
-107.4999999999999
 20
-34.41137130410378
 30
0.0
 11
-2.500000000000001
 21
-34.41137130410378
 31
0.0
  0
INSERT
  5
4709
330
4048
100
AcDbEntity
  8
AM_5
100
AcDbBlockReference
  2
_OPEN30
 10
-110.0
 20
-34.41137130410378
 30
0.0
 41
2.5
 42
2.5
 43
2.5
 50
180.0
  0
INSERT
  5
470A
330
4048
100
AcDbEntity
  8
AM_5
100
AcDbBlockReference
  2
_OPEN30
 10
-0.0000000000000014
 20
-34.41137130410378
 30
0.0
 41
2.5
 42
2.5
 43
2.5
  0
MTEXT
  5
470B
330
4048
100
AcDbEntity
  8
AM_5
 62
     2
100
AcDbMText
 10
-55.0
 20
-31.31137130410378
 30
0.0
 40
3.2
 41
0.0
 71
     5
 72
     1
  1
110
  7
ASAMI
1001
ACAD
1000
MTEXTBEGIN
1070
    73
1070
     1
1070
    44
1040
1.0
1070
    74
1070
     0
1000
MTEXTEND
  0
POINT
  5
470C
330
4048
100
AcDbEntity
  8
DEFPOINTS
 62
     0
100
AcDbPoint
 10
-110.0
 20
-5.249999999999987
 30
0.0
  0
POINT
  5
470D
330
4048
100
AcDbEntity
  8
DEFPOINTS
 62
     0
100
AcDbPoint
 10
0.0000000000000007
 20
-0.0000000000000005
 30
0.0
  0
POINT
  5
470E
330
4048
100
AcDbEntity
  8
DEFPOINTS
 62
     0
100
AcDbPoint
 10
-0.0000000000000014
 20
-34.41137130410378
 30
0.0
  0
ENDBLK
  5
4053
330
4048
100
AcDbEntity
  8
0
100
AcDbBlockEnd
  0
BLOCK
  5
4135
330
412B
100
AcDbEntity
  8
0
100
AcDbBlockBegin
  2
*D6
 70
     1
 10
0.0
 20
0.0
 30
0.0
  3
*D6
  1

  0
LINE
  5
470F
330
412B
100
AcDbEntity
  8
AM_5
100
AcDbLine
 10
-0.0000000000000143
 20
-1.000000000000011
 30
0.0
 11
-0.0000000000000156
 21
-23.41137130410381
 31
0.0
  0
LINE
  5
4710
330
412B
100
AcDbEntity
  8
AM_5
100
AcDbLine
 10
-15.0000000000001
 20
-7.0
 30
0.0
 11
-15.0000000000001
 21
-23.41137130410381
 31
0.0
  0
LINE
  5
4711
330
412B
100
AcDbEntity
  8
AM_5
100
AcDbLine
 10
-2.500000000000015
 20
-22.41137130410381
 30
0.0
 11
-12.5000000000001
 21
-22.41137130410381
 31
0.0
  0
INSERT
  5
4712
330
412B
100
AcDbEntity
  8
AM_5
100
AcDbBlockReference
  2
_OPEN30
 10
-0.0000000000000156
 20
-22.41137130410381
 30
0.0
 41
2.5
 42
2.5
 43
2.5
  0
INSERT
  5
4713
330
412B
100
AcDbEntity
  8
AM_5
100
AcDbBlockReference
  2
_OPEN30
 10
-15.0000000000001
 20
-22.41137130410381
 30
0.0
 41
2.5
 42
2.5
 43
2.5
 50
180.0
  0
MTEXT
  5
4714
330
412B
100
AcDbEntity
  8
AM_5
 62
     2
100
AcDbMText
 10
-7.500000000000062
 20
-19.31137130410381
 30
0.0
 40
3.2
 41
0.0
 71
     5
 72
     1
  1
15
  7
ASAMI
1001
ACAD
1000
MTEXTBEGIN
1070
    73
1070
     1
1070
    44
1040
1.0
1070
    74
1070
     0
1000
MTEXTEND
  0
POINT
  5
4715
330
412B
100
AcDbEntity
  8
DEFPOINTS
 62
     0
100
AcDbPoint
 10
-0.0000000000000142
 20
-0.0000000000000111
 30
0.0
  0
POINT
  5
4716
330
412B
100
AcDbEntity
  8
DEFPOINTS
 62
     0
100
AcDbPoint
 10
-15.0000000000001
 20
-6.0
 30
0.0
  0
POINT
  5
4717
330
412B
100
AcDbEntity
  8
DEFPOINTS
 62
     0
100
AcDbPoint
 10
-15.0000000000001
 20
-22.41137130410381
 30
0.0
  0
ENDBLK
  5
4136
330
412B
100
AcDbEntity
  8
0
100
AcDbBlockEnd
  0
BLOCK
  5
42FF
330
42F5
100
AcDbEntity
  8
0
100
AcDbBlockBegin
  2
*D7
 70
     1
 10
0.0
 20
0.0
 30
0.0
  3
*D7
  1

  0
LINE
  5
4691
330
42F5
100
AcDbEntity
  8
AM_5
100
AcDbLine
 10
-5.000000000000078
 20
6.000000000000077
 30
0.0
 11
16.34162794056475
 21
6.000000000000071
 31
0.0
  0
LINE
  5
4692
330
42F5
100
AcDbEntity
  8
AM_5
100
AcDbLine
 10
-5.000000000000072
 20
-5.999999999999944
 30
0.0
 11
16.34162794056475
 21
-5.99999999999995
 31
0.0
  0
LINE
  5
4693
330
42F5
100
AcDbEntity
  8
AM_5
100
AcDbLine
 10
15.34162794056475
 20
3.500000000000071
 30
0.0
 11
15.34162794056475
 21
-3.499999999999949
 31
0.0
  0
INSERT
  5
4694
330
42F5
100
AcDbEntity
  8
AM_5
100
AcDbBlockReference
  2
_OPEN30
 10
15.34162794056475
 20
6.000000000000071
 30
0.0
 41
2.5
 42
2.5
 43
2.5
 50
90.0
  0
INSERT
  5
4695
330
42F5
100
AcDbEntity
  8
AM_5
100
AcDbBlockReference
  2
_OPEN30
 10
15.34162794056475
 20
-5.999999999999949
 30
0.0
 41
2.5
 42
2.5
 43
2.5
 50
270.0
  0
MTEXT
  5
4696
330
42F5
100
AcDbEntity
  8
AM_5
 62
     2
100
AcDbMText
 10
12.24162794056475
 20
0.0000000000000643
 30
0.0
 40
3.2
 41
0.0
 71
     5
 72
     1
  1
%%c12
  7
ASAMI
 11
0.0000000000000001
 21
1.0
 31
0.0
1001
ACAD
1000
MTEXTBEGIN
1070
    73
1070
     1
1070
    44
1040
1.0
1070
    74
1070
     0
1000
MTEXTEND
  0
POINT
  5
4697
330
42F5
100
AcDbEntity
  8
DEFPOINTS
 62
     0
100
AcDbPoint
 10
-6.000000000000078
 20
6.000000000000078
 30
0.0
  0
POINT
  5
4698
330
42F5
100
AcDbEntity
  8
DEFPOINTS
 62
     0
100
AcDbPoint
 10
-6.000000000000072
 20
-5.999999999999943
 30
0.0
  0
POINT
  5
4699
330
42F5
100
AcDbEntity
  8
DEFPOINTS
 62
     0
100
AcDbPoint
 10
15.34162794056475
 20
-5.999999999999949
 30
0.0
  0
ENDBLK
  5
4300
330
42F5
100
AcDbEntity
  8
0
100
AcDbBlockEnd
  0
BLOCK
  5
46DB
330
46D1
100
AcDbEntity
  8
0
100
AcDbBlockBegin
  2
*D8
 70
     1
 10
0.0
 20
0.0
 30
0.0
  3
*D8
  1

  0
LINE
  5
46DE
330
46D1
100
AcDbEntity
  8
AM_5
100
AcDbLine
 10
-110.2499999999999
 20
5.999999999999882
 30
0.0
 11
-127.0561951299595
 21
5.999999999999887
 31
0.0
  0
LINE
  5
46DF
330
46D1
100
AcDbEntity
  8
AM_5
100
AcDbLine
 10
-110.2499999999999
 20
-5.99999999999998
 30
0.0
 11
-127.0561951299595
 21
-5.999999999999976
 31
0.0
  0
LINE
  5
46E0
330
46D1
100
AcDbEntity
  8
AM_5
100
AcDbLine
 10
-126.0561951299595
 20
3.499999999999886
 30
0.0
 11
-126.0561951299595
 21
-3.499999999999976
 31
0.0
  0
INSERT
  5
46E1
330
46D1
100
AcDbEntity
  8
AM_5
100
AcDbBlockReference
  2
_OPEN30
 10
-126.0561951299595
 20
5.999999999999887
 30
0.0
 41
2.5
 42
2.5
 43
2.5
 50
90.0
  0
INSERT
  5
46E2
330
46D1
100
AcDbEntity
  8
AM_5
100
AcDbBlockReference
  2
_OPEN30
 10
-126.0561951299595
 20
-5.999999999999976
 30
0.0
 41
2.5
 42
2.5
 43
2.5
 50
270.0
  0
MTEXT
  5
46E3
330
46D1
100
AcDbEntity
  8
AM_5
 62
     2
100
AcDbMText
 10
-129.1561951299595
 20
-0.0000000000000647
 30
0.0
 40
3.2
 41
0.0
 71
     5
 72
     1
  1
%%c12
  7
ASAMI
 11
0.0000000000000001
 21
1.0
 31
0.0
1001
ACAD
1000
MTEXTBEGIN
1070
    73
1070
     1
1070
    44
1040
1.0
1070
    74
1070
     0
1000
MTEXTEND
  0
POINT
  5
46E4
330
46D1
100
AcDbEntity
  8
DEFPOINTS
 62
     0
100
AcDbPoint
 10
-109.2499999999999
 20
5.999999999999881
 30
0.0
  0
POINT
  5
46E5
330
46D1
100
AcDbEntity
  8
DEFPOINTS
 62
     0
100
AcDbPoint
 10
-109.2499999999999
 20
-5.999999999999981
 30
0.0
  0
POINT
  5
46E6
330
46D1
100
AcDbEntity
  8
DEFPOINTS
 62
     0
100
AcDbPoint
 10
-126.0561951299595
 20
-5.999999999999976
 30
0.0
  0
ENDBLK
  5
46DC
330
46D1
100
AcDbEntity
  8
0
100
AcDbBlockEnd
  0
BLOCK
  5
472A
330
4723
100
AcDbEntity
  8
0
100
AcDbBlockBegin
  2
*D9
 70
     1
 10
0.0
 20
0.0
 30
0.0
  3
*D9
  1

  0
LINE
  5
4826
330
4723
100
AcDbEntity
  8
AM_5
100
AcDbLine
 10
6.313070646487647
 20
-16.57330236871237
 30
0.0
 11
-0.9487732762697973
 21
-6.745154628855713
 31
0.0
  0
MTEXT
  5
4827
330
4723
100
AcDbEntity
  8
AM_5
 62
     2
100
AcDbMText
 10
6.375497999109847
 20
-11.44123667442345
 30
0.0
 40
3.2
 41
0.0
 71
     5
 72
     1
  1
R6
  7
ASAMI
 11
0.5942619674977485
 21
-0.8042715424442823
 31
0.0
  0
LINE
  5
4828
330
4723
100
AcDbEntity
  8
AM_5
100
AcDbLine
 10
-6.00000000000066
 20
0.0911534819206854
 30
0.0
 11
-2.434428195014167
 21
-4.734475772745007
 31
0.0
  0
INSERT
  5
4829
330
4723
100
AcDbEntity
  8
AM_5
100
AcDbBlockReference
  2
_OPEN30
 10
-2.434428195014167
 20
-4.734475772745007
 30
0.0
 41
2.5
 42
2.5
 43
2.5
 50
126.4600373018264
  0
POINT
  5
482A
330
4723
100
AcDbEntity
  8
DEFPOINTS
 62
     0
100
AcDbPoint
 10
-2.434428195014167
 20
-4.734475772745007
 30
0.0
  0
POINT
  5
482B
330
4723
100
AcDbEntity
  8
DEFPOINTS
 62
     0
100
AcDbPoint
 10
-6.00000000000066
 20
0.0911534819206854
 30
0.0
  0
ENDBLK
  5
472B
330
4723
100
AcDbEntity
  8
0
100
AcDbBlockEnd
  0
ENDSEC
  0
SECTION
  2
ENTITIES
  0
TEXT
  5
1500
330
1F
100
AcDbEntity
  8
AM_6
100
AcDbText
 10
-76.07142857142855
 20
-56.91137130410378
 30
0.0
 40
5.0
  1
S-SSB2120
 72
     4
 11
-54.99999999999999
 21
-54.41137130410378
 31
0.0
100
AcDbText
  0
LINE
  5
3EE8
330
1F
100
AcDbEntity
  8
AM_7
  6
AM_ISO08W050X2
100
AcDbLine
 10
1.341626940564765
 20
0.0
 30
0.0
 11
-112.0561941299595
 21
-0.0000000000000355
 31
0.0
1001
GENIUS_GENODEF_13
1002
{
1000
HIER
1070
     0
1002
}
1002
{
1000
MANEDIT
1070
     0
1002
}
1002
{
1000
NOSEL
1070
     0
1002
}
1002
{
1000
BEHIND
1070
     0
1002
}
1002
{
1000
REACTOR
1002
}
1001
GENIUS_GENOBJ-N-CEN_13
1002
{
1000
OWNER
1000
GEN
1002
}
  0
DIMENSION
  5
4047
330
1F
100
AcDbEntity
  8
AM_5
100
AcDbDimension
  2
*D5
 10
-0.0000000000000014
 20
-34.41137130410378
 30
0.0
 11
-55.0
 21
-31.31137130410378
 31
0.0
 70
    32
  1
<>
  3
AM_JIS
100
AcDbAlignedDimension
 13
-110.0
 23
-5.249999999999987
 33
0.0
 14
0.0000000000000007
 24
-0.0000000000000005
 34
0.0
 50
0.0000000000001132
100
AcDbRotatedDimension
1001
GENIUS_GENDTOL_13
1000

1000
h7
1000

1040
0.0
  0
DIMENSION
  5
412A
330
1F
100
AcDbEntity
  8
AM_5
100
AcDbDimension
  2
*D6
 10
-15.0000000000001
 20
-22.41137130410381
 30
0.0
 11
-7.500000000000062
 21
-19.31137130410381
 31
0.0
 70
    32
  1
<>
  3
AM_JIS
100
AcDbAlignedDimension
 13
-0.0000000000000142
 23
-0.0000000000000111
 33
0.0
 14
-15.0000000000001
 24
-6.0
 34
0.0
 50
0.0000000000001132
100
AcDbRotatedDimension
1001
GENIUS_GENDTOL_13
1000

1000
h7
1000

1040
0.0
  0
DIMENSION
  5
42F4
330
1F
100
AcDbEntity
  8
AM_5
100
AcDbDimension
  2
*D7
 10
15.34162794056475
 20
-5.999999999999949
 30
0.0
 11
12.24162794056475
 21
0.0000000000000643
 31
0.0
 70
    32
  1
%%c<>
  3
AM_JIS
100
AcDbAlignedDimension
 13
-6.000000000000078
 23
6.000000000000078
 33
0.0
 14
-6.000000000000072
 24
-5.999999999999943
 34
0.0
 50
90.0
100
AcDbRotatedDimension
1001
GENIUS_GENDTOL_13
1000

1000
h7
1000

1040
0.0
  0
SPLINE
  5
463D
330
1F
100
AcDbEntity
  8
AM_0
100
AcDbSpline
210
0.0
220
0.0
230
1.0
 70
     8
 71
     3
 72
     8
 73
     4
 74
     0
 42
0.0000000001
 43
0.0000000001
 40
1.794922859428793
 40
1.794922859428793
 40
1.794922859428793
 40
1.794922859428793
 40
10.42710976687388
 40
10.42710976687388
 40
10.42710976687388
 40
10.42710976687388
 10
-5.999999999996298
 20
-5.908846518073573
 30
0.0
 10
-9.411059715373731
 20
-5.621758928701865
 30
0.0
 10
-12.72699646191713
 20
-4.681590083095727
 30
0.0
 10
-15.00000000000059
 20
-3.753431064563842
 30
0.0
  0
SPLINE
  5
463E
330
1F
100
AcDbEntity
  8
AM_0
100
AcDbSpline
210
0.0
220
0.0
230
1.0
 70
     8
 71
     3
 72
     8
 73
     4
 74
     0
 42
0.0000000001
 43
0.0000000001
 40
3.732786119440464
 40
3.732786119440464
 40
3.732786119440464
 40
3.732786119440464
 40
11.76593468143562
 40
11.76593468143562
 40
11.76593468143562
 40
11.76593468143562
 10
-5.741703573444759
 20
-5.450771533142443
 30
0.0
 10
-8.882835080517796
 20
-4.940904200516828
 30
0.0
 10
-11.95562883298886
 20
-3.94796193996237
 30
0.0
 10
-15.0000000000001
 20
-2.60792352502503
 30
0.0
  0
SPLINE
  5
463F
330
1F
100
AcDbEntity
  8
AM_0
100
AcDbSpline
210
0.0
220
0.0
230
1.0
 70
     8
 71
     3
 72
     8
 73
     4
 74
     0
 42
0.0000000001
 43
0.0000000001
 40
6.513172597598655
 40
6.513172597598655
 40
6.513172597598655
 40
6.513172597598655
 40
16.85013951926858
 40
16.85013951926858
 40
16.85013951926858
 40
16.85013951926858
 10
-6.000000000000106
 20
-4.530425513231818
 30
0.0
 10
-9.99963726341288
 20
-3.530035021560581
 30
0.0
 10
-13.91667872859881
 20
-1.918261964772143
 30
0.0
 10
-15.00000000000011
 20
-1.313457308420454
 30
0.0
  0
SPLINE
  5
4640
330
1F
100
AcDbEntity
  8
AM_0
100
AcDbSpline
210
0.0
220
0.0
230
1.0
 70
     8
 71
     3
 72
     8
 73
     4
 74
     0
 42
0.0000000001
 43
0.0000000001
 40
1.794922859432252
 40
1.794922859432252
 40
1.794922859432252
 40
1.794922859432252
 40
8.158691102902983
 40
8.158691102902983
 40
8.158691102902983
 40
8.158691102902983
 10
-6.000000000000106
 20
5.908846518073033
 30
0.0
 10
-8.514680662739584
 20
5.697201554412055
 30
0.0
 10
-10.97766348097659
 20
5.130617151353273
 30
0.0
 10
-13.40985902426856
 20
4.352658014684936
 30
0.0
  0
SPLINE
  5
4641
330
1F
100
AcDbEntity
  8
AM_0
100
AcDbSpline
210
0.0
220
0.0
230
1.0
 70
     8
 71
     3
 72
     8
 73
     4
 74
     2
 42
0.0000000001
 43
0.0000000001
 44
0.0000000001
 12
-0.8789112757303591
 22
0.4769852926391262
 32
0.0
 13
0.9988106394578339
 23
0.0487576302319218
 33
0.0
 40
0.0
 40
0.0
 40
0.0
 40
0.0
 40
2.588939832395254
 40
2.588939832395254
 40
2.588939832395254
 40
2.588939832395254
 10
-6.273337632815234
 20
1.666621978619048
 30
0.0
 10
-7.031820436441786
 20
2.078250719812428
 30
0.0
 10
-7.9846286626608
 20
4.070201536725249
 30
0.0
 10
-7.12267511282328
 20
4.11227839373879
 30
0.0
 11
-6.273337632815234
 21
1.666621978619048
 31
0.0
 11
-7.12267511282328
 21
4.11227839373879
 31
0.0
  0
SPLINE
  5
4642
330
1F
100
AcDbEntity
  8
AM_0
100
AcDbSpline
210
0.0
220
0.0
230
1.0
 70
     8
 71
     3
 72
     8
 73
     4
 74
     2
 42
0.0000000001
 43
0.0000000001
 44
0.0000000001
 12
0.4216926876958761
 22
-0.9067388141818065
 32
0.0
 13
-0.9928045895078733
 23
-0.1197457600589821
 33
0.0
 40
0.0
 40
0.0
 40
0.0
 40
0.0
 40
2.118503347759572
 40
2.118503347759572
 40
2.118503347759572
 40
2.118503347759572
 10
-6.000000000000106
 20
5.908846518073033
 30
0.0
 10
-5.702214209796958
 20
5.268536780277132
 30
0.0
 10
-6.421588497367713
 20
4.196838991591051
 30
0.0
 10
-7.122675112882212
 20
4.112278393736062
 30
0.0
 11
-6.000000000000106
 21
5.908846518073033
 31
0.0
 11
-7.122675112882212
 21
4.112278393736062
 31
0.0
  0
SPLINE
  5
4643
330
1F
100
AcDbEntity
  8
AM_0
100
AcDbSpline
210
0.0
220
0.0
230
1.0
 70
     8
 71
     3
 72
     9
 73
     5
 74
     3
 42
0.0000000001
 43
0.0000000001
 44
0.0000000001
 12
0.5867325161912575
 22
-0.8097808064185493
 32
0.0
 13
-0.8994987856269101
 23
0.4369232594583562
 33
0.0
 40
0.0
 40
0.0
 40
0.0
 40
0.0
 40
0.5376158197187707
 40
1.601594858161994
 40
1.601594858161994
 40
1.601594858161994
 40
1.601594858161994
 10
-5.263696688980353
 20
-3.651119003254109
 30
0.0
 10
-5.158551128097746
 20
-3.796235993932521
 30
0.0
 10
-4.704992761452404
 20
-4.315075781049532
 30
0.0
 10
-5.680984048996051
 20
-4.685384576389146
 30
0.0
 10
-6.000000000000106
 20
-4.530425513231818
 30
0.0
 11
-5.263696688980353
 21
-3.651119003254109
 31
0.0
 11
-5.015133109059682
 21
-4.127823226382986
 31
0.0
 11
-6.000000000000106
 21
-4.530425513231818
 31
0.0
  0
ARC
  5
4644
330
1F
100
AcDbEntity
  8
AM_0
100
AcDbCircle
 10
-8.946660579493379
 20
13.54909874691674
 30
0.0
 40
16.0480058149884
100
AcDbArc
 50
209.3057350695147
 51
247.8395263818915
  0
ARC
  5
4645
330
1F
100
AcDbEntity
  8
AM_0
100
AcDbCircle
 10
-30.68261235745259
 20
-48.6196335055639
 30
0.0
 40
54.8626922643797
100
AcDbArc
 50
75.4624027853233
 51
84.60470520851828
  0
ARC
  5
4646
330
1F
100
AcDbEntity
  8
AM_0
100
AcDbCircle
 10
-6.000000000000106
 20
-0.0911534819268525
 30
0.0
 40
6.0
100
AcDbArc
 50
0.8704851212057665
 51
90.0
  0
ARC
  5
4647
330
1F
100
AcDbEntity
  8
AM_0
100
AcDbCircle
 10
-6.00000000000066
 20
0.091153481920685
 30
0.0
 40
6.0
100
AcDbArc
 50
270.0000000000781
 51
359.1295148788724
  0
POLYLINE
  5
4649
330
1F
100
AcDbEntity
  8
AM_0
100
AcDb2dPolyline
 66
     1
 10
0.0
 20
0.0
 30
0.0
  0
VERTEX
  5
464A
330
4649
100
AcDbEntity
  8
AM_0
100
AcDbVertex
100
AcDb2dVertex
 10
-15.00000000000059
 20
-3.753431064563842
 30
0.0
 42
0.0168106360887414
  0
VERTEX
  5
464B
330
4649
100
AcDbEntity
  8
AM_0
100
AcDbVertex
100
AcDb2dVertex
 10
-16.36976780988769
 20
-3.844890681749093
 30
0.0
 42
0.0261639798046327
  0
VERTEX
  5
464C
330
4649
100
AcDbEntity
  8
AM_0
100
AcDbVertex
100
AcDb2dVertex
 10
-17.25000000000059
 20
-3.906535462246979
 30
0.0
 42
0.0132932028905292
  0
VERTEX
  5
464D
330
4649
100
AcDbEntity
  8
AM_0
100
AcDbVertex
100
AcDb2dVertex
 10
-19.29746761149879
 20
-4.124406081627599
 30
0.0
 42
0.0330956681106243
  0
VERTEX
  5
464E
330
4649
100
AcDbEntity
  8
AM_0
100
AcDbVertex
100
AcDb2dVertex
 10
-20.09373264769538
 20
-4.350537009694933
 30
0.0
 42
0.066302819305777
  0
VERTEX
  5
464F
330
4649
100
AcDbEntity
  8
AM_0
100
AcDbVertex
100
AcDb2dVertex
 10
-20.64878198303201
 20
-4.69155697548169
 30
0.0
 42
0.141835538265495
  0
VERTEX
  5
4650
330
4649
100
AcDbEntity
  8
AM_0
100
AcDbVertex
100
AcDb2dVertex
 10
-20.82486144672565
 20
-4.945833712496439
 30
0.0
 42
0.3019338394559296
  0
VERTEX
  5
4651
330
4649
100
AcDbEntity
  8
AM_0
100
AcDbVertex
100
AcDb2dVertex
 10
-20.72814515226994
 20
-5.305637198190654
 30
0.0
 42
0.1448123473042558
  0
VERTEX
  5
4652
330
4649
100
AcDbEntity
  8
AM_0
100
AcDbVertex
100
AcDb2dVertex
 10
-20.06871735513646
 20
-5.611355263205071
 30
0.0
 42
0.0233293908839008
  0
VERTEX
  5
4653
330
4649
100
AcDbEntity
  8
AM_0
100
AcDbVertex
100
AcDb2dVertex
 10
-19.48746223885134
 20
-5.669581097571411
 30
0.0
 42
0.0065058132401841
  0
VERTEX
  5
4654
330
4649
100
AcDbEntity
  8
AM_0
100
AcDbVertex
100
AcDb2dVertex
 10
-17.39543101357275
 20
-5.753679514011425
 30
0.0
 42
0.0093933844226459
  0
VERTEX
  5
4655
330
4649
100
AcDbEntity
  8
AM_0
100
AcDbVertex
100
AcDb2dVertex
 10
-16.3311145840569
 20
-5.762598817519519
 30
0.0
 42
0.0066920378599867
  0
VERTEX
  5
4656
330
4649
100
AcDbEntity
  8
AM_0
100
AcDbVertex
100
AcDb2dVertex
 10
-15.0000000000001
 20
-5.730017408981574
 30
0.0
  0
SEQEND
  5
4657
330
4649
100
AcDbEntity
  8
AM_0
  0
ARC
  5
465A
330
1F
100
AcDbEntity
  8
AM_11
100
AcDbCircle
 10
-6.000000000000106
 20
0.0000000000000568
 30
0.0
 40
6.0
100
AcDbArc
 50
270.0
 51
90.0
  0
ARC
  5
465B
330
1F
100
AcDbEntity
  8
AM_0
100
AcDbCircle
 10
-6.164225372153232
 20
0.4606005029685321
 30
0.0
 40
5.926452903693485
100
AcDbArc
 50
274.0883259404363
 51
353.4887846299623
  0
LINE
  5
465C
330
1F
100
AcDbEntity
  8
AM_0
100
AcDbLine
 10
-5.741703573444759
 20
-5.450771533142159
 30
0.0
 11
-6.00000000000066
 21
-4.530425513231818
 31
0.0
  0
LINE
  5
465D
330
1F
100
AcDbEntity
  8
AM_11
100
AcDbLine
 10
-15.0000000000001
 20
-5.999999999999994
 30
0.0
 11
-6.000000000000106
 21
-5.999999999999943
 31
0.0
  0
ARC
  5
465E
330
1F
100
AcDbEntity
  8
AM_0
100
AcDbCircle
 10
-20.91499748188833
 20
58.92945945645119
 30
0.0
 40
64.92946283253989
100
AcDbArc
 50
269.9815233299036
 51
279.1933357534468
  0
LINE
  5
465F
330
1F
100
AcDbEntity
  8
AM_0
100
AcDbLine
 10
-5.999999999927531
 20
-5.908846518079315
 30
0.0
 11
-5.741703573444759
 21
-5.450771533142159
 31
0.0
  0
LINE
  5
4660
330
1F
100
AcDbEntity
  8
AM_0
100
AcDbLine
 10
-16.9112402764009
 20
4.486527281121283
 30
0.0
 11
-7.12267511282382
 21
4.11227839373879
 31
0.0
  0
LINE
  5
4661
330
1F
100
AcDbEntity
  8
AM_11
100
AcDbLine
 10
-6.000000000000106
 20
5.999999999999943
 30
0.0
 11
-15.0000000000001
 21
5.999999999999943
 31
0.0
  0
LINE
  5
4662
330
1F
100
AcDbEntity
  8
AM_0
100
AcDbLine
 10
-15.0000000000001
 20
-1.313457308420463
 30
0.0
 11
-15.0000000000001
 21
-3.753431064565238
 31
0.0
  0
LINE
  5
4663
330
1F
100
AcDbEntity
  8
AM_0
100
AcDbLine
 10
-0.0000000000001066
 20
0.0000000000000568
 30
0.0
 11
-7.12267511282328
 21
4.11227839373879
 31
0.0
  0
ARC
  5
4664
330
1F
100
AcDbEntity
  8
AM_0
100
AcDbCircle
 10
-5.806878658689605
 20
1.611908309773724
 30
0.0
 40
5.290983193121555
100
AcDbArc
 50
275.8924707062755
 51
339.8416840647174
  0
LINE
  5
4665
330
1F
100
AcDbEntity
  8
AM_0
100
AcDbLine
 10
-0.8400000000004368
 20
-0.2114456163060083
 30
0.0
 11
-6.273337632815234
 21
1.666621978619048
 31
0.0
  0
ARC
  5
4666
330
1F
100
AcDbEntity
  8
AM_0
100
AcDbCircle
 10
-0.246169095409023
 20
0.0562396957447788
 30
0.0
 40
6.238596931626245
100
AcDbArc
 50
165.0407421323771
 51
216.4600123166024
  0
LINE
  5
4667
330
1F
100
AcDbEntity
  8
AM_0
100
AcDbLine
 10
-0.2760000000001312
 20
-0.2114456163060367
 30
0.0
 11
-0.8400000000004368
 21
-0.2114456163060083
 31
0.0
  0
LINE
  5
4668
330
1F
100
AcDbEntity
  8
AM_0
100
AcDbLine
 10
-0.0000000000001066
 20
0.0000000000000568
 30
0.0
 11
-0.2760000000001312
 21
-0.2114456163060367
 31
0.0
  0
LINE
  5
46CB
330
1F
100
AcDbEntity
  8
AM_0
100
AcDbLine
 10
-20.9359358521085
 20
-5.999999999999182
 30
0.0
 11
-109.25
 21
-5.99999999999998
 31
0.0
  0
LINE
  5
46CE
330
1F
100
AcDbEntity
  8
AM_0
100
AcDbLine
 10
-109.2499999999999
 20
5.999999999999881
 30
0.0
 11
-109.2499999999999
 21
-5.999999999999998
 31
0.0
  0
LINE
  5
46CF
330
1F
100
AcDbEntity
  8
AM_0
100
AcDbLine
 10
-109.9999999999999
 20
5.249999999999875
 30
0.0
 11
-110.0
 21
-5.249999999999987
 31
0.0
  0
DIMENSION
  5
46D0
330
1F
100
AcDbEntity
  8
AM_5
100
AcDbDimension
  2
*D8
 10
-126.0561951299595
 20
-5.999999999999976
 30
0.0
 11
-129.1561951299595
 21
-0.0000000000000647
 31
0.0
 70
    32
  1
%%c<>
  3
AM_JIS
100
AcDbAlignedDimension
 13
-109.2499999999999
 23
5.999999999999881
 33
0.0
 14
-109.2499999999999
 24
-5.999999999999981
 34
0.0
 50
270.0
100
AcDbRotatedDimension
1001
GENIUS_GENDTOL_13
1000

1000
h7
1000

1040
0.0
  0
LINE
  5
46DD
330
1F
100
AcDbEntity
  8
AM_0
100
AcDbLine
 10
-25.5240623466609
 20
6.000000000000653
 30
0.0
 11
-109.2499999999999
 21
5.999999999999882
 31
0.0
  0
LINE
  5
46E9
330
1F
100
AcDbEntity
  8
AM_0
100
AcDbLine
 10
-109.9999999999999
 20
5.249999999999875
 30
0.0
 11
-109.2499999999999
 21
5.999999999999882
 31
0.0
1001
GENIUS_GENFIL_13
1070
     0
1040
0.75
1040
0.75
1040
20.0
1040
0.0
1002
{
1002
}
1001
GENIUS_GENODEF_13
1002
{
1000
HIER
1070
     0
1002
}
1002
{
1000
MANEDIT
1070
     0
1002
}
1002
{
1000
NOSEL
1070
     0
1002
}
1002
{
1000
BEHIND
1070
     0
1002
}
1002
{
1000
REACTOR
1002
}
1001
GENIUS_GENOBJ-N-CHA_13
1002
{
1000
OWNER
1000
GEN
1002
}
  0
LINE
  5
46EC
330
1F
100
AcDbEntity
  8
AM_0
100
AcDbLine
 10
-110.0
 20
-5.249999999999987
 30
0.0
 11
-109.25
 21
-5.99999999999998
 31
0.0
1001
GENIUS_GENFIL_13
1070
     0
1040
0.75
1040
0.75
1040
20.0
1040
0.0
1002
{
1002
}
1001
GENIUS_GENODEF_13
1002
{
1000
HIER
1070
     0
1002
}
1002
{
1000
MANEDIT
1070
     0
1002
}
1002
{
1000
NOSEL
1070
     0
1002
}
1002
{
1000
BEHIND
1070
     0
1002
}
1002
{
1000
REACTOR
1002
}
1001
GENIUS_GENOBJ-N-CHA_13
1002
{
1000
OWNER
1000
GEN
1002
}
  0
LINE
  5
46F8
330
1F
100
AcDbEntity
  8
AM_11
100
AcDbLine
 10
-15.0000000000001
 20
-5.999999999999943
 30
0.0
 11
-15.0000000000001
 21
5.999999999999943
 31
0.0
  0
DIMENSION
  5
4722
330
1F
100
AcDbEntity
  8
AM_5
100
AcDbDimension
  2
*D9
 10
-6.00000000000066
 20
0.0911534819206854
 30
0.0
 11
3.882256217532572
 21
-13.28344877366647
 31
0.0
 70
   164
  1
<>
  3
AM_JIS$4
100
AcDbRadialDimension
 15
-2.434428195014167
 25
-4.734475772745007
 35
0.0
 40
0.0
1001
GENIUS_GENDTOL_13
1000

1000
h7
1000

1040
0.0
1001
ACAD
1000
DSTYLE
1002
{
1070
   287
1070
     3
1070
   271
1070
     3
1070
   288
1070
     1
1070
   289
1070
     3
1070
   172
1070
     1
1070
    74
1070
     0
1002
}
  0
VIEWPORT
  5
110
330
101
100
AcDbEntity
 67
     1
  8
0
100
AcDbViewport
 10
420.5
 20
297.0
 30
0.0
 40
948.9782706766916
 41
628.452
 68
     1
 69
     1
1001
ACAD
1000
MVIEW
1002
{
1070
    16
1010
0.0
1020
0.0
1030
0.0
1010
0.0
1020
0.0
1030
1.0
1040
0.0
1040
628.452
1040
420.5
1040
297.0
1040
50.0
1040
0.0
1040
0.0
1070
     0
1070
   100
1070
     1
1070
     1
1070
     0
1070
     0
1070
     0
1070
     0
1040
0.0
1040
0.0
1040
0.0
1040
10.0
1040
10.0
1040
10.0
1040
10.0
1070
     0
1002
{
1002
}
1002
}
  0
ENDSEC
  0
SECTION
  2
OBJECTS
  0
DICTIONARY
  5
C
330
0
100
AcDbDictionary
  3
ACAD_GROUP
350
D
  3
ACAD_LAYOUT
350
1A
  3
ACAD_MLINESTYLE
350
17
  3
ACAD_PLOTSETTINGS
350
19
  3
ACAD_PLOTSTYLENAME
350
E
  3
ACDBVARIABLEDICTIONARY
350
34
  3
ACMDICTIONARY
350
43
  3
AMG
350
2B
  3
AMGSNAPSETTINGS
350
6E
  3
ASE_INDEX_DICTIONARY
350
151A
  3
DWGPROPS
350
47F0
  3
ACDBHEADERROUNDTRIPXREC
350
47FC
  0
DICTIONARY
  5
74
330
1F
100
AcDbDictionary
280
     1
  3
ACAD_INDEX
360
47F2
  3
ACAD_LAYOUTSELFREF
360
481F
  0
DICTIONARY
  5
4824
330
101
100
AcDbDictionary
280
     1
  3
ACAD_LAYOUTSELFREF
360
4825
  0
DICTIONARY
  5
D
102
{ACAD_REACTORS
330
C
102
}
330
C
100
AcDbDictionary
  0
DICTIONARY
  5
1A
102
{ACAD_REACTORS
330
C
102
}
330
C
100
AcDbDictionary
  0
DICTIONARY
  5
17
102
{ACAD_REACTORS
330
C
102
}
330
C
100
AcDbDictionary
  3
STANDARD
350
18
  0
DICTIONARY
  5
19
102
{ACAD_REACTORS
330
C
102
}
330
C
100
AcDbDictionary
  0
ACDBDICTIONARYWDFLT
  5
E
102
{ACAD_REACTORS
330
C
102
}
330
C
100
AcDbDictionary
281
     1
  3
Normal
350
F
100
AcDbDictionaryWithDefault
340
F
  0
DICTIONARY
  5
34
102
{ACAD_REACTORS
330
C
102
}
330
C
100
AcDbDictionary
  3
INDEXCTL
350
35
  3
SORTENTS
350
B5E
  0
DICTIONARY
  5
43
102
{ACAD_REACTORS
330
C
102
}
330
C
100
AcDbDictionary
  3
ACMSTDDICTIONARY
350
260
  0
DICTIONARY
  5
2B
102
{ACAD_REACTORS
330
C
102
}
330
C
100
AcDbDictionary
  3
ACMGSETTINGS
350
2C
  0
DICTIONARY
  5
6E
102
{ACAD_REACTORS
330
C
102
}
330
C
100
AcDbDictionary
  0
DICTIONARY
  5
151A
102
{ACAD_REACTORS
330
C
102
}
330
C
100
AcDbDictionary
  3
ASEBLOCKHIERARCHYINDEXRECORD
350
151C
1001
DCO15
1040
1471862535.906
  0
XRECORD
  5
47F0
102
{ACAD_REACTORS
330
C
102
}
330
C
100
AcDbXrecord
  1
DWGPROPS COOKIE
  2

  3

  4

  6

  7

  8

  9

300
AmdtFileType=82
301
=
302
=
303
=
304
=
305
=
306
=
307
=
308
=
309
=
 40
0.1596189583333333
 41
2452838.430434386
 42
2452871.702585162
  1

 90
        1
  0
DICTIONARY
  5
47FC
102
{ACAD_REACTORS
330
C
102
}
330
C
100
AcDbDictionary
  3
TSTACKALIGN
350
47FD
  3
TSTACKSIZE
350
47FE
  3
HYPERLINKBASE
350
47FF
  3
STYLESHEET
350
4800
  3
LAYOUTDICT
350
4801
  3
PLOTSETDICT
350
4802
  3
PLOTSTYLNAMDICT
350
4803
  3
LWETCUNION
350
4804
  3
INSUNITS
350
4805
  3
CEPSNTYPE
350
4806
  3
FINGERPRINTGUID
350
4807
  3
VERSIONGUID
350
4808
  3
PSVPSCALE
350
4809
  3
DIMSTYLEDATA
350
480A
  3
PUCSORTHOREF
350
480B
  3
PUCSORTHOVIEW
350
480C
  3
PUCSBASE
350
480D
  3
PUCSORGTOP
350
480E
  3
PUCSORGBOTTOM
350
480F
  3
PUCSORGLEFT
350
4810
  3
PUCSORGRIGHT
350
4811
  3
PUCSORGFRONT
350
4812
  3
PUCSORGBACK
350
4813
  3
UCSORTHOREF
350
4814
  3
UCSORTHOVIEW
350
4815
  3
UCSBASE
350
4816
  3
UCSORGTOP
350
4817
  3
UCSORGBOTTOM
350
4818
  3
UCSORGLEFT
350
4819
  3
UCSORGRIGHT
350
481A
  3
UCSORGFRONT
350
481B
  3
UCSORGBACK
350
481C
  0
DICTIONARY
  5
47F2
102
{ACAD_REACTORS
330
74
102
}
330
74
100
AcDbDictionary
  3
*A1
350
47F3
  0
XRECORD
  5
481F
102
{ACAD_REACTORS
330
74
102
}
330
74
100
AcDbXrecord
340
1F
  0
XRECORD
  5
4825
102
{ACAD_REACTORS
330
4824
102
}
330
4824
100
AcDbXrecord
340
101
  0
MLINESTYLE
  5
18
102
{ACAD_REACTORS
330
17
102
}
330
17
100
AcDbMlineStyle
  2
STANDARD
 70
     0
  3

 62
   256
 51
90.0
 52
90.0
 71
     2
 49
0.5
 62
   256
  6
BYLAYER
 49
-0.5
 62
   256
  6
BYLAYER
  0
ACDBPLACEHOLDER
  5
F
102
{ACAD_REACTORS
330
E
102
}
330
E
100
AcDbPlaceHolder
280
     0
  0
DICTIONARYVAR
  5
35
102
{ACAD_REACTORS
330
34
102
}
330
34
100
DictionaryVariables
280
     0
  1
1
  0
DICTIONARYVAR
  5
B5E
102
{ACAD_REACTORS
330
34
102
}
330
34
100
DictionaryVariables
280
     0
  1
96
  0
DICTIONARY
  5
260
102
{ACAD_REACTORS
330
43
102
}
330
43
100
AcDbDictionary
  0
DICTIONARY
  5
2C
102
{ACAD_REACTORS
330
2B
102
}
330
2B
100
AcDbDictionary
  3
DWGSETTINGS
350
2D
  0
XRECORD
  5
151C
102
{ACAD_REACTORS
330
151A
102
}
330
151A
100
AcDbXrecord
330
0
330
0
330
0
330
0
330
0
330
0
330
0
330
0
  0
XRECORD
  5
47FD
102
{ACAD_REACTORS
330
47FC
102
}
330
47FC
100
AcDbXrecord
 90
        1
  0
XRECORD
  5
47FE
102
{ACAD_REACTORS
330
47FC
102
}
330
47FC
100
AcDbXrecord
 90
       70
  0
XRECORD
  5
47FF
102
{ACAD_REACTORS
330
47FC
102
}
330
47FC
100
AcDbXrecord
  1

  0
XRECORD
  5
4800
102
{ACAD_REACTORS
330
47FC
102
}
330
47FC
100
AcDbXrecord
  1
ASAMI.ctb
  0
XRECORD
  5
4801
102
{ACAD_REACTORS
330
47FC
102
}
330
47FC
100
AcDbXrecord
340
1A
  0
XRECORD
  5
4802
102
{ACAD_REACTORS
330
47FC
102
}
330
47FC
100
AcDbXrecord
340
19
  0
XRECORD
  5
4803
102
{ACAD_REACTORS
330
47FC
102
}
330
47FC
100
AcDbXrecord
340
E
  0
XRECORD
  5
4804
102
{ACAD_REACTORS
330
47FC
102
}
330
47FC
100
AcDbXrecord
 90
    10781
  0
XRECORD
  5
4805
102
{ACAD_REACTORS
330
47FC
102
}
330
47FC
100
AcDbXrecord
 90
        4
  0
XRECORD
  5
4806
102
{ACAD_REACTORS
330
47FC
102
}
330
47FC
100
AcDbXrecord
 90
        0
  0
XRECORD
  5
4807
102
{ACAD_REACTORS
330
47FC
102
}
330
47FC
100
AcDbXrecord
  1
{AFB28963-8C59-40AE-9337-C84526B81ACE}
  0
XRECORD
  5
4808
102
{ACAD_REACTORS
330
47FC
102
}
330
47FC
100
AcDbXrecord
  1
{EF7A4AB7-04D2-4E95-92E9-110EA4B69E56}
  0
XRECORD
  5
4809
102
{ACAD_REACTORS
330
47FC
102
}
330
47FC
100
AcDbXrecord
 40
0.0
  0
XRECORD
  5
480A
102
{ACAD_REACTORS
330
47FC
102
}
330
47FC
100
AcDbXrecord
1000
DSTYLE
1002
{
1070
    79
 70
     2
1070
   341
340
59
1070
   342
340
59
1070
   371
 70
    -1
1070
   372
 70
    -1
1002
}
  0
XRECORD
  5
480B
102
{ACAD_REACTORS
330
47FC
102
}
330
47FC
100
AcDbXrecord
340
0
  0
XRECORD
  5
480C
102
{ACAD_REACTORS
330
47FC
102
}
330
47FC
100
AcDbXrecord
 70
     0
  0
XRECORD
  5
480D
102
{ACAD_REACTORS
330
47FC
102
}
330
47FC
100
AcDbXrecord
340
0
  0
XRECORD
  5
480E
102
{ACAD_REACTORS
330
47FC
102
}
330
47FC
100
AcDbXrecord
 10
0.0
 20
0.0
 30
0.0
  0
XRECORD
  5
480F
102
{ACAD_REACTORS
330
47FC
102
}
330
47FC
100
AcDbXrecord
 10
0.0
 20
0.0
 30
0.0
  0
XRECORD
  5
4810
102
{ACAD_REACTORS
330
47FC
102
}
330
47FC
100
AcDbXrecord
 10
0.0
 20
0.0
 30
0.0
  0
XRECORD
  5
4811
102
{ACAD_REACTORS
330
47FC
102
}
330
47FC
100
AcDbXrecord
 10
0.0
 20
0.0
 30
0.0
  0
XRECORD
  5
4812
102
{ACAD_REACTORS
330
47FC
102
}
330
47FC
100
AcDbXrecord
 10
0.0
 20
0.0
 30
0.0
  0
XRECORD
  5
4813
102
{ACAD_REACTORS
330
47FC
102
}
330
47FC
100
AcDbXrecord
 10
0.0
 20
0.0
 30
0.0
  0
XRECORD
  5
4814
102
{ACAD_REACTORS
330
47FC
102
}
330
47FC
100
AcDbXrecord
340
0
  0
XRECORD
  5
4815
102
{ACAD_REACTORS
330
47FC
102
}
330
47FC
100
AcDbXrecord
 70
     0
  0
XRECORD
  5
4816
102
{ACAD_REACTORS
330
47FC
102
}
330
47FC
100
AcDbXrecord
340
0
  0
XRECORD
  5
4817
102
{ACAD_REACTORS
330
47FC
102
}
330
47FC
100
AcDbXrecord
 10
0.0
 20
0.0
 30
0.0
  0
XRECORD
  5
4818
102
{ACAD_REACTORS
330
47FC
102
}
330
47FC
100
AcDbXrecord
 10
0.0
 20
0.0
 30
0.0
  0
XRECORD
  5
4819
102
{ACAD_REACTORS
330
47FC
102
}
330
47FC
100
AcDbXrecord
 10
0.0
 20
0.0
 30
0.0
  0
XRECORD
  5
481A
102
{ACAD_REACTORS
330
47FC
102
}
330
47FC
100
AcDbXrecord
 10
0.0
 20
0.0
 30
0.0
  0
XRECORD
  5
481B
102
{ACAD_REACTORS
330
47FC
102
}
330
47FC
100
AcDbXrecord
 10
0.0
 20
0.0
 30
0.0
  0
XRECORD
  5
481C
102
{ACAD_REACTORS
330
47FC
102
}
330
47FC
100
AcDbXrecord
 10
0.0
 20
0.0
 30
0.0
  0
LAYER_INDEX
  5
47F3
102
{ACAD_REACTORS
330
47F2
102
}
330
47F2
100
AcDbIndex
 40
2453151.778576007
100
AcDbLayerIndex
  8
0
360
47F4
 90
        0
  8
AM_0
360
47F5
 90
       30
  8
AM_11
360
47F6
 90
        4
  8
AM_7
360
47F7
 90
        1
  8
AM_5
360
47F8
 90
        5
  8
Defpoints
360
47F9
 90
        0
  8
AM_6
360
47FA
 90
        1
  0
XRECORD
  5
2D
102
{ACAD_REACTORS
330
2C
102
}
330
2C
100
AcDbXrecord
  1
VERSION
140
15.0
  1
PRODUCT
  2
AutoCAD Mechanical 2000
  0
IDBUFFER
  5
47F4
330
0
100
AcDbIdBuffer
  0
IDBUFFER
  5
47F5
330
0
100
AcDbIdBuffer
330
4660
330
4662
330
4663
330
4664
330
4665
330
4666
330
4667
330
4668
330
46CB
330
46CE
330
46CF
330
46DD
330
46E9
330
46EC
330
463D
330
463E
330
463F
330
4640
330
4641
330
4642
330
4643
330
4644
330
4645
330
4646
330
4647
330
4649
330
465B
330
465C
330
465E
330
465F
  0
IDBUFFER
  5
47F6
330
0
100
AcDbIdBuffer
330
465A
330
465D
330
4661
330
46F8
  0
IDBUFFER
  5
47F7
330
0
100
AcDbIdBuffer
330
3EE8
  0
IDBUFFER
  5
47F8
330
0
100
AcDbIdBuffer
330
4047
330
412A
330
42F4
330
46D0
330
4722
  0
IDBUFFER
  5
47F9
330
0
100
AcDbIdBuffer
  0
IDBUFFER
  5
47FA
330
0
100
AcDbIdBuffer
330
1500
  0
ENDSEC
  0
EOF
