  0
SECTION
  2
HEADER
  9
$ACADVER
  1
AC1014
  9
$ACADMAINTVER
 70
     9
  9
$DWGCODEPAGE
  3
ANSI_932
  9
$INSBASE
 10
0.0
 20
0.0
 30
0.0
  9
$EXTMIN
 10
-67.78148483858553
 20
-22.50000000416663
 30
-0.00000001
  9
$EXTMAX
 10
6.61449305085366
 20
3.166666666666654
 30
0.00000001
  9
$LIMMIN
 10
-76.10421083767653
 20
-34.42153084164161
  9
$LIMMAX
 10
16.5471892856944
 20
13.26825196933276
  9
$ORTHOMODE
 70
     0
  9
$REGENMODE
 70
     1
  9
$FILLMODE
 70
     1
  9
$QTEXTMODE
 70
     0
  9
$MIRRTEXT
 70
     0
  9
$DRAGMODE
 70
     2
  9
$LTSCALE
 40
0.3
  9
$OSMODE
 70
    55
  9
$ATTMODE
 70
     1
  9
$TEXTSIZE
 40
2.5
  9
$TRACEWID
 40
1.0
  9
$TEXTSTYLE
  7
STANDARD
  9
$CLAYER
  8
AM_11
  9
$CELTYPE
  6
BYLAYER
  9
$CECOLOR
 62
   256
  9
$CELTSCALE
 40
1.0
  9
$DELOBJ
 70
     1
  9
$DISPSILH
 70
     0
  9
$DIMSCALE
 40
0.3333333333333333
  9
$DIMASZ
 40
2.5
  9
$DIMEXO
 40
1.0
  9
$DIMDLI
 40
12.0
  9
$DIMRND
 40
0.0
  9
$DIMDLE
 40
0.0
  9
$DIMEXE
 40
1.0
  9
$DIMTP
 40
0.1
  9
$DIMTM
 40
0.1
  9
$DIMTXT
 40
3.2
  9
$DIMCEN
 40
0.0
  9
$DIMTSZ
 40
0.0
  9
$DIMTOL
 70
     0
  9
$DIMLIM
 70
     0
  9
$DIMTIH
 70
     0
  9
$DIMTOH
 70
     0
  9
$DIMSE1
 70
     0
  9
$DIMSE2
 70
     0
  9
$DIMTAD
 70
     3
  9
$DIMZIN
 70
     8
  9
$DIMBLK
  1
OPEN30
  9
$DIMASO
 70
     1
  9
$DIMSHO
 70
     1
  9
$DIMPOST
  1

  9
$DIMAPOST
  1
"
  9
$DIMALT
 70
     0
  9
$DIMALTD
 70
     2
  9
$DIMALTF
 40
0.0393701
  9
$DIMLFAC
 40
1.0
  9
$DIMTOFL
 70
     1
  9
$DIMTVP
 40
0.0
  9
$DIMTIX
 70
     0
  9
$DIMSOXD
 70
     0
  9
$DIMSAH
 70
     0
  9
$DIMBLK1
  1

  9
$DIMBLK2
  1

  9
$DIMSTYLE
  2
AM_JIS
  9
$DIMCLRD
 70
   256
  9
$DIMCLRE
 70
   256
  9
$DIMCLRT
 70
     2
  9
$DIMTFAC
 40
0.71
  9
$DIMGAP
 40
1.5
  9
$DIMJUST
 70
     0
  9
$DIMSD1
 70
     0
  9
$DIMSD2
 70
     0
  9
$DIMTOLJ
 70
     0
  9
$DIMTZIN
 70
     0
  9
$DIMALTZ
 70
     0
  9
$DIMALTTZ
 70
     0
  9
$DIMFIT
 70
     3
  9
$DIMUPT
 70
     0
  9
$DIMUNIT
 70
     2
  9
$DIMDEC
 70
     3
  9
$DIMTDEC
 70
     3
  9
$DIMALTU
 70
     2
  9
$DIMALTTD
 70
     2
  9
$DIMTXSTY
  7
ASAMI
  9
$DIMAUNIT
 70
     0
  9
$LUNITS
 70
     2
  9
$LUPREC
 70
     2
  9
$SKETCHINC
 40
1.0
  9
$FILLETRAD
 40
0.5
  9
$AUNITS
 70
     0
  9
$AUPREC
 70
     0
  9
$MENU
  1
.
  9
$ELEVATION
 40
0.0
  9
$PELEVATION
 40
0.0
  9
$THICKNESS
 40
0.0
  9
$LIMCHECK
 70
     0
  9
$BLIPMODE
 70
     0
  9
$CHAMFERA
 40
0.5
  9
$CHAMFERB
 40
0.5
  9
$CHAMFERC
 40
20.0
  9
$CHAMFERD
 40
0.0
  9
$SKPOLY
 70
     0
  9
$TDCREATE
 40
2452838.620506898
  9
$TDUPDATE
 40
2453151.875273726
  9
$TDINDWG
 40
0.4584993519
  9
$TDUSRTIMER
 40
0.4584993519
  9
$USRTIMER
 70
     1
  9
$ANGBASE
 50
0.0
  9
$ANGDIR
 70
     0
  9
$PDMODE
 70
     0
  9
$PDSIZE
 40
0.0
  9
$PLINEWID
 40
0.0
  9
$COORDS
 70
     1
  9
$SPLFRAME
 70
     0
  9
$SPLINETYPE
 70
     6
  9
$SPLINESEGS
 70
     8
  9
$ATTDIA
 70
     1
  9
$ATTREQ
 70
     1
  9
$HANDLING
 70
 12289
  9
$HANDSEED
  5
2C14
  9
$SURFTAB1
 70
     6
  9
$SURFTAB2
 70
     6
  9
$SURFTYPE
 70
     6
  9
$SURFU
 70
     6
  9
$SURFV
 70
     6
  9
$UCSNAME
  2

  9
$UCSORG
 10
-0.0000000000000568
 20
-0.0000000000000036
 30
0.0
  9
$UCSXDIR
 10
1.0
 20
0.0
 30
0.0
  9
$UCSYDIR
 10
0.0
 20
1.0
 30
0.0
  9
$PUCSNAME
  2

  9
$PUCSORG
 10
0.0
 20
0.0
 30
0.0
  9
$PUCSXDIR
 10
1.0
 20
0.0
 30
0.0
  9
$PUCSYDIR
 10
0.0
 20
1.0
 30
0.0
  9
$USERI1
 70
     0
  9
$USERI2
 70
     0
  9
$USERI3
 70
     0
  9
$USERI4
 70
     0
  9
$USERI5
 70
     0
  9
$USERR1
 40
0.0
  9
$USERR2
 40
0.0
  9
$USERR3
 40
0.0
  9
$USERR4
 40
0.0
  9
$USERR5
 40
0.0
  9
$WORLDVIEW
 70
     1
  9
$SHADEDGE
 70
     3
  9
$SHADEDIF
 70
    70
  9
$TILEMODE
 70
     1
  9
$MAXACTVP
 70
    64
  9
$PINSBASE
 10
0.0
 20
0.0
 30
0.0
  9
$PLIMCHECK
 70
     0
  9
$PEXTMIN
 10
1.000000000000000E+20
 20
1.000000000000000E+20
 30
1.000000000000000E+20
  9
$PEXTMAX
 10
-1.000000000000000E+20
 20
-1.000000000000000E+20
 30
-1.000000000000000E+20
  9
$PLIMMIN
 10
0.0
 20
0.0
  9
$PLIMMAX
 10
841.0
 20
594.0
  9
$UNITMODE
 70
     0
  9
$VISRETAIN
 70
     1
  9
$PLINEGEN
 70
     0
  9
$PSLTSCALE
 70
     0
  9
$TREEDEPTH
 70
  3020
  9
$PICKSTYLE
 70
     0
  9
$CMLSTYLE
  2
STANDARD
  9
$CMLJUST
 70
     0
  9
$CMLSCALE
 40
20.0
  9
$PROXYGRAPHICS
 70
     1
  9
$MEASUREMENT
 70
     1
  0
ENDSEC
  0
SECTION
  2
CLASSES
  0
CLASS
  1
ACDBDICTIONARYWDFLT
  2
AcDbDictionaryWithDefault
  3
AutoCAD 2000
 90
        0
280
     0
281
     0
  0
CLASS
  1
ACDBPLACEHOLDER
  2
AcDbPlaceHolder
  3
AutoCAD 2000
 90
        0
280
     0
281
     0
  0
CLASS
  1
LAYOUT
  2
AcDbLayout
  3
AutoCAD 2000
 90
        0
280
     0
281
     0
  0
CLASS
  1
AMGSETTINGSOBJ
  2
AmgSettingsObj
  3
"AcadM|Product Description: AutoCAD Mechanical 2000|Company: Autodesk"
 90
        0
280
     0
281
     0
  0
CLASS
  1
ACME_DOCUMENT
  2
AcMeDbDoc
  3
AcMeServices
 90
        0
280
     0
281
     0
  0
CLASS
  1
ACMESCOPE
  2
AcMeScope
  3
AcMeServices
 90
        0
280
     0
281
     0
  0
CLASS
  1
ACMECOMMANDHISTORY
  2
AcMeCommandHistory
  3
AcMeServices
 90
        0
280
     0
281
     0
  0
CLASS
  1
DICTIONARYVAR
  2
AcDbDictionaryVar
  3
AutoCAD 2000
 90
        0
280
     0
281
     0
  0
CLASS
  1
ACIMSYSVARMAN
  2
AcImSysVarManager
  3
AcMeServices
 90
        0
280
     0
281
     0
  0
CLASS
  1
ACIMREALSYSVAR
  2
AcImRealSysVar
  3
AcMeServices
 90
        0
280
     0
281
     0
  0
CLASS
  1
ACIMINTSYSVAR
  2
AcImIntSysVar
  3
AcMeServices
 90
        0
280
     0
281
     0
  0
CLASS
  1
ACMEDRAWINGMAN
  2
AcMeDrawingMan
  3
AcMeServices
 90
        0
280
     0
281
     0
  0
CLASS
  1
ACMEVIEW
  2
AcMeView
  3
AcMeServices
 90
        0
280
     0
281
     0
  0
CLASS
  1
ACDBENTITYCACHE
  2
AcMeEntityCache
  3
AcMeServices
 90
        0
280
     0
281
     0
  0
CLASS
  1
GSMANAGER
  2
AcMeGSManager
  3
AcMeServices
 90
        0
280
     0
281
     0
  0
CLASS
  1
AmdtInternalReactor
  2
AmdtInternalReactor
  3
AcMeServices
 90
        0
280
     0
281
     0
  0
CLASS
  1
ACMESTATEMGR
  2
AcMeStateMgr
  3
AcMeServices
 90
        0
280
     0
281
     0
  0
CLASS
  1
ACME_DATABASE
  2
AcMeDbDatabase
  3
AcMeServices
 90
        0
280
     0
281
     0
  0
CLASS
  1
ACRFINSADJUSTERMGR
  2
AcRfInsAdjusterMgr
  3
AcMeServices
 90
        0
280
     0
281
     0
  0
CLASS
  1
ACMDATADICTIONARY
  2
AcmDataDictionary
  3
"AcmSymBB|Product Description: AutoCAD Mechanical 2000|Company: Autodesk"
 90
        0
280
     0
281
     0
  0
CLASS
  1
ACMDATAENTRYBLOCK
  2
AcmDataEntryBlock
  3
"AcmSymBB|Product Description: AutoCAD Mechanical 2000|Company: Autodesk"
 90
        0
280
     0
281
     0
  0
CLASS
  1
AMGOBJPROPCFG
  2
AmgObjPropCfg
  3
"AmgLay|Product Description: AutoCAD Mechanical 2000|Company: Autodesk"
 90
        1
280
     0
281
     0
  0
CLASS
  1
ACAMGFILTERDAT
  2
AcAmgFilterDat
  3
"AcadM|Product Description: AutoCAD Mechanical 2000|Company: Autodesk"
 90
        0
280
     0
281
     0
  0
CLASS
  1
LAYER_INDEX
  2
AcDbLayerIndex
  3
AutoCAD 2000
 90
        0
280
     0
281
     0
  0
CLASS
  1
IDBUFFER
  2
AcDbIdBuffer
  3
AutoCAD 2000
 90
        0
280
     0
281
     0
  0
CLASS
  1
ACIMSTRSYSVAR
  2
AcImStrSysVar
  3
AcMeServices
 90
        0
280
     0
281
     0
  0
CLASS
  1
ACMSTANDARDJIS
  2
AcmStandardJIS
  3
"AcmSymBB|Product Description: AutoCAD Mechanical 2000|Company: Autodesk"
 90
        0
280
     0
281
     0
  0
CLASS
  1
ACMSURFSTANDARDJIS
  2
AcmSurfTextStdJIS
  3
"AcmSymBB|Product Description: AutoCAD Mechanical 2000|Company: Autodesk"
 90
        0
280
     0
281
     0
  0
CLASS
  1
ACMFCFSTANDARDJIS
  2
AcmFCFStdJIS
  3
"AcmSymBB|Product Description: AutoCAD Mechanical 2000|Company: Autodesk"
 90
        0
280
     0
281
     0
  0
CLASS
  1
ACMWELDSTANDARDJIS
  2
AcmWeldingStdJIS
  3
"AcmSymBB|Product Description: AutoCAD Mechanical 2000|Company: Autodesk"
 90
        0
280
     0
281
     0
  0
CLASS
  1
ACMIDSTANDARDJIS
  2
AcmIdStdJIS
  3
"AcmSymBB|Product Description: AutoCAD Mechanical 2000|Company: Autodesk"
 90
        0
280
     0
281
     0
  0
CLASS
  1
ACMDATUMSTANDARDJIS
  2
AcmDatumStdJIS
  3
"AcmSymBB|Product Description: AutoCAD Mechanical 2000|Company: Autodesk"
 90
        0
280
     0
281
     0
  0
CLASS
  1
ACMBOMSTANDARDJIS
  2
AcmBOMStdJIS
  3
"AcmSymBB|Product Description: AutoCAD Mechanical 2000|Company: Autodesk"
 90
        0
280
     0
281
     0
  0
CLASS
  1
ACMSTANDARDANSI
  2
AcmStandardANSI
  3
"AcmSymBB|Product Description: AutoCAD Mechanical 2000|Company: Autodesk"
 90
        0
280
     0
281
     0
  0
CLASS
  1
ACMSURFSTANDARDANSI
  2
AcmSurfTextStdANSI
  3
"AcmSymBB|Product Description: AutoCAD Mechanical 2000|Company: Autodesk"
 90
        0
280
     0
281
     0
  0
CLASS
  1
ACMFCFSTANDARDANSI
  2
AcmFCFStdANSI
  3
"AcmSymBB|Product Description: AutoCAD Mechanical 2000|Company: Autodesk"
 90
        0
280
     0
281
     0
  0
CLASS
  1
ACMWELDSTANDARDANSI
  2
AcmWeldingStdANSI
  3
"AcmSymBB|Product Description: AutoCAD Mechanical 2000|Company: Autodesk"
 90
        0
280
     0
281
     0
  0
CLASS
  1
ACMIDSTANDARDANSI
  2
AcmIdStdANSI
  3
"AcmSymBB|Product Description: AutoCAD Mechanical 2000|Company: Autodesk"
 90
        0
280
     0
281
     0
  0
CLASS
  1
ACMDATUMSTANDARDANSI
  2
AcmDatumStdANSI
  3
"AcmSymBB|Product Description: AutoCAD Mechanical 2000|Company: Autodesk"
 90
        0
280
     0
281
     0
  0
CLASS
  1
ACMBOMSTANDARDANSI
  2
AcmBOMStdANSI
  3
"AcmSymBB|Product Description: AutoCAD Mechanical 2000|Company: Autodesk"
 90
        0
280
     0
281
     0
  0
CLASS
  1
ACMSTANDARDBSI
  2
AcmStandardBSI
  3
"AcmSymBB|Product Description: AutoCAD Mechanical 2000|Company: Autodesk"
 90
        0
280
     0
281
     0
  0
CLASS
  1
ACMSURFSTANDARDBSI
  2
AcmSurfTextStdBSI
  3
"AcmSymBB|Product Description: AutoCAD Mechanical 2000|Company: Autodesk"
 90
        0
280
     0
281
     0
  0
CLASS
  1
ACMFCFSTANDARDBSI
  2
AcmFCFStdBSI
  3
"AcmSymBB|Product Description: AutoCAD Mechanical 2000|Company: Autodesk"
 90
        0
280
     0
281
     0
  0
CLASS
  1
ACMWELDSTANDARDBSI
  2
AcmWeldingStdBSI
  3
"AcmSymBB|Product Description: AutoCAD Mechanical 2000|Company: Autodesk"
 90
        0
280
     0
281
     0
  0
CLASS
  1
ACMIDSTANDARDBSI
  2
AcmIdStdBSI
  3
"AcmSymBB|Product Description: AutoCAD Mechanical 2000|Company: Autodesk"
 90
        0
280
     0
281
     0
  0
CLASS
  1
ACMDATUMSTANDARDBSI
  2
AcmDatumStdBSI
  3
"AcmSymBB|Product Description: AutoCAD Mechanical 2000|Company: Autodesk"
 90
        0
280
     0
281
     0
  0
CLASS
  1
ACMBOMSTANDARDBSI
  2
AcmBOMStdBSI
  3
"AcmSymBB|Product Description: AutoCAD Mechanical 2000|Company: Autodesk"
 90
        0
280
     0
281
     0
  0
CLASS
  1
LONG_TRANSACTION
  2
AcDbLongTransaction
  3
AutoCAD 2000
 90
        0
280
     0
281
     0
  0
CLASS
  1
LWPOLYLINE
  2
AcDbPolyline
  3
AutoCAD 2000
 90
        0
280
     0
281
     1
  0
CLASS
  1
HATCH
  2
AcDbHatch
  3
AutoCAD 2000
 90
        0
280
     0
281
     1
  0
CLASS
  1
XRECORD
  2
AcDbXrecord
  3
AutoCAD 2000
 90
        0
280
     0
281
     0
  0
ENDSEC
  0
SECTION
  2
TABLES
  0
TABLE
  2
VPORT
  5
8
330
0
100
AcDbSymbolTable
 70
     3
  0
VPORT
  5
2BE9
330
8
100
AcDbSymbolTableRecord
100
AcDbViewportTableRecord
  2
*ACTIVE
 70
     0
 10
0.0
 20
0.0
 11
1.0
 21
1.0
 12
-30.58318390251034
 22
-9.672342520918444
 13
0.0
 23
0.0
 14
2.5
 24
2.5
 15
10.0
 25
10.0
 16
0.0
 26
0.0
 36
1.0
 17
0.0
 27
0.0
 37
0.0
 40
47.70426050322203
 41
1.56570841889117
 42
50.0
 43
0.0
 44
0.0
 50
0.0
 51
0.0
 71
     0
 72
   100
 73
     1
 74
     3
 75
     0
 76
     0
 77
     0
 78
     0
  0
ENDTAB
  0
TABLE
  2
LTYPE
  5
5
330
0
100
AcDbSymbolTable
 70
    10
  0
LTYPE
  5
14
330
5
100
AcDbSymbolTableRecord
100
AcDbLinetypeTableRecord
  2
BYBLOCK
 70
     0
  3

 72
    65
 73
     0
 40
0.0
  0
LTYPE
  5
15
330
5
100
AcDbSymbolTableRecord
100
AcDbLinetypeTableRecord
  2
BYLAYER
 70
     0
  3

 72
    65
 73
     0
 40
0.0
  0
LTYPE
  5
16
330
5
100
AcDbSymbolTableRecord
100
AcDbLinetypeTableRecord
  2
CONTINUOUS
 70
     0
  3
Solid line
 72
    65
 73
     0
 40
0.0
  0
LTYPE
  5
4B
330
5
100
AcDbSymbolTableRecord
100
AcDbLinetypeTableRecord
  2
AM_ISO02W050
 70
     0
  3
__ __ __ __ __ __ __ __ __ __ __ __ __ __ __
 72
    65
 73
     2
 40
7.5
 49
6.0
 74
     0
 49
-1.5
 74
     0
  0
LTYPE
  5
4C
330
5
100
AcDbSymbolTableRecord
100
AcDbLinetypeTableRecord
  2
AM_ISO08W050
 70
     0
  3
____ . ____ . ____ . ____ . ____ . ____ . ____
 72
    65
 73
     4
 40
18.0
 49
12.0
 74
     0
 49
-1.5
 74
     0
 49
3.0
 74
     0
 49
-1.5
 74
     0
  0
LTYPE
  5
4D
330
5
100
AcDbSymbolTableRecord
100
AcDbLinetypeTableRecord
  2
AM_ISO09W050
 70
     0
  3
_____ . . _____ . . _____ . . ____ .. ____
 72
    65
 73
     6
 40
22.5
 49
12.0
 74
     0
 49
-1.5
 74
     0
 49
3.0
 74
     0
 49
-1.5
 74
     0
 49
3.0
 74
     0
 49
-1.5
 74
     0
  0
LTYPE
  5
4E
330
5
100
AcDbSymbolTableRecord
100
AcDbLinetypeTableRecord
  2
AMCONSTR
 70
     0
  3
_______________________
 72
    65
 73
     2
 40
9999.0
 49
9999.0
 74
     0
 49
0.0
 74
     0
  0
LTYPE
  5
4F
330
5
100
AcDbSymbolTableRecord
100
AcDbLinetypeTableRecord
  2
AM_ISO02W050X2
 70
     0
  3
 _ _ _ _ _ _ _ _ _ _ _ _
 72
    65
 73
     2
 40
3.75
 49
3.0
 74
     0
 49
-0.75
 74
     0
  0
LTYPE
  5
50
330
5
100
AcDbSymbolTableRecord
100
AcDbLinetypeTableRecord
  2
AM_ISO08W050X2
 70
     0
  3
__ . __ . __ . __ . __ . __
 72
    65
 73
     4
 40
9.0
 49
6.0
 74
     0
 49
-0.75
 74
     0
 49
1.5
 74
     0
 49
-0.75
 74
     0
  0
LTYPE
  5
53
330
5
100
AcDbSymbolTableRecord
100
AcDbLinetypeTableRecord
  2
AMZIGZAG
 70
     0
  3
/\/-/\/-/\/-/\/-/\/-/\/
 72
    65
 73
     2
 40
11.00009999999999
 49
0.0001
 74
     4
 75
   135
340
52
 46
0.04
 50
0.0
 44
0.0
 45
0.0
 49
-11.0
 74
     0
  0
LTYPE
  5
166
330
5
100
AcDbSymbolTableRecord
100
AcDbLinetypeTableRecord
  2
ACJISTGL
 70
     0
  3
_ _ _ _ _
 72
    65
 73
     2
 40
3.0
 49
2.0
 74
     0
 49
-1.0
 74
     0
  0
LTYPE
  5
26A
330
5
100
AcDbSymbolTableRecord
100
AcDbLinetypeTableRecord
  2
ACJISTGB
 70
     0
  3
__ . . __ . .
 72
    65
 73
     6
 40
9.0
 49
4.0
 74
     0
 49
-1.0
 74
     0
 49
1.0
 74
     0
 49
-1.0
 74
     0
 49
1.0
 74
     0
 49
-1.0
 74
     0
  0
ENDTAB
  0
TABLE
  2
LAYER
  5
2
330
0
100
AcDbSymbolTable
 70
     8
  0
LAYER
  5
10
330
2
100
AcDbSymbolTableRecord
100
AcDbLayerTableRecord
  2
0
 70
     0
 62
     7
  6
CONTINUOUS
  0
LAYER
  5
3F9
330
2
100
AcDbSymbolTableRecord
100
AcDbLayerTableRecord
  2
AM_0
 70
     0
 62
     7
  6
CONTINUOUS
  0
LAYER
  5
BD6
330
2
100
AcDbSymbolTableRecord
100
AcDbLayerTableRecord
  2
AM_11
 70
     0
 62
     3
  6
AM_ISO09W050
  0
LAYER
  5
BD7
330
2
100
AcDbSymbolTableRecord
100
AcDbLayerTableRecord
  2
AM_7
 70
     0
 62
     4
  6
AM_ISO08W050
  0
LAYER
  5
BD8
330
2
100
AcDbSymbolTableRecord
100
AcDbLayerTableRecord
  2
AM_5
 70
     0
 62
     3
  6
CONTINUOUS
  0
LAYER
  5
BD9
330
2
100
AcDbSymbolTableRecord
100
AcDbLayerTableRecord
  2
DEFPOINTS
 70
     0
 62
     7
  6
CONTINUOUS
  0
LAYER
  5
BDA
330
2
100
AcDbSymbolTableRecord
100
AcDbLayerTableRecord
  2
AM_6
 70
     0
 62
     2
  6
CONTINUOUS
  0
LAYER
  5
1F9B
330
2
100
AcDbSymbolTableRecord
100
AcDbLayerTableRecord
  2
AM_CL
 70
     0
 62
     1
  6
AMCONSTR
  0
ENDTAB
  0
TABLE
  2
STYLE
  5
3
330
0
100
AcDbSymbolTable
 70
     5
  0
STYLE
  5
11
330
3
100
AcDbSymbolTableRecord
100
AcDbTextStyleTableRecord
  2
STANDARD
 70
     0
 40
0.0
 41
1.0
 50
0.0
 71
     0
 42
2.5
  3
simplex.shx
  4
EXTFONT.SHX
  0
STYLE
  5
52
330
3
100
AcDbSymbolTableRecord
100
AcDbTextStyleTableRecord
  2

 70
     1
 40
0.0
 41
1.0
 50
0.0
 71
     0
 42
2.5
  3
ltypeshp.shx
  4

  0
STYLE
  5
6B
330
3
100
AcDbSymbolTableRecord
100
AcDbTextStyleTableRecord
  2
ASAMI
 70
     0
 40
0.0
 41
1.0
 50
0.0
 71
     0
 42
2.5
  3
simplex.shx
  4
EXTFONT.SHX
  0
STYLE
  5
262
330
3
100
AcDbSymbolTableRecord
100
AcDbTextStyleTableRecord
  2
ACJISTS
 70
     0
 40
1.0
 41
1.0
 50
0.0
 71
     0
 42
2.5
  3
simplex.shx
  4
bigfont.shx
  0
STYLE
  5
269
330
3
100
AcDbSymbolTableRecord
100
AcDbTextStyleTableRecord
  2
ACJISGDT
 70
     0
 40
0.0
 41
1.0
 50
0.0
 71
     0
 42
2.5
  3
amgdtans.shx
  4

  0
ENDTAB
  0
TABLE
  2
VIEW
  5
6
330
0
100
AcDbSymbolTable
 70
     0
  0
ENDTAB
  0
TABLE
  2
UCS
  5
7
330
0
100
AcDbSymbolTable
 70
     0
  0
ENDTAB
  0
TABLE
  2
APPID
  5
9
330
0
100
AcDbSymbolTable
 70
    14
  0
APPID
  5
12
330
9
100
AcDbSymbolTableRecord
100
AcDbRegAppTableRecord
  2
ACAD
 70
     0
  0
APPID
  5
30
330
9
100
AcDbSymbolTableRecord
100
AcDbRegAppTableRecord
  2
MCAD_NO_VIS
 70
     0
  0
APPID
  5
31
330
9
100
AcDbSymbolTableRecord
100
AcDbRegAppTableRecord
  2
ACAD_TEMP_GRAPHIC
 70
     0
  0
APPID
  5
2C2
330
9
100
AcDbSymbolTableRecord
100
AcDbRegAppTableRecord
  2
GENIUS_GENDTOL_13
 70
     0
  0
APPID
  5
339
330
9
100
AcDbSymbolTableRecord
100
AcDbRegAppTableRecord
  2
GENIUS_GENODEF_13
 70
     0
  0
APPID
  5
33A
330
9
100
AcDbSymbolTableRecord
100
AcDbRegAppTableRecord
  2
GENIUS_GENOBJ-N-RSBK_13
 70
     0
  0
APPID
  5
33B
330
9
100
AcDbSymbolTableRecord
100
AcDbRegAppTableRecord
  2
GENIUS_GENOBJ-N-LIB_13
 70
     0
  0
APPID
  5
33C
330
9
100
AcDbSymbolTableRecord
100
AcDbRegAppTableRecord
  2
GENIUS_GENSCALE_13
 70
     0
  0
APPID
  5
378
330
9
100
AcDbSymbolTableRecord
100
AcDbRegAppTableRecord
  2
GENIUS_GENDIMSH_14
 70
     0
  0
APPID
  5
BDB
330
9
100
AcDbSymbolTableRecord
100
AcDbRegAppTableRecord
  2
GENIUS_GENOBJ-N-CEN_13
 70
     0
  0
APPID
  5
BDC
330
9
100
AcDbSymbolTableRecord
100
AcDbRegAppTableRecord
  2
GENIUS_GENFIL_13
 70
     0
  0
APPID
  5
BDD
330
9
100
AcDbSymbolTableRecord
100
AcDbRegAppTableRecord
  2
GENIUS_GENOBJ-N-FIL_13
 70
     0
  0
APPID
  5
12AD
330
9
100
AcDbSymbolTableRecord
100
AcDbRegAppTableRecord
  2
GENIUS_GENOREF_13
 70
     0
  0
APPID
  5
2464
330
9
100
AcDbSymbolTableRecord
100
AcDbRegAppTableRecord
  2
GENIUS_GENOBJ-N-CHA_13
 70
     0
  0
ENDTAB
  0
TABLE
  2
DIMSTYLE
  5
A
330
0
100
AcDbSymbolTable
 70
     8
  0
DIMSTYLE
105
58
102
{ACAD_REACTORS
330
C4F
330
18C3
330
195B
330
21D2
102
}
330
A
100
AcDbSymbolTableRecord
100
AcDbDimStyleTableRecord
  2
AM_JIS
 70
     0
  3

  4
"
  5
OPEN30
  6

  7

 40
0.3333333333333333
 41
2.5
 42
1.0
 43
12.0
 44
1.0
 45
0.0
 46
0.0
 47
0.1
 48
0.1
140
3.2
141
0.0
142
0.0
143
0.0393701
144
1.0
145
0.0
146
0.71
147
1.5
 71
     0
 72
     0
 73
     0
 74
     0
 75
     0
 76
     0
 77
     3
 78
     8
170
     0
171
     2
172
     1
173
     0
174
     0
175
     0
176
   256
177
   256
178
     2
270
     2
271
     3
272
     3
273
     2
274
     2
340
6B
275
     0
280
     0
281
     0
282
     0
283
     0
284
     0
285
     0
286
     0
287
     3
288
     0
  0
DIMSTYLE
105
5F
330
A
100
AcDbSymbolTableRecord
100
AcDbDimStyleTableRecord
  2
AM_JIS$3
 70
     0
  3

  4
"
  5
OPEN30
  6

  7

 40
0.3333333333333333
 41
2.5
 42
1.0
 43
10.0
 44
1.0
 45
0.0
 46
0.0
 47
0.1
 48
0.1
140
3.2
141
0.0
142
0.0
143
0.0393701
144
1.0
145
0.0
146
0.71
147
1.5
 71
     0
 72
     0
 73
     0
 74
     1
 75
     0
 76
     0
 77
     3
 78
     8
170
     0
171
     2
172
     0
173
     0
174
     0
175
     0
176
   256
177
   256
178
     2
270
     2
271
     2
272
     3
273
     2
274
     2
340
6B
275
     0
280
     0
281
     0
282
     0
283
     0
284
     0
285
     0
286
     0
287
     0
288
     1
  0
DIMSTYLE
105
60
102
{ACAD_REACTORS
330
2347
102
}
330
A
100
AcDbSymbolTableRecord
100
AcDbDimStyleTableRecord
  2
AM_JIS$4
 70
     0
  3

  4
"
  5
OPEN30
  6

  7

 40
0.3333333333333333
 41
2.5
 42
1.0
 43
10.0
 44
1.0
 45
0.0
 46
0.0
 47
0.1
 48
0.1
140
3.2
141
0.0
142
0.0
143
0.0393701
144
1.0
145
0.0
146
0.71
147
1.5
 71
     0
 72
     0
 73
     0
 74
     1
 75
     0
 76
     0
 77
     3
 78
     8
170
     0
171
     2
172
     0
173
     0
174
     0
175
     0
176
   256
177
   256
178
     2
270
     2
271
     2
272
     3
273
     2
274
     2
340
6B
275
     0
280
     0
281
     0
282
     0
283
     0
284
     0
285
     0
286
     0
287
     0
288
     1
  0
DIMSTYLE
105
61
330
A
100
AcDbSymbolTableRecord
100
AcDbDimStyleTableRecord
  2
AM_JIS$6
 70
     0
  3

  4
"
  5
OPEN30
  6

  7

 40
0.3333333333333333
 41
2.5
 42
1.0
 43
10.0
 44
1.0
 45
0.0
 46
0.0
 47
0.1
 48
0.1
140
3.2
141
0.0
142
0.0
143
0.0393701
144
1.0
145
0.0
146
0.71
147
1.5
 71
     0
 72
     0
 73
     0
 74
     0
 75
     0
 76
     0
 77
     0
 78
     8
170
     0
171
     2
172
     1
173
     0
174
     0
175
     0
176
   256
177
   256
178
     2
270
     2
271
     2
272
     2
273
     2
274
     2
340
6B
275
     0
280
     0
281
     0
282
     0
283
     0
284
     0
285
     0
286
     0
287
     3
288
     0
  0
DIMSTYLE
105
62
330
A
100
AcDbSymbolTableRecord
100
AcDbDimStyleTableRecord
  2
AM_JIS$7
 70
     0
  3

  4
"
  5
OPEN30
  6

  7

 40
0.3333333333333333
 41
2.5
 42
1.0
 43
10.0
 44
1.0
 45
0.0
 46
0.0
 47
0.1
 48
0.1
140
3.2
141
0.0
142
0.0
143
0.0393701
144
1.0
145
0.0
146
0.71
147
1.5
 71
     0
 72
     0
 73
     0
 74
     0
 75
     0
 76
     0
 77
     3
 78
     8
170
     0
171
     2
172
     1
173
     0
174
     0
175
     0
176
   256
177
   256
178
     2
270
     2
271
     2
272
     3
273
     2
274
     2
340
6B
275
     0
280
     0
281
     0
282
     0
283
     0
284
     0
285
     0
286
     0
287
     3
288
     0
  0
DIMSTYLE
105
63
330
A
100
AcDbSymbolTableRecord
100
AcDbDimStyleTableRecord
  2
AM_JIS$SF
 70
     0
  3

  4
"
  5
OPEN30
  6

  7

 40
0.3333333333333333
 41
2.5
 42
1.0
 43
10.0
 44
1.0
 45
0.0
 46
0.0
 47
0.1
 48
0.1
140
3.2
141
0.0
142
0.0
143
0.0393701
144
1.0
145
0.0
146
0.71
147
1.5
 71
     0
 72
     0
 73
     0
 74
     0
 75
     1
 76
     1
 77
     3
 78
     8
170
     0
171
     2
172
     1
173
     0
174
     0
175
     0
176
   256
177
   256
178
     2
270
     2
271
     2
272
     2
273
     2
274
     2
340
6B
275
     0
280
     0
281
     0
282
     0
283
     0
284
     0
285
     0
286
     0
287
     3
288
     0
  0
DIMSTYLE
105
68
330
A
100
AcDbSymbolTableRecord
100
AcDbDimStyleTableRecord
  2
AM_JIS$SH
 70
     0
  3

  4
"
  5

  6
GENAXEH
  7
OPEN30
 40
0.3333333333333333
 41
2.5
 42
1.0
 43
10.0
 44
1.0
 45
0.0
 46
0.0
 47
0.1
 48
0.1
140
3.2
141
0.0
142
0.0
143
0.0393701
144
2.0
145
0.0
146
0.71
147
1.5
 71
     0
 72
     0
 73
     0
 74
     0
 75
     1
 76
     1
 77
     3
 78
     8
170
     0
171
     2
172
     1
173
     1
174
     0
175
     0
176
   256
177
   256
178
     2
270
     2
271
     2
272
     2
273
     2
274
     2
340
6B
275
     0
280
     0
281
     0
282
     0
283
     0
284
     0
285
     0
286
     0
287
     3
288
     0
  0
DIMSTYLE
105
B34
330
A
100
AcDbSymbolTableRecord
100
AcDbDimStyleTableRecord
  2
AM_JIS$2
 70
     0
  3

  4
"
  5
OPEN30
  6

  7

 40
0.3333333333333333
 41
2.5
 42
1.0
 43
12.0
 44
1.0
 45
0.0
 46
0.0
 47
0.1
 48
0.1
140
3.2
141
0.0
142
0.0
143
0.0393701
144
1.0
145
0.0
146
0.71
147
1.5
 71
     0
 72
     0
 73
     0
 74
     0
 75
     0
 76
     0
 77
     3
 78
     8
170
     0
171
     2
172
     1
173
     0
174
     0
175
     0
176
   256
177
   256
178
     2
270
     2
271
     3
272
     3
273
     2
274
     2
340
6B
275
     0
280
     0
281
     0
282
     0
283
     0
284
     0
285
     0
286
     0
287
     3
288
     0
  0
ENDTAB
  0
TABLE
  2
BLOCK_RECORD
  5
1
330
0
100
AcDbSymbolTable
 70
    11
  0
BLOCK_RECORD
  5
1F
102
{ACAD_XDICTIONARY
360
74
102
}
330
1
100
AcDbSymbolTableRecord
100
AcDbBlockTableRecord
  2
*MODEL_SPACE
  0
BLOCK_RECORD
  5
101
102
{ACAD_XDICTIONARY
360
2C12
102
}
330
1
100
AcDbSymbolTableRecord
100
AcDbBlockTableRecord
  2
*PAPER_SPACE
  0
BLOCK_RECORD
  5
59
330
1
100
AcDbSymbolTableRecord
100
AcDbBlockTableRecord
  2
_OPEN30
  0
BLOCK_RECORD
  5
64
330
1
100
AcDbSymbolTableRecord
100
AcDbBlockTableRecord
  2
GENAXEH
  0
BLOCK_RECORD
  5
C75
330
1
100
AcDbSymbolTableRecord
100
AcDbBlockTableRecord
  2
*D5
  0
BLOCK_RECORD
  5
18C4
330
1
100
AcDbSymbolTableRecord
100
AcDbBlockTableRecord
  2
*D6
  0
BLOCK_RECORD
  5
195C
330
1
100
AcDbSymbolTableRecord
100
AcDbBlockTableRecord
  2
*D7
  0
BLOCK_RECORD
  5
21D3
330
1
100
AcDbSymbolTableRecord
100
AcDbBlockTableRecord
  2
*D8
  0
BLOCK_RECORD
  5
2348
330
1
100
AcDbSymbolTableRecord
100
AcDbBlockTableRecord
  2
*D9
  0
BLOCK_RECORD
  5
2B22
330
1
100
AcDbSymbolTableRecord
100
AcDbBlockTableRecord
  2
A$C586537D0
  0
ENDTAB
  0
ENDSEC
  0
SECTION
  2
BLOCKS
  0
BLOCK
  5
20
330
1F
100
AcDbEntity
  8
0
100
AcDbBlockBegin
  2
*MODEL_SPACE
 70
     0
 10
0.0
 20
0.0
 30
0.0
  3
*MODEL_SPACE
  1

  0
ENDBLK
  5
21
330
1F
100
AcDbEntity
  8
0
100
AcDbBlockEnd
  0
BLOCK
  5
103
330
101
100
AcDbEntity
 67
     1
  8
0
100
AcDbBlockBegin
  2
*PAPER_SPACE
 70
     0
 10
0.0
 20
0.0
 30
0.0
  3
*PAPER_SPACE
  1

  0
ENDBLK
  5
104
330
101
100
AcDbEntity
 67
     1
  8
0
100
AcDbBlockEnd
  0
BLOCK
  5
5D
330
59
100
AcDbEntity
  8
0
100
AcDbBlockBegin
  2
_OPEN30
 70
     0
 10
0.0
 20
0.0
 30
0.0
  3
_OPEN30
  1

  0
LINE
  5
5A
330
59
100
AcDbEntity
  8
0
 62
     0
100
AcDbLine
 10
-1.0
 20
0.26794919
 30
0.0
 11
0.0
 21
0.0
 31
0.0
  0
LINE
  5
5B
330
59
100
AcDbEntity
  8
0
 62
     0
100
AcDbLine
 10
0.0
 20
0.0
 30
0.0
 11
-1.0
 21
-0.26794919
 31
0.0
  0
LINE
  5
5C
330
59
100
AcDbEntity
  8
0
 62
     0
100
AcDbLine
 10
0.0
 20
0.0
 30
0.0
 11
-1.0
 21
0.0
 31
0.0
  0
ENDBLK
  5
5E
330
59
100
AcDbEntity
  8
0
100
AcDbBlockEnd
  0
BLOCK
  5
66
330
64
100
AcDbEntity
  8
0
100
AcDbBlockBegin
  2
GENAXEH
 70
     0
 10
0.0
 20
0.0
 30
0.0
  3
GENAXEH
  1

  0
LINE
  5
65
330
64
100
AcDbEntity
  8
0
100
AcDbLine
 10
-1.0
 20
0.0
 30
0.0
 11
1.0
 21
0.0
 31
0.0
  0
ENDBLK
  5
67
330
64
100
AcDbEntity
  8
0
100
AcDbBlockEnd
  0
BLOCK
  5
C7F
330
C75
100
AcDbEntity
  8
0
100
AcDbBlockBegin
  2
*D5
 70
     1
 10
0.0
 20
0.0
 30
0.0
  3
*D5
  1

  0
LINE
  5
2BBC
330
C75
100
AcDbEntity
  8
AM_5
100
AcDbLine
 10
-60.00000000000007
 20
-3.333333333333336
 30
0.0
 11
-60.00000000000007
 21
-11.99999999999994
 31
0.0
  0
LINE
  5
2BBD
330
C75
100
AcDbEntity
  8
AM_5
100
AcDbLine
 10
-0.00000000000006
 20
-0.3333333333333369
 30
0.0
 11
-0.0000000000000607
 21
-11.99999999999994
 31
0.0
  0
LINE
  5
2BBE
330
C75
100
AcDbEntity
  8
AM_5
100
AcDbLine
 10
-59.16666666666674
 20
-11.66666666666661
 30
0.0
 11
-0.8333333333333939
 21
-11.66666666666661
 31
0.0
  0
INSERT
  5
2BBF
330
C75
100
AcDbEntity
  8
AM_5
100
AcDbBlockReference
  2
_OPEN30
 10
-60.00000000000007
 20
-11.66666666666661
 30
0.0
 41
0.8333333333333332
 42
0.8333333333333332
 43
0.8333333333333332
 50
180.0
  0
INSERT
  5
2BC0
330
C75
100
AcDbEntity
  8
AM_5
100
AcDbBlockReference
  2
_OPEN30
 10
-0.0000000000000607
 20
-11.66666666666661
 30
0.0
 41
0.8333333333333332
 42
0.8333333333333332
 43
0.8333333333333332
  0
MTEXT
  5
2BC1
330
C75
100
AcDbEntity
  8
AM_5
 62
     2
100
AcDbMText
 10
-30.00000000000006
 20
-10.63333333333327
 30
0.0
 40
1.066666666666666
 41
0.0
 71
     5
 72
     1
  1
60
  7
ASAMI
1001
ACAD
1000
MTEXTBEGIN
1070
    73
1070
     1
1070
    44
1040
1.0
1070
    74
1070
     0
1000
MTEXTEND
  0
POINT
  5
2BC2
330
C75
100
AcDbEntity
  8
DEFPOINTS
 62
     0
100
AcDbPoint
 10
-60.00000000000007
 20
-3.000000000000003
 30
0.0
  0
POINT
  5
2BC3
330
C75
100
AcDbEntity
  8
DEFPOINTS
 62
     0
100
AcDbPoint
 10
-0.00000000000006
 20
-0.0000000000000036
 30
0.0
  0
POINT
  5
2BC4
330
C75
100
AcDbEntity
  8
DEFPOINTS
 62
     0
100
AcDbPoint
 10
-0.0000000000000607
 20
-11.66666666666661
 30
0.0
  0
ENDBLK
  5
C80
330
C75
100
AcDbEntity
  8
0
100
AcDbBlockEnd
  0
BLOCK
  5
18CE
330
18C4
100
AcDbEntity
  8
0
100
AcDbBlockBegin
  2
*D6
 70
     1
 10
0.0
 20
0.0
 30
0.0
  3
*D6
  1

  0
LINE
  5
2B90
330
18C4
100
AcDbEntity
  8
AM_5
100
AcDbLine
 10
-59.83333333333341
 20
-3.000000000000003
 30
0.0
 11
-66.54815150525219
 21
-3.000000000000001
 31
0.0
  0
LINE
  5
2B91
330
18C4
100
AcDbEntity
  8
AM_5
100
AcDbLine
 10
-59.83333333333341
 20
2.999999999999996
 30
0.0
 11
-66.54815150525219
 21
2.999999999999998
 31
0.0
  0
LINE
  5
2B92
330
18C4
100
AcDbEntity
  8
AM_5
100
AcDbLine
 10
-66.21481817191886
 20
-2.166666666666668
 30
0.0
 11
-66.21481817191886
 21
2.166666666666664
 31
0.0
  0
INSERT
  5
2B93
330
18C4
100
AcDbEntity
  8
AM_5
100
AcDbBlockReference
  2
_OPEN30
 10
-66.21481817191886
 20
-3.000000000000001
 30
0.0
 41
0.8333333333333332
 42
0.8333333333333332
 43
0.8333333333333332
 50
270.0
  0
INSERT
  5
2B94
330
18C4
100
AcDbEntity
  8
AM_5
100
AcDbBlockReference
  2
_OPEN30
 10
-66.21481817191886
 20
2.999999999999998
 30
0.0
 41
0.8333333333333332
 42
0.8333333333333332
 43
0.8333333333333332
 50
90.0
  0
MTEXT
  5
2B95
330
18C4
100
AcDbEntity
  8
AM_5
 62
     2
100
AcDbMText
 10
-67.2481515052522
 20
-0.0000000000000123
 30
0.0
 40
1.066666666666666
 41
0.0
 71
     5
 72
     1
  1
%%c6
  7
ASAMI
 11
0.0000000000000001
 21
1.0
 31
0.0
1001
ACAD
1000
MTEXTBEGIN
1070
    73
1070
     1
1070
    44
1040
1.0
1070
    74
1070
     0
1000
MTEXTEND
  0
POINT
  5
2B96
330
18C4
100
AcDbEntity
  8
DEFPOINTS
 62
     0
100
AcDbPoint
 10
-59.50000000000007
 20
-3.000000000000003
 30
0.0
  0
POINT
  5
2B97
330
18C4
100
AcDbEntity
  8
DEFPOINTS
 62
     0
100
AcDbPoint
 10
-59.50000000000007
 20
2.999999999999996
 30
0.0
  0
POINT
  5
2B98
330
18C4
100
AcDbEntity
  8
DEFPOINTS
 62
     0
100
AcDbPoint
 10
-66.21481817191886
 20
2.999999999999998
 30
0.0
  0
ENDBLK
  5
18CF
330
18C4
100
AcDbEntity
  8
0
100
AcDbBlockEnd
  0
BLOCK
  5
1968
330
195C
100
AcDbEntity
  8
0
100
AcDbBlockBegin
  2
*D7
 70
     1
 10
0.0
 20
0.0
 30
0.0
  3
*D7
  1

  0
LINE
  5
2BC5
330
195C
100
AcDbEntity
  8
AM_5
100
AcDbLine
 10
-6.000000000000056
 20
-1.833333333333331
 30
0.0
 11
-6.000000000000056
 21
-8.000000000000083
 31
0.0
  0
LINE
  5
2BC6
330
195C
100
AcDbEntity
  8
AM_5
100
AcDbLine
 10
-0.0000000000000569
 20
-4.083333333333335
 30
0.0
 11
-0.0000000000000571
 21
-8.000000000000083
 31
0.0
  0
LINE
  5
2BC7
330
195C
100
AcDbEntity
  8
AM_5
100
AcDbLine
 10
-5.166666666666723
 20
-7.66666666666675
 30
0.0
 11
-0.8333333333333904
 21
-7.66666666666675
 31
0.0
  0
INSERT
  5
2BC8
330
195C
100
AcDbEntity
  8
AM_5
100
AcDbBlockReference
  2
_OPEN30
 10
-6.000000000000056
 20
-7.66666666666675
 30
0.0
 41
0.8333333333333332
 42
0.8333333333333332
 43
0.8333333333333332
 50
180.0
  0
INSERT
  5
2BC9
330
195C
100
AcDbEntity
  8
AM_5
100
AcDbBlockReference
  2
_OPEN30
 10
-0.0000000000000571
 20
-7.66666666666675
 30
0.0
 41
0.8333333333333332
 42
0.8333333333333332
 43
0.8333333333333332
  0
MTEXT
  5
2BCA
330
195C
100
AcDbEntity
  8
AM_5
 62
     2
100
AcDbMText
 10
-3.000000000000056
 20
-6.633333333333417
 30
0.0
 40
1.066666666666666
 41
0.0
 71
     5
 72
     1
  1
6
  7
ASAMI
1001
ACAD
1000
MTEXTBEGIN
1070
    73
1070
     1
1070
    44
1040
1.0
1070
    74
1070
     0
1000
MTEXTEND
  0
POINT
  5
2BCB
330
195C
100
AcDbEntity
  8
DEFPOINTS
 62
     0
100
AcDbPoint
 10
-6.000000000000056
 20
-1.499999999999998
 30
0.0
  0
POINT
  5
2BCC
330
195C
100
AcDbEntity
  8
DEFPOINTS
 62
     0
100
AcDbPoint
 10
-0.0000000000000568
 20
-3.750000000000002
 30
0.0
  0
POINT
  5
2BCD
330
195C
100
AcDbEntity
  8
DEFPOINTS
 62
     0
100
AcDbPoint
 10
-0.0000000000000571
 20
-7.66666666666675
 30
0.0
  0
ENDBLK
  5
1969
330
195C
100
AcDbEntity
  8
0
100
AcDbBlockEnd
  0
BLOCK
  5
21DF
330
21D3
100
AcDbEntity
  8
0
100
AcDbBlockBegin
  2
*D8
 70
     1
 10
0.0
 20
0.0
 30
0.0
  3
*D8
  1

  0
LINE
  5
2912
330
21D3
100
AcDbEntity
  8
AM_5
100
AcDbLine
 10
-1.870225031633376
 20
1.49999999999999
 30
0.0
 11
6.61449305085366
 21
1.499999999999988
 31
0.0
  0
LINE
  5
2913
330
21D3
100
AcDbEntity
  8
AM_5
100
AcDbLine
 10
-1.490716231261084
 20
-1.499999999999998
 30
0.0
 11
6.61449305085366
 21
-1.5
 31
0.0
  0
LINE
  5
2914
330
21D3
100
AcDbEntity
  8
AM_5
100
AcDbLine
 10
6.281159717520327
 20
2.333333333333321
 30
0.0
 11
6.281159717520327
 21
3.166666666666654
 31
0.0
  0
LINE
  5
2915
330
21D3
100
AcDbEntity
  8
AM_5
100
AcDbLine
 10
6.281159717520325
 20
-2.333333333333333
 30
0.0
 11
6.281159717520325
 21
-3.166666666666666
 31
0.0
  0
LINE
  5
2916
330
21D3
100
AcDbEntity
  8
AM_5
100
AcDbLine
 10
6.281159717520326
 20
1.499999999999988
 30
0.0
 11
6.281159717520326
 21
-1.5
 31
0.0
  0
INSERT
  5
2917
330
21D3
100
AcDbEntity
  8
AM_5
100
AcDbBlockReference
  2
_OPEN30
 10
6.281159717520326
 20
1.499999999999988
 30
0.0
 41
0.8333333333333332
 42
0.8333333333333332
 43
0.8333333333333332
 50
270.0
  0
INSERT
  5
2918
330
21D3
100
AcDbEntity
  8
AM_5
100
AcDbBlockReference
  2
_OPEN30
 10
6.281159717520326
 20
-1.5
 30
0.0
 41
0.8333333333333332
 42
0.8333333333333332
 43
0.8333333333333332
 50
90.0
  0
MTEXT
  5
2919
330
21D3
100
AcDbEntity
  8
AM_5
 62
     2
100
AcDbMText
 10
5.247826384186993
 20
-0.000000000000007
 30
0.0
 40
1.066666666666666
 41
0.0
 71
     5
 72
     1
  1
%%c3
  7
ASAMI
 11
0.0000000000000001
 21
1.0
 31
0.0
1001
ACAD
1000
MTEXTBEGIN
1070
    73
1070
     1
1070
    44
1040
1.0
1070
    74
1070
     0
1000
MTEXTEND
  0
POINT
  5
291A
330
21D3
100
AcDbEntity
  8
DEFPOINTS
 62
     0
100
AcDbPoint
 10
-2.203558364966709
 20
1.49999999999999
 30
0.0
  0
POINT
  5
291B
330
21D3
100
AcDbEntity
  8
DEFPOINTS
 62
     0
100
AcDbPoint
 10
-1.824049564594417
 20
-1.499999999999998
 30
0.0
  0
POINT
  5
291C
330
21D3
100
AcDbEntity
  8
DEFPOINTS
 62
     0
100
AcDbPoint
 10
6.281159717520326
 20
-1.5
 30
0.0
  0
ENDBLK
  5
21E0
330
21D3
100
AcDbEntity
  8
0
100
AcDbBlockEnd
  0
BLOCK
  5
234F
330
2348
100
AcDbEntity
  8
0
100
AcDbBlockBegin
  2
*D9
 70
     1
 10
0.0
 20
0.0
 30
0.0
  3
*D9
  1

  0
LINE
  5
2BB6
330
2348
100
AcDbEntity
  8
AM_5
100
AcDbLine
 10
0.1693536213715829
 20
-1.630246279326449
 30
0.0
 11
3.845625151062805
 21
-5.220395128764674
 31
0.0
  0
INSERT
  5
2BB7
330
2348
100
AcDbEntity
  8
AM_5
100
AcDbBlockReference
  2
_OPEN30
 10
-0.426844100546863
 20
-1.04801546528128
 30
0.0
 41
0.8333333333333332
 42
0.8333333333333332
 43
0.8333333333333332
 50
135.6790461887924
  0
MTEXT
  5
2BB8
330
2348
100
AcDbEntity
  8
AM_5
 62
     2
100
AcDbMText
 10
3.101512771913646
 20
-3.049376656571871
 30
0.0
 40
1.066666666666666
 41
0.0
 71
     5
 72
     1
  1
R1.5
  7
ASAMI
 11
0.7154372663021349
 21
-0.6986769768542028
 31
0.0
1001
ACAD
1000
MTEXTBEGIN
1070
    73
1070
     1
1070
    44
1040
1.0
1070
    74
1070
     0
1000
MTEXTEND
  0
POINT
  5
2BB9
330
2348
100
AcDbEntity
  8
DEFPOINTS
 62
     0
100
AcDbPoint
 10
-0.426844100546863
 20
-1.04801546528128
 30
0.0
  0
POINT
  5
2BBA
330
2348
100
AcDbEntity
  8
DEFPOINTS
 62
     0
100
AcDbPoint
 10
-1.500000000000064
 20
0.0000000000000231
 30
0.0
  0
ENDBLK
  5
2350
330
2348
100
AcDbEntity
  8
0
100
AcDbBlockEnd
  0
BLOCK
  5
2B6A
330
2B22
100
AcDbEntity
  8
0
100
AcDbBlockBegin
  2
A$C586537D0
 70
     0
 10
0.0
 20
0.0
 30
0.0
  3
A$C586537D0
  1

  0
POLYLINE
  5
2B23
330
2B22
100
AcDbEntity
  8
AM_0
100
AcDb2dPolyline
 66
     1
 10
0.0
 20
0.0
 30
0.0
  0
VERTEX
  5
2B24
330
2B23
100
AcDbEntity
  8
AM_0
100
AcDbVertex
100
AcDb2dVertex
 10
29.43449156617043
 20
4.051545603702379
 30
0.0
 42
0.0073471029864721
  0
VERTEX
  5
2B25
330
2B23
100
AcDbEntity
  8
AM_0
100
AcDbVertex
100
AcDb2dVertex
 10
30.94378830759433
 20
4.106361103890094
 30
0.0
 42
0.0112666255536717
  0
VERTEX
  5
2B26
330
2B23
100
AcDbEntity
  8
AM_0
100
AcDbVertex
100
AcDb2dVertex
 10
31.58683653429034
 20
4.153620041925933
 30
0.0
 42
0.002415439496957
  0
VERTEX
  5
2B27
330
2B23
100
AcDbEntity
  8
AM_0
100
AcDbVertex
100
AcDb2dVertex
 10
33.75003701518199
 20
4.372244651572827
 30
0.0
 42
0.0154516003810555
  0
VERTEX
  5
2B28
330
2B23
100
AcDbEntity
  8
AM_0
100
AcDbVertex
100
AcDb2dVertex
 10
34.08683653429034
 20
4.41848999956187
 30
0.0
 42
0.0249096705429985
  0
VERTEX
  5
2B29
330
2B23
100
AcDbEntity
  8
AM_0
100
AcDbVertex
100
AcDb2dVertex
 10
34.70542182259305
 20
4.554977289866883
 30
0.0
 42
0.7660160075951127
  0
VERTEX
  5
2B2A
330
2B23
100
AcDbEntity
  8
AM_0
100
AcDbVertex
100
AcDb2dVertex
 10
34.70530673776465
 20
4.587643352959503
 30
0.0
 42
0.0436004866852417
  0
VERTEX
  5
2B2B
330
2B23
100
AcDbEntity
  8
AM_0
100
AcDbVertex
100
AcDb2dVertex
 10
34.57728396444918
 20
4.609986150277791
 30
0.0
 42
0.0113586888872964
  0
VERTEX
  5
2B2C
330
2B23
100
AcDbEntity
  8
AM_0
100
AcDbVertex
100
AcDb2dVertex
 10
34.08030673776465
 20
4.641297140077313
 30
0.0
 42
0.0028121537605697
  0
VERTEX
  5
2B2D
330
2B23
100
AcDbEntity
  8
AM_0
100
AcDbVertex
100
AcDb2dVertex
 10
33.76802153882909
 20
4.652099959238285
 30
0.0
 42
0.0005702900988137
  0
VERTEX
  5
2B2E
330
2B23
100
AcDbEntity
  8
AM_0
100
AcDbVertex
100
AcDb2dVertex
 10
32.22780060050763
 20
4.694950927195122
 30
0.0
 42
0.006668488235414
  0
VERTEX
  5
2B2F
330
2B23
100
AcDbEntity
  8
AM_0
100
AcDbVertex
100
AcDb2dVertex
 10
31.85720084767035
 20
4.699893827183359
 30
0.0
 42
0.0010162367850142
  0
VERTEX
  5
2B30
330
2B23
100
AcDbEntity
  8
AM_0
100
AcDbVertex
100
AcDb2dVertex
 10
31.55525925235815
 20
4.699280138237554
 30
0.0
  0
SEQEND
  5
2B31
330
2B23
100
AcDbEntity
  8
AM_0
  0
ARC
  5
2B32
330
2B22
100
AcDbEntity
  8
AM_0
100
AcDbCircle
 10
34.37774471830653
 20
-8.337609704266071
 30
0.0
 40
13.33892503056602
100
AcDbArc
 50
91.94350279975884
 51
111.751920491689
  0
ARC
  5
2B33
330
2B22
100
AcDbEntity
  8
AM_11
100
AcDbCircle
 10
9.557768030854731
 20
0.0
 30
0.0
 40
5.0
100
AcDbArc
 50
90.0
 51
270.0
  0
ARC
  5
2B34
330
2B22
100
AcDbEntity
  8
AM_0
100
AcDbCircle
 10
9.40196711480803
 20
-0.7901488952316527
 30
0.0
 40
4.798134784693152
100
AcDbArc
 50
91.23704942232077
 51
162.4261541586426
  0
LINE
  5
2B35
330
2B22
100
AcDbEntity
  8
AM_0
100
AcDbLine
 10
9.557768030854731
 20
4.499854759570553
 30
0.0
 11
9.332956739715427
 21
4.007489584262884
 31
0.0
  0
ARC
  5
2B36
330
2B22
100
AcDbEntity
  8
AM_0
100
AcDbCircle
 10
9.557768030854731
 20
-0.5001452404295037
 30
0.0
 40
5.0
100
AcDbArc
 50
90.0
 51
174.4702301341409
  0
LINE
  5
2B37
330
2B22
100
AcDbEntity
  8
AM_0
100
AcDbLine
 10
10.71449156617154
 20
4.051545603702379
 30
0.0
 11
21.30836028156318
 21
4.300254190306532
 31
0.0
  0
SPLINE
  5
2B38
330
2B22
100
AcDbEntity
  8
AM_0
100
AcDbSpline
210
0.0
220
0.0
230
1.0
 70
     8
 71
     3
 72
     8
 73
     4
 74
     0
 42
0.0000000001
 43
0.0000000001
 40
2.760385419276007
 40
2.760385419276007
 40
2.760385419276007
 40
2.760385419276007
 40
10.61176705360609
 40
10.61176705360609
 40
10.61176705360609
 40
10.61176705360609
 10
9.557768030854731
 20
4.536515943596896
 30
0.0
 10
11.96531420908922
 20
3.699375228776034
 30
0.0
 10
14.1193658175016
 20
1.84968761438813
 30
0.0
 10
16.27341742591397
 20
0.0
 30
0.0
  0
SPLINE
  5
2B39
330
2B22
100
AcDbEntity
  8
AM_0
100
AcDbSpline
210
0.0
220
0.0
230
1.0
 70
     8
 71
     3
 72
     8
 73
     4
 74
     0
 42
0.0000000001
 43
0.0000000001
 40
0.0
 40
0.0
 40
0.0
 40
0.0
 40
5.706047288453516
 40
5.706047288453516
 40
5.706047288453516
 40
5.706047288453516
 10
24.42540552920081
 20
4.853388870660182
 30
0.0
 10
26.3274212920187
 20
4.853388870660182
 30
0.0
 10
28.05612296171693
 20
4.142637314364037
 30
0.0
 10
29.70530673776465
 20
3.105787253048447
 30
0.0
  0
SPLINE
  5
2B3A
330
2B22
100
AcDbEntity
  8
AM_0
100
AcDbSpline
210
0.0
220
0.0
230
1.0
 70
     8
 71
     3
 72
     8
 73
     4
 74
     0
 42
0.0000000001
 43
0.0000000001
 40
0.0
 40
0.0
 40
0.0
 40
0.0
 40
7.009223135314643
 40
7.009223135314643
 40
7.009223135314643
 40
7.009223135314643
 10
23.24553683726662
 20
4.533505564083725
 30
0.0
 10
25.58194454903878
 20
4.533505564083725
 30
0.0
 10
27.68213428901072
 20
3.50390653374211
 30
0.0
 10
29.70530673776465
 20
2.138613619677698
 30
0.0
  0
SPLINE
  5
2B3B
330
2B22
100
AcDbEntity
  8
AM_0
100
AcDbSpline
210
0.0
220
0.0
230
1.0
 70
     8
 71
     3
 72
     8
 73
     4
 74
     0
 42
0.0000000001
 43
0.0000000001
 40
0.0
 40
0.0
 40
0.0
 40
0.0
 40
4.038522933284047
 40
4.038522933284047
 40
4.038522933284047
 40
4.038522933284047
 10
25.63341742591365
 20
5.0
 30
0.0
 10
26.97959173700837
 20
5.0
 30
0.0
 10
28.23511700747895
 20
4.637915695405581
 30
0.0
 10
29.43449156617043
 20
4.051545603702152
 30
0.0
  0
SPLINE
  5
2B3C
330
2B22
100
AcDbEntity
  8
AM_0
100
AcDbSpline
210
0.0
220
0.0
230
1.0
 70
     8
 71
     3
 72
     8
 73
     4
 74
     2
 42
0.0000000001
 43
0.0000000001
 44
0.0000000001
 12
-1.0
 22
0.0000000000000001
 32
0.0
 40
0.0
 40
0.0
 40
0.0
 40
0.0
 40
10.61176705360624
 40
10.61176705360624
 40
10.61176705360624
 40
10.61176705360624
 10
25.6334174259141
 20
-5.000000000000056
 30
0.0
 10
22.09616174137868
 20
-5.000000000000056
 30
0.0
 10
19.18478958364633
 20
-2.500000000000028
 30
0.0
 10
16.27341742591397
 20
0.0
 30
0.0
 11
25.6334174259141
 21
-5.000000000000056
 31
0.0
 11
16.27341742591397
 21
0.0
 31
0.0
  0
ARC
  5
2B3D
330
2B22
100
AcDbEntity
  8
AM_0
100
AcDbCircle
 10
5.472050976495665
 20
-0.4114829949865566
 30
0.0
 40
4.368494370739881
100
AcDbArc
 50
356.2585359014461
 51
39.25557834270841
  0
ARC
  5
2B3E
330
2B22
100
AcDbEntity
  8
AM_0
100
AcDbCircle
 10
16.945882696642
 20
15.7014207964537
 30
0.0
 40
20.0
100
AcDbArc
 50
231.7272490540511
 51
262.7473567797843
  0
SPLINE
  5
2B3F
330
2B22
100
AcDbEntity
  8
AM_0
100
AcDbSpline
210
0.0
220
0.0
230
1.0
 70
     8
 71
     3
 72
     8
 73
     4
 74
     0
 42
0.0000000001
 43
0.0000000001
 40
3.83382056918599
 40
3.83382056918599
 40
3.83382056918599
 40
3.83382056918599
 40
10.54348061741694
 40
10.54348061741694
 40
10.54348061741694
 40
10.54348061741694
 10
9.332956739715427
 20
4.007489584262884
 30
0.0
 10
11.3454422091836
 20
3.088599541806388
 30
0.0
 10
13.2054238691926
 20
1.54429977090308
 30
0.0
 10
15.06540552920159
 20
0.0
 30
0.0
  0
SPLINE
  5
2B40
330
2B22
100
AcDbEntity
  8
AM_0
100
AcDbSpline
210
0.0
220
0.0
230
1.0
 70
     8
 71
     3
 72
     8
 73
     4
 74
     0
 42
0.0000000001
 43
0.0000000001
 40
5.3774483993125
 40
5.3774483993125
 40
5.3774483993125
 40
5.3774483993125
 40
10.40010926382874
 40
10.40010926382874
 40
10.40010926382874
 40
10.40010926382874
 10
9.557768030854731
 20
3.028813530852175
 30
0.0
 10
11.03940983876509
 20
2.189425168347497
 30
0.0
 10
12.46247333801602
 20
1.094712584173748
 30
0.0
 10
13.88553683726786
 20
0.0
 30
0.0
  0
SPLINE
  5
2B41
330
2B22
100
AcDbEntity
  8
AM_0
100
AcDbSpline
210
0.0
220
0.0
230
1.0
 70
     8
 71
     3
 72
     8
 73
     4
 74
     0
 42
0.0000000001
 43
0.0000000001
 40
2.760385419275965
 40
2.760385419275965
 40
2.760385419275965
 40
2.760385419275965
 40
3.834752168165156
 40
3.834752168165156
 40
3.834752168165156
 40
3.834752168165156
 10
9.557768030854731
 20
-4.536515943596953
 30
0.0
 10
9.887211647376716
 20
-4.421963347629173
 30
0.0
 10
10.21190867518271
 20
-4.288451198833683
 30
0.0
 10
10.53250862760978
 20
-4.138573883024321
 30
0.0
  0
SPLINE
  5
2B42
330
2B22
100
AcDbEntity
  8
AM_0
100
AcDbSpline
210
0.0
220
0.0
230
1.0
 70
     8
 71
     3
 72
     8
 73
     4
 74
     2
 42
0.0000000001
 43
0.0000000001
 44
0.0000000001
 12
0.3350454581421353
 22
0.9422019640068294
 32
0.0
 13
1.0
 23
0.0
 33
0.0
 40
0.0
 40
0.0
 40
0.0
 40
0.0
 40
1.399684097511745
 40
1.399684097511745
 40
1.399684097511745
 40
1.399684097511745
 10
9.557768030854731
 20
-4.536515943596953
 30
0.0
 10
9.714087297423093
 20
-4.096920908375389
 30
0.0
 10
10.43312619416873
 20
-4.138561737550901
 30
0.0
 10
10.89968756000598
 20
-4.138561737550901
 30
0.0
 11
9.557768030854731
 21
-4.536515943596953
 31
0.0
 11
10.89968756000598
 21
-4.138561737550901
 31
0.0
  0
SPLINE
  5
2B43
330
2B22
100
AcDbEntity
  8
AM_0
100
AcDbSpline
210
0.0
220
0.0
230
1.0
 70
     8
 71
     3
 72
     8
 73
     4
 74
     2
 42
0.0000000001
 43
0.0000000001
 44
0.0000000001
 12
-0.9369893402418064
 22
0.3493579486332382
 32
0.0
 13
-0.5635853706164173
 23
0.8260578248689107
 33
0.0
 40
0.0
 40
0.0
 40
0.0
 40
0.0
 40
5.737011747463116
 40
5.737011747463116
 40
5.737011747463116
 40
5.737011747463116
 10
14.42098803539465
 20
-4.138561737550901
 30
0.0
 10
12.62914841798967
 20
-3.4704715190914
 30
0.0
 10
10.908999879823
 20
-2.27624791911141
 30
0.0
 10
9.831234582514753
 20
-0.696546770659154
 30
0.0
 11
14.42098803539465
 21
-4.138561737550901
 31
0.0
 11
9.831234582514753
 21
-0.696546770659154
 31
0.0
  0
ARC
  5
2B44
330
2B22
100
AcDbEntity
  8
AM_0
100
AcDbCircle
 10
8.694584172175382
 20
-1.949501730853228
 30
0.0
 40
4.305296608784062
100
AcDbArc
 50
87.86849718008397
 51
139.357645375179
  0
LINE
  5
2B45
330
2B22
100
AcDbEntity
  8
AM_0
100
AcDbLine
 10
9.831234582514753
 20
-0.696546770659154
 30
0.0
 11
5.427768030855077
 21
0.8546899866325929
 31
0.0
  0
LINE
  5
2B46
330
2B22
100
AcDbEntity
  8
AM_0
100
AcDbLine
 10
5.427768030855077
 20
0.8546899866325929
 30
0.0
 11
4.827768030854713
 21
0.6585747334993357
 31
0.0
  0
LINE
  5
2B47
330
2B22
100
AcDbEntity
  8
AM_0
100
AcDbLine
 10
4.827768030854713
 20
0.6585747334993357
 30
0.0
 11
4.582845444675513
 21
0.0
 31
0.0
  0
LINE
  5
2B48
330
2B22
100
AcDbEntity
  8
AM_0
100
AcDbLine
 10
9.332956739715427
 20
4.007489584262884
 30
0.0
 11
9.557768030854731
 21
3.028813530852175
 31
0.0
  0
ARC
  5
2B49
330
2B22
100
AcDbEntity
  8
AM_0
100
AcDbCircle
 10
9.557768030854731
 20
0.4634840564031038
 30
0.0
 40
5.0
100
AcDbArc
 50
185.529769865859
 51
270.0
  0
SPLINE
  5
2B4A
330
2B22
100
AcDbEntity
  8
AM_0
100
AcDbSpline
210
0.0
220
0.0
230
1.0
 70
     8
 71
     3
 72
     9
 73
     5
 74
     3
 42
0.0000000001
 43
0.0000000001
 44
0.0000000001
 12
-0.7290715920995502
 22
0.684437443155638
 32
0.0
 13
0.7860840150089527
 23
-0.6181196658798401
 33
0.0
 40
0.0
 40
0.0
 40
0.0
 40
0.0
 40
0.4615642387890897
 40
1.425407363350696
 40
1.425407363350696
 40
1.425407363350696
 40
1.425407363350696
 10
8.854711765556203
 20
2.35281602164332
 30
0.0
 10
8.742540640746144
 20
2.458119970792948
 30
0.0
 10
8.357392018152186
 20
2.957744642816525
 30
0.0
 10
9.30521413979001
 20
3.227403660890376
 30
0.0
 10
9.557768030854731
 20
3.028813530852175
 30
0.0
 11
8.854711765556203
 21
2.35281602164332
 31
0.0
 11
8.632876760296312
 21
2.757576169101412
 31
0.0
 11
9.557768030854731
 21
3.028813530852175
 31
0.0
  0
LINE
  5
2B4B
330
2B22
100
AcDbEntity
  8
AM_0
100
AcDbLine
 10
14.42098803539465
 20
-4.138561737550901
 30
0.0
 11
21.30836028156318
 21
-4.300254190306361
 31
0.0
  0
SPLINE
  5
2B4C
330
2B22
100
AcDbEntity
  8
AM_0
100
AcDbSpline
210
0.0
220
0.0
230
1.0
 70
     8
 71
     3
 72
     8
 73
     4
 74
     0
 42
0.0000000001
 43
0.0000000001
 40
0.3080988623970067
 40
0.3080988623970067
 40
0.3080988623970067
 40
0.3080988623970067
 40
10.54348061741694
 40
10.54348061741694
 40
10.54348061741694
 40
10.54348061741694
 10
24.11880778044906
 20
-4.84723288622996
 30
0.0
 10
20.74009611283236
 20
-4.711564396932601
 30
0.0
 10
17.90275082101698
 20
-2.355782198466215
 30
0.0
 10
15.06540552920159
 20
0.0
 30
0.0
  0
SPLINE
  5
2B4D
330
2B22
100
AcDbEntity
  8
AM_0
100
AcDbSpline
210
0.0
220
0.0
230
1.0
 70
     8
 71
     3
 72
     8
 73
     4
 74
     0
 42
0.0000000001
 43
0.0000000001
 40
1.494727388119111
 40
1.494727388119111
 40
1.494727388119111
 40
1.494727388119111
 40
10.40010926382874
 40
10.40010926382874
 40
10.40010926382874
 40
10.40010926382874
 10
21.78149243231928
 20
-4.399768196515481
 30
0.0
 10
18.93183569600569
 20
-3.881939820020363
 30
0.0
 10
16.40868626663632
 20
-1.94096991001021
 30
0.0
 10
13.88553683726786
 20
0.0
 30
0.0
  0
LINE
  5
2B4E
330
2B22
100
AcDbEntity
  8
AM_0
100
AcDbLine
 10
10.89968756000598
 20
-4.138561737550901
 30
0.0
 11
14.42098803539465
 21
-4.138561737550901
 31
0.0
  0
POLYLINE
  5
2B4F
330
2B22
100
AcDbEntity
  8
AM_0
100
AcDb2dPolyline
 66
     1
 10
0.0
 20
0.0
 30
0.0
 70
     2
  0
VERTEX
  5
2B50
330
2B4F
100
AcDbEntity
  8
AM_0
100
AcDbVertex
100
AcDb2dVertex
 10
29.70530673776511
 20
-5.000000000000056
 30
0.0
 42
0.021906895434734
  0
VERTEX
  5
2B51
330
2B4F
100
AcDbEntity
  8
AM_0
100
AcDbVertex
100
AcDb2dVertex
 10
30.83007776987233
 20
-4.921468564627559
 30
0.0
 42
0.0324199514990089
 70
     1
  0
VERTEX
  5
2B52
330
2B4F
100
AcDbEntity
  8
AM_0
100
AcDbVertex
100
AcDb2dVertex
 10
31.58030673776465
 20
-4.786243115693707
 30
0.0
 42
0.0201411646801006
  0
VERTEX
  5
2B53
330
2B4F
100
AcDbEntity
  8
AM_0
100
AcDbVertex
100
AcDb2dVertex
 10
33.33212610397549
 20
-4.275997578920907
 30
0.0
 42
0.0450475812707586
 70
     1
  0
VERTEX
  5
2B54
330
2B4F
100
AcDbEntity
  8
AM_0
100
AcDbVertex
100
AcDb2dVertex
 10
34.08030673776465
 20
-3.947486231388268
 30
0.0
 42
0.0705235240614635
  0
VERTEX
  5
2B55
330
2B4F
100
AcDbEntity
  8
AM_0
100
AcDbVertex
100
AcDb2dVertex
 10
34.61303535256092
 20
-3.547037438005247
 30
0.0
 42
0.2003780791347506
 70
     1
  0
VERTEX
  5
2B56
330
2B4F
100
AcDbEntity
  8
AM_0
100
AcDbVertex
100
AcDb2dVertex
 10
34.70530673776511
 20
-3.322486231389177
 30
0.0
 42
0.1302188019897481
  0
VERTEX
  5
2B57
330
2B4F
100
AcDbEntity
  8
AM_0
100
AcDbVertex
100
AcDb2dVertex
 10
34.62541808774131
 20
-3.027664730895651
 30
0.0
 42
0.0390250736119977
 70
     1
  0
VERTEX
  5
2B58
330
2B4F
100
AcDbEntity
  8
AM_0
100
AcDbVertex
100
AcDb2dVertex
 10
34.05731521535654
 20
-2.200131991703585
 30
0.0
 42
0.0142833409954576
  0
VERTEX
  5
2B59
330
2B4F
100
AcDbEntity
  8
AM_0
100
AcDbVertex
100
AcDb2dVertex
 10
33.23165124732531
 20
-1.235995958245041
 30
0.0
 42
0.0074968472652126
 70
     1
  0
VERTEX
  5
2B5A
330
2B4F
100
AcDbEntity
  8
AM_0
100
AcDbVertex
100
AcDb2dVertex
 10
31.58030673776465
 20
0.5304179338299946
 30
0.0
 42
0.0237820438473651
  0
VERTEX
  5
2B5B
330
2B4F
100
AcDbEntity
  8
AM_0
100
AcDbVertex
100
AcDb2dVertex
 10
30.9594202698463
 20
1.116423757641769
 30
0.0
 42
0.0125443765840406
 70
     1
  0
VERTEX
  5
2B5C
330
2B4F
100
AcDbEntity
  8
AM_0
100
AcDbVertex
100
AcDb2dVertex
 10
29.70530673776511
 20
2.138613619677926
 30
0.0
  0
SEQEND
  5
2B5D
330
2B4F
100
AcDbEntity
  8
AM_0
  0
LINE
  5
2B5E
330
2B22
100
AcDbEntity
  8
AM_0
100
AcDbLine
 10
29.70530673776465
 20
3.105787253048447
 30
0.0
 11
29.4344915661768
 21
4.051545603702379
 31
0.0
  0
LINE
  5
2B5F
330
2B22
100
AcDbEntity
  8
AM_0
100
AcDbLine
 10
29.70530673776465
 20
2.138613619677698
 30
0.0
 11
29.70530673776511
 21
3.105787253048447
 31
0.0
  0
SPLINE
  5
2B60
330
2B22
100
AcDbEntity
  8
AM_0
100
AcDbSpline
210
0.0
220
0.0
230
1.0
 70
     8
 71
     3
 72
     8
 73
     4
 74
     0
 42
0.0000000001
 43
0.0000000001
 40
0.0
 40
0.0
 40
0.0
 40
0.0
 40
1.55285541345115
 40
1.55285541345115
 40
1.55285541345115
 40
1.55285541345115
 10
25.6334174259141
 20
5.0
 30
0.0
 10
25.1157989547637
 20
5.0
 30
0.0
 10
24.6115828086422
 20
4.946466377309661
 30
0.0
 10
24.11880778044133
 20
4.847232886229903
 30
0.0
  0
SPLINE
  5
2B61
330
2B22
100
AcDbEntity
  8
AM_0
100
AcDbSpline
210
0.0
220
0.0
230
1.0
 70
     8
 71
     3
 72
     8
 73
     4
 74
     0
 42
0.0000000001
 43
0.0000000001
 40
0.0
 40
0.0
 40
0.0
 40
0.0
 40
1.990690753765647
 40
1.990690753765647
 40
1.990690753765647
 40
1.990690753765647
 10
23.24553683726753
 20
4.533505564083725
 30
0.0
 10
22.58197325267883
 20
4.533505564083725
 30
0.0
 10
21.93746343128123
 20
4.450456268740254
 30
0.0
 10
21.30836028156318
 20
4.300254190306532
 30
0.0
  0
SPLINE
  5
2B62
330
2B22
100
AcDbEntity
  8
AM_0
100
AcDbSpline
210
0.0
220
0.0
230
1.0
 70
     8
 71
     3
 72
     8
 73
     4
 74
     0
 42
0.0000000001
 43
0.0000000001
 40
0.0
 40
0.0
 40
0.0
 40
0.0
 40
2.754526791728521
 40
2.754526791728521
 40
2.754526791728521
 40
2.754526791728521
 10
24.42540552920127
 20
4.853388870660182
 30
0.0
 10
23.50722993195904
 20
4.853388870660182
 30
0.0
 10
22.62944278111445
 20
4.687758075047895
 30
0.0
 10
21.78149243231928
 20
4.399768196515424
 30
0.0
  0
LINE
  5
2B63
330
2B22
100
AcDbEntity
  8
AM_7
  6
AM_ISO08W050X2
100
AcDbLine
 10
0.0
 20
0.0
 30
0.0
 11
45.35776803085491
 21
0.0
 31
0.0
1001
GENIUS_GENODEF_13
1002
{
1000
HIER
1070
     0
1002
}
1002
{
1000
MANEDIT
1070
     0
1002
}
1002
{
1000
NOSEL
1070
     0
1002
}
1002
{
1000
BEHIND
1070
     0
1002
}
1002
{
1000
REACTOR
1002
}
1001
GENIUS_GENOBJ-N-CEN_13
1002
{
1000
OWNER
1000
GEN
1002
}
  0
LINE
  5
2B64
330
2B22
100
AcDbEntity
  8
AM_11
100
AcDbLine
 10
9.557768030854731
 20
-5.000000000000056
 30
0.0
 11
45.35776803085491
 21
-5.000000000000056
 31
0.0
  0
LINE
  5
2B65
330
2B22
100
AcDbEntity
  8
AM_0
100
AcDbLine
 10
25.63341742591319
 20
-5.000000000000056
 30
0.0
 11
44.50322174914117
 21
-5.000000000000056
 31
0.0
  0
LINE
  5
2B66
330
2B22
100
AcDbEntity
  8
AM_11
100
AcDbLine
 10
45.35776803085491
 20
5.0
 30
0.0
 11
9.557768030854731
 21
5.0
 31
0.0
  0
LINE
  5
2B67
330
2B22
100
AcDbEntity
  8
AM_0
100
AcDbLine
 10
33.92536816917845
 20
4.993642166014524
 30
0.0
 11
44.95366313908789
 21
4.993642166014524
 31
0.0
  0
LINE
  5
2B68
330
2B22
100
AcDbEntity
  8
AM_7
  6
AM_ISO08W050X2
100
AcDbLine
 10
9.557768030854731
 20
8.0
 30
0.0
 11
9.557768030854731
 21
-8.000000000000056
 31
0.0
1001
GENIUS_GENODEF_13
1002
{
1000
HIER
1070
     0
1002
}
1002
{
1000
MANEDIT
1070
     0
1002
}
1002
{
1000
NOSEL
1070
     0
1002
}
1002
{
1000
BEHIND
1070
     0
1002
}
1002
{
1000
REACTOR
1002
}
1001
GENIUS_GENOBJ-N-CEN_13
1002
{
1000
OWNER
1000
GEN
1002
}
  0
LINE
  5
2B69
330
2B22
100
AcDbEntity
  8
AM_7
  6
AM_ISO08W050X2
100
AcDbLine
 10
9.557768030854731
 20
-6.29890176298619
 30
0.0
 11
9.557768030854731
 21
-22.29890176298613
 31
0.0
1001
GENIUS_GENODEF_13
1002
{
1000
HIER
1070
     0
1002
}
1002
{
1000
MANEDIT
1070
     0
1002
}
1002
{
1000
NOSEL
1070
     0
1002
}
1002
{
1000
BEHIND
1070
     0
1002
}
1002
{
1000
REACTOR
1002
}
1001
GENIUS_GENOBJ-N-CEN_13
1002
{
1000
OWNER
1000
GEN
1002
}
  0
ENDBLK
  5
2B6B
330
2B22
100
AcDbEntity
  8
0
100
AcDbBlockEnd
  0
ENDSEC
  0
SECTION
  2
ENTITIES
  0
DIMENSION
  5
C4F
330
1F
100
AcDbEntity
  8
AM_5
100
AcDbDimension
  2
*D5
 10
-0.0000000000000607
 20
-11.66666666666661
 30
0.0
 11
-30.00000000000006
 21
-10.63333333333327
 31
0.0
 70
    32
  1
<>
  3
AM_JIS
100
AcDbAlignedDimension
 13
-60.00000000000007
 23
-3.000000000000003
 33
0.0
 14
-0.00000000000006
 24
-0.0000000000000036
 34
0.0
 50
0.0000000000002036
100
AcDbRotatedDimension
1001
GENIUS_GENDTOL_13
1000

1000
H7
1000

1040
0.0
  0
LINE
  5
C50
330
1F
100
AcDbEntity
  8
AM_7
100
AcDbLine
 10
-62.38487321524641
 20
-0.0000000000000036
 30
0.0
 11
1.32952988907452
 21
-0.0000000000000036
 31
0.0
1001
GENIUS_GENODEF_13
1002
{
1000
HIER
1070
     0
1002
}
1002
{
1000
MANEDIT
1070
     0
1002
}
1002
{
1000
NOSEL
1070
     0
1002
}
1002
{
1000
BEHIND
1070
     0
1002
}
1002
{
1000
REACTOR
1002
}
1001
GENIUS_GENOBJ-N-CEN_13
1002
{
1000
OWNER
1000
GEN
1002
}
  0
TEXT
  5
C58
330
1F
100
AcDbEntity
  8
AM_6
100
AcDbText
 10
-37.02380955892863
 20
-22.50000000416663
 30
0.0
 40
1.666666675
  1
SHB2030ZX
 50
0.0000000000002036
 72
     4
 11
-30.00000000000006
 21
-21.66666666666661
 31
0.0
100
AcDbText
  0
DIMENSION
  5
18C3
330
1F
100
AcDbEntity
  8
AM_5
100
AcDbDimension
  2
*D6
 10
-66.21481817191886
 20
2.999999999999998
 30
0.0
 11
-66.21481817191886
 21
-0.0000000000000125
 31
0.0
 70
   160
  1
%%c<>
  3
AM_JIS
100
AcDbAlignedDimension
 13
-59.50000000000007
 23
-3.000000000000003
 33
0.0
 14
-59.50000000000007
 24
2.999999999999996
 34
0.0
 50
270.0
100
AcDbRotatedDimension
1001
ACAD
1000
DSTYLE
1002
{
1070
    48
1040
0.1
1070
    47
1040
0.1
1070
   274
1070
     2
1070
   272
1070
     3
1002
}
1001
GENIUS_GENDTOL_13
1000

1000
h6
1000

1040
0.0
  0
DIMENSION
  5
195B
330
1F
100
AcDbEntity
  8
AM_5
100
AcDbDimension
  2
*D7
 10
-0.0000000000000571
 20
-7.66666666666675
 30
0.0
 11
-3.000000000000056
 21
-6.633333333333417
 31
0.0
 70
    32
  1
<>
  3
AM_JIS
100
AcDbAlignedDimension
 13
-6.000000000000056
 23
-1.499999999999998
 33
0.0
 14
-0.0000000000000568
 24
-3.750000000000002
 34
0.0
 50
359.9999999999988
100
AcDbRotatedDimension
1001
GENIUS_GENDTOL_13
1000

1000
H7
1000

1040
0.0
  0
LINE
  5
2156
330
1F
100
AcDbEntity
  8
AM_7
  6
AM_ISO08W050X2
100
AcDbLine
 10
0.3219904657354817
 20
0.0000000000000178
 30
0.0
 11
-10.5638738616698
 21
0.0000000000000178
 31
0.0
1001
GENIUS_GENODEF_13
1002
{
1000
HIER
1070
     0
1002
}
1002
{
1000
MANEDIT
1070
     0
1002
}
1002
{
1000
NOSEL
1070
     0
1002
}
1002
{
1000
BEHIND
1070
     0
1002
}
1002
{
1000
REACTOR
1002
}
1001
GENIUS_GENOBJ-N-CEN_13
1002
{
1000
OWNER
1000
GEN
1002
}
  0
DIMENSION
  5
21D2
330
1F
100
AcDbEntity
  8
AM_5
100
AcDbDimension
  2
*D8
 10
6.281159717520326
 20
-1.5
 30
0.0
 11
6.281159717520326
 21
-0.0000000000000071
 31
0.0
 70
   160
  1
%%c<>
  3
AM_JIS
100
AcDbAlignedDimension
 13
-2.203558364966709
 23
1.49999999999999
 33
0.0
 14
-1.824049564594417
 24
-1.499999999999998
 34
0.0
 50
270.0
100
AcDbRotatedDimension
1001
GENIUS_GENDTOL_13
1000

1000
h7
1000

1040
0.0
  0
DIMENSION
  5
2347
330
1F
100
AcDbEntity
  8
AM_5
100
AcDbDimension
  2
*D9
 10
-1.500000000000064
 20
0.0000000000000231
 30
0.0
 11
2.379546562497637
 21
-3.788661831750743
 31
0.0
 70
   164
  1
<>
  3
AM_JIS$4
100
AcDbRadialDimension
 15
-0.426844100546863
 25
-1.04801546528128
 35
0.0
 40
0.0
1001
GENIUS_GENDTOL_13
1000

1000
h7
1000

1040
0.0
1001
ACAD
1000
DSTYLE
1002
{
1070
    74
1070
     0
1070
    78
1070
     0
1070
   271
1070
     1
1002
}
  0
LINE
  5
244E
330
1F
100
AcDbEntity
  8
AM_0
100
AcDbLine
 10
-60.00000000000007
 20
-2.500000000000003
 30
0.0
 11
-60.00000000000007
 21
-0.0000000000000036
 31
0.0
  0
LINE
  5
2456
330
1F
100
AcDbEntity
  8
AM_0
100
AcDbLine
 10
-59.50000000000008
 20
-3.000000000000003
 30
0.0
 11
-16.60000000000008
 21
-3.000000000000003
 31
0.0
1001
GENIUS_GENODEF_13
1002
{
1000
HIER
1070
     0
1002
}
1002
{
1000
MANEDIT
1070
     0
1002
}
1002
{
1000
NOSEL
1070
     0
1002
}
1002
{
1000
BEHIND
1070
     0
1002
}
1002
{
1000
REACTOR
1002
}
1001
GENIUS_GENOBJ-N-CEN_13
1002
{
1000
OWNER
1000
GEN
1002
}
  0
LINE
  5
2463
330
1F
100
AcDbEntity
  8
AM_0
100
AcDbLine
 10
-59.50000000000008
 20
-3.000000000000003
 30
0.0
 11
-60.00000000000007
 21
-2.500000000000003
 31
0.0
1001
GENIUS_GENFIL_13
1070
     0
1040
0.5
1040
0.5
1040
20.0
1040
0.0
1002
{
1002
}
1001
GENIUS_GENODEF_13
1002
{
1000
HIER
1070
     0
1002
}
1002
{
1000
MANEDIT
1070
     0
1002
}
1002
{
1000
NOSEL
1070
     0
1002
}
1002
{
1000
BEHIND
1070
     0
1002
}
1002
{
1000
REACTOR
1002
}
1001
GENIUS_GENOBJ-N-CHA_13
1002
{
1000
OWNER
1000
GEN
1002
}
  0
LINE
  5
2466
330
1F
100
AcDbEntity
  8
AM_0
100
AcDbLine
 10
-59.50000000000008
 20
-3.000000000000003
 30
0.0
 11
-59.50000000000007
 21
-0.0000000000000036
 31
0.0
  0
LINE
  5
246E
330
1F
100
AcDbEntity
  8
AM_0
100
AcDbLine
 10
-16.60000000000008
 20
-2.999999999999993
 30
0.0
 11
-16.60000000000007
 21
0.0000000000001421
 31
0.0
  0
LINE
  5
246F
330
1F
100
AcDbEntity
  8
AM_0
100
AcDbLine
 10
-16.60000000000008
 20
-2.999999999999993
 30
0.0
 11
-11.00192378864675
 21
-1.499999999999989
 31
0.0
1001
GENIUS_GENODEF_13
1002
{
1000
HIER
1070
     0
1002
}
1002
{
1000
MANEDIT
1070
     0
1002
}
1002
{
1000
NOSEL
1070
     0
1002
}
1002
{
1000
BEHIND
1070
     0
1002
}
1002
{
1000
REACTOR
1002
}
1001
GENIUS_GENOBJ-N-CEN_13
1002
{
1000
OWNER
1000
GEN
1002
}
  0
LINE
  5
2472
330
1F
100
AcDbEntity
  8
AM_0
100
AcDbLine
 10
-59.50000000000008
 20
2.999999999999996
 30
0.0
 11
-16.60000000000008
 21
2.999999999999995
 31
0.0
1001
GENIUS_GENODEF_13
1002
{
1000
HIER
1070
     0
1002
}
1002
{
1000
MANEDIT
1070
     0
1002
}
1002
{
1000
NOSEL
1070
     0
1002
}
1002
{
1000
BEHIND
1070
     0
1002
}
1002
{
1000
REACTOR
1002
}
1001
GENIUS_GENOBJ-N-CEN_13
1002
{
1000
OWNER
1000
GEN
1002
}
  0
LINE
  5
2473
330
1F
100
AcDbEntity
  8
AM_0
100
AcDbLine
 10
-16.60000000000008
 20
3.000000000000004
 30
0.0
 11
-11.00192378864675
 21
1.5
 31
0.0
1001
GENIUS_GENODEF_13
1002
{
1000
HIER
1070
     0
1002
}
1002
{
1000
MANEDIT
1070
     0
1002
}
1002
{
1000
NOSEL
1070
     0
1002
}
1002
{
1000
BEHIND
1070
     0
1002
}
1002
{
1000
REACTOR
1002
}
1001
GENIUS_GENOBJ-N-CEN_13
1002
{
1000
OWNER
1000
GEN
1002
}
  0
LINE
  5
2474
330
1F
100
AcDbEntity
  8
AM_0
100
AcDbLine
 10
-16.60000000000008
 20
3.000000000000004
 30
0.0
 11
-16.60000000000007
 21
0.0000000000001421
 31
0.0
  0
LINE
  5
2475
330
1F
100
AcDbEntity
  8
AM_0
100
AcDbLine
 10
-59.50000000000008
 20
2.999999999999996
 30
0.0
 11
-59.50000000000007
 21
-0.0000000000000036
 31
0.0
  0
LINE
  5
2476
330
1F
100
AcDbEntity
  8
AM_0
100
AcDbLine
 10
-59.50000000000008
 20
2.999999999999996
 30
0.0
 11
-60.00000000000007
 21
2.499999999999996
 31
0.0
1001
GENIUS_GENFIL_13
1070
     0
1040
0.5
1040
0.5
1040
20.0
1040
0.0
1002
{
1002
}
1001
GENIUS_GENODEF_13
1002
{
1000
HIER
1070
     0
1002
}
1002
{
1000
MANEDIT
1070
     0
1002
}
1002
{
1000
NOSEL
1070
     0
1002
}
1002
{
1000
BEHIND
1070
     0
1002
}
1002
{
1000
REACTOR
1002
}
1001
GENIUS_GENOBJ-N-CHA_13
1002
{
1000
OWNER
1000
GEN
1002
}
  0
LINE
  5
2477
330
1F
100
AcDbEntity
  8
AM_0
100
AcDbLine
 10
-60.00000000000007
 20
2.499999999999996
 30
0.0
 11
-60.00000000000007
 21
-0.0000000000000036
 31
0.0
  0
LINE
  5
2A87
330
1F
100
AcDbEntity
  8
AM_0
100
AcDbLine
 10
-8.810280041498014
 20
-1.498092649803673
 30
0.0
 11
-11.00192378864675
 21
-1.498092649803673
 31
0.0
  0
LINE
  5
2A88
330
1F
100
AcDbEntity
  8
AM_0
100
AcDbLine
 10
-6.322694818518439
 20
1.500000000000696
 30
0.0
 11
-11.00192378864674
 21
1.500000000000702
 31
0.0
  0
LINE
  5
2A8C
330
1F
100
AcDbEntity
  8
AM_0
100
AcDbLine
 10
-2.958966001362875
 20
1.241568521265953
 30
0.0
 11
-5.025177675213435
 21
1.290076257092593
 31
0.0
  0
LINE
  5
2A91
330
1F
100
AcDbEntity
  8
AM_0
100
AcDbLine
 10
-1.902575858746275
 20
1.241568521265953
 30
0.0
 11
-2.958966001362875
 21
1.241568521265953
 31
0.0
  0
SPLINE
  5
2A92
330
1F
100
AcDbEntity
  8
AM_0
100
AcDbSpline
210
0.0
220
0.0
230
1.0
 70
     8
 71
     3
 72
     8
 73
     4
 74
     2
 42
0.0000000001
 43
0.0000000001
 44
0.0000000001
 12
0.9369893402418064
 22
-0.3493579486332383
 32
0.0
 13
0.563585370616417
 23
-0.8260578248689107
 33
0.0
 40
0.0
 40
0.0
 40
0.0
 40
0.0
 40
1.721103524238934
 40
1.721103524238934
 40
1.721103524238934
 40
1.721103524238934
 10
-2.958966001362878
 20
1.241568521265946
 30
0.0
 10
-2.421414116141383
 20
1.041141455728096
 30
0.0
 10
-1.905369554691378
 20
0.6828743757341039
 30
0.0
 10
-1.582039965498904
 20
0.2089640311984269
 30
0.0
 11
-2.958966001362878
 21
1.241568521265946
 31
0.0
 11
-1.582039965498904
 21
0.2089640311984269
 31
0.0
  0
ARC
  5
2A93
330
1F
100
AcDbEntity
  8
AM_0
100
AcDbCircle
 10
-3.716434399737079
 20
-4.710426238935426
 30
0.0
 40
6.0
100
AcDbArc
 50
51.72724905405108
 51
82.74735677978425
  0
ARC
  5
2A94
330
1F
100
AcDbEntity
  8
AM_0
100
AcDbCircle
 10
-1.500000000000899
 20
-0.1390452169202518
 30
0.0
 40
1.5
100
AcDbArc
 50
5.529769865859073
 51
90.0
  0
LINE
  5
2A95
330
1F
100
AcDbEntity
  8
AM_0
100
AcDbLine
 10
-1.582039965498904
 20
0.2089640311984269
 30
0.0
 11
-0.261000000001002
 21
-0.2564069959890958
 31
0.0
  0
LINE
  5
2A96
330
1F
100
AcDbEntity
  8
AM_0
100
AcDbLine
 10
-0.261000000001002
 20
-0.2564069959890958
 30
0.0
 11
-0.0810000000008957
 21
-0.19757242004912
 31
0.0
  0
LINE
  5
2A97
330
1F
100
AcDbEntity
  8
AM_0
100
AcDbLine
 10
-0.0810000000008957
 20
-0.19757242004912
 30
0.0
 11
-0.0075232241471328
 21
0.0000000000006821
 31
0.0
  0
SPLINE
  5
2A98
330
1F
100
AcDbEntity
  8
AM_0
100
AcDbSpline
210
0.0
220
0.0
230
1.0
 70
     8
 71
     3
 72
     8
 73
     4
 74
     0
 42
0.0000000001
 43
0.0000000001
 40
2.760385419275965
 40
2.760385419275965
 40
2.760385419275965
 40
2.760385419275965
 40
3.834752168165156
 40
3.834752168165156
 40
3.834752168165156
 40
3.834752168165156
 10
-1.500000000000899
 20
1.360954783079762
 30
0.0
 10
-1.598833084957495
 20
1.326589004289431
 30
0.0
 10
-1.696242193299291
 20
1.286535359650784
 30
0.0
 10
-1.792422179027416
 20
1.241572164907978
 30
0.0
  0
SPLINE
  5
2A99
330
1F
100
AcDbEntity
  8
AM_0
100
AcDbSpline
210
0.0
220
0.0
230
1.0
 70
     8
 71
     3
 72
     8
 73
     4
 74
     2
 42
0.0000000001
 43
0.0000000001
 44
0.0000000001
 12
-0.3350454581421354
 22
-0.9422019640068294
 32
0.0
 13
-1.0
 23
0.0000000000000001
 33
0.0
 40
0.0
 40
0.0
 40
0.0
 40
0.0
 40
0.419905229253523
 40
0.419905229253523
 40
0.419905229253523
 40
0.419905229253523
 10
-1.500000000000899
 20
1.360954783079762
 30
0.0
 10
-1.546895779971408
 20
1.229076272513293
 30
0.0
 10
-1.762607448995101
 20
1.241568521265946
 30
0.0
 10
-1.902575858746275
 20
1.241568521265946
 30
0.0
 11
-1.500000000000899
 21
1.360954783079762
 31
0.0
 11
-1.902575858746275
 21
1.241568521265946
 31
0.0
  0
ARC
  5
2A9A
330
1F
100
AcDbEntity
  8
AM_0
100
AcDbCircle
 10
-0.2742848836931815
 20
0.1234448984966505
 30
0.0
 40
1.310548311221964
100
AcDbArc
 50
176.2585359014462
 51
219.2555783427083
  0
ARC
  5
2A9B
330
1F
100
AcDbEntity
  8
AM_0
100
AcDbCircle
 10
-1.500000000000899
 20
0.1500435721295332
 30
0.0
 40
1.5
100
AcDbArc
 50
270.0
 51
354.4702301341409
  0
ARC
  5
2A9C
330
1F
100
AcDbEntity
  8
AM_0
100
AcDbCircle
 10
-1.45325972518689
 20
0.2370446685701779
 30
0.0
 40
1.439440435407945
100
AcDbArc
 50
271.2370494223207
 51
342.4261541586427
  0
ARC
  5
2A9D
330
1F
100
AcDbEntity
  8
AM_0
100
AcDbCircle
 10
-1.241044842397095
 20
0.5848505192566478
 30
0.0
 40
1.291588982635218
100
AcDbArc
 50
267.868497180084
 51
319.3576453751792
  0
SPLINE
  5
2A9E
330
1F
100
AcDbEntity
  8
AM_0
100
AcDbSpline
210
0.0
220
0.0
230
1.0
 70
     8
 71
     3
 72
     9
 73
     5
 74
     3
 42
0.0000000001
 43
0.0000000001
 44
0.0000000001
 12
0.7290715920995501
 22
-0.6844374431556381
 32
0.0
 13
-0.7860840150089525
 23
0.6181196658798402
 33
0.0
 40
0.0
 40
0.0
 40
0.0
 40
0.0
 40
0.138469271636726
 40
0.4276222090052092
 40
0.4276222090052092
 40
0.4276222090052092
 40
0.4276222090052092
 10
-1.289083120411341
 20
-0.7058448064923156
 30
0.0
 10
-1.255431782968324
 20
-0.7374359912372036
 30
0.0
 10
-1.139887196190135
 20
-0.8873233928442742
 30
0.0
 10
-1.424233832681483
 20
-0.9682210982664352
 30
0.0
 10
-1.500000000000899
 20
-0.9086440592549749
 30
0.0
 11
-1.289083120411341
 21
-0.7058448064923156
 31
0.0
 11
-1.222532618833374
 21
-0.8272728507297415
 31
0.0
 11
-1.500000000000899
 21
-0.9086440592549749
 31
0.0
  0
LINE
  5
2A9F
330
1F
100
AcDbEntity
  8
AM_0
100
AcDbLine
 10
-1.500000000000899
 20
-1.34995642787048
 30
0.0
 11
-1.43255661265911
 21
-1.202246875278184
 31
0.0
  0
LINE
  5
2AA0
330
1F
100
AcDbEntity
  8
AM_0
100
AcDbLine
 10
-1.43255661265911
 20
-1.202246875278184
 30
0.0
 11
-1.500000000000899
 21
-0.9086440592549678
 31
0.0
  0
LINE
  5
2AB3
330
1F
100
AcDbEntity
  8
AM_0
100
AcDbLine
 10
-11.00192378864675
 20
-1.499999999999989
 30
0.0
 11
-11.00192378864675
 21
1.5
 31
0.0
  0
ARC
  5
2AB4
330
1F
100
AcDbEntity
  8
AM_11
100
AcDbCircle
 10
-1.500000000000899
 20
0.0000000000006821
 30
0.0
 40
1.5
100
AcDbArc
 50
270.0
 51
90.0
  0
LINE
  5
2AB5
330
1F
100
AcDbEntity
  8
AM_11
100
AcDbLine
 10
-1.500000000000899
 20
1.49999999999999
 30
0.0
 11
-6.000000000000056
 21
1.49999999999999
 31
0.0
  0
LINE
  5
2AB6
330
1F
100
AcDbEntity
  8
AM_11
100
AcDbLine
 10
-1.490716231261084
 20
-1.499999999999998
 30
0.0
 11
-6.000000000000056
 21
-1.499999999999998
 31
0.0
  0
SPLINE
  5
2AF6
330
1F
100
AcDbEntity
  8
AM_0
100
AcDbSpline
210
0.0
220
0.0
230
1.0
 70
     8
 71
     3
 72
     8
 73
     4
 74
     0
 42
0.0000000001
 43
0.0000000001
 40
0.0
 40
0.0
 40
0.0
 40
0.0
 40
1.990690753765647
 40
1.990690753765647
 40
1.990690753765647
 40
1.990690753765647
 10
-5.793530641924792
 20
-1.360051669224439
 30
0.0
 10
-5.581190294856408
 20
-1.360051669224439
 30
0.0
 10
-5.374947152009175
 20
-1.335136880621398
 30
0.0
 10
-5.173634144099401
 20
-1.290076257091278
 30
0.0
  0
SPLINE
  5
2AF7
330
1F
100
AcDbEntity
  8
AM_0
100
AcDbSpline
210
0.0
220
0.0
230
1.0
 70
     8
 71
     3
 72
     8
 73
     4
 74
     0
 42
0.0000000001
 43
0.0000000001
 40
0.0
 40
0.0
 40
0.0
 40
0.0
 40
1.55285541345115
 40
1.55285541345115
 40
1.55285541345115
 40
1.55285541345115
 10
-6.557652430291694
 20
-1.499999999999317
 30
0.0
 10
-6.392014519523566
 20
-1.499999999999317
 30
0.0
 10
-6.230665352764686
 20
-1.483939913192216
 30
0.0
 10
-6.072977343740406
 20
-1.454169865868294
 30
0.0
  0
LINE
  5
2AF8
330
1F
100
AcDbEntity
  8
AM_0
100
AcDbLine
 10
-7.860657010083874
 20
-0.641584085902629
 30
0.0
 11
-7.860657010084018
 21
-0.9317361759138549
 31
0.0
  0
ELLIPSE
  5
2AF9
330
1F
100
AcDbEntity
  8
AM_0
100
AcDbEllipse
 10
-9.355837163857266
 20
2.501282911280505
 30
0.0
 11
4.268456009781132
 21
0.000000000000024
 31
0.0
210
0.0
220
0.0
230
1.0
 40
0.9374999999999985
 41
-1.536875803917382
 42
-1.191153695582908
  0
ELLIPSE
  5
2AFA
330
1F
100
AcDbEntity
  8
AM_0
100
AcDbEllipse
 10
-7.418649302205013
 20
-16.62991420739583
 30
0.0
 11
16.44591999775579
 21
0.0000000000006547
 31
0.0
210
0.0
220
0.0
230
1.0
 40
0.9374999999999346
 41
1.592404999857204
 42
1.621792883025485
  0
ELLIPSE
  5
2AFB
330
1F
100
AcDbEntity
  8
AM_0
100
AcDbEllipse
 10
-8.024333776164361
 20
-5.519115898076901
 30
0.0
 11
-4.578934908698882
 21
0.0000000000011736
 31
0.0
210
0.0
220
0.0
230
1.0
 40
0.9375000000002136
 41
-1.519968450920297
 42
-1.474903855427013
  0
ELLIPSE
  5
2AFC
330
1F
100
AcDbEntity
  8
AM_0
100
AcDbEllipse
 10
-1.567995519683848
 20
-68.446403339553
 30
0.0
 11
72.01116938795898
 21
0.000000000109166
 31
0.0
210
0.0
220
0.0
230
1.0
 40
0.9374999999990055
 41
1.666688798161186
 42
1.67635053735905
  0
ELLIPSE
  5
2AFD
330
1F
100
AcDbEntity
  8
AM_0
100
AcDbEllipse
 10
-8.969482476109053
 20
-2.952999674783715
 30
0.0
 11
1.760546662194316
 21
0.0000000000005396
 31
0.0
210
0.0
220
0.0
230
1.0
 40
0.9374999999998671
 41
1.676350537359855
 42
1.738152020788853
  0
ELLIPSE
  5
2AFE
330
1F
100
AcDbEntity
  8
AM_0
100
AcDbEllipse
 10
-8.92364903848335
 20
-3.207349793278882
 30
0.0
 11
-2.035697675213867
 21
0.0000000000005317
 31
0.0
210
0.0
220
0.0
230
1.0
 40
0.9375000000000694
 41
-1.403440632800712
 42
-1.303822551284381
  0
ELLIPSE
  5
2AFF
330
1F
100
AcDbEntity
  8
AM_0
100
AcDbEllipse
 10
-9.459265713849429
 20
-1.371388440323528
 30
0.0
 11
0.0054133797596125
 21
0.0000000000000061
 31
0.0
210
0.0
220
0.0
230
1.0
 40
0.9374999999998873
 41
1.83777010231175
 42
4.452461315804514
  0
ELLIPSE
  5
2B00
330
1F
100
AcDbEntity
  8
AM_0
100
AcDbEllipse
 10
-9.399255798130649
 20
-1.15984286231613
 30
0.0
 11
-0.2389053242278252
 21
0.0000000000000195
 31
0.0
210
0.0
220
0.0
230
1.0
 40
0.937499999999968
 41
1.310868662202186
 42
1.485160221981302
  0
ELLIPSE
  5
2B01
330
1F
100
AcDbEntity
  8
AM_0
100
AcDbEllipse
 10
-9.119676438427319
 20
1.893362510062051
 30
0.0
 11
-3.507636086322286
 21
0.0000000000001396
 31
0.0
210
0.0
220
0.0
230
1.0
 40
0.9374999999999793
 41
1.48516022198228
 42
1.530593023688154
  0
ELLIPSE
  5
2B02
330
1F
100
AcDbEntity
  8
AM_0
100
AcDbEllipse
 10
-8.903375786013061
 20
6.934555191171952
 30
0.0
 11
-8.889256865617586
 21
0.0000000000158404
 31
0.0
210
0.0
220
0.0
230
1.0
 40
0.9374999999968657
 41
1.530593023689804
 42
1.541841609080054
  0
ELLIPSE
  5
2B03
330
1F
100
AcDbEntity
  8
AM_0
100
AcDbEllipse
 10
-2.903180736907587
 20
201.1554355531622
 30
0.0
 11
216.1450689525213
 21
0.000000005414343
 31
0.0
210
0.0
220
0.0
230
1.0
 40
0.9375000000530238
 41
4.683434262644847
 42
4.685715422792929
  0
ELLIPSE
  5
2B04
330
1F
100
AcDbEntity
  8
AM_0
100
AcDbEllipse
 10
-8.549263125253443
 20
2.758696281371864
 30
0.0
 11
-4.446575391496513
 21
0.0000000000004377
 31
0.0
210
0.0
220
0.0
230
1.0
 40
0.9374999999995957
 41
1.544122769228391
 42
1.570796326794932
  0
ELLIPSE
  5
2B05
330
1F
100
AcDbEntity
  8
AM_0
100
AcDbEllipse
 10
-8.549263125242386
 20
20.87390323238819
 30
0.0
 11
23.76946280599188
 21
0.0000000000021284
 31
0.0
210
0.0
220
0.0
230
1.0
 40
0.9374999999968505
 41
4.712388980384129
 42
4.716453926124832
  0
LINE
  5
2B06
330
1F
100
AcDbEntity
  8
AM_0
100
AcDbLine
 10
-7.860657010083874
 20
-0.9317361759138549
 30
0.0
 11
-7.773996155175757
 21
-1.21546368111003
 31
0.0
  0
SPLINE
  5
2B07
330
1F
100
AcDbEntity
  8
AM_0
100
AcDbSpline
210
0.0
220
0.0
230
1.0
 70
     8
 71
     3
 72
     8
 73
     4
 74
     0
 42
0.0000000001
 43
0.0000000001
 40
0.0
 40
0.0
 40
0.0
 40
0.0
 40
5.706047288453516
 40
5.706047288453516
 40
5.706047288453516
 40
5.706047288453516
 10
-6.171088623343443
 20
-1.456016661197374
 30
0.0
 10
-6.779733667445165
 20
-1.456016661197374
 30
0.0
 10
-7.332918201748601
 20
-1.24279119430853
 30
0.0
 10
-7.860657010083874
 20
-0.9317361759138549
 30
0.0
  0
SPLINE
  5
2B08
330
1F
100
AcDbEntity
  8
AM_0
100
AcDbSpline
210
0.0
220
0.0
230
1.0
 70
     8
 71
     3
 72
     8
 73
     4
 74
     0
 42
0.0000000001
 43
0.0000000001
 40
0.0
 40
0.0
 40
0.0
 40
0.0
 40
4.038522933284047
 40
4.038522933284047
 40
4.038522933284047
 40
4.038522933284047
 10
-6.557652430291549
 20
-1.499999999999317
 30
0.0
 10
-6.988428209841864
 20
-1.499999999999317
 30
0.0
 10
-7.390196296392446
 20
-1.391374708620993
 30
0.0
 10
-7.773996155173723
 20
-1.215463681109966
 30
0.0
  0
SPLINE
  5
2B09
330
1F
100
AcDbEntity
  8
AM_0
100
AcDbSpline
210
0.0
220
0.0
230
1.0
 70
     8
 71
     3
 72
     8
 73
     4
 74
     0
 42
0.0000000001
 43
0.0000000001
 40
0.0
 40
0.0
 40
0.0
 40
0.0
 40
7.009223135314643
 40
7.009223135314643
 40
7.009223135314643
 40
7.009223135314643
 10
-5.793530641924505
 20
-1.360051669224439
 30
0.0
 10
-6.541181109691592
 20
-1.360051669224439
 30
0.0
 10
-7.213241826482613
 20
-1.051171960121955
 30
0.0
 10
-7.860657010083874
 20
-0.641584085902629
 30
0.0
  0
SPLINE
  5
2B0A
330
1F
100
AcDbEntity
  8
AM_0
100
AcDbSpline
210
0.0
220
0.0
230
1.0
 70
     8
 71
     3
 72
     8
 73
     4
 74
     0
 42
0.0000000001
 43
0.0000000001
 40
0.0
 40
0.0
 40
0.0
 40
0.0
 40
2.754526791728521
 40
2.754526791728521
 40
2.754526791728521
 40
2.754526791728521
 10
-6.171088623343587
 20
-1.456016661197374
 30
0.0
 10
-5.877272432226076
 20
-1.456016661197374
 30
0.0
 10
-5.596380543955804
 20
-1.40632742251369
 30
0.0
 10
-5.325036432341354
 20
-1.319930458953948
 30
0.0
  0
POLYLINE
  5
2B0B
330
1F
100
AcDbEntity
  8
AM_0
100
AcDb2dPolyline
 66
     1
 10
0.0
 20
0.0
 30
0.0
 70
     2
  0
VERTEX
  5
2B0C
330
2B0B
100
AcDbEntity
  8
AM_0
100
AcDbVertex
100
AcDb2dVertex
 10
-7.860657010084015
 20
1.500000000000703
 30
0.0
 42
0.021906895434734
  0
VERTEX
  5
2B0D
330
2B0B
100
AcDbEntity
  8
AM_0
100
AcDbVertex
100
AcDb2dVertex
 10
-8.220583740358325
 20
1.476440569388955
 30
0.0
 42
0.0324199514990089
 70
     1
  0
VERTEX
  5
2B0E
330
2B0B
100
AcDbEntity
  8
AM_0
100
AcDbVertex
100
AcDb2dVertex
 10
-8.46065701008387
 20
1.435872934708797
 30
0.0
 42
0.0201411646801006
  0
VERTEX
  5
2B0F
330
2B0B
100
AcDbEntity
  8
AM_0
100
AcDbVertex
100
AcDb2dVertex
 10
-9.021239207271335
 20
1.282799273676957
 30
0.0
 42
0.0450475812707586
 70
     1
  0
VERTEX
  5
2B10
330
2B0B
100
AcDbEntity
  8
AM_0
100
AcDbVertex
100
AcDb2dVertex
 10
-9.260657010083869
 20
1.184245869417168
 30
0.0
 42
0.0705235240614635
  0
VERTEX
  5
2B11
330
2B0B
100
AcDbEntity
  8
AM_0
100
AcDbVertex
100
AcDb2dVertex
 10
-9.431130166818675
 20
1.064111231402257
 30
0.0
 42
0.2003780791347506
 70
     1
  0
VERTEX
  5
2B12
330
2B0B
100
AcDbEntity
  8
AM_0
100
AcDbVertex
100
AcDb2dVertex
 10
-9.460657010084013
 20
0.9967458694174382
 30
0.0
 42
0.1302188019897481
  0
VERTEX
  5
2B13
330
2B0B
100
AcDbEntity
  8
AM_0
100
AcDbVertex
100
AcDb2dVertex
 10
-9.435092642076394
 20
0.9082994192693831
 30
0.0
 42
0.0390250736119977
 70
     1
  0
VERTEX
  5
2B14
330
2B0B
100
AcDbEntity
  8
AM_0
100
AcDbVertex
100
AcDb2dVertex
 10
-9.253299722913268
 20
0.6600395975117621
 30
0.0
 42
0.0142833409954576
  0
VERTEX
  5
2B15
330
2B0B
100
AcDbEntity
  8
AM_0
100
AcDbVertex
100
AcDb2dVertex
 10
-8.989087253143281
 20
0.3707987874742002
 30
0.0
 42
0.0074968472652126
 70
     1
  0
VERTEX
  5
2B16
330
2B0B
100
AcDbEntity
  8
AM_0
100
AcDbVertex
100
AcDb2dVertex
 10
-8.46065701008387
 20
-0.1591253801483106
 30
0.0
 42
0.0237820438473651
  0
VERTEX
  5
2B17
330
2B0B
100
AcDbEntity
  8
AM_0
100
AcDbVertex
100
AcDb2dVertex
 10
-8.261973340349998
 20
-0.3349271272918486
 30
0.0
 42
0.0125443765840406
 70
     1
  0
VERTEX
  5
2B18
330
2B0B
100
AcDbEntity
  8
AM_0
100
AcDbVertex
100
AcDb2dVertex
 10
-7.860657010084015
 20
-0.6415840859026929
 30
0.0
  0
SEQEND
  5
2B19
330
2B0B
100
AcDbEntity
  8
AM_0
  0
LINE
  5
2B1A
330
1F
100
AcDbEntity
  8
AM_11
100
AcDbLine
 10
-6.000000000000056
 20
-1.499999999999998
 30
0.0
 11
-6.000000000000056
 21
1.49999999999999
 31
0.0
  0
LINE
  5
2B1B
330
1F
100
AcDbEntity
  8
AM_0
100
AcDbLine
 10
-1.81945022913679
 20
-1.216252806431492
 30
0.0
 11
-5.173634144099401
 21
-1.290076257091278
 31
0.0
  0
SPLINE
  5
2B1C
330
1F
100
AcDbEntity
  8
AM_0
100
AcDbSpline
210
0.0
220
0.0
230
1.0
 70
     8
 71
     3
 72
     8
 73
     4
 74
     0
 42
0.0000000001
 43
0.0000000001
 40
2.760385419276007
 40
2.760385419276007
 40
2.760385419276007
 40
2.760385419276007
 40
10.61176705360609
 40
10.61176705360609
 40
10.61176705360609
 40
10.61176705360609
 10
-1.500000000000899
 20
-1.34995642787048
 30
0.0
 10
-2.183859400907735
 20
-1.109812568632129
 30
0.0
 10
-2.873155915599694
 20
-0.5549062843157629
 30
0.0
 10
-3.562452430291656
 20
0.0000000000006821
 30
0.0
  0
SPLINE
  5
2B1D
330
1F
100
AcDbEntity
  8
AM_0
100
AcDbSpline
210
0.0
220
0.0
230
1.0
 70
     8
 71
     3
 72
     8
 73
     4
 74
     0
 42
0.0000000001
 43
0.0000000001
 40
5.3774483993125
 40
5.3774483993125
 40
5.3774483993125
 40
5.3774483993125
 40
10.40010926382874
 40
10.40010926382874
 40
10.40010926382874
 40
10.40010926382874
 10
-1.500000000000899
 20
-0.9086440592549678
 30
0.0
 10
-1.887570002404012
 20
-0.6568275505035715
 30
0.0
 10
-2.342950322164309
 20
-0.3284137752514482
 30
0.0
 10
-2.798330641924898
 20
0.0000000000006821
 30
0.0
  0
SPLINE
  5
2B1E
330
1F
100
AcDbEntity
  8
AM_0
100
AcDbSpline
210
0.0
220
0.0
230
1.0
 70
     8
 71
     3
 72
     8
 73
     4
 74
     0
 42
0.0000000001
 43
0.0000000001
 40
3.83382056918599
 40
3.83382056918599
 40
3.83382056918599
 40
3.83382056918599
 40
10.54348061741694
 40
10.54348061741694
 40
10.54348061741694
 40
10.54348061741694
 10
-1.43255661265911
 20
-1.202246875278184
 30
0.0
 10
-1.985500360937935
 20
-0.9265798625412386
 30
0.0
 10
-2.580694492140814
 20
-0.4632899312702464
 30
0.0
 10
-3.175888623343694
 20
0.0000000000006821
 30
0.0
  0
SPLINE
  5
2B1F
330
1F
100
AcDbEntity
  8
AM_0
100
AcDbSpline
210
0.0
220
0.0
230
1.0
 70
     8
 71
     3
 72
     8
 73
     4
 74
     0
 42
0.0000000001
 43
0.0000000001
 40
1.494727388119111
 40
1.494727388119111
 40
1.494727388119111
 40
1.494727388119111
 40
10.40010926382874
 40
10.40010926382874
 40
10.40010926382874
 40
10.40010926382874
 10
-5.325036432341354
 20
1.319930458955326
 30
0.0
 10
-4.413146276721003
 20
1.164581946006791
 30
0.0
 10
-3.605738459322807
 20
0.5822909730037438
 30
0.0
 10
-2.798330641924898
 20
0.0000000000006821
 30
0.0
  0
SPLINE
  5
2B20
330
1F
100
AcDbEntity
  8
AM_0
100
AcDbSpline
210
0.0
220
0.0
230
1.0
 70
     8
 71
     3
 72
     8
 73
     4
 74
     0
 42
0.0000000001
 43
0.0000000001
 40
0.0
 40
0.0
 40
0.0
 40
0.0
 40
3.183530116081869
 40
3.183530116081869
 40
3.183530116081869
 40
3.183530116081869
 10
-6.557652430291694
 20
1.500000000000696
 30
0.0
 10
-5.425730611240362
 20
1.500000000000696
 30
0.0
 10
-4.494091520766009
 20
0.7500000000006893
 30
0.0
 10
-3.562452430291656
 20
0.0000000000006821
 30
0.0
  0
SPLINE
  5
2B21
330
1F
100
AcDbEntity
  8
AM_0
100
AcDbSpline
210
0.0
220
0.0
230
1.0
 70
     8
 71
     3
 72
     8
 73
     4
 74
     0
 42
0.0000000001
 43
0.0000000001
 40
0.3080988623970067
 40
0.3080988623970067
 40
0.3080988623970067
 40
0.3080988623970067
 40
10.54348061741694
 40
10.54348061741694
 40
10.54348061741694
 40
10.54348061741694
 10
-6.072977343742881
 20
1.454169865869666
 30
0.0
 10
-4.991789610105536
 20
1.413469319080462
 30
0.0
 10
-4.083839116724615
 20
0.706734659540544
 30
0.0
 10
-3.175888623343694
 20
0.0000000000006821
 30
0.0
  0
VIEWPORT
  5
110
330
101
100
AcDbEntity
 67
     1
  8
0
100
AcDbViewport
 10
420.5
 20
297.0
 30
0.0
 40
948.9782706766916
 41
628.452
 68
     1
 69
     1
1001
ACAD
1000
MVIEW
1002
{
1070
    16
1010
0.0
1020
0.0
1030
0.0
1010
0.0
1020
0.0
1030
1.0
1040
0.0
1040
628.452
1040
420.5
1040
297.0
1040
50.0
1040
0.0
1040
0.0
1070
     0
1070
   100
1070
     1
1070
     1
1070
     0
1070
     0
1070
     0
1070
     0
1040
0.0
1040
0.0
1040
0.0
1040
10.0
1040
10.0
1040
10.0
1040
10.0
1070
     0
1002
{
1002
}
1002
}
  0
ENDSEC
  0
SECTION
  2
OBJECTS
  0
DICTIONARY
  5
C
330
0
100
AcDbDictionary
  3
ACAD_GROUP
350
D
  3
ACAD_LAYOUT
350
1A
  3
ACAD_MLINESTYLE
350
17
  3
ACAD_PLOTSETTINGS
350
19
  3
ACAD_PLOTSTYLENAME
350
E
  3
ACDBVARIABLEDICTIONARY
350
34
  3
ACMDICTIONARY
350
43
  3
AMG
350
2B
  3
AMGSNAPSETTINGS
350
6E
  3
DWGPROPS
350
2BDD
  3
ACDBHEADERROUNDTRIPXREC
350
2BEA
  0
DICTIONARY
  5
74
330
1F
100
AcDbDictionary
280
     1
  3
ACAD_INDEX
360
2BDF
  3
ACAD_LAYOUTSELFREF
360
2C0D
  0
DICTIONARY
  5
2C12
330
101
100
AcDbDictionary
280
     1
  3
ACAD_LAYOUTSELFREF
360
2C13
  0
DICTIONARY
  5
D
102
{ACAD_REACTORS
330
C
102
}
330
C
100
AcDbDictionary
  0
DICTIONARY
  5
1A
102
{ACAD_REACTORS
330
C
102
}
330
C
100
AcDbDictionary
  0
DICTIONARY
  5
17
102
{ACAD_REACTORS
330
C
102
}
330
C
100
AcDbDictionary
  3
STANDARD
350
18
  0
DICTIONARY
  5
19
102
{ACAD_REACTORS
330
C
102
}
330
C
100
AcDbDictionary
  0
ACDBDICTIONARYWDFLT
  5
E
102
{ACAD_REACTORS
330
C
102
}
330
C
100
AcDbDictionary
281
     1
  3
Normal
350
F
100
AcDbDictionaryWithDefault
340
F
  0
DICTIONARY
  5
34
102
{ACAD_REACTORS
330
C
102
}
330
C
100
AcDbDictionary
  3
INDEXCTL
350
35
  3
SORTENTS
350
B5E
  0
DICTIONARY
  5
43
102
{ACAD_REACTORS
330
C
102
}
330
C
100
AcDbDictionary
  3
ACMSTDDICTIONARY
350
260
  0
DICTIONARY
  5
2B
102
{ACAD_REACTORS
330
C
102
}
330
C
100
AcDbDictionary
  3
ACMGSETTINGS
350
2C
  0
DICTIONARY
  5
6E
102
{ACAD_REACTORS
330
C
102
}
330
C
100
AcDbDictionary
  0
XRECORD
  5
2BDD
102
{ACAD_REACTORS
330
C
102
}
330
C
100
AcDbXrecord
  1
DWGPROPS COOKIE
  2

  3

  4

  6

  7

  8

  9

300
AmdtFileType=82
301
=
302
=
303
=
304
=
305
=
306
=
307
=
308
=
309
=
 40
0.4582584606481481
 41
2452838.620506898
 42
2452850.732185138
  1

 90
        1
  0
DICTIONARY
  5
2BEA
102
{ACAD_REACTORS
330
C
102
}
330
C
100
AcDbDictionary
  3
TSTACKALIGN
350
2BEB
  3
TSTACKSIZE
350
2BEC
  3
HYPERLINKBASE
350
2BED
  3
STYLESHEET
350
2BEE
  3
LAYOUTDICT
350
2BEF
  3
PLOTSETDICT
350
2BF0
  3
PLOTSTYLNAMDICT
350
2BF1
  3
LWETCUNION
350
2BF2
  3
INSUNITS
350
2BF3
  3
CEPSNTYPE
350
2BF4
  3
FINGERPRINTGUID
350
2BF5
  3
VERSIONGUID
350
2BF6
  3
PSVPSCALE
350
2BF7
  3
DIMSTYLEDATA
350
2BF8
  3
PUCSORTHOREF
350
2BF9
  3
PUCSORTHOVIEW
350
2BFA
  3
PUCSBASE
350
2BFB
  3
PUCSORGTOP
350
2BFC
  3
PUCSORGBOTTOM
350
2BFD
  3
PUCSORGLEFT
350
2BFE
  3
PUCSORGRIGHT
350
2BFF
  3
PUCSORGFRONT
350
2C00
  3
PUCSORGBACK
350
2C01
  3
UCSORTHOREF
350
2C02
  3
UCSORTHOVIEW
350
2C03
  3
UCSBASE
350
2C04
  3
UCSORGTOP
350
2C05
  3
UCSORGBOTTOM
350
2C06
  3
UCSORGLEFT
350
2C07
  3
UCSORGRIGHT
350
2C08
  3
UCSORGFRONT
350
2C09
  3
UCSORGBACK
350
2C0A
  0
DICTIONARY
  5
2BDF
102
{ACAD_REACTORS
330
74
102
}
330
74
100
AcDbDictionary
  3
*A1
350
2BE0
  0
XRECORD
  5
2C0D
102
{ACAD_REACTORS
330
74
102
}
330
74
100
AcDbXrecord
340
1F
  0
XRECORD
  5
2C13
102
{ACAD_REACTORS
330
2C12
102
}
330
2C12
100
AcDbXrecord
340
101
  0
MLINESTYLE
  5
18
102
{ACAD_REACTORS
330
17
102
}
330
17
100
AcDbMlineStyle
  2
STANDARD
 70
     0
  3

 62
   256
 51
90.0
 52
90.0
 71
     2
 49
0.5
 62
   256
  6
BYLAYER
 49
-0.5
 62
   256
  6
BYLAYER
  0
ACDBPLACEHOLDER
  5
F
102
{ACAD_REACTORS
330
E
102
}
330
E
100
AcDbPlaceHolder
280
     0
  0
DICTIONARYVAR
  5
35
102
{ACAD_REACTORS
330
34
102
}
330
34
100
DictionaryVariables
280
     0
  1
1
  0
DICTIONARYVAR
  5
B5E
102
{ACAD_REACTORS
330
34
102
}
330
34
100
DictionaryVariables
280
     0
  1
96
  0
DICTIONARY
  5
260
102
{ACAD_REACTORS
330
43
102
}
330
43
100
AcDbDictionary
  0
DICTIONARY
  5
2C
102
{ACAD_REACTORS
330
2B
102
}
330
2B
100
AcDbDictionary
  3
DWGSETTINGS
350
2D
  0
XRECORD
  5
2BEB
102
{ACAD_REACTORS
330
2BEA
102
}
330
2BEA
100
AcDbXrecord
 90
        1
  0
XRECORD
  5
2BEC
102
{ACAD_REACTORS
330
2BEA
102
}
330
2BEA
100
AcDbXrecord
 90
       70
  0
XRECORD
  5
2BED
102
{ACAD_REACTORS
330
2BEA
102
}
330
2BEA
100
AcDbXrecord
  1

  0
XRECORD
  5
2BEE
102
{ACAD_REACTORS
330
2BEA
102
}
330
2BEA
100
AcDbXrecord
  1
ASAMI.ctb
  0
XRECORD
  5
2BEF
102
{ACAD_REACTORS
330
2BEA
102
}
330
2BEA
100
AcDbXrecord
340
1A
  0
XRECORD
  5
2BF0
102
{ACAD_REACTORS
330
2BEA
102
}
330
2BEA
100
AcDbXrecord
340
19
  0
XRECORD
  5
2BF1
102
{ACAD_REACTORS
330
2BEA
102
}
330
2BEA
100
AcDbXrecord
340
E
  0
XRECORD
  5
2BF2
102
{ACAD_REACTORS
330
2BEA
102
}
330
2BEA
100
AcDbXrecord
 90
    10781
  0
XRECORD
  5
2BF3
102
{ACAD_REACTORS
330
2BEA
102
}
330
2BEA
100
AcDbXrecord
 90
        4
  0
XRECORD
  5
2BF4
102
{ACAD_REACTORS
330
2BEA
102
}
330
2BEA
100
AcDbXrecord
 90
        0
  0
XRECORD
  5
2BF5
102
{ACAD_REACTORS
330
2BEA
102
}
330
2BEA
100
AcDbXrecord
  1
{AFB28963-8C59-40AE-9337-C84526B81ACE}
  0
XRECORD
  5
2BF6
102
{ACAD_REACTORS
330
2BEA
102
}
330
2BEA
100
AcDbXrecord
  1
{AE737A08-7E66-46C4-BA24-DFB31B2EEB1A}
  0
XRECORD
  5
2BF7
102
{ACAD_REACTORS
330
2BEA
102
}
330
2BEA
100
AcDbXrecord
 40
0.0
  0
XRECORD
  5
2BF8
102
{ACAD_REACTORS
330
2BEA
102
}
330
2BEA
100
AcDbXrecord
1000
DSTYLE
1002
{
1070
    79
 70
     2
1070
   341
340
59
1070
   342
340
59
1070
   371
 70
    -1
1070
   372
 70
    -1
1002
}
  0
XRECORD
  5
2BF9
102
{ACAD_REACTORS
330
2BEA
102
}
330
2BEA
100
AcDbXrecord
340
0
  0
XRECORD
  5
2BFA
102
{ACAD_REACTORS
330
2BEA
102
}
330
2BEA
100
AcDbXrecord
 70
     0
  0
XRECORD
  5
2BFB
102
{ACAD_REACTORS
330
2BEA
102
}
330
2BEA
100
AcDbXrecord
340
0
  0
XRECORD
  5
2BFC
102
{ACAD_REACTORS
330
2BEA
102
}
330
2BEA
100
AcDbXrecord
 10
0.0
 20
0.0
 30
0.0
  0
XRECORD
  5
2BFD
102
{ACAD_REACTORS
330
2BEA
102
}
330
2BEA
100
AcDbXrecord
 10
0.0
 20
0.0
 30
0.0
  0
XRECORD
  5
2BFE
102
{ACAD_REACTORS
330
2BEA
102
}
330
2BEA
100
AcDbXrecord
 10
0.0
 20
0.0
 30
0.0
  0
XRECORD
  5
2BFF
102
{ACAD_REACTORS
330
2BEA
102
}
330
2BEA
100
AcDbXrecord
 10
0.0
 20
0.0
 30
0.0
  0
XRECORD
  5
2C00
102
{ACAD_REACTORS
330
2BEA
102
}
330
2BEA
100
AcDbXrecord
 10
0.0
 20
0.0
 30
0.0
  0
XRECORD
  5
2C01
102
{ACAD_REACTORS
330
2BEA
102
}
330
2BEA
100
AcDbXrecord
 10
0.0
 20
0.0
 30
0.0
  0
XRECORD
  5
2C02
102
{ACAD_REACTORS
330
2BEA
102
}
330
2BEA
100
AcDbXrecord
340
0
  0
XRECORD
  5
2C03
102
{ACAD_REACTORS
330
2BEA
102
}
330
2BEA
100
AcDbXrecord
 70
     0
  0
XRECORD
  5
2C04
102
{ACAD_REACTORS
330
2BEA
102
}
330
2BEA
100
AcDbXrecord
340
0
  0
XRECORD
  5
2C05
102
{ACAD_REACTORS
330
2BEA
102
}
330
2BEA
100
AcDbXrecord
 10
0.0
 20
0.0
 30
0.0
  0
XRECORD
  5
2C06
102
{ACAD_REACTORS
330
2BEA
102
}
330
2BEA
100
AcDbXrecord
 10
0.0
 20
0.0
 30
0.0
  0
XRECORD
  5
2C07
102
{ACAD_REACTORS
330
2BEA
102
}
330
2BEA
100
AcDbXrecord
 10
0.0
 20
0.0
 30
0.0
  0
XRECORD
  5
2C08
102
{ACAD_REACTORS
330
2BEA
102
}
330
2BEA
100
AcDbXrecord
 10
0.0
 20
0.0
 30
0.0
  0
XRECORD
  5
2C09
102
{ACAD_REACTORS
330
2BEA
102
}
330
2BEA
100
AcDbXrecord
 10
0.0
 20
0.0
 30
0.0
  0
XRECORD
  5
2C0A
102
{ACAD_REACTORS
330
2BEA
102
}
330
2BEA
100
AcDbXrecord
 10
0.0
 20
0.0
 30
0.0
  0
LAYER_INDEX
  5
2BE0
102
{ACAD_REACTORS
330
2BDF
102
}
330
2BDF
100
AcDbIndex
 40
2453151.875273726
100
AcDbLayerIndex
  8
0
360
2BE1
 90
        0
  8
AM_0
360
2BE2
 90
       61
  8
AM_11
360
2BE3
 90
        4
  8
AM_7
360
2BE4
 90
        2
  8
AM_5
360
2BE5
 90
        5
  8
Defpoints
360
2BE6
 90
        0
  8
AM_6
360
2BE7
 90
        1
  8
AM_CL
360
2BE8
 90
        0
  0
XRECORD
  5
2D
102
{ACAD_REACTORS
330
2C
102
}
330
2C
100
AcDbXrecord
  1
VERSION
140
15.0
  1
PRODUCT
  2
AutoCAD Mechanical 2000
  0
IDBUFFER
  5
2BE1
330
0
100
AcDbIdBuffer
  0
IDBUFFER
  5
2BE2
330
0
100
AcDbIdBuffer
330
2B06
330
2B07
330
2B08
330
2B09
330
2B0A
330
2B0B
330
2B1B
330
2B1C
330
2B1D
330
2B1E
330
2B1F
330
2B20
330
2B21
330
244E
330
2456
330
2463
330
2466
330
246E
330
246F
330
2472
330
2473
330
2474
330
2475
330
2476
330
2477
330
2A87
330
2A88
330
2A8C
330
2A91
330
2A92
330
2A93
330
2A94
330
2A95
330
2A96
330
2A97
330
2A98
330
2A99
330
2A9A
330
2A9B
330
2A9C
330
2A9D
330
2A9E
330
2A9F
330
2AA0
330
2AB3
330
2AF6
330
2AF7
330
2AF8
330
2AF9
330
2AFA
330
2AFB
330
2AFC
330
2AFD
330
2AFE
330
2AFF
330
2B00
330
2B01
330
2B02
330
2B03
330
2B04
330
2B05
  0
IDBUFFER
  5
2BE3
330
0
100
AcDbIdBuffer
330
2AB4
330
2AB5
330
2AB6
330
2B1A
  0
IDBUFFER
  5
2BE4
330
0
100
AcDbIdBuffer
330
C50
330
2156
  0
IDBUFFER
  5
2BE5
330
0
100
AcDbIdBuffer
330
C4F
330
18C3
330
195B
330
21D2
330
2347
  0
IDBUFFER
  5
2BE6
330
0
100
AcDbIdBuffer
  0
IDBUFFER
  5
2BE7
330
0
100
AcDbIdBuffer
330
C58
  0
IDBUFFER
  5
2BE8
330
0
100
AcDbIdBuffer
  0
ENDSEC
  0
EOF
