  0
SECTION
  2
HEADER
  9
$ACADVER
  1
AC1014
  9
$ACADMAINTVER
 70
     9
  9
$DWGCODEPAGE
  3
ANSI_932
  9
$INSBASE
 10
0.0
 20
0.0
 30
0.0
  9
$EXTMIN
 10
-88.56481817191886
 20
-30.37256601505728
 30
-0.00000001
  9
$EXTMAX
 10
10.96859952920058
 20
5.499999999999998
 30
0.00000001
  9
$LIMMIN
 10
-102.8918302559077
 20
-48.97230512341268
  9
$LIMMAX
 10
26.80541369835214
 20
19.9735309092546
  9
$ORTHOMODE
 70
     0
  9
$REGENMODE
 70
     1
  9
$FILLMODE
 70
     1
  9
$QTEXTMODE
 70
     0
  9
$MIRRTEXT
 70
     0
  9
$DRAGMODE
 70
     2
  9
$LTSCALE
 40
0.3
  9
$OSMODE
 70
    55
  9
$ATTMODE
 70
     1
  9
$TEXTSIZE
 40
2.5
  9
$TRACEWID
 40
1.0
  9
$TEXTSTYLE
  7
STANDARD
  9
$CLAYER
  8
AM_11
  9
$CELTYPE
  6
BYLAYER
  9
$CECOLOR
 62
   256
  9
$CELTSCALE
 40
1.0
  9
$DELOBJ
 70
     1
  9
$DISPSILH
 70
     0
  9
$DIMSCALE
 40
0.3333333333333333
  9
$DIMASZ
 40
2.5
  9
$DIMEXO
 40
1.0
  9
$DIMDLI
 40
12.0
  9
$DIMRND
 40
0.0
  9
$DIMDLE
 40
0.0
  9
$DIMEXE
 40
1.0
  9
$DIMTP
 40
0.1
  9
$DIMTM
 40
0.1
  9
$DIMTXT
 40
3.2
  9
$DIMCEN
 40
0.0
  9
$DIMTSZ
 40
0.0
  9
$DIMTOL
 70
     0
  9
$DIMLIM
 70
     0
  9
$DIMTIH
 70
     0
  9
$DIMTOH
 70
     0
  9
$DIMSE1
 70
     0
  9
$DIMSE2
 70
     0
  9
$DIMTAD
 70
     3
  9
$DIMZIN
 70
     8
  9
$DIMBLK
  1
OPEN30
  9
$DIMASO
 70
     1
  9
$DIMSHO
 70
     1
  9
$DIMPOST
  1

  9
$DIMAPOST
  1
"
  9
$DIMALT
 70
     0
  9
$DIMALTD
 70
     2
  9
$DIMALTF
 40
0.0393701
  9
$DIMLFAC
 40
1.0
  9
$DIMTOFL
 70
     1
  9
$DIMTVP
 40
0.0
  9
$DIMTIX
 70
     0
  9
$DIMSOXD
 70
     0
  9
$DIMSAH
 70
     0
  9
$DIMBLK1
  1

  9
$DIMBLK2
  1

  9
$DIMSTYLE
  2
AM_JIS
  9
$DIMCLRD
 70
   256
  9
$DIMCLRE
 70
   256
  9
$DIMCLRT
 70
     2
  9
$DIMTFAC
 40
0.71
  9
$DIMGAP
 40
1.5
  9
$DIMJUST
 70
     0
  9
$DIMSD1
 70
     0
  9
$DIMSD2
 70
     0
  9
$DIMTOLJ
 70
     0
  9
$DIMTZIN
 70
     0
  9
$DIMALTZ
 70
     0
  9
$DIMALTTZ
 70
     0
  9
$DIMFIT
 70
     3
  9
$DIMUPT
 70
     0
  9
$DIMUNIT
 70
     2
  9
$DIMDEC
 70
     3
  9
$DIMTDEC
 70
     3
  9
$DIMALTU
 70
     2
  9
$DIMALTTD
 70
     2
  9
$DIMTXSTY
  7
ASAMI
  9
$DIMAUNIT
 70
     0
  9
$LUNITS
 70
     2
  9
$LUPREC
 70
     2
  9
$SKETCHINC
 40
1.0
  9
$FILLETRAD
 40
1.0
  9
$AUNITS
 70
     0
  9
$AUPREC
 70
     0
  9
$MENU
  1
.
  9
$ELEVATION
 40
0.0
  9
$PELEVATION
 40
0.0
  9
$THICKNESS
 40
0.0
  9
$LIMCHECK
 70
     0
  9
$BLIPMODE
 70
     0
  9
$CHAMFERA
 40
1.0
  9
$CHAMFERB
 40
1.0
  9
$CHAMFERC
 40
20.0
  9
$CHAMFERD
 40
0.0
  9
$SKPOLY
 70
     0
  9
$TDCREATE
 40
2452838.620506898
  9
$TDUPDATE
 40
2453151.875825324
  9
$TDINDWG
 40
0.4678735417
  9
$TDUSRTIMER
 40
0.4678735417
  9
$USRTIMER
 70
     1
  9
$ANGBASE
 50
0.0
  9
$ANGDIR
 70
     0
  9
$PDMODE
 70
     0
  9
$PDSIZE
 40
0.0
  9
$PLINEWID
 40
0.0
  9
$COORDS
 70
     1
  9
$SPLFRAME
 70
     0
  9
$SPLINETYPE
 70
     6
  9
$SPLINESEGS
 70
     8
  9
$ATTDIA
 70
     1
  9
$ATTREQ
 70
     1
  9
$HANDLING
 70
 12289
  9
$HANDSEED
  5
2E93
  9
$SURFTAB1
 70
     6
  9
$SURFTAB2
 70
     6
  9
$SURFTYPE
 70
     6
  9
$SURFU
 70
     6
  9
$SURFV
 70
     6
  9
$UCSNAME
  2

  9
$UCSORG
 10
-0.0000000000000568
 20
-0.0000000000000036
 30
0.0
  9
$UCSXDIR
 10
1.0
 20
0.0
 30
0.0
  9
$UCSYDIR
 10
0.0
 20
1.0
 30
0.0
  9
$PUCSNAME
  2

  9
$PUCSORG
 10
0.0
 20
0.0
 30
0.0
  9
$PUCSXDIR
 10
1.0
 20
0.0
 30
0.0
  9
$PUCSYDIR
 10
0.0
 20
1.0
 30
0.0
  9
$USERI1
 70
     0
  9
$USERI2
 70
     0
  9
$USERI3
 70
     0
  9
$USERI4
 70
     0
  9
$USERI5
 70
     0
  9
$USERR1
 40
0.0
  9
$USERR2
 40
0.0
  9
$USERR3
 40
0.0
  9
$USERR4
 40
0.0
  9
$USERR5
 40
0.0
  9
$WORLDVIEW
 70
     1
  9
$SHADEDGE
 70
     3
  9
$SHADEDIF
 70
    70
  9
$TILEMODE
 70
     1
  9
$MAXACTVP
 70
    64
  9
$PINSBASE
 10
0.0
 20
0.0
 30
0.0
  9
$PLIMCHECK
 70
     0
  9
$PEXTMIN
 10
0.0
 20
0.0
 30
0.0
  9
$PEXTMAX
 10
420.0
 20
297.0
 30
0.0
  9
$PLIMMIN
 10
0.0
 20
0.0
  9
$PLIMMAX
 10
420.0
 20
297.0
  9
$UNITMODE
 70
     0
  9
$VISRETAIN
 70
     1
  9
$PLINEGEN
 70
     0
  9
$PSLTSCALE
 70
     0
  9
$TREEDEPTH
 70
  3020
  9
$PICKSTYLE
 70
     0
  9
$CMLSTYLE
  2
STANDARD
  9
$CMLJUST
 70
     0
  9
$CMLSCALE
 40
20.0
  9
$PROXYGRAPHICS
 70
     1
  9
$MEASUREMENT
 70
     1
  0
ENDSEC
  0
SECTION
  2
CLASSES
  0
CLASS
  1
ACDBDICTIONARYWDFLT
  2
AcDbDictionaryWithDefault
  3
AutoCAD 2000
 90
        0
280
     0
281
     0
  0
CLASS
  1
ACDBPLACEHOLDER
  2
AcDbPlaceHolder
  3
AutoCAD 2000
 90
        0
280
     0
281
     0
  0
CLASS
  1
LAYOUT
  2
AcDbLayout
  3
AutoCAD 2000
 90
        0
280
     0
281
     0
  0
CLASS
  1
AMGSETTINGSOBJ
  2
AmgSettingsObj
  3
"AcadM|Product Description: AutoCAD Mechanical 2000|Company: Autodesk"
 90
        0
280
     0
281
     0
  0
CLASS
  1
ACME_DOCUMENT
  2
AcMeDbDoc
  3
AcMeServices
 90
        0
280
     0
281
     0
  0
CLASS
  1
ACMESCOPE
  2
AcMeScope
  3
AcMeServices
 90
        0
280
     0
281
     0
  0
CLASS
  1
ACMECOMMANDHISTORY
  2
AcMeCommandHistory
  3
AcMeServices
 90
        0
280
     0
281
     0
  0
CLASS
  1
DICTIONARYVAR
  2
AcDbDictionaryVar
  3
AutoCAD 2000
 90
        0
280
     0
281
     0
  0
CLASS
  1
ACIMSYSVARMAN
  2
AcImSysVarManager
  3
AcMeServices
 90
        0
280
     0
281
     0
  0
CLASS
  1
ACIMREALSYSVAR
  2
AcImRealSysVar
  3
AcMeServices
 90
        0
280
     0
281
     0
  0
CLASS
  1
ACIMINTSYSVAR
  2
AcImIntSysVar
  3
AcMeServices
 90
        0
280
     0
281
     0
  0
CLASS
  1
ACMEDRAWINGMAN
  2
AcMeDrawingMan
  3
AcMeServices
 90
        0
280
     0
281
     0
  0
CLASS
  1
ACMEVIEW
  2
AcMeView
  3
AcMeServices
 90
        0
280
     0
281
     0
  0
CLASS
  1
ACDBENTITYCACHE
  2
AcMeEntityCache
  3
AcMeServices
 90
        0
280
     0
281
     0
  0
CLASS
  1
GSMANAGER
  2
AcMeGSManager
  3
AcMeServices
 90
        0
280
     0
281
     0
  0
CLASS
  1
AmdtInternalReactor
  2
AmdtInternalReactor
  3
AcMeServices
 90
        0
280
     0
281
     0
  0
CLASS
  1
ACMESTATEMGR
  2
AcMeStateMgr
  3
AcMeServices
 90
        0
280
     0
281
     0
  0
CLASS
  1
ACME_DATABASE
  2
AcMeDbDatabase
  3
AcMeServices
 90
        0
280
     0
281
     0
  0
CLASS
  1
ACRFINSADJUSTERMGR
  2
AcRfInsAdjusterMgr
  3
AcMeServices
 90
        0
280
     0
281
     0
  0
CLASS
  1
ACMDATADICTIONARY
  2
AcmDataDictionary
  3
"AcmSymBB|Product Description: AutoCAD Mechanical 2000|Company: Autodesk"
 90
        0
280
     0
281
     0
  0
CLASS
  1
ACMDATAENTRYBLOCK
  2
AcmDataEntryBlock
  3
"AcmSymBB|Product Description: AutoCAD Mechanical 2000|Company: Autodesk"
 90
        0
280
     0
281
     0
  0
CLASS
  1
AMGOBJPROPCFG
  2
AmgObjPropCfg
  3
"AmgLay|Product Description: AutoCAD Mechanical 2000|Company: Autodesk"
 90
        1
280
     0
281
     0
  0
CLASS
  1
ACAMGFILTERDAT
  2
AcAmgFilterDat
  3
"AcadM|Product Description: AutoCAD Mechanical 2000|Company: Autodesk"
 90
        0
280
     0
281
     0
  0
CLASS
  1
LAYER_INDEX
  2
AcDbLayerIndex
  3
AutoCAD 2000
 90
        0
280
     0
281
     0
  0
CLASS
  1
IDBUFFER
  2
AcDbIdBuffer
  3
AutoCAD 2000
 90
        0
280
     0
281
     0
  0
CLASS
  1
ACIMSTRSYSVAR
  2
AcImStrSysVar
  3
AcMeServices
 90
        0
280
     0
281
     0
  0
CLASS
  1
ACMSTANDARDJIS
  2
AcmStandardJIS
  3
"AcmSymBB|Product Description: AutoCAD Mechanical 2000|Company: Autodesk"
 90
        0
280
     0
281
     0
  0
CLASS
  1
ACMSURFSTANDARDJIS
  2
AcmSurfTextStdJIS
  3
"AcmSymBB|Product Description: AutoCAD Mechanical 2000|Company: Autodesk"
 90
        0
280
     0
281
     0
  0
CLASS
  1
ACMFCFSTANDARDJIS
  2
AcmFCFStdJIS
  3
"AcmSymBB|Product Description: AutoCAD Mechanical 2000|Company: Autodesk"
 90
        0
280
     0
281
     0
  0
CLASS
  1
ACMWELDSTANDARDJIS
  2
AcmWeldingStdJIS
  3
"AcmSymBB|Product Description: AutoCAD Mechanical 2000|Company: Autodesk"
 90
        0
280
     0
281
     0
  0
CLASS
  1
ACMIDSTANDARDJIS
  2
AcmIdStdJIS
  3
"AcmSymBB|Product Description: AutoCAD Mechanical 2000|Company: Autodesk"
 90
        0
280
     0
281
     0
  0
CLASS
  1
ACMDATUMSTANDARDJIS
  2
AcmDatumStdJIS
  3
"AcmSymBB|Product Description: AutoCAD Mechanical 2000|Company: Autodesk"
 90
        0
280
     0
281
     0
  0
CLASS
  1
ACMBOMSTANDARDJIS
  2
AcmBOMStdJIS
  3
"AcmSymBB|Product Description: AutoCAD Mechanical 2000|Company: Autodesk"
 90
        0
280
     0
281
     0
  0
CLASS
  1
ACMSTANDARDANSI
  2
AcmStandardANSI
  3
"AcmSymBB|Product Description: AutoCAD Mechanical 2000|Company: Autodesk"
 90
        0
280
     0
281
     0
  0
CLASS
  1
ACMSURFSTANDARDANSI
  2
AcmSurfTextStdANSI
  3
"AcmSymBB|Product Description: AutoCAD Mechanical 2000|Company: Autodesk"
 90
        0
280
     0
281
     0
  0
CLASS
  1
ACMFCFSTANDARDANSI
  2
AcmFCFStdANSI
  3
"AcmSymBB|Product Description: AutoCAD Mechanical 2000|Company: Autodesk"
 90
        0
280
     0
281
     0
  0
CLASS
  1
ACMWELDSTANDARDANSI
  2
AcmWeldingStdANSI
  3
"AcmSymBB|Product Description: AutoCAD Mechanical 2000|Company: Autodesk"
 90
        0
280
     0
281
     0
  0
CLASS
  1
ACMIDSTANDARDANSI
  2
AcmIdStdANSI
  3
"AcmSymBB|Product Description: AutoCAD Mechanical 2000|Company: Autodesk"
 90
        0
280
     0
281
     0
  0
CLASS
  1
ACMDATUMSTANDARDANSI
  2
AcmDatumStdANSI
  3
"AcmSymBB|Product Description: AutoCAD Mechanical 2000|Company: Autodesk"
 90
        0
280
     0
281
     0
  0
CLASS
  1
ACMBOMSTANDARDANSI
  2
AcmBOMStdANSI
  3
"AcmSymBB|Product Description: AutoCAD Mechanical 2000|Company: Autodesk"
 90
        0
280
     0
281
     0
  0
CLASS
  1
ACMSTANDARDBSI
  2
AcmStandardBSI
  3
"AcmSymBB|Product Description: AutoCAD Mechanical 2000|Company: Autodesk"
 90
        0
280
     0
281
     0
  0
CLASS
  1
ACMSURFSTANDARDBSI
  2
AcmSurfTextStdBSI
  3
"AcmSymBB|Product Description: AutoCAD Mechanical 2000|Company: Autodesk"
 90
        0
280
     0
281
     0
  0
CLASS
  1
ACMFCFSTANDARDBSI
  2
AcmFCFStdBSI
  3
"AcmSymBB|Product Description: AutoCAD Mechanical 2000|Company: Autodesk"
 90
        0
280
     0
281
     0
  0
CLASS
  1
ACMWELDSTANDARDBSI
  2
AcmWeldingStdBSI
  3
"AcmSymBB|Product Description: AutoCAD Mechanical 2000|Company: Autodesk"
 90
        0
280
     0
281
     0
  0
CLASS
  1
ACMIDSTANDARDBSI
  2
AcmIdStdBSI
  3
"AcmSymBB|Product Description: AutoCAD Mechanical 2000|Company: Autodesk"
 90
        0
280
     0
281
     0
  0
CLASS
  1
ACMDATUMSTANDARDBSI
  2
AcmDatumStdBSI
  3
"AcmSymBB|Product Description: AutoCAD Mechanical 2000|Company: Autodesk"
 90
        0
280
     0
281
     0
  0
CLASS
  1
ACMBOMSTANDARDBSI
  2
AcmBOMStdBSI
  3
"AcmSymBB|Product Description: AutoCAD Mechanical 2000|Company: Autodesk"
 90
        0
280
     0
281
     0
  0
CLASS
  1
LONG_TRANSACTION
  2
AcDbLongTransaction
  3
AutoCAD 2000
 90
        0
280
     0
281
     0
  0
CLASS
  1
LWPOLYLINE
  2
AcDbPolyline
  3
AutoCAD 2000
 90
        0
280
     0
281
     1
  0
CLASS
  1
HATCH
  2
AcDbHatch
  3
AutoCAD 2000
 90
        0
280
     0
281
     1
  0
CLASS
  1
XRECORD
  2
AcDbXrecord
  3
AutoCAD 2000
 90
        0
280
     0
281
     0
  0
ENDSEC
  0
SECTION
  2
TABLES
  0
TABLE
  2
VPORT
  5
8
330
0
100
AcDbSymbolTable
 70
     3
  0
VPORT
  5
2E68
330
8
100
AcDbSymbolTableRecord
100
AcDbViewportTableRecord
  2
*ACTIVE
 70
     0
 10
0.0
 20
0.0
 11
1.0
 21
1.0
 12
-38.79523667492284
 22
-12.43477813045663
 13
0.0
 23
0.0
 14
2.5
 24
2.5
 15
10.0
 25
10.0
 16
0.0
 26
0.0
 36
1.0
 17
0.0
 27
0.0
 37
0.0
 40
63.82804114674594
 41
1.56570841889117
 42
50.0
 43
0.0
 44
0.0
 50
0.0
 51
0.0
 71
     0
 72
   100
 73
     1
 74
     3
 75
     0
 76
     0
 77
     0
 78
     0
  0
ENDTAB
  0
TABLE
  2
LTYPE
  5
5
330
0
100
AcDbSymbolTable
 70
    10
  0
LTYPE
  5
14
330
5
100
AcDbSymbolTableRecord
100
AcDbLinetypeTableRecord
  2
BYBLOCK
 70
     0
  3

 72
    65
 73
     0
 40
0.0
  0
LTYPE
  5
15
330
5
100
AcDbSymbolTableRecord
100
AcDbLinetypeTableRecord
  2
BYLAYER
 70
     0
  3

 72
    65
 73
     0
 40
0.0
  0
LTYPE
  5
16
330
5
100
AcDbSymbolTableRecord
100
AcDbLinetypeTableRecord
  2
CONTINUOUS
 70
     0
  3
Solid line
 72
    65
 73
     0
 40
0.0
  0
LTYPE
  5
4B
330
5
100
AcDbSymbolTableRecord
100
AcDbLinetypeTableRecord
  2
AM_ISO02W050
 70
     0
  3
__ __ __ __ __ __ __ __ __ __ __ __ __ __ __
 72
    65
 73
     2
 40
7.5
 49
6.0
 74
     0
 49
-1.5
 74
     0
  0
LTYPE
  5
4C
330
5
100
AcDbSymbolTableRecord
100
AcDbLinetypeTableRecord
  2
AM_ISO08W050
 70
     0
  3
____ . ____ . ____ . ____ . ____ . ____ . ____
 72
    65
 73
     4
 40
18.0
 49
12.0
 74
     0
 49
-1.5
 74
     0
 49
3.0
 74
     0
 49
-1.5
 74
     0
  0
LTYPE
  5
4D
330
5
100
AcDbSymbolTableRecord
100
AcDbLinetypeTableRecord
  2
AM_ISO09W050
 70
     0
  3
_____ . . _____ . . _____ . . ____ .. ____
 72
    65
 73
     6
 40
22.5
 49
12.0
 74
     0
 49
-1.5
 74
     0
 49
3.0
 74
     0
 49
-1.5
 74
     0
 49
3.0
 74
     0
 49
-1.5
 74
     0
  0
LTYPE
  5
4E
330
5
100
AcDbSymbolTableRecord
100
AcDbLinetypeTableRecord
  2
AMCONSTR
 70
     0
  3
_______________________
 72
    65
 73
     2
 40
9999.0
 49
9999.0
 74
     0
 49
0.0
 74
     0
  0
LTYPE
  5
4F
330
5
100
AcDbSymbolTableRecord
100
AcDbLinetypeTableRecord
  2
AM_ISO02W050X2
 70
     0
  3
 _ _ _ _ _ _ _ _ _ _ _ _
 72
    65
 73
     2
 40
3.75
 49
3.0
 74
     0
 49
-0.75
 74
     0
  0
LTYPE
  5
50
330
5
100
AcDbSymbolTableRecord
100
AcDbLinetypeTableRecord
  2
AM_ISO08W050X2
 70
     0
  3
__ . __ . __ . __ . __ . __
 72
    65
 73
     4
 40
9.0
 49
6.0
 74
     0
 49
-0.75
 74
     0
 49
1.5
 74
     0
 49
-0.75
 74
     0
  0
LTYPE
  5
53
330
5
100
AcDbSymbolTableRecord
100
AcDbLinetypeTableRecord
  2
AMZIGZAG
 70
     0
  3
/\/-/\/-/\/-/\/-/\/-/\/
 72
    65
 73
     2
 40
11.00009999999999
 49
0.0001
 74
     4
 75
   135
340
52
 46
0.04
 50
0.0
 44
0.0
 45
0.0
 49
-11.0
 74
     0
  0
LTYPE
  5
166
330
5
100
AcDbSymbolTableRecord
100
AcDbLinetypeTableRecord
  2
ACJISTGL
 70
     0
  3
_ _ _ _ _
 72
    65
 73
     2
 40
3.0
 49
2.0
 74
     0
 49
-1.0
 74
     0
  0
LTYPE
  5
26A
330
5
100
AcDbSymbolTableRecord
100
AcDbLinetypeTableRecord
  2
ACJISTGB
 70
     0
  3
__ . . __ . .
 72
    65
 73
     6
 40
9.0
 49
4.0
 74
     0
 49
-1.0
 74
     0
 49
1.0
 74
     0
 49
-1.0
 74
     0
 49
1.0
 74
     0
 49
-1.0
 74
     0
  0
ENDTAB
  0
TABLE
  2
LAYER
  5
2
330
0
100
AcDbSymbolTable
 70
     9
  0
LAYER
  5
10
330
2
100
AcDbSymbolTableRecord
100
AcDbLayerTableRecord
  2
0
 70
     0
 62
     7
  6
CONTINUOUS
  0
LAYER
  5
3F9
330
2
100
AcDbSymbolTableRecord
100
AcDbLayerTableRecord
  2
AM_0
 70
     0
 62
     7
  6
CONTINUOUS
  0
LAYER
  5
BD6
330
2
100
AcDbSymbolTableRecord
100
AcDbLayerTableRecord
  2
AM_11
 70
     0
 62
     3
  6
AM_ISO09W050
  0
LAYER
  5
BD7
330
2
100
AcDbSymbolTableRecord
100
AcDbLayerTableRecord
  2
AM_7
 70
     0
 62
     4
  6
AM_ISO08W050
  0
LAYER
  5
BD8
330
2
100
AcDbSymbolTableRecord
100
AcDbLayerTableRecord
  2
AM_5
 70
     0
 62
     3
  6
CONTINUOUS
  0
LAYER
  5
BD9
330
2
100
AcDbSymbolTableRecord
100
AcDbLayerTableRecord
  2
DEFPOINTS
 70
     0
 62
     7
  6
CONTINUOUS
  0
LAYER
  5
BDA
330
2
100
AcDbSymbolTableRecord
100
AcDbLayerTableRecord
  2
AM_6
 70
     0
 62
     2
  6
CONTINUOUS
  0
LAYER
  5
1F9B
330
2
100
AcDbSymbolTableRecord
100
AcDbLayerTableRecord
  2
AM_CL
 70
     0
 62
     1
  6
AMCONSTR
  0
LAYER
  5
2CC7
330
2
100
AcDbSymbolTableRecord
100
AcDbLayerTableRecord
  2
AM_BOR
 70
     0
 62
     7
  6
CONTINUOUS
  0
ENDTAB
  0
TABLE
  2
STYLE
  5
3
330
0
100
AcDbSymbolTable
 70
     5
  0
STYLE
  5
11
330
3
100
AcDbSymbolTableRecord
100
AcDbTextStyleTableRecord
  2
STANDARD
 70
     0
 40
0.0
 41
1.0
 50
0.0
 71
     0
 42
2.5
  3
simplex.shx
  4
EXTFONT.SHX
  0
STYLE
  5
52
330
3
100
AcDbSymbolTableRecord
100
AcDbTextStyleTableRecord
  2

 70
     1
 40
0.0
 41
1.0
 50
0.0
 71
     0
 42
2.5
  3
ltypeshp.shx
  4

  0
STYLE
  5
6B
330
3
100
AcDbSymbolTableRecord
100
AcDbTextStyleTableRecord
  2
ASAMI
 70
     0
 40
0.0
 41
1.0
 50
0.0
 71
     0
 42
2.5
  3
simplex.shx
  4
EXTFONT.SHX
  0
STYLE
  5
262
330
3
100
AcDbSymbolTableRecord
100
AcDbTextStyleTableRecord
  2
ACJISTS
 70
     0
 40
1.0
 41
1.0
 50
0.0
 71
     0
 42
2.5
  3
simplex.shx
  4
bigfont.shx
  0
STYLE
  5
269
330
3
100
AcDbSymbolTableRecord
100
AcDbTextStyleTableRecord
  2
ACJISGDT
 70
     0
 40
0.0
 41
1.0
 50
0.0
 71
     0
 42
2.5
  3
amgdtans.shx
  4

  0
ENDTAB
  0
TABLE
  2
VIEW
  5
6
330
0
100
AcDbSymbolTable
 70
     6
  0
VIEW
  5
2CE9
330
6
100
AcDbSymbolTableRecord
100
AcDbViewTableRecord
  2
AM_VIEW1
 70
     1
 40
148.5
 10
116.2107692307692
 20
222.75
 41
232.4215384615384
 11
0.0
 21
0.0
 31
1.0
 12
0.0
 22
0.0
 32
0.0
 42
50.0
 43
0.0
 44
0.0
 50
0.0
 71
     0
  0
VIEW
  5
2CEA
330
6
100
AcDbSymbolTableRecord
100
AcDbViewTableRecord
  2
AM_VIEW2
 70
     1
 40
148.5
 10
303.7892307692307
 20
222.75
 41
232.4215384615384
 11
0.0
 21
0.0
 31
1.0
 12
0.0
 22
0.0
 32
0.0
 42
50.0
 43
0.0
 44
0.0
 50
0.0
 71
     0
  0
VIEW
  5
2CEB
330
6
100
AcDbSymbolTableRecord
100
AcDbViewTableRecord
  2
AM_VIEW3
 70
     1
 40
148.5
 10
116.2107692307692
 20
74.25
 41
232.4215384615384
 11
0.0
 21
0.0
 31
1.0
 12
0.0
 22
0.0
 32
0.0
 42
50.0
 43
0.0
 44
0.0
 50
0.0
 71
     0
  0
VIEW
  5
2CEC
330
6
100
AcDbSymbolTableRecord
100
AcDbViewTableRecord
  2
AM_VIEW4
 70
     1
 40
148.5
 10
303.7892307692307
 20
74.25
 41
232.4215384615384
 11
0.0
 21
0.0
 31
1.0
 12
0.0
 22
0.0
 32
0.0
 42
50.0
 43
0.0
 44
0.0
 50
0.0
 71
     0
  0
VIEW
  5
2CED
330
6
100
AcDbSymbolTableRecord
100
AcDbViewTableRecord
  2
AM_VIEW5
 70
     1
 40
148.5
 10
210.0
 20
148.5
 41
232.4215384615385
 11
0.0
 21
0.0
 31
1.0
 12
0.0
 22
0.0
 32
0.0
 42
50.0
 43
0.0
 44
0.0
 50
0.0
 71
     0
  0
VIEW
  5
2CEE
330
6
100
AcDbSymbolTableRecord
100
AcDbViewTableRecord
  2
AM_VIEW6
 70
     1
 40
296.9970299999999
 10
210.0
 20
148.5
 41
464.8384284923077
 11
0.0
 21
0.0
 31
1.0
 12
0.0
 22
0.0
 32
0.0
 42
50.0
 43
0.0
 44
0.0
 50
0.0
 71
     0
  0
ENDTAB
  0
TABLE
  2
UCS
  5
7
330
0
100
AcDbSymbolTable
 70
     0
  0
ENDTAB
  0
TABLE
  2
APPID
  5
9
330
0
100
AcDbSymbolTable
 70
    23
  0
APPID
  5
12
330
9
100
AcDbSymbolTableRecord
100
AcDbRegAppTableRecord
  2
ACAD
 70
     0
  0
APPID
  5
30
330
9
100
AcDbSymbolTableRecord
100
AcDbRegAppTableRecord
  2
MCAD_NO_VIS
 70
     0
  0
APPID
  5
31
330
9
100
AcDbSymbolTableRecord
100
AcDbRegAppTableRecord
  2
ACAD_TEMP_GRAPHIC
 70
     0
  0
APPID
  5
2C2
330
9
100
AcDbSymbolTableRecord
100
AcDbRegAppTableRecord
  2
GENIUS_GENDTOL_13
 70
     0
  0
APPID
  5
339
330
9
100
AcDbSymbolTableRecord
100
AcDbRegAppTableRecord
  2
GENIUS_GENODEF_13
 70
     0
  0
APPID
  5
33A
330
9
100
AcDbSymbolTableRecord
100
AcDbRegAppTableRecord
  2
GENIUS_GENOBJ-N-RSBK_13
 70
     0
  0
APPID
  5
33B
330
9
100
AcDbSymbolTableRecord
100
AcDbRegAppTableRecord
  2
GENIUS_GENOBJ-N-LIB_13
 70
     0
  0
APPID
  5
33C
330
9
100
AcDbSymbolTableRecord
100
AcDbRegAppTableRecord
  2
GENIUS_GENSCALE_13
 70
     0
  0
APPID
  5
378
330
9
100
AcDbSymbolTableRecord
100
AcDbRegAppTableRecord
  2
GENIUS_GENDIMSH_14
 70
     0
  0
APPID
  5
BDB
330
9
100
AcDbSymbolTableRecord
100
AcDbRegAppTableRecord
  2
GENIUS_GENOBJ-N-CEN_13
 70
     0
  0
APPID
  5
BDC
330
9
100
AcDbSymbolTableRecord
100
AcDbRegAppTableRecord
  2
GENIUS_GENFIL_13
 70
     0
  0
APPID
  5
BDD
330
9
100
AcDbSymbolTableRecord
100
AcDbRegAppTableRecord
  2
GENIUS_GENOBJ-N-FIL_13
 70
     0
  0
APPID
  5
12AD
330
9
100
AcDbSymbolTableRecord
100
AcDbRegAppTableRecord
  2
GENIUS_GENOREF_13
 70
     0
  0
APPID
  5
2464
330
9
100
AcDbSymbolTableRecord
100
AcDbRegAppTableRecord
  2
GENIUS_GENOBJ-N-CHA_13
 70
     0
  0
APPID
  5
2CC9
330
9
100
AcDbSymbolTableRecord
100
AcDbRegAppTableRecord
  2
GENIUS_GENREC_14
 70
     0
  0
APPID
  5
2CCA
330
9
100
AcDbSymbolTableRecord
100
AcDbRegAppTableRecord
  2
GENIUS_GENOBJ-N-REC_13
 70
     0
  0
APPID
  5
2DA3
330
9
100
AcDbSymbolTableRecord
100
AcDbRegAppTableRecord
  2
GENIUS_GENOBJ-N-TIT_13
 70
     0
  0
APPID
  5
2DA4
330
9
100
AcDbSymbolTableRecord
100
AcDbRegAppTableRecord
  2
GENIUS_GENTITLE_13
 70
     0
  0
APPID
  5
2DA5
330
9
100
AcDbSymbolTableRecord
100
AcDbRegAppTableRecord
  2
GENIUS_GENOENT_13
 70
     0
  0
APPID
  5
2DA6
330
9
100
AcDbSymbolTableRecord
100
AcDbRegAppTableRecord
  2
GENIUS_GENOLIS_13
 70
     0
  0
APPID
  5
2DA7
330
9
100
AcDbSymbolTableRecord
100
AcDbRegAppTableRecord
  2
GENIUS_GENZVEED_13
 70
     0
  0
APPID
  5
2DA8
330
9
100
AcDbSymbolTableRecord
100
AcDbRegAppTableRecord
  2
GENIUS_GENSCREG_15
 70
     0
  0
APPID
  5
2DA9
330
9
100
AcDbSymbolTableRecord
100
AcDbRegAppTableRecord
  2
GENIUS_GENOBJ-N-SDF_13
 70
     0
  0
ENDTAB
  0
TABLE
  2
DIMSTYLE
  5
A
330
0
100
AcDbSymbolTable
 70
     9
  0
DIMSTYLE
105
58
102
{ACAD_REACTORS
330
C4F
330
18C3
330
195B
330
21D2
102
}
330
A
100
AcDbSymbolTableRecord
100
AcDbDimStyleTableRecord
  2
AM_JIS
 70
     0
  3

  4
"
  5
OPEN30
  6

  7

 40
0.5
 41
2.5
 42
1.0
 43
12.0
 44
1.0
 45
0.0
 46
0.0
 47
0.1
 48
0.1
140
3.2
141
0.0
142
0.0
143
0.0393701
144
1.0
145
0.0
146
0.71
147
1.5
 71
     0
 72
     0
 73
     0
 74
     0
 75
     0
 76
     0
 77
     3
 78
     8
170
     0
171
     2
172
     1
173
     0
174
     0
175
     0
176
   256
177
   256
178
     2
270
     2
271
     3
272
     3
273
     2
274
     2
340
6B
275
     0
280
     0
281
     0
282
     0
283
     0
284
     0
285
     0
286
     0
287
     3
288
     0
  0
DIMSTYLE
105
5F
330
A
100
AcDbSymbolTableRecord
100
AcDbDimStyleTableRecord
  2
AM_JIS$3
 70
     0
  3

  4
"
  5
OPEN30
  6

  7

 40
0.5
 41
2.5
 42
1.0
 43
10.0
 44
1.0
 45
0.0
 46
0.0
 47
0.1
 48
0.1
140
3.2
141
0.0
142
0.0
143
0.0393701
144
1.0
145
0.0
146
0.71
147
1.5
 71
     0
 72
     0
 73
     0
 74
     1
 75
     0
 76
     0
 77
     3
 78
     8
170
     0
171
     2
172
     0
173
     0
174
     0
175
     0
176
   256
177
   256
178
     2
270
     2
271
     2
272
     3
273
     2
274
     2
340
6B
275
     0
280
     0
281
     0
282
     0
283
     0
284
     0
285
     0
286
     0
287
     0
288
     1
  0
DIMSTYLE
105
60
102
{ACAD_REACTORS
330
2347
102
}
330
A
100
AcDbSymbolTableRecord
100
AcDbDimStyleTableRecord
  2
AM_JIS$4
 70
     0
  3

  4
"
  5
OPEN30
  6

  7

 40
0.5
 41
2.5
 42
1.0
 43
10.0
 44
1.0
 45
0.0
 46
0.0
 47
0.1
 48
0.1
140
3.2
141
0.0
142
0.0
143
0.0393701
144
1.0
145
0.0
146
0.71
147
1.5
 71
     0
 72
     0
 73
     0
 74
     1
 75
     0
 76
     0
 77
     3
 78
     8
170
     0
171
     2
172
     0
173
     0
174
     0
175
     0
176
   256
177
   256
178
     2
270
     2
271
     2
272
     3
273
     2
274
     2
340
6B
275
     0
280
     0
281
     0
282
     0
283
     0
284
     0
285
     0
286
     0
287
     0
288
     1
  0
DIMSTYLE
105
61
330
A
100
AcDbSymbolTableRecord
100
AcDbDimStyleTableRecord
  2
AM_JIS$6
 70
     0
  3

  4
"
  5
OPEN30
  6

  7

 40
0.5
 41
2.5
 42
1.0
 43
10.0
 44
1.0
 45
0.0
 46
0.0
 47
0.1
 48
0.1
140
3.2
141
0.0
142
0.0
143
0.0393701
144
1.0
145
0.0
146
0.71
147
1.5
 71
     0
 72
     0
 73
     0
 74
     0
 75
     0
 76
     0
 77
     0
 78
     8
170
     0
171
     2
172
     1
173
     0
174
     0
175
     0
176
   256
177
   256
178
     2
270
     2
271
     2
272
     2
273
     2
274
     2
340
6B
275
     0
280
     0
281
     0
282
     0
283
     0
284
     0
285
     0
286
     0
287
     3
288
     0
  0
DIMSTYLE
105
62
330
A
100
AcDbSymbolTableRecord
100
AcDbDimStyleTableRecord
  2
AM_JIS$7
 70
     0
  3

  4
"
  5
OPEN30
  6

  7

 40
0.5
 41
2.5
 42
1.0
 43
10.0
 44
1.0
 45
0.0
 46
0.0
 47
0.1
 48
0.1
140
3.2
141
0.0
142
0.0
143
0.0393701
144
1.0
145
0.0
146
0.71
147
1.5
 71
     0
 72
     0
 73
     0
 74
     0
 75
     0
 76
     0
 77
     3
 78
     8
170
     0
171
     2
172
     1
173
     0
174
     0
175
     0
176
   256
177
   256
178
     2
270
     2
271
     2
272
     3
273
     2
274
     2
340
6B
275
     0
280
     0
281
     0
282
     0
283
     0
284
     0
285
     0
286
     0
287
     3
288
     0
  0
DIMSTYLE
105
63
330
A
100
AcDbSymbolTableRecord
100
AcDbDimStyleTableRecord
  2
AM_JIS$SF
 70
     0
  3

  4
"
  5
OPEN30
  6

  7

 40
0.5
 41
2.5
 42
1.0
 43
10.0
 44
1.0
 45
0.0
 46
0.0
 47
0.1
 48
0.1
140
3.2
141
0.0
142
0.0
143
0.0393701
144
1.0
145
0.0
146
0.71
147
1.5
 71
     0
 72
     0
 73
     0
 74
     0
 75
     1
 76
     1
 77
     3
 78
     8
170
     0
171
     2
172
     1
173
     0
174
     0
175
     0
176
   256
177
   256
178
     2
270
     2
271
     2
272
     2
273
     2
274
     2
340
6B
275
     0
280
     0
281
     0
282
     0
283
     0
284
     0
285
     0
286
     0
287
     3
288
     0
  0
DIMSTYLE
105
68
330
A
100
AcDbSymbolTableRecord
100
AcDbDimStyleTableRecord
  2
AM_JIS$SH
 70
     0
  3

  4
"
  5

  6
GENAXEH
  7
OPEN30
 40
0.5
 41
2.5
 42
1.0
 43
10.0
 44
1.0
 45
0.0
 46
0.0
 47
0.1
 48
0.1
140
3.2
141
0.0
142
0.0
143
0.0393701
144
2.0
145
0.0
146
0.71
147
1.5
 71
     0
 72
     0
 73
     0
 74
     0
 75
     1
 76
     1
 77
     3
 78
     8
170
     0
171
     2
172
     1
173
     1
174
     0
175
     0
176
   256
177
   256
178
     2
270
     2
271
     2
272
     2
273
     2
274
     2
340
6B
275
     0
280
     0
281
     0
282
     0
283
     0
284
     0
285
     0
286
     0
287
     3
288
     0
  0
DIMSTYLE
105
B34
330
A
100
AcDbSymbolTableRecord
100
AcDbDimStyleTableRecord
  2
AM_JIS$2
 70
     0
  3

  4
"
  5
OPEN30
  6

  7

 40
0.5
 41
2.5
 42
1.0
 43
12.0
 44
1.0
 45
0.0
 46
0.0
 47
0.1
 48
0.1
140
3.2
141
0.0
142
0.0
143
0.0393701
144
1.0
145
0.0
146
0.71
147
1.5
 71
     0
 72
     0
 73
     0
 74
     0
 75
     0
 76
     0
 77
     3
 78
     8
170
     0
171
     2
172
     1
173
     0
174
     0
175
     0
176
   256
177
   256
178
     2
270
     2
271
     3
272
     3
273
     2
274
     2
340
6B
275
     0
280
     0
281
     0
282
     0
283
     0
284
     0
285
     0
286
     0
287
     3
288
     0
  0
DIMSTYLE
105
2CC8
330
A
100
AcDbSymbolTableRecord
100
AcDbDimStyleTableRecord
  2
ISO-25
 70
     0
  3

  4

  5

  6

  7

 40
1.0
 41
2.5
 42
0.625
 43
3.75
 44
1.25
 45
0.0
 46
0.0
 47
0.0
 48
0.0
140
2.5
141
2.5
142
0.0
143
0.03937007874016
144
1.0
145
0.0
146
1.0
147
0.625
 71
     0
 72
     0
 73
     0
 74
     0
 75
     0
 76
     0
 77
     1
 78
     8
170
     0
171
     3
172
     1
173
     0
174
     0
175
     0
176
     0
177
     0
178
     0
270
     2
271
     2
272
     2
273
     2
274
     3
340
11
275
     0
280
     0
281
     0
282
     0
283
     0
284
     8
285
     0
286
     0
287
     3
288
     0
  0
ENDTAB
  0
TABLE
  2
BLOCK_RECORD
  5
1
330
0
100
AcDbSymbolTable
 70
    13
  0
BLOCK_RECORD
  5
1F
102
{ACAD_XDICTIONARY
360
74
102
}
330
1
100
AcDbSymbolTableRecord
100
AcDbBlockTableRecord
  2
*MODEL_SPACE
  0
BLOCK_RECORD
  5
23
102
{ACAD_XDICTIONARY
360
2E8D
102
}
330
1
100
AcDbSymbolTableRecord
100
AcDbBlockTableRecord
  2
*PAPER_SPACE
  0
BLOCK_RECORD
  5
59
330
1
100
AcDbSymbolTableRecord
100
AcDbBlockTableRecord
  2
_OPEN30
  0
BLOCK_RECORD
  5
64
330
1
100
AcDbSymbolTableRecord
100
AcDbBlockTableRecord
  2
GENAXEH
  0
BLOCK_RECORD
  5
C75
330
1
100
AcDbSymbolTableRecord
100
AcDbBlockTableRecord
  2
*D5
  0
BLOCK_RECORD
  5
18C4
330
1
100
AcDbSymbolTableRecord
100
AcDbBlockTableRecord
  2
*D6
  0
BLOCK_RECORD
  5
195C
330
1
100
AcDbSymbolTableRecord
100
AcDbBlockTableRecord
  2
*D7
  0
BLOCK_RECORD
  5
21D3
330
1
100
AcDbSymbolTableRecord
100
AcDbBlockTableRecord
  2
*D8
  0
BLOCK_RECORD
  5
2348
330
1
100
AcDbSymbolTableRecord
100
AcDbBlockTableRecord
  2
*D9
  0
BLOCK_RECORD
  5
2B22
330
1
100
AcDbSymbolTableRecord
100
AcDbBlockTableRecord
  2
A$C586537D0
  0
BLOCK_RECORD
  5
2CCB
330
1
100
AcDbSymbolTableRecord
100
AcDbBlockTableRecord
  2
オートネット_A3
  0
BLOCK_RECORD
  5
2CF1
330
1
100
AcDbSymbolTableRecord
100
AcDbBlockTableRecord
  2
オートネット
  0
ENDTAB
  0
ENDSEC
  0
SECTION
  2
BLOCKS
  0
BLOCK
  5
20
330
1F
100
AcDbEntity
  8
0
100
AcDbBlockBegin
  2
*MODEL_SPACE
 70
     0
 10
0.0
 20
0.0
 30
0.0
  3
*MODEL_SPACE
  1

  0
ENDBLK
  5
21
330
1F
100
AcDbEntity
  8
0
100
AcDbBlockEnd
  0
BLOCK
  5
24
330
23
100
AcDbEntity
 67
     1
  8
0
100
AcDbBlockBegin
  2
*PAPER_SPACE
 70
     0
 10
0.0
 20
0.0
 30
0.0
  3
*PAPER_SPACE
  1

  0
ENDBLK
  5
25
330
23
100
AcDbEntity
 67
     1
  8
0
100
AcDbBlockEnd
  0
BLOCK
  5
5D
330
59
100
AcDbEntity
  8
0
100
AcDbBlockBegin
  2
_OPEN30
 70
     0
 10
0.0
 20
0.0
 30
0.0
  3
_OPEN30
  1

  0
LINE
  5
5A
330
59
100
AcDbEntity
  8
0
 62
     0
100
AcDbLine
 10
-1.0
 20
0.26794919
 30
0.0
 11
0.0
 21
0.0
 31
0.0
  0
LINE
  5
5B
330
59
100
AcDbEntity
  8
0
 62
     0
100
AcDbLine
 10
0.0
 20
0.0
 30
0.0
 11
-1.0
 21
-0.26794919
 31
0.0
  0
LINE
  5
5C
330
59
100
AcDbEntity
  8
0
 62
     0
100
AcDbLine
 10
0.0
 20
0.0
 30
0.0
 11
-1.0
 21
0.0
 31
0.0
  0
ENDBLK
  5
5E
330
59
100
AcDbEntity
  8
0
100
AcDbBlockEnd
  0
BLOCK
  5
66
330
64
100
AcDbEntity
  8
0
100
AcDbBlockBegin
  2
GENAXEH
 70
     0
 10
0.0
 20
0.0
 30
0.0
  3
GENAXEH
  1

  0
LINE
  5
65
330
64
100
AcDbEntity
  8
0
100
AcDbLine
 10
-1.0
 20
0.0
 30
0.0
 11
1.0
 21
0.0
 31
0.0
  0
ENDBLK
  5
67
330
64
100
AcDbEntity
  8
0
100
AcDbBlockEnd
  0
BLOCK
  5
C7F
330
C75
100
AcDbEntity
  8
0
100
AcDbBlockBegin
  2
*D5
 70
     1
 10
0.0
 20
0.0
 30
0.0
  3
*D5
  1

  0
LINE
  5
2C6F
330
C75
100
AcDbEntity
  8
AM_5
100
AcDbLine
 10
-80.00000000000007
 20
-3.500000000000003
 30
0.0
 11
-80.00000000000007
 21
-19.62256601505726
 31
0.0
  0
LINE
  5
2C70
330
C75
100
AcDbEntity
  8
AM_5
100
AcDbLine
 10
-0.00000000000006
 20
-0.5000000000000036
 30
0.0
 11
-0.0000000000000612
 21
-19.62256601505726
 31
0.0
  0
LINE
  5
2C71
330
C75
100
AcDbEntity
  8
AM_5
100
AcDbLine
 10
-78.75000000000007
 20
-19.12256601505726
 30
0.0
 11
-1.250000000000061
 21
-19.12256601505726
 31
0.0
  0
INSERT
  5
2C72
330
C75
100
AcDbEntity
  8
AM_5
100
AcDbBlockReference
  2
_OPEN30
 10
-80.00000000000007
 20
-19.12256601505726
 30
0.0
 41
1.25
 42
1.25
 43
1.25
 50
180.0
  0
INSERT
  5
2C73
330
C75
100
AcDbEntity
  8
AM_5
100
AcDbBlockReference
  2
_OPEN30
 10
-0.0000000000000611
 20
-19.12256601505726
 30
0.0
 41
1.25
 42
1.25
 43
1.25
  0
MTEXT
  5
2C74
330
C75
100
AcDbEntity
  8
AM_5
 62
     2
100
AcDbMText
 10
-40.00000000000006
 20
-17.57256601505726
 30
0.0
 40
1.6
 41
0.0
 71
     5
 72
     1
  1
80
  7
ASAMI
1001
ACAD
1000
MTEXTBEGIN
1070
    73
1070
     1
1070
    44
1040
1.0
1070
    74
1070
     0
1000
MTEXTEND
  0
POINT
  5
2C75
330
C75
100
AcDbEntity
  8
DEFPOINTS
 62
     0
100
AcDbPoint
 10
-80.00000000000007
 20
-3.000000000000003
 30
0.0
  0
POINT
  5
2C76
330
C75
100
AcDbEntity
  8
DEFPOINTS
 62
     0
100
AcDbPoint
 10
-0.00000000000006
 20
-0.0000000000000036
 30
0.0
  0
POINT
  5
2C77
330
C75
100
AcDbEntity
  8
DEFPOINTS
 62
     0
100
AcDbPoint
 10
-0.0000000000000611
 20
-19.12256601505726
 30
0.0
  0
ENDBLK
  5
C80
330
C75
100
AcDbEntity
  8
0
100
AcDbBlockEnd
  0
BLOCK
  5
18CE
330
18C4
100
AcDbEntity
  8
0
100
AcDbBlockBegin
  2
*D6
 70
     1
 10
0.0
 20
0.0
 30
0.0
  3
*D6
  1

  0
LINE
  5
2C64
330
18C4
100
AcDbEntity
  8
AM_5
100
AcDbLine
 10
-80.00000000000007
 20
-3.000000000000003
 30
0.0
 11
-86.71481817191887
 21
-3.000000000000001
 31
0.0
  0
LINE
  5
2C65
330
18C4
100
AcDbEntity
  8
AM_5
100
AcDbLine
 10
-80.00000000000007
 20
2.999999999999996
 30
0.0
 11
-86.71481817191887
 21
2.999999999999998
 31
0.0
  0
LINE
  5
2C66
330
18C4
100
AcDbEntity
  8
AM_5
100
AcDbLine
 10
-86.21481817191886
 20
-4.250000000000001
 30
0.0
 11
-86.21481817191886
 21
-5.500000000000001
 31
0.0
  0
LINE
  5
2C67
330
18C4
100
AcDbEntity
  8
AM_5
100
AcDbLine
 10
-86.21481817191886
 20
4.249999999999998
 30
0.0
 11
-86.21481817191886
 21
5.499999999999998
 31
0.0
  0
LINE
  5
2C68
330
18C4
100
AcDbEntity
  8
AM_5
100
AcDbLine
 10
-86.21481817191886
 20
-3.000000000000001
 30
0.0
 11
-86.21481817191886
 21
2.999999999999998
 31
0.0
  0
INSERT
  5
2C69
330
18C4
100
AcDbEntity
  8
AM_5
100
AcDbBlockReference
  2
_OPEN30
 10
-86.21481817191886
 20
-3.000000000000001
 30
0.0
 41
1.25
 42
1.25
 43
1.25
 50
90.0
  0
INSERT
  5
2C6A
330
18C4
100
AcDbEntity
  8
AM_5
100
AcDbBlockReference
  2
_OPEN30
 10
-86.21481817191886
 20
2.999999999999998
 30
0.0
 41
1.25
 42
1.25
 43
1.25
 50
270.0
  0
MTEXT
  5
2C6B
330
18C4
100
AcDbEntity
  8
AM_5
 62
     2
100
AcDbMText
 10
-87.76481817191886
 20
-0.0000000000000123
 30
0.0
 40
1.6
 41
0.0
 71
     5
 72
     1
  1
%%c6
  7
ASAMI
 11
0.0000000000000001
 21
1.0
 31
0.0
1001
ACAD
1000
MTEXTBEGIN
1070
    73
1070
     1
1070
    44
1040
1.0
1070
    74
1070
     0
1000
MTEXTEND
  0
POINT
  5
2C6C
330
18C4
100
AcDbEntity
  8
DEFPOINTS
 62
     0
100
AcDbPoint
 10
-79.50000000000007
 20
-3.000000000000003
 30
0.0
  0
POINT
  5
2C6D
330
18C4
100
AcDbEntity
  8
DEFPOINTS
 62
     0
100
AcDbPoint
 10
-79.50000000000007
 20
2.999999999999996
 30
0.0
  0
POINT
  5
2C6E
330
18C4
100
AcDbEntity
  8
DEFPOINTS
 62
     0
100
AcDbPoint
 10
-86.21481817191886
 20
2.999999999999998
 30
0.0
  0
ENDBLK
  5
18CF
330
18C4
100
AcDbEntity
  8
0
100
AcDbBlockEnd
  0
BLOCK
  5
1968
330
195C
100
AcDbEntity
  8
0
100
AcDbBlockBegin
  2
*D7
 70
     1
 10
0.0
 20
0.0
 30
0.0
  3
*D7
  1

  0
LINE
  5
2C9B
330
195C
100
AcDbEntity
  8
AM_5
100
AcDbLine
 10
-10.00000000000005
 20
-2.999999999999994
 30
0.0
 11
-10.00000000000005
 21
-13.67267970183553
 31
0.0
  0
LINE
  5
2C9C
330
195C
100
AcDbEntity
  8
AM_5
100
AcDbLine
 10
-0.0000000000000569
 20
-6.750000000000002
 30
0.0
 11
-0.0000000000000573
 21
-13.67267970183553
 31
0.0
  0
LINE
  5
2C9D
330
195C
100
AcDbEntity
  8
AM_5
100
AcDbLine
 10
-8.750000000000055
 20
-13.17267970183553
 30
0.0
 11
-1.250000000000057
 21
-13.17267970183553
 31
0.0
  0
INSERT
  5
2C9E
330
195C
100
AcDbEntity
  8
AM_5
100
AcDbBlockReference
  2
_OPEN30
 10
-10.00000000000005
 20
-13.17267970183553
 30
0.0
 41
1.25
 42
1.25
 43
1.25
 50
180.0
  0
INSERT
  5
2C9F
330
195C
100
AcDbEntity
  8
AM_5
100
AcDbBlockReference
  2
_OPEN30
 10
-0.0000000000000573
 20
-13.17267970183553
 30
0.0
 41
1.25
 42
1.25
 43
1.25
  0
MTEXT
  5
2CA0
330
195C
100
AcDbEntity
  8
AM_5
 62
     2
100
AcDbMText
 10
-5.000000000000055
 20
-11.62267970183553
 30
0.0
 40
1.6
 41
0.0
 71
     5
 72
     1
  1
10
  7
ASAMI
1001
ACAD
1000
MTEXTBEGIN
1070
    73
1070
     1
1070
    44
1040
1.0
1070
    74
1070
     0
1000
MTEXTEND
  0
POINT
  5
2CA1
330
195C
100
AcDbEntity
  8
DEFPOINTS
 62
     0
100
AcDbPoint
 10
-10.00000000000005
 20
-2.499999999999994
 30
0.0
  0
POINT
  5
2CA2
330
195C
100
AcDbEntity
  8
DEFPOINTS
 62
     0
100
AcDbPoint
 10
-0.0000000000000568
 20
-6.250000000000002
 30
0.0
  0
POINT
  5
2CA3
330
195C
100
AcDbEntity
  8
DEFPOINTS
 62
     0
100
AcDbPoint
 10
-0.0000000000000573
 20
-13.17267970183553
 30
0.0
  0
ENDBLK
  5
1969
330
195C
100
AcDbEntity
  8
0
100
AcDbBlockEnd
  0
BLOCK
  5
21DF
330
21D3
100
AcDbEntity
  8
0
100
AcDbBlockBegin
  2
*D8
 70
     1
 10
0.0
 20
0.0
 30
0.0
  3
*D8
  1

  0
LINE
  5
2C81
330
21D3
100
AcDbEntity
  8
AM_5
100
AcDbLine
 10
-3.172597274944478
 20
2.499999999999986
 30
0.0
 11
10.96859952920058
 21
2.499999999999982
 31
0.0
  0
LINE
  5
2C82
330
21D3
100
AcDbEntity
  8
AM_5
100
AcDbLine
 10
-2.540082607657324
 20
-2.499999999999994
 30
0.0
 11
10.96859952920058
 21
-2.499999999999998
 31
0.0
  0
LINE
  5
2C83
330
21D3
100
AcDbEntity
  8
AM_5
100
AcDbLine
 10
10.46859952920058
 20
3.749999999999982
 30
0.0
 11
10.46859952920058
 21
4.999999999999982
 31
0.0
  0
LINE
  5
2C84
330
21D3
100
AcDbEntity
  8
AM_5
100
AcDbLine
 10
10.46859952920058
 20
-3.749999999999998
 30
0.0
 11
10.46859952920058
 21
-4.999999999999999
 31
0.0
  0
LINE
  5
2C85
330
21D3
100
AcDbEntity
  8
AM_5
100
AcDbLine
 10
10.46859952920058
 20
2.499999999999982
 30
0.0
 11
10.46859952920058
 21
-2.499999999999998
 31
0.0
  0
INSERT
  5
2C86
330
21D3
100
AcDbEntity
  8
AM_5
100
AcDbBlockReference
  2
_OPEN30
 10
10.46859952920058
 20
2.499999999999982
 30
0.0
 41
1.25
 42
1.25
 43
1.25
 50
270.0
  0
INSERT
  5
2C87
330
21D3
100
AcDbEntity
  8
AM_5
100
AcDbBlockReference
  2
_OPEN30
 10
10.46859952920058
 20
-2.499999999999998
 30
0.0
 41
1.25
 42
1.25
 43
1.25
 50
90.0
  0
MTEXT
  5
2C88
330
21D3
100
AcDbEntity
  8
AM_5
 62
     2
100
AcDbMText
 10
8.918599529200582
 20
-0.0000000000000058
 30
0.0
 40
1.6
 41
0.0
 71
     5
 72
     1
  1
%%c5
  7
ASAMI
 11
0.0000000000000001
 21
1.0
 31
0.0
1001
ACAD
1000
MTEXTBEGIN
1070
    73
1070
     1
1070
    44
1040
1.0
1070
    74
1070
     0
1000
MTEXTEND
  0
POINT
  5
2C89
330
21D3
100
AcDbEntity
  8
DEFPOINTS
 62
     0
100
AcDbPoint
 10
-3.672597274944478
 20
2.499999999999986
 30
0.0
  0
POINT
  5
2C8A
330
21D3
100
AcDbEntity
  8
DEFPOINTS
 62
     0
100
AcDbPoint
 10
-3.040082607657324
 20
-2.499999999999994
 30
0.0
  0
POINT
  5
2C8B
330
21D3
100
AcDbEntity
  8
DEFPOINTS
 62
     0
100
AcDbPoint
 10
10.46859952920058
 20
-2.499999999999998
 30
0.0
  0
ENDBLK
  5
21E0
330
21D3
100
AcDbEntity
  8
0
100
AcDbBlockEnd
  0
BLOCK
  5
234F
330
2348
100
AcDbEntity
  8
0
100
AcDbBlockBegin
  2
*D9
 70
     1
 10
0.0
 20
0.0
 30
0.0
  3
*D9
  1

  0
LINE
  5
2C8C
330
2348
100
AcDbEntity
  8
AM_5
100
AcDbLine
 10
-0.105341314683183
 20
-2.885846458291944
 30
0.0
 11
7.156564542567685
 21
-11.63730044507337
 31
0.0
  0
INSERT
  5
2C8D
330
2348
100
AcDbEntity
  8
AM_5
100
AcDbBlockReference
  2
_OPEN30
 10
-0.9035608764554792
 20
-1.923897638861282
 30
0.0
 41
1.25
 42
1.25
 43
1.25
 50
129.6856910759967
  0
MTEXT
  5
2C8E
330
2348
100
AcDbEntity
  8
AM_5
 62
     2
100
AcDbMText
 10
6.289214400182729
 20
-8.164764092611832
 30
0.0
 40
1.6
 41
0.0
 71
     5
 72
     1
  1
R2.5
  7
ASAMI
 11
0.6385756494178364
 21
-0.7695590555445297
 31
0.0
1001
ACAD
1000
MTEXTBEGIN
1070
    73
1070
     1
1070
    44
1040
1.0
1070
    74
1070
     0
1000
MTEXTEND
  0
POINT
  5
2C8F
330
2348
100
AcDbEntity
  8
DEFPOINTS
 62
     0
100
AcDbPoint
 10
-0.9035608764554792
 20
-1.923897638861282
 30
0.0
  0
POINT
  5
2C90
330
2348
100
AcDbEntity
  8
DEFPOINTS
 62
     0
100
AcDbPoint
 10
-2.500000000000069
 20
0.0000000000000409
 30
0.0
  0
ENDBLK
  5
2350
330
2348
100
AcDbEntity
  8
0
100
AcDbBlockEnd
  0
BLOCK
  5
2B6A
330
2B22
100
AcDbEntity
  8
0
100
AcDbBlockBegin
  2
A$C586537D0
 70
     0
 10
0.0
 20
0.0
 30
0.0
  3
A$C586537D0
  1

  0
POLYLINE
  5
2B23
330
2B22
100
AcDbEntity
  8
AM_0
100
AcDb2dPolyline
 66
     1
 10
0.0
 20
0.0
 30
0.0
  0
VERTEX
  5
2B24
330
2B23
100
AcDbEntity
  8
AM_0
100
AcDbVertex
100
AcDb2dVertex
 10
29.43449156617043
 20
4.051545603702379
 30
0.0
 42
0.0073471029864721
  0
VERTEX
  5
2B25
330
2B23
100
AcDbEntity
  8
AM_0
100
AcDbVertex
100
AcDb2dVertex
 10
30.94378830759433
 20
4.106361103890094
 30
0.0
 42
0.0112666255536717
  0
VERTEX
  5
2B26
330
2B23
100
AcDbEntity
  8
AM_0
100
AcDbVertex
100
AcDb2dVertex
 10
31.58683653429034
 20
4.153620041925933
 30
0.0
 42
0.002415439496957
  0
VERTEX
  5
2B27
330
2B23
100
AcDbEntity
  8
AM_0
100
AcDbVertex
100
AcDb2dVertex
 10
33.75003701518199
 20
4.372244651572827
 30
0.0
 42
0.0154516003810555
  0
VERTEX
  5
2B28
330
2B23
100
AcDbEntity
  8
AM_0
100
AcDbVertex
100
AcDb2dVertex
 10
34.08683653429034
 20
4.41848999956187
 30
0.0
 42
0.0249096705429985
  0
VERTEX
  5
2B29
330
2B23
100
AcDbEntity
  8
AM_0
100
AcDbVertex
100
AcDb2dVertex
 10
34.70542182259305
 20
4.554977289866883
 30
0.0
 42
0.7660160075951127
  0
VERTEX
  5
2B2A
330
2B23
100
AcDbEntity
  8
AM_0
100
AcDbVertex
100
AcDb2dVertex
 10
34.70530673776465
 20
4.587643352959503
 30
0.0
 42
0.0436004866852417
  0
VERTEX
  5
2B2B
330
2B23
100
AcDbEntity
  8
AM_0
100
AcDbVertex
100
AcDb2dVertex
 10
34.57728396444918
 20
4.609986150277791
 30
0.0
 42
0.0113586888872964
  0
VERTEX
  5
2B2C
330
2B23
100
AcDbEntity
  8
AM_0
100
AcDbVertex
100
AcDb2dVertex
 10
34.08030673776465
 20
4.641297140077313
 30
0.0
 42
0.0028121537605697
  0
VERTEX
  5
2B2D
330
2B23
100
AcDbEntity
  8
AM_0
100
AcDbVertex
100
AcDb2dVertex
 10
33.76802153882909
 20
4.652099959238285
 30
0.0
 42
0.0005702900988137
  0
VERTEX
  5
2B2E
330
2B23
100
AcDbEntity
  8
AM_0
100
AcDbVertex
100
AcDb2dVertex
 10
32.22780060050763
 20
4.694950927195122
 30
0.0
 42
0.006668488235414
  0
VERTEX
  5
2B2F
330
2B23
100
AcDbEntity
  8
AM_0
100
AcDbVertex
100
AcDb2dVertex
 10
31.85720084767035
 20
4.699893827183359
 30
0.0
 42
0.0010162367850142
  0
VERTEX
  5
2B30
330
2B23
100
AcDbEntity
  8
AM_0
100
AcDbVertex
100
AcDb2dVertex
 10
31.55525925235815
 20
4.699280138237554
 30
0.0
  0
SEQEND
  5
2B31
330
2B23
100
AcDbEntity
  8
AM_0
  0
ARC
  5
2B32
330
2B22
100
AcDbEntity
  8
AM_0
100
AcDbCircle
 10
34.37774471830653
 20
-8.337609704266071
 30
0.0
 40
13.33892503056602
100
AcDbArc
 50
91.94350279975884
 51
111.751920491689
  0
ARC
  5
2B33
330
2B22
100
AcDbEntity
  8
AM_11
100
AcDbCircle
 10
9.557768030854731
 20
0.0
 30
0.0
 40
5.0
100
AcDbArc
 50
90.0
 51
270.0
  0
ARC
  5
2B34
330
2B22
100
AcDbEntity
  8
AM_0
100
AcDbCircle
 10
9.40196711480803
 20
-0.7901488952316527
 30
0.0
 40
4.798134784693152
100
AcDbArc
 50
91.23704942232077
 51
162.4261541586426
  0
LINE
  5
2B35
330
2B22
100
AcDbEntity
  8
AM_0
100
AcDbLine
 10
9.557768030854731
 20
4.499854759570553
 30
0.0
 11
9.332956739715427
 21
4.007489584262884
 31
0.0
  0
ARC
  5
2B36
330
2B22
100
AcDbEntity
  8
AM_0
100
AcDbCircle
 10
9.557768030854731
 20
-0.5001452404295037
 30
0.0
 40
5.0
100
AcDbArc
 50
90.0
 51
174.4702301341409
  0
LINE
  5
2B37
330
2B22
100
AcDbEntity
  8
AM_0
100
AcDbLine
 10
10.71449156617154
 20
4.051545603702379
 30
0.0
 11
21.30836028156318
 21
4.300254190306532
 31
0.0
  0
SPLINE
  5
2B38
330
2B22
100
AcDbEntity
  8
AM_0
100
AcDbSpline
210
0.0
220
0.0
230
1.0
 70
     8
 71
     3
 72
     8
 73
     4
 74
     0
 42
0.0000000001
 43
0.0000000001
 40
2.760385419276007
 40
2.760385419276007
 40
2.760385419276007
 40
2.760385419276007
 40
10.61176705360609
 40
10.61176705360609
 40
10.61176705360609
 40
10.61176705360609
 10
9.557768030854731
 20
4.536515943596896
 30
0.0
 10
11.96531420908922
 20
3.699375228776034
 30
0.0
 10
14.1193658175016
 20
1.84968761438813
 30
0.0
 10
16.27341742591397
 20
0.0
 30
0.0
  0
SPLINE
  5
2B39
330
2B22
100
AcDbEntity
  8
AM_0
100
AcDbSpline
210
0.0
220
0.0
230
1.0
 70
     8
 71
     3
 72
     8
 73
     4
 74
     0
 42
0.0000000001
 43
0.0000000001
 40
0.0
 40
0.0
 40
0.0
 40
0.0
 40
5.706047288453516
 40
5.706047288453516
 40
5.706047288453516
 40
5.706047288453516
 10
24.42540552920081
 20
4.853388870660182
 30
0.0
 10
26.3274212920187
 20
4.853388870660182
 30
0.0
 10
28.05612296171693
 20
4.142637314364037
 30
0.0
 10
29.70530673776465
 20
3.105787253048447
 30
0.0
  0
SPLINE
  5
2B3A
330
2B22
100
AcDbEntity
  8
AM_0
100
AcDbSpline
210
0.0
220
0.0
230
1.0
 70
     8
 71
     3
 72
     8
 73
     4
 74
     0
 42
0.0000000001
 43
0.0000000001
 40
0.0
 40
0.0
 40
0.0
 40
0.0
 40
7.009223135314643
 40
7.009223135314643
 40
7.009223135314643
 40
7.009223135314643
 10
23.24553683726662
 20
4.533505564083725
 30
0.0
 10
25.58194454903878
 20
4.533505564083725
 30
0.0
 10
27.68213428901072
 20
3.50390653374211
 30
0.0
 10
29.70530673776465
 20
2.138613619677698
 30
0.0
  0
SPLINE
  5
2B3B
330
2B22
100
AcDbEntity
  8
AM_0
100
AcDbSpline
210
0.0
220
0.0
230
1.0
 70
     8
 71
     3
 72
     8
 73
     4
 74
     0
 42
0.0000000001
 43
0.0000000001
 40
0.0
 40
0.0
 40
0.0
 40
0.0
 40
4.038522933284047
 40
4.038522933284047
 40
4.038522933284047
 40
4.038522933284047
 10
25.63341742591365
 20
5.0
 30
0.0
 10
26.97959173700837
 20
5.0
 30
0.0
 10
28.23511700747895
 20
4.637915695405581
 30
0.0
 10
29.43449156617043
 20
4.051545603702152
 30
0.0
  0
SPLINE
  5
2B3C
330
2B22
100
AcDbEntity
  8
AM_0
100
AcDbSpline
210
0.0
220
0.0
230
1.0
 70
     8
 71
     3
 72
     8
 73
     4
 74
     2
 42
0.0000000001
 43
0.0000000001
 44
0.0000000001
 12
-1.0
 22
0.0000000000000001
 32
0.0
 40
0.0
 40
0.0
 40
0.0
 40
0.0
 40
10.61176705360624
 40
10.61176705360624
 40
10.61176705360624
 40
10.61176705360624
 10
25.6334174259141
 20
-5.000000000000056
 30
0.0
 10
22.09616174137868
 20
-5.000000000000056
 30
0.0
 10
19.18478958364633
 20
-2.500000000000028
 30
0.0
 10
16.27341742591397
 20
0.0
 30
0.0
 11
25.6334174259141
 21
-5.000000000000056
 31
0.0
 11
16.27341742591397
 21
0.0
 31
0.0
  0
ARC
  5
2B3D
330
2B22
100
AcDbEntity
  8
AM_0
100
AcDbCircle
 10
5.472050976495665
 20
-0.4114829949865566
 30
0.0
 40
4.368494370739881
100
AcDbArc
 50
356.2585359014461
 51
39.25557834270841
  0
ARC
  5
2B3E
330
2B22
100
AcDbEntity
  8
AM_0
100
AcDbCircle
 10
16.945882696642
 20
15.7014207964537
 30
0.0
 40
20.0
100
AcDbArc
 50
231.7272490540511
 51
262.7473567797843
  0
SPLINE
  5
2B3F
330
2B22
100
AcDbEntity
  8
AM_0
100
AcDbSpline
210
0.0
220
0.0
230
1.0
 70
     8
 71
     3
 72
     8
 73
     4
 74
     0
 42
0.0000000001
 43
0.0000000001
 40
3.83382056918599
 40
3.83382056918599
 40
3.83382056918599
 40
3.83382056918599
 40
10.54348061741694
 40
10.54348061741694
 40
10.54348061741694
 40
10.54348061741694
 10
9.332956739715427
 20
4.007489584262884
 30
0.0
 10
11.3454422091836
 20
3.088599541806388
 30
0.0
 10
13.2054238691926
 20
1.54429977090308
 30
0.0
 10
15.06540552920159
 20
0.0
 30
0.0
  0
SPLINE
  5
2B40
330
2B22
100
AcDbEntity
  8
AM_0
100
AcDbSpline
210
0.0
220
0.0
230
1.0
 70
     8
 71
     3
 72
     8
 73
     4
 74
     0
 42
0.0000000001
 43
0.0000000001
 40
5.3774483993125
 40
5.3774483993125
 40
5.3774483993125
 40
5.3774483993125
 40
10.40010926382874
 40
10.40010926382874
 40
10.40010926382874
 40
10.40010926382874
 10
9.557768030854731
 20
3.028813530852175
 30
0.0
 10
11.03940983876509
 20
2.189425168347497
 30
0.0
 10
12.46247333801602
 20
1.094712584173748
 30
0.0
 10
13.88553683726786
 20
0.0
 30
0.0
  0
SPLINE
  5
2B41
330
2B22
100
AcDbEntity
  8
AM_0
100
AcDbSpline
210
0.0
220
0.0
230
1.0
 70
     8
 71
     3
 72
     8
 73
     4
 74
     0
 42
0.0000000001
 43
0.0000000001
 40
2.760385419275965
 40
2.760385419275965
 40
2.760385419275965
 40
2.760385419275965
 40
3.834752168165156
 40
3.834752168165156
 40
3.834752168165156
 40
3.834752168165156
 10
9.557768030854731
 20
-4.536515943596953
 30
0.0
 10
9.887211647376716
 20
-4.421963347629173
 30
0.0
 10
10.21190867518271
 20
-4.288451198833683
 30
0.0
 10
10.53250862760978
 20
-4.138573883024321
 30
0.0
  0
SPLINE
  5
2B42
330
2B22
100
AcDbEntity
  8
AM_0
100
AcDbSpline
210
0.0
220
0.0
230
1.0
 70
     8
 71
     3
 72
     8
 73
     4
 74
     2
 42
0.0000000001
 43
0.0000000001
 44
0.0000000001
 12
0.3350454581421353
 22
0.9422019640068294
 32
0.0
 13
1.0
 23
0.0
 33
0.0
 40
0.0
 40
0.0
 40
0.0
 40
0.0
 40
1.399684097511745
 40
1.399684097511745
 40
1.399684097511745
 40
1.399684097511745
 10
9.557768030854731
 20
-4.536515943596953
 30
0.0
 10
9.714087297423093
 20
-4.096920908375389
 30
0.0
 10
10.43312619416873
 20
-4.138561737550901
 30
0.0
 10
10.89968756000598
 20
-4.138561737550901
 30
0.0
 11
9.557768030854731
 21
-4.536515943596953
 31
0.0
 11
10.89968756000598
 21
-4.138561737550901
 31
0.0
  0
SPLINE
  5
2B43
330
2B22
100
AcDbEntity
  8
AM_0
100
AcDbSpline
210
0.0
220
0.0
230
1.0
 70
     8
 71
     3
 72
     8
 73
     4
 74
     2
 42
0.0000000001
 43
0.0000000001
 44
0.0000000001
 12
-0.9369893402418064
 22
0.3493579486332382
 32
0.0
 13
-0.5635853706164173
 23
0.8260578248689107
 33
0.0
 40
0.0
 40
0.0
 40
0.0
 40
0.0
 40
5.737011747463116
 40
5.737011747463116
 40
5.737011747463116
 40
5.737011747463116
 10
14.42098803539465
 20
-4.138561737550901
 30
0.0
 10
12.62914841798967
 20
-3.4704715190914
 30
0.0
 10
10.908999879823
 20
-2.27624791911141
 30
0.0
 10
9.831234582514753
 20
-0.696546770659154
 30
0.0
 11
14.42098803539465
 21
-4.138561737550901
 31
0.0
 11
9.831234582514753
 21
-0.696546770659154
 31
0.0
  0
ARC
  5
2B44
330
2B22
100
AcDbEntity
  8
AM_0
100
AcDbCircle
 10
8.694584172175382
 20
-1.949501730853228
 30
0.0
 40
4.305296608784062
100
AcDbArc
 50
87.86849718008397
 51
139.357645375179
  0
LINE
  5
2B45
330
2B22
100
AcDbEntity
  8
AM_0
100
AcDbLine
 10
9.831234582514753
 20
-0.696546770659154
 30
0.0
 11
5.427768030855077
 21
0.8546899866325929
 31
0.0
  0
LINE
  5
2B46
330
2B22
100
AcDbEntity
  8
AM_0
100
AcDbLine
 10
5.427768030855077
 20
0.8546899866325929
 30
0.0
 11
4.827768030854713
 21
0.6585747334993357
 31
0.0
  0
LINE
  5
2B47
330
2B22
100
AcDbEntity
  8
AM_0
100
AcDbLine
 10
4.827768030854713
 20
0.6585747334993357
 30
0.0
 11
4.582845444675513
 21
0.0
 31
0.0
  0
LINE
  5
2B48
330
2B22
100
AcDbEntity
  8
AM_0
100
AcDbLine
 10
9.332956739715427
 20
4.007489584262884
 30
0.0
 11
9.557768030854731
 21
3.028813530852175
 31
0.0
  0
ARC
  5
2B49
330
2B22
100
AcDbEntity
  8
AM_0
100
AcDbCircle
 10
9.557768030854731
 20
0.4634840564031038
 30
0.0
 40
5.0
100
AcDbArc
 50
185.529769865859
 51
270.0
  0
SPLINE
  5
2B4A
330
2B22
100
AcDbEntity
  8
AM_0
100
AcDbSpline
210
0.0
220
0.0
230
1.0
 70
     8
 71
     3
 72
     9
 73
     5
 74
     3
 42
0.0000000001
 43
0.0000000001
 44
0.0000000001
 12
-0.7290715920995502
 22
0.684437443155638
 32
0.0
 13
0.7860840150089527
 23
-0.6181196658798401
 33
0.0
 40
0.0
 40
0.0
 40
0.0
 40
0.0
 40
0.4615642387890897
 40
1.425407363350696
 40
1.425407363350696
 40
1.425407363350696
 40
1.425407363350696
 10
8.854711765556203
 20
2.35281602164332
 30
0.0
 10
8.742540640746144
 20
2.458119970792948
 30
0.0
 10
8.357392018152186
 20
2.957744642816525
 30
0.0
 10
9.30521413979001
 20
3.227403660890376
 30
0.0
 10
9.557768030854731
 20
3.028813530852175
 30
0.0
 11
8.854711765556203
 21
2.35281602164332
 31
0.0
 11
8.632876760296312
 21
2.757576169101412
 31
0.0
 11
9.557768030854731
 21
3.028813530852175
 31
0.0
  0
LINE
  5
2B4B
330
2B22
100
AcDbEntity
  8
AM_0
100
AcDbLine
 10
14.42098803539465
 20
-4.138561737550901
 30
0.0
 11
21.30836028156318
 21
-4.300254190306361
 31
0.0
  0
SPLINE
  5
2B4C
330
2B22
100
AcDbEntity
  8
AM_0
100
AcDbSpline
210
0.0
220
0.0
230
1.0
 70
     8
 71
     3
 72
     8
 73
     4
 74
     0
 42
0.0000000001
 43
0.0000000001
 40
0.3080988623970067
 40
0.3080988623970067
 40
0.3080988623970067
 40
0.3080988623970067
 40
10.54348061741694
 40
10.54348061741694
 40
10.54348061741694
 40
10.54348061741694
 10
24.11880778044906
 20
-4.84723288622996
 30
0.0
 10
20.74009611283236
 20
-4.711564396932601
 30
0.0
 10
17.90275082101698
 20
-2.355782198466215
 30
0.0
 10
15.06540552920159
 20
0.0
 30
0.0
  0
SPLINE
  5
2B4D
330
2B22
100
AcDbEntity
  8
AM_0
100
AcDbSpline
210
0.0
220
0.0
230
1.0
 70
     8
 71
     3
 72
     8
 73
     4
 74
     0
 42
0.0000000001
 43
0.0000000001
 40
1.494727388119111
 40
1.494727388119111
 40
1.494727388119111
 40
1.494727388119111
 40
10.40010926382874
 40
10.40010926382874
 40
10.40010926382874
 40
10.40010926382874
 10
21.78149243231928
 20
-4.399768196515481
 30
0.0
 10
18.93183569600569
 20
-3.881939820020363
 30
0.0
 10
16.40868626663632
 20
-1.94096991001021
 30
0.0
 10
13.88553683726786
 20
0.0
 30
0.0
  0
LINE
  5
2B4E
330
2B22
100
AcDbEntity
  8
AM_0
100
AcDbLine
 10
10.89968756000598
 20
-4.138561737550901
 30
0.0
 11
14.42098803539465
 21
-4.138561737550901
 31
0.0
  0
POLYLINE
  5
2B4F
330
2B22
100
AcDbEntity
  8
AM_0
100
AcDb2dPolyline
 66
     1
 10
0.0
 20
0.0
 30
0.0
 70
     2
  0
VERTEX
  5
2B50
330
2B4F
100
AcDbEntity
  8
AM_0
100
AcDbVertex
100
AcDb2dVertex
 10
29.70530673776511
 20
-5.000000000000056
 30
0.0
 42
0.021906895434734
  0
VERTEX
  5
2B51
330
2B4F
100
AcDbEntity
  8
AM_0
100
AcDbVertex
100
AcDb2dVertex
 10
30.83007776987233
 20
-4.921468564627559
 30
0.0
 42
0.0324199514990089
 70
     1
  0
VERTEX
  5
2B52
330
2B4F
100
AcDbEntity
  8
AM_0
100
AcDbVertex
100
AcDb2dVertex
 10
31.58030673776465
 20
-4.786243115693707
 30
0.0
 42
0.0201411646801006
  0
VERTEX
  5
2B53
330
2B4F
100
AcDbEntity
  8
AM_0
100
AcDbVertex
100
AcDb2dVertex
 10
33.33212610397549
 20
-4.275997578920907
 30
0.0
 42
0.0450475812707586
 70
     1
  0
VERTEX
  5
2B54
330
2B4F
100
AcDbEntity
  8
AM_0
100
AcDbVertex
100
AcDb2dVertex
 10
34.08030673776465
 20
-3.947486231388268
 30
0.0
 42
0.0705235240614635
  0
VERTEX
  5
2B55
330
2B4F
100
AcDbEntity
  8
AM_0
100
AcDbVertex
100
AcDb2dVertex
 10
34.61303535256092
 20
-3.547037438005247
 30
0.0
 42
0.2003780791347506
 70
     1
  0
VERTEX
  5
2B56
330
2B4F
100
AcDbEntity
  8
AM_0
100
AcDbVertex
100
AcDb2dVertex
 10
34.70530673776511
 20
-3.322486231389177
 30
0.0
 42
0.1302188019897481
  0
VERTEX
  5
2B57
330
2B4F
100
AcDbEntity
  8
AM_0
100
AcDbVertex
100
AcDb2dVertex
 10
34.62541808774131
 20
-3.027664730895651
 30
0.0
 42
0.0390250736119977
 70
     1
  0
VERTEX
  5
2B58
330
2B4F
100
AcDbEntity
  8
AM_0
100
AcDbVertex
100
AcDb2dVertex
 10
34.05731521535654
 20
-2.200131991703585
 30
0.0
 42
0.0142833409954576
  0
VERTEX
  5
2B59
330
2B4F
100
AcDbEntity
  8
AM_0
100
AcDbVertex
100
AcDb2dVertex
 10
33.23165124732531
 20
-1.235995958245041
 30
0.0
 42
0.0074968472652126
 70
     1
  0
VERTEX
  5
2B5A
330
2B4F
100
AcDbEntity
  8
AM_0
100
AcDbVertex
100
AcDb2dVertex
 10
31.58030673776465
 20
0.5304179338299946
 30
0.0
 42
0.0237820438473651
  0
VERTEX
  5
2B5B
330
2B4F
100
AcDbEntity
  8
AM_0
100
AcDbVertex
100
AcDb2dVertex
 10
30.9594202698463
 20
1.116423757641769
 30
0.0
 42
0.0125443765840406
 70
     1
  0
VERTEX
  5
2B5C
330
2B4F
100
AcDbEntity
  8
AM_0
100
AcDbVertex
100
AcDb2dVertex
 10
29.70530673776511
 20
2.138613619677926
 30
0.0
  0
SEQEND
  5
2B5D
330
2B4F
100
AcDbEntity
  8
AM_0
  0
LINE
  5
2B5E
330
2B22
100
AcDbEntity
  8
AM_0
100
AcDbLine
 10
29.70530673776465
 20
3.105787253048447
 30
0.0
 11
29.4344915661768
 21
4.051545603702379
 31
0.0
  0
LINE
  5
2B5F
330
2B22
100
AcDbEntity
  8
AM_0
100
AcDbLine
 10
29.70530673776465
 20
2.138613619677698
 30
0.0
 11
29.70530673776511
 21
3.105787253048447
 31
0.0
  0
SPLINE
  5
2B60
330
2B22
100
AcDbEntity
  8
AM_0
100
AcDbSpline
210
0.0
220
0.0
230
1.0
 70
     8
 71
     3
 72
     8
 73
     4
 74
     0
 42
0.0000000001
 43
0.0000000001
 40
0.0
 40
0.0
 40
0.0
 40
0.0
 40
1.55285541345115
 40
1.55285541345115
 40
1.55285541345115
 40
1.55285541345115
 10
25.6334174259141
 20
5.0
 30
0.0
 10
25.1157989547637
 20
5.0
 30
0.0
 10
24.6115828086422
 20
4.946466377309661
 30
0.0
 10
24.11880778044133
 20
4.847232886229903
 30
0.0
  0
SPLINE
  5
2B61
330
2B22
100
AcDbEntity
  8
AM_0
100
AcDbSpline
210
0.0
220
0.0
230
1.0
 70
     8
 71
     3
 72
     8
 73
     4
 74
     0
 42
0.0000000001
 43
0.0000000001
 40
0.0
 40
0.0
 40
0.0
 40
0.0
 40
1.990690753765647
 40
1.990690753765647
 40
1.990690753765647
 40
1.990690753765647
 10
23.24553683726753
 20
4.533505564083725
 30
0.0
 10
22.58197325267883
 20
4.533505564083725
 30
0.0
 10
21.93746343128123
 20
4.450456268740254
 30
0.0
 10
21.30836028156318
 20
4.300254190306532
 30
0.0
  0
SPLINE
  5
2B62
330
2B22
100
AcDbEntity
  8
AM_0
100
AcDbSpline
210
0.0
220
0.0
230
1.0
 70
     8
 71
     3
 72
     8
 73
     4
 74
     0
 42
0.0000000001
 43
0.0000000001
 40
0.0
 40
0.0
 40
0.0
 40
0.0
 40
2.754526791728521
 40
2.754526791728521
 40
2.754526791728521
 40
2.754526791728521
 10
24.42540552920127
 20
4.853388870660182
 30
0.0
 10
23.50722993195904
 20
4.853388870660182
 30
0.0
 10
22.62944278111445
 20
4.687758075047895
 30
0.0
 10
21.78149243231928
 20
4.399768196515424
 30
0.0
  0
LINE
  5
2B63
330
2B22
100
AcDbEntity
  8
AM_7
  6
AM_ISO08W050X2
100
AcDbLine
 10
0.0
 20
0.0
 30
0.0
 11
45.35776803085491
 21
0.0
 31
0.0
1001
GENIUS_GENODEF_13
1002
{
1000
HIER
1070
     0
1002
}
1002
{
1000
MANEDIT
1070
     0
1002
}
1002
{
1000
NOSEL
1070
     0
1002
}
1002
{
1000
BEHIND
1070
     0
1002
}
1002
{
1000
REACTOR
1002
}
1001
GENIUS_GENOBJ-N-CEN_13
1002
{
1000
OWNER
1000
GEN
1002
}
  0
LINE
  5
2B64
330
2B22
100
AcDbEntity
  8
AM_11
100
AcDbLine
 10
9.557768030854731
 20
-5.000000000000056
 30
0.0
 11
45.35776803085491
 21
-5.000000000000056
 31
0.0
  0
LINE
  5
2B65
330
2B22
100
AcDbEntity
  8
AM_0
100
AcDbLine
 10
25.63341742591319
 20
-5.000000000000056
 30
0.0
 11
44.50322174914117
 21
-5.000000000000056
 31
0.0
  0
LINE
  5
2B66
330
2B22
100
AcDbEntity
  8
AM_11
100
AcDbLine
 10
45.35776803085491
 20
5.0
 30
0.0
 11
9.557768030854731
 21
5.0
 31
0.0
  0
LINE
  5
2B67
330
2B22
100
AcDbEntity
  8
AM_0
100
AcDbLine
 10
33.92536816917845
 20
4.993642166014524
 30
0.0
 11
44.95366313908789
 21
4.993642166014524
 31
0.0
  0
LINE
  5
2B68
330
2B22
100
AcDbEntity
  8
AM_7
  6
AM_ISO08W050X2
100
AcDbLine
 10
9.557768030854731
 20
8.0
 30
0.0
 11
9.557768030854731
 21
-8.000000000000056
 31
0.0
1001
GENIUS_GENODEF_13
1002
{
1000
HIER
1070
     0
1002
}
1002
{
1000
MANEDIT
1070
     0
1002
}
1002
{
1000
NOSEL
1070
     0
1002
}
1002
{
1000
BEHIND
1070
     0
1002
}
1002
{
1000
REACTOR
1002
}
1001
GENIUS_GENOBJ-N-CEN_13
1002
{
1000
OWNER
1000
GEN
1002
}
  0
LINE
  5
2B69
330
2B22
100
AcDbEntity
  8
AM_7
  6
AM_ISO08W050X2
100
AcDbLine
 10
9.557768030854731
 20
-6.29890176298619
 30
0.0
 11
9.557768030854731
 21
-22.29890176298613
 31
0.0
1001
GENIUS_GENODEF_13
1002
{
1000
HIER
1070
     0
1002
}
1002
{
1000
MANEDIT
1070
     0
1002
}
1002
{
1000
NOSEL
1070
     0
1002
}
1002
{
1000
BEHIND
1070
     0
1002
}
1002
{
1000
REACTOR
1002
}
1001
GENIUS_GENOBJ-N-CEN_13
1002
{
1000
OWNER
1000
GEN
1002
}
  0
ENDBLK
  5
2B6B
330
2B22
100
AcDbEntity
  8
0
100
AcDbBlockEnd
  0
BLOCK
  5
2CE4
330
2CCB
100
AcDbEntity
  8
0
100
AcDbBlockBegin
  2
オートネット_A3
 70
     0
 10
0.0
 20
0.0
 30
0.0
  3
オートネット_A3
  1

  0
LWPOLYLINE
  5
2CCC
330
2CCB
100
AcDbEntity
  8
AM_BOR
100
AcDbPolyline
 90
        4
 70
     1
 43
0.0
 10
20.0
 20
10.0
 10
410.0
 20
10.0
 10
410.0
 20
287.0
 10
20.0
 20
287.0
1001
GENIUS_GENREC_14
1002
{
1000
PYDIR
1011
0.0000000000000182
1021
297.0
1031
0.0
1002
}
1002
{
1000
PXDIR
1011
420.0
1021
0.0
1031
0.0
1002
}
1002
{
1000
PORI
1011
0.0
1021
0.0
1031
0.0
1002
}
1002
{
1000
PINS
1011
0.0
1021
0.0
1031
0.0
1002
}
1002
{
1000
HVAL
1000
297
1002
}
1002
{
1000
H
1070
     2
1002
}
1002
{
1000
WVAL
1000
420
1002
}
1002
{
1000
W
1070
     2
1002
}
1002
{
1000
C
1070
     1
1002
}
1001
GENIUS_GENODEF_13
1002
{
1000
HIER
1070
     0
1002
}
1002
{
1000
MANEDIT
1070
     0
1002
}
1002
{
1000
NOSEL
1070
     0
1002
}
1002
{
1000
BEHIND
1070
     0
1002
}
1002
{
1000
REACTOR
1002
}
1001
GENIUS_GENOBJ-N-REC_13
1002
{
1000
OWNER
1000
GEN
1002
}
  0
LINE
  5
2CCD
330
2CCB
100
AcDbEntity
  8
AM_BOR
 62
     3
100
AcDbLine
 10
235.0
 20
270.0
 30
0.0
 11
410.0
 21
270.0
 31
0.0
  0
LINE
  5
2CCE
330
2CCB
100
AcDbEntity
  8
AM_BOR
 62
     3
100
AcDbLine
 10
245.0
 20
280.0
 30
0.0
 11
410.0
 21
280.0
 31
0.0
  0
LINE
  5
2CCF
330
2CCB
100
AcDbEntity
  8
AM_BOR
 62
     3
100
AcDbLine
 10
410.0
 20
275.0
 30
0.0
 11
245.0
 21
275.0
 31
0.0
  0
MTEXT
  5
2CD0
330
2CCB
100
AcDbEntity
  8
AM_BOR
 62
     2
100
AcDbMText
 10
240.0
 20
278.5
 30
0.0
 40
3.5
 41
10.0
 71
     5
 72
     5
  1
訂\P正
1001
ACAD
1000
MTEXTBEGIN
1070
    73
1070
     1
1070
    44
1040
1.0
1070
    74
1070
     0
1000
MTEXTEND
  0
LINE
  5
2CD1
330
2CCB
100
AcDbEntity
  8
AM_BOR
100
AcDbLine
 10
235.0
 20
287.0
 30
0.0
 11
235.0
 21
270.0
 31
0.0
  0
TEXT
  5
2CD2
330
2CCB
100
AcDbEntity
  8
AM_BOR
 62
     2
100
AcDbText
 10
258.550185788
 20
281.7499999999999
 30
0.0
 40
3.5
  1
年　月　日
 41
0.8622259399999999
 72
     4
 11
267.0
 21
283.4999999999999
 31
0.0
100
AcDbText
  0
LINE
  5
2CD3
330
2CCB
100
AcDbEntity
  8
AM_BOR
 62
     3
100
AcDbLine
 10
257.0
 20
287.0
 30
0.0
 11
257.0
 21
270.0
 31
0.0
  0
LINE
  5
2CD4
330
2CCB
100
AcDbEntity
  8
AM_BOR
 62
     3
100
AcDbLine
 10
245.0
 20
287.0
 30
0.0
 11
245.0
 21
270.0
 31
0.0
  0
TEXT
  5
2CD5
330
2CCB
100
AcDbEntity
  8
AM_BOR
 62
     2
100
AcDbText
 10
246.2911699416666
 20
281.7499999999999
 30
0.0
 40
3.5
  1
記　号
 41
0.80722801
 72
     4
 11
251.0
 21
283.4999999999999
 31
0.0
100
AcDbText
  0
TEXT
  5
2CD6
330
2CCB
100
AcDbEntity
  8
AM_BOR
 62
     2
100
AcDbText
 10
279.1416671381666
 20
281.7499999999999
 30
0.0
 40
3.5
  1
担当者名
 41
0.99999994
 72
     4
 11
287.0
 21
283.4999999999999
 31
0.0
100
AcDbText
  0
LINE
  5
2CD7
330
2CCB
100
AcDbEntity
  8
AM_BOR
 62
     3
100
AcDbLine
 10
277.0
 20
287.0
 30
0.0
 11
277.0
 21
270.0
 31
0.0
  0
LINE
  5
2CD8
330
2CCB
100
AcDbEntity
  8
AM_BOR
 62
     3
100
AcDbLine
 10
297.0
 20
287.0
 30
0.0
 11
297.0
 21
270.0
 31
0.0
  0
TEXT
  5
2CD9
330
2CCB
100
AcDbEntity
  8
AM_BOR
 62
     2
100
AcDbText
 10
332.9333339503333
 20
281.7499999999999
 30
0.0
 40
3.5
  1
摘　　　　　　　　要
 41
0.99999997
 72
     1
 11
353.5
 21
283.4999999999999
 31
0.0
100
AcDbText
 73
     2
  0
POINT
  5
2CDA
330
2CCB
100
AcDbEntity
  8
AM_BOR
100
AcDbPoint
 10
410.0
 20
287.0
 30
0.0
  0
TEXT
  5
2CDB
330
2CCB
100
AcDbEntity
  8
AM_BOR
 60
     1
100
AcDbText
 10
420.0
 20
297.0
 30
0.0
 40
5.0
  1
!GENTITLE-MAX
 11
420.0
 21
297.0
 31
0.0
100
AcDbText
 73
     1
  0
TEXT
  5
2CDC
330
2CCB
100
AcDbEntity
  8
AM_BOR
 60
     1
100
AcDbText
 10
410.0
 20
287.0
 30
0.0
 40
5.0
  1
!GENTITLE-RU
 11
410.0
 21
287.0
 31
0.0
100
AcDbText
 73
     1
  0
TEXT
  5
2CDD
330
2CCB
100
AcDbEntity
  8
AM_BOR
 60
     1
100
AcDbText
 10
410.0
 20
10.0
 30
0.0
 40
5.0
  1
!GENTITLE-INSERT
 11
410.0
 21
10.0
 31
0.0
100
AcDbText
 73
     1
  0
TEXT
  5
2CDE
330
2CCB
100
AcDbEntity
  8
AM_BOR
100
AcDbText
 10
396.3965237418872
 20
288.8524868931713
 30
0.0
 40
5.0
  1
A3
 41
1.186813399999999
 72
     2
 11
406.5692100276015
 21
293.8524868931713
 31
0.0
100
AcDbText
 73
     3
  0
TEXT
  5
2CDF
330
2CCB
100
AcDbEntity
  8
AM_BOR
 60
     1
100
AcDbText
 10
20.0
 20
10.0
 30
0.0
 40
5.0
  1
!GENTITLE-LL
 11
20.0
 21
10.0
 31
0.0
100
AcDbText
 73
     1
  0
POINT
  5
2CE0
330
2CCB
100
AcDbEntity
  8
AM_BOR
100
AcDbPoint
 10
0.0
 20
297.0
 30
0.0
  0
POINT
  5
2CE1
330
2CCB
100
AcDbEntity
  8
AM_BOR
100
AcDbPoint
 10
0.0
 20
0.0
 30
0.0
  0
POINT
  5
2CE2
330
2CCB
100
AcDbEntity
  8
AM_BOR
100
AcDbPoint
 10
420.0
 20
0.0
 30
0.0
  0
POINT
  5
2CE3
330
2CCB
100
AcDbEntity
  8
AM_BOR
100
AcDbPoint
 10
420.0
 20
297.0
 30
0.0
  0
ENDBLK
  5
2CE5
330
2CCB
100
AcDbEntity
  8
0
100
AcDbBlockEnd
  0
BLOCK
  5
2D91
330
2CF1
100
AcDbEntity
  8
0
100
AcDbBlockBegin
  2
オートネット
 70
     2
 10
0.0
 20
0.0
 30
0.0
  3
オートネット
  1

  0
ATTDEF
  5
2CF2
330
2CF1
100
AcDbEntity
  8
AM_BOR
 62
     2
100
AcDbText
 10
-76.75
 20
25.5
 30
0.0
 40
3.0
  1

  7
ASAMI
 72
     4
 11
-76.75
 21
25.5
 31
0.0
100
AcDbAttributeDefinition
  3
日　付
  2
GEN-TITLE-PLOT{4}
 70
     0
  0
TEXT
  5
2CF3
330
2CF1
100
AcDbEntity
  8
AM_BOR
 62
     2
100
AcDbText
 10
-69.00698845333334
 20
47.5
 30
0.0
 40
4.0
  1
部品名称
 41
0.7176825500000001
  7
ASAMI
 72
     4
 11
-62.5
 21
49.5
 31
0.0
100
AcDbText
  0
TEXT
  5
2CF4
330
2CF1
100
AcDbEntity
  8
AM_BOR
 62
     2
100
AcDbText
 10
-69.00698845333334
 20
34.0
 30
0.0
 40
4.0
  1
部分名称
 41
0.7176825500000001
  7
ASAMI
 72
     4
 11
-62.5
 21
36.0
 31
0.0
100
AcDbText
  0
TEXT
  5
2CF5
330
2CF1
100
AcDbEntity
  8
AM_BOR
 62
     2
100
AcDbText
 10
-68.60241611733333
 20
2.749999999999999
 30
0.0
 40
4.0
  1
全葉数葉番号
 41
0.98094347
  7
ASAMI
 72
     4
 11
-55.0
 21
4.75
 31
0.0
100
AcDbText
  0
TEXT
  5
2CF6
330
2CF1
100
AcDbEntity
  8
AM_BOR
 62
     2
100
AcDbText
 10
-69.41683112399999
 20
12.0
 30
0.0
 40
4.0
  1
図面番号
 41
0.7518294700000001
  7
ASAMI
 72
     4
 11
-62.5
 21
14.0
 31
0.0
100
AcDbText
  0
TEXT
  5
2CF7
330
2CF1
100
AcDbEntity
  8
AM_BOR
 62
     2
100
AcDbText
 10
-69.31658719466667
 20
21.0
 30
0.0
 40
4.0
  1
機械名称
 41
0.7518294700000001
  7
ASAMI
 72
     4
 11
-62.5
 21
23.0
 31
0.0
100
AcDbText
  0
LINE
  5
2CF8
330
2CF1
100
AcDbEntity
  8
AM_BOR
 62
     3
100
AcDbLine
 10
-70.0
 20
44.5
 30
0.0
 11
0.0
 21
44.5
 31
0.0
  0
LINE
  5
2CF9
330
2CF1
100
AcDbEntity
  8
AM_BOR
 62
     3
100
AcDbLine
 10
-70.0
 20
9.5
 30
0.0
 11
0.0
 21
9.5
 31
0.0
  0
LINE
  5
2CFA
330
2CF1
100
AcDbEntity
  8
AM_BOR
 62
     3
100
AcDbLine
 10
-70.0
 20
18.5
 30
0.0
 11
0.0
 21
18.5
 31
0.0
  0
LINE
  5
2CFB
330
2CF1
100
AcDbEntity
  8
AM_BOR
 62
     3
100
AcDbLine
 10
-70.0
 20
27.5
 30
0.0
 11
0.0
 21
27.5
 31
0.0
  0
LINE
  5
2CFC
330
2CF1
100
AcDbEntity
  8
AM_BOR
100
AcDbLine
 10
-175.0
 20
54.5
 30
0.0
 11
0.0
 21
54.5
 31
0.0
  0
LINE
  5
2CFD
330
2CF1
100
AcDbEntity
  8
AM_BOR
 62
     3
100
AcDbLine
 10
-175.0
 20
61.5
 30
0.0
 11
0.0
 21
61.5
 31
0.0
  0
LINE
  5
2CFE
330
2CF1
100
AcDbEntity
  8
AM_BOR
 62
     3
100
AcDbLine
 10
-175.0
 20
0.0
 30
0.0
 11
0.0
 21
0.0
 31
0.0
  0
LINE
  5
2CFF
330
2CF1
100
AcDbEntity
  8
AM_BOR
 62
     3
100
AcDbLine
 10
-64.0
 20
61.5
 30
0.0
 11
-64.0
 21
54.5
 31
0.0
  0
LINE
  5
2D00
330
2CF1
100
AcDbEntity
  8
AM_BOR
 62
     3
100
AcDbLine
 10
-79.0
 20
61.5
 30
0.0
 11
-79.0
 21
54.5
 31
0.0
  0
LINE
  5
2D01
330
2CF1
100
AcDbEntity
  8
AM_BOR
 62
     3
100
AcDbLine
 10
-91.0
 20
61.5
 30
0.0
 11
-91.0
 21
54.5
 31
0.0
  0
LINE
  5
2D02
330
2CF1
100
AcDbEntity
  8
AM_BOR
 62
     3
100
AcDbLine
 10
-103.0
 20
61.5
 30
0.0
 11
-103.0
 21
54.5
 31
0.0
  0
LINE
  5
2D03
330
2CF1
100
AcDbEntity
  8
AM_BOR
 62
     3
100
AcDbLine
 10
-123.0
 20
61.5
 30
0.0
 11
-123.0
 21
54.5
 31
0.0
  0
LINE
  5
2D04
330
2CF1
100
AcDbEntity
  8
AM_BOR
 62
     3
100
AcDbLine
 10
-163.0
 20
61.5
 30
0.0
 11
-163.0
 21
54.5
 31
0.0
  0
LINE
  5
2D05
330
2CF1
100
AcDbEntity
  8
AM_BOR
100
AcDbLine
 10
-175.0000000000001
 20
61.5
 30
0.0
 11
-175.0
 21
0.0
 31
0.0
  0
TEXT
  5
2D06
330
2CF1
100
AcDbEntity
  8
AM_BOR
 62
     2
100
AcDbText
 10
-157.75
 20
44.0
 30
0.0
 40
2.0
  1
呼び
 41
1.134453799999999
  7
ASAMI
100
AcDbText
  0
TEXT
  5
2D07
330
2CF1
100
AcDbEntity
  8
AM_BOR
 62
     2
100
AcDbText
 10
-157.75
 20
41.0
 30
0.0
 40
2.0
  1
寸法
 41
1.134453799999999
  7
ASAMI
100
AcDbText
  0
TEXT
  5
2D08
330
2CF1
100
AcDbEntity
  8
AM_BOR
 62
     2
100
AcDbText
 10
-159.0
 20
32.5
 30
0.0
 40
2.0
  1
４以下
 41
1.1029412
  7
ASAMI
100
AcDbText
  0
ARC
  5
2D09
330
2CF1
100
AcDbEntity
  8
AM_BOR
 62
     2
100
AcDbCircle
 10
-155.9429999999992
 20
1.474599999999554
 30
0.0
 40
0.55729419
100
AcDbArc
 50
29.99997999999867
 51
180.0000099999993
  0
ARC
  5
2D0A
330
2CF1
100
AcDbEntity
  8
AM_BOR
 62
     2
100
AcDbCircle
 10
-155.9429999999992
 20
1.474599999999554
 30
0.0
 40
0.55729419
100
AcDbArc
 50
29.99997999999867
 51
180.0000099999993
  0
LINE
  5
2D0B
330
2CF1
100
AcDbEntity
  8
AM_BOR
 62
     3
100
AcDbLine
 10
-160.0
 20
39.5
 30
0.0
 11
-124.0
 21
39.5
 31
0.0
  0
LINE
  5
2D0C
330
2CF1
100
AcDbEntity
  8
AM_BOR
 62
     3
100
AcDbLine
 10
-160.0
 20
31.5
 30
0.0
 11
-142.0
 21
31.5
 31
0.0
  0
LINE
  5
2D0D
330
2CF1
100
AcDbEntity
  8
AM_BOR
 62
     3
100
AcDbLine
 10
-160.0
 20
23.5
 30
0.0
 11
-142.0
 21
23.5
 31
0.0
  0
LINE
  5
2D0E
330
2CF1
100
AcDbEntity
  8
AM_BOR
 62
     3
100
AcDbLine
 10
-160.0
 20
15.5
 30
0.0
 11
-133.0
 21
15.5
 31
0.0
  0
LINE
  5
2D0F
330
2CF1
100
AcDbEntity
  8
AM_BOR
 62
     3
100
AcDbLine
 10
-160.0
 20
7.5
 30
0.0
 11
-124.0
 21
7.5
 31
0.0
  0
LINE
  5
2D10
330
2CF1
100
AcDbEntity
  8
AM_BOR
 62
     3
100
AcDbLine
 10
-175.0
 20
47.5
 30
0.0
 11
-124.0
 21
47.5
 31
0.0
  0
TEXT
  5
2D11
330
2CF1
100
AcDbEntity
  8
AM_BOR
 62
     2
100
AcDbText
 10
-170.7150000000001
 20
7.5
 30
0.0
 40
2.0
  1
0
 41
1.285875
  7
ASAMI
100
AcDbText
  0
TEXT
  5
2D12
330
2CF1
100
AcDbEntity
  8
AM_BOR
 62
     2
100
AcDbText
 10
-167.7150000000001
 20
7.5
 30
0.0
 40
2.0
  1
8S
 41
1.028624999999999
  7
ASAMI
100
AcDbText
  0
LINE
  5
2D13
330
2CF1
100
AcDbEntity
  8
AM_BOR
100
AcDbLine
 10
-160.0
 20
54.5
 30
0.0
 11
-160.0
 21
0.0
 31
0.0
  0
LINE
  5
2D14
330
2CF1
100
AcDbEntity
  8
AM_BOR
 62
     2
100
AcDbLine
 10
-170.5
 20
6.097700000000259
 30
0.0
 11
-167.5
 21
6.097700000000259
 31
0.0
  0
LINE
  5
2D15
330
2CF1
100
AcDbEntity
  8
AM_BOR
 62
     2
100
AcDbLine
 10
-169.0
 20
3.5
 30
0.0
 11
-167.5
 21
6.098600000001169
 31
0.0
  0
LINE
  5
2D16
330
2CF1
100
AcDbEntity
  8
AM_BOR
 62
     2
100
AcDbLine
 10
-170.5
 20
6.097700000000259
 30
0.0
 11
-169.0
 21
3.5
 31
0.0
  0
LINE
  5
2D17
330
2CF1
100
AcDbEntity
  8
AM_BOR
 62
     2
100
AcDbLine
 10
-172.0
 20
3.5
 30
0.0
 11
-170.5
 21
6.097700000000259
 31
0.0
  0
TEXT
  5
2D18
330
2CF1
100
AcDbEntity
  8
AM_BOR
 62
     2
100
AcDbText
 10
-168.7150000000001
 20
7.5
 30
0.0
 40
1.0
  1
.
 41
3.214687599999999
100
AcDbText
  0
LINE
  5
2D19
330
2CF1
100
AcDbEntity
  8
AM_BOR
 62
     2
100
AcDbLine
 10
-170.5
 20
6.097700000000259
 30
0.0
 11
-173.5
 21
6.097700000000259
 31
0.0
  0
LINE
  5
2D1A
330
2CF1
100
AcDbEntity
  8
AM_BOR
 62
     2
100
AcDbLine
 10
-172.0
 20
3.5
 30
0.0
 11
-173.5
 21
6.098600000001169
 31
0.0
  0
LINE
  5
2D1B
330
2CF1
100
AcDbEntity
  8
AM_BOR
 62
     2
100
AcDbLine
 10
-162.9989999999979
 20
3.501000000000203
 30
0.0
 11
-161.4989999999979
 21
6.098600000001169
 31
0.0
  0
LINE
  5
2D1C
330
2CF1
100
AcDbEntity
  8
AM_BOR
 62
     2
100
AcDbLine
 10
-164.5
 20
6.097700000000259
 30
0.0
 11
-161.5
 21
6.097700000000259
 31
0.0
  0
LINE
  5
2D1D
330
2CF1
100
AcDbEntity
  8
AM_BOR
 62
     2
100
AcDbLine
 10
-167.5
 20
6.097700000000259
 30
0.0
 11
-166.0
 21
3.5
 31
0.0
  0
LINE
  5
2D1E
330
2CF1
100
AcDbEntity
  8
AM_BOR
 62
     2
100
AcDbLine
 10
-166.0
 20
3.5
 30
0.0
 11
-164.5
 21
6.098600000001169
 31
0.0
  0
LINE
  5
2D1F
330
2CF1
100
AcDbEntity
  8
AM_BOR
 62
     2
100
AcDbLine
 10
-167.5
 20
6.097700000000259
 30
0.0
 11
-164.5
 21
6.097700000000259
 31
0.0
  0
LINE
  5
2D20
330
2CF1
100
AcDbEntity
  8
AM_BOR
 62
     2
100
AcDbLine
 10
-164.4989999999979
 20
6.098600000001169
 30
0.0
 11
-162.9989999999979
 21
3.5
 31
0.0
  0
TEXT
  5
2D21
330
2CF1
100
AcDbEntity
  8
AM_BOR
 62
     2
100
AcDbText
 10
-159.2880000000004
 20
4.581100000001242
 30
0.0
 40
2.0
  1
250
 41
0.5869565100000001
  7
ASAMI
100
AcDbText
  0
TEXT
  5
2D22
330
2CF1
100
AcDbEntity
  8
AM_BOR
 62
     2
100
AcDbText
 10
-159.25
 20
20.5
 30
0.0
 40
2.0
  1
16
 41
1.125
  7
ASAMI
100
AcDbText
  0
LINE
  5
2D23
330
2CF1
100
AcDbEntity
  8
AM_BOR
 62
     2
100
AcDbLine
 10
-167.5
 20
13.5
 30
0.0
 11
-169.0
 21
16.09770000000025
 31
0.0
  0
LINE
  5
2D24
330
2CF1
100
AcDbEntity
  8
AM_BOR
 62
     2
100
AcDbLine
 10
-169.0
 20
16.09770000000025
 30
0.0
 11
-167.5
 21
13.5
 31
0.0
  0
LINE
  5
2D25
330
2CF1
100
AcDbEntity
  8
AM_BOR
 62
     2
100
AcDbLine
 10
-169.0
 20
16.09770000000025
 30
0.0
 11
-167.5
 21
13.5
 31
0.0
  0
LINE
  5
2D26
330
2CF1
100
AcDbEntity
  8
AM_BOR
 62
     2
100
AcDbLine
 10
-166.0
 20
16.09770000000025
 30
0.0
 11
-169.0
 21
16.09770000000025
 31
0.0
  0
LINE
  5
2D27
330
2CF1
100
AcDbEntity
  8
AM_BOR
 62
     2
100
AcDbLine
 10
-169.0
 20
16.09770000000025
 30
0.0
 11
-166.0
 21
16.09770000000025
 31
0.0
  0
LINE
  5
2D28
330
2CF1
100
AcDbEntity
  8
AM_BOR
 62
     2
100
AcDbLine
 10
-169.0
 20
16.09770000000025
 30
0.0
 11
-166.0
 21
16.09770000000025
 31
0.0
  0
LINE
  5
2D29
330
2CF1
100
AcDbEntity
  8
AM_BOR
 62
     2
100
AcDbLine
 10
-172.0
 20
16.09770000000025
 30
0.0
 11
-170.5
 21
13.5
 31
0.0
  0
LINE
  5
2D2A
330
2CF1
100
AcDbEntity
  8
AM_BOR
 62
     2
100
AcDbLine
 10
-168.9989999999979
 20
16.09860000000117
 30
0.0
 11
-170.4989999999979
 21
13.5010000000002
 31
0.0
  0
LINE
  5
2D2B
330
2CF1
100
AcDbEntity
  8
AM_BOR
 62
     2
100
AcDbLine
 10
-169.0
 20
16.09770000000025
 30
0.0
 11
-172.0
 21
16.09770000000025
 31
0.0
  0
TEXT
  5
2D2C
330
2CF1
100
AcDbEntity
  8
AM_BOR
 62
     2
100
AcDbText
 10
-170.7150000000001
 20
17.5
 30
0.0
 40
2.0
  1
3
 41
1.071562499999999
  7
ASAMI
100
AcDbText
  0
TEXT
  5
2D2D
330
2CF1
100
AcDbEntity
  8
AM_BOR
 62
     2
100
AcDbText
 10
-168.7150000000001
 20
17.5
 30
0.0
 40
1.0
  1
.
 41
3.214687599999999
100
AcDbText
  0
LINE
  5
2D2E
330
2CF1
100
AcDbEntity
  8
AM_BOR
 62
     2
100
AcDbLine
 10
-167.5
 20
13.5010000000002
 30
0.0
 11
-166.0
 21
16.09860000000117
 31
0.0
  0
LINE
  5
2D2F
330
2CF1
100
AcDbEntity
  8
AM_BOR
 62
     2
100
AcDbLine
 10
-166.0009999999983
 20
16.09770000000025
 30
0.0
 11
-164.5009999999983
 21
13.5
 31
0.0
  0
LINE
  5
2D30
330
2CF1
100
AcDbEntity
  8
AM_BOR
 62
     2
100
AcDbLine
 10
-167.5
 20
13.5010000000002
 30
0.0
 11
-166.0
 21
16.09860000000117
 31
0.0
  0
LINE
  5
2D31
330
2CF1
100
AcDbEntity
  8
AM_BOR
 62
     2
100
AcDbLine
 10
-167.5
 20
13.5010000000002
 30
0.0
 11
-166.0
 21
16.09860000000117
 31
0.0
  0
LINE
  5
2D32
330
2CF1
100
AcDbEntity
  8
AM_BOR
 62
     2
100
AcDbLine
 10
-164.4989999999979
 20
13.5010000000002
 30
0.0
 11
-162.9989999999979
 21
16.09860000000117
 31
0.0
  0
TEXT
  5
2D33
330
2CF1
100
AcDbEntity
  8
AM_BOR
 62
     2
100
AcDbText
 10
-159.25
 20
12.5
 30
0.0
 40
2.0
  1
63
 41
0.9000000399999999
  7
ASAMI
100
AcDbText
  0
TEXT
  5
2D34
330
2CF1
100
AcDbEntity
  8
AM_BOR
 62
     2
100
AcDbText
 10
-167.7150000000001
 20
17.5
 30
0.0
 40
2.0
  1
5S
 41
1.028624999999999
  7
ASAMI
100
AcDbText
  0
LINE
  5
2D35
330
2CF1
100
AcDbEntity
  8
AM_BOR
 62
     2
100
AcDbLine
 10
-166.0
 20
16.09770000000025
 30
0.0
 11
-163.0
 21
16.09770000000025
 31
0.0
  0
LINE
  5
2D36
330
2CF1
100
AcDbEntity
  8
AM_BOR
 62
     2
100
AcDbLine
 10
-167.5
 20
26.09770000000025
 30
0.0
 11
-170.5
 21
26.09770000000025
 31
0.0
  0
LINE
  5
2D37
330
2CF1
100
AcDbEntity
  8
AM_BOR
 62
     2
100
AcDbLine
 10
-169.0
 20
23.5010000000002
 30
0.0
 11
-167.5
 21
26.09860000000117
 31
0.0
  0
LINE
  5
2D38
330
2CF1
100
AcDbEntity
  8
AM_BOR
 62
     2
100
AcDbLine
 10
-169.0
 20
23.5
 30
0.0
 11
-170.5
 21
26.09770000000025
 31
0.0
  0
TEXT
  5
2D39
330
2CF1
100
AcDbEntity
  8
AM_BOR
 62
     2
100
AcDbText
 10
-171.7150000000001
 20
27.5
 30
0.0
 40
2.0
  1
12
 41
1.2857813
  7
ASAMI
100
AcDbText
  0
LINE
  5
2D3A
330
2CF1
100
AcDbEntity
  8
AM_BOR
 62
     2
100
AcDbLine
 10
-167.5009999999983
 20
26.09770000000025
 30
0.0
 11
-166.0009999999983
 21
23.5
 31
0.0
  0
LINE
  5
2D3B
330
2CF1
100
AcDbEntity
  8
AM_BOR
 62
     2
100
AcDbLine
 10
-166.0
 20
23.5010000000002
 30
0.0
 11
-164.5
 21
26.09860000000117
 31
0.0
  0
LINE
  5
2D3C
330
2CF1
100
AcDbEntity
  8
AM_BOR
 62
     2
100
AcDbLine
 10
-167.5
 20
26.09770000000025
 30
0.0
 11
-164.5
 21
26.09770000000025
 31
0.0
  0
TEXT
  5
2D3D
330
2CF1
100
AcDbEntity
  8
AM_BOR
 62
     2
100
AcDbText
 10
-167.7150000000001
 20
27.5
 30
0.0
 40
1.0
  1
.
 41
3.214687599999999
100
AcDbText
  0
TEXT
  5
2D3E
330
2CF1
100
AcDbEntity
  8
AM_BOR
 62
     2
100
AcDbText
 10
-166.7150000000001
 20
27.5
 30
0.0
 40
2.0
  1
5S
 41
1.028624999999999
  7
ASAMI
100
AcDbText
  0
TEXT
  5
2D3F
330
2CF1
100
AcDbEntity
  8
AM_BOR
 62
     2
100
AcDbText
 10
-158.75
 20
28.5
 30
0.0
 40
2.0
  1
4
 41
1.5
  7
ASAMI
100
AcDbText
  0
ARC
  5
2D40
330
2CF1
100
AcDbEntity
  8
AM_BOR
 62
     2
100
AcDbCircle
 10
-168.521055178685
 20
43.14422458045441
 30
0.0
 40
1.021055178685031
100
AcDbArc
 50
0.0
 51
180.0
  0
TEXT
  5
2D41
330
2CF1
100
AcDbEntity
  8
AM_BOR
 62
     2
100
AcDbText
 10
-170.2150000000001
 20
37.5
 30
0.0
 40
2.0
  1
50S
 41
1.085749999999999
  7
ASAMI
100
AcDbText
  0
LINE
  5
2D42
330
2CF1
100
AcDbEntity
  8
AM_BOR
 62
     2
100
AcDbLine
 10
-166.0
 20
36.09770000000025
 30
0.0
 11
-169.0
 21
36.09770000000025
 31
0.0
  0
LINE
  5
2D43
330
2CF1
100
AcDbEntity
  8
AM_BOR
 62
     2
100
AcDbLine
 10
-167.5
 20
33.5
 30
0.0
 11
-169.0
 21
36.09770000000025
 31
0.0
  0
LINE
  5
2D44
330
2CF1
100
AcDbEntity
  8
AM_BOR
 62
     2
100
AcDbLine
 10
-167.5
 20
33.5010000000002
 30
0.0
 11
-166.0
 21
36.09860000000117
 31
0.0
  0
ARC
  5
2D45
330
2CF1
100
AcDbEntity
  8
AM_BOR
 62
     2
100
AcDbCircle
 10
-166.4789448213149
 20
43.14422458045441
 30
0.0
 40
1.021055178685031
100
AcDbArc
 50
180.0
 51
0.0
  0
TEXT
  5
2D46
330
2CF1
100
AcDbEntity
  8
AM_BOR
 62
     2
100
AcDbText
 10
-173.4429999999993
 20
49.39999999999963
 30
0.0
 40
3.2
  1
仕上記号
 41
0.85126998
  7
ASAMI
100
AcDbText
  0
LINE
  5
2D47
330
2CF1
100
AcDbEntity
  8
AM_BOR
100
AcDbLine
 10
-70.0
 20
54.5
 30
0.0
 11
-70.0
 21
0.0
 31
0.0
  0
LINE
  5
2D48
330
2CF1
100
AcDbEntity
  8
AM_BOR
100
AcDbLine
 10
-124.0
 20
54.5
 30
0.0
 11
-124.0
 21
0.0
 31
0.0
  0
LINE
  5
2D49
330
2CF1
100
AcDbEntity
  8
AM_BOR
 62
     3
100
AcDbLine
 10
-142.0
 20
47.5
 30
0.0
 11
-142.0
 21
0.0
 31
0.0
  0
LINE
  5
2D4A
330
2CF1
100
AcDbEntity
  8
AM_BOR
 62
     3
100
AcDbLine
 10
-133.0
 20
47.5
 30
0.0
 11
-133.0
 21
0.0
 31
0.0
  0
TEXT
  5
2D4B
330
2CF1
100
AcDbEntity
  8
AM_BOR
 62
     2
100
AcDbText
 10
-122.5999999999999
 20
7.25
 30
0.0
 40
4.0
  1
株式会社オートネットワーク技術研究所
 41
0.6
  7
ASAMI
 72
     4
 11
-97.0
 21
9.25
 31
0.0
100
AcDbText
  0
TEXT
  5
2D4C
330
2CF1
100
AcDbEntity
  8
AM_BOR
 62
     2
100
AcDbText
 10
-154.775999999998
 20
8.631800000001021
 30
0.0
 40
2.0
  1
250
 41
0.5869565100000001
  7
ASAMI
100
AcDbText
  0
LINE
  5
2D4D
330
2CF1
100
AcDbEntity
  8
AM_BOR
 62
     3
100
AcDbLine
 10
-151.0
 20
47.5
 30
0.0
 11
-151.0
 21
0.0
 31
0.0
  0
TEXT
  5
2D4E
330
2CF1
100
AcDbEntity
  8
AM_BOR
 62
     2
100
AcDbText
 10
-150.2499999999999
 20
2.75
 30
0.0
 40
2.0
  1
±0.8
 41
1.0749725
  7
ASAMI
100
AcDbText
  0
ARC
  5
2D4F
330
2CF1
100
AcDbEntity
  8
AM_BOR
 62
     2
100
AcDbCircle
 10
-154.9779999999991
 20
2.032199999999647
 30
0.0
 40
0.5572935300000001
100
AcDbArc
 50
209.9999799999986
 51
0.000069498226454
  0
TEXT
  5
2D50
330
2CF1
100
AcDbEntity
  8
AM_BOR
 62
     2
100
AcDbText
 10
-141.25
 20
2.75
 30
0.0
 40
2.0
  1
±1.5
 41
1.1376896
  7
ASAMI
100
AcDbText
  0
TEXT
  5
2D51
330
2CF1
100
AcDbEntity
  8
AM_BOR
 62
     2
100
AcDbText
 10
-132.25
 20
2.75
 30
0.0
 40
2.0
  1
±0.5
 41
1.0749725
  7
ASAMI
100
AcDbText
  0
LINE
  5
2D52
330
2CF1
100
AcDbEntity
  8
AM_BOR
100
AcDbLine
 10
-70.0
 20
18.5
 30
0.0
 11
-124.0
 21
18.5
 31
0.0
  0
TEXT
  5
2D53
330
2CF1
100
AcDbEntity
  8
AM_BOR
 62
     2
100
AcDbText
 10
-121.7999999999999
 20
50.25
 30
0.0
 40
3.0
  1
製作台数
  7
ASAMI
 72
     4
 11
-115.0
 21
51.75
 31
0.0
100
AcDbText
  0
TEXT
  5
2D54
330
2CF1
100
AcDbEntity
  8
AM_BOR
 62
     2
100
AcDbText
 10
-122.030732028
 20
44.75
 30
0.0
 40
3.0
  1
尺　　　度
 41
0.81752698
  7
ASAMI
 72
     4
 11
-115.0
 21
46.25
 31
0.0
100
AcDbText
  0
LINE
  5
2D55
330
2CF1
100
AcDbEntity
  8
AM_BOR
 62
     3
100
AcDbLine
 10
-124.0
 20
49.0
 30
0.0
 11
-70.0
 21
49.0
 31
0.0
  0
LINE
  5
2D56
330
2CF1
100
AcDbEntity
  8
AM_BOR
100
AcDbLine
 10
-124.0
 20
43.5
 30
0.0
 11
-70.0
 21
43.5
 31
0.0
  0
LINE
  5
2D57
330
2CF1
100
AcDbEntity
  8
AM_BOR
 62
     3
100
AcDbLine
 10
-124.0
 20
37.5
 30
0.0
 11
-70.0
 21
37.5
 31
0.0
  0
LINE
  5
2D58
330
2CF1
100
AcDbEntity
  8
AM_BOR
 62
     3
100
AcDbLine
 10
-110.4999999999999
 20
43.5
 30
0.0
 11
-110.4999999999999
 21
18.5
 31
0.0
  0
TEXT
  5
2D59
330
2CF1
100
AcDbEntity
  8
AM_BOR
 62
     2
100
AcDbText
 10
-150.2499999999999
 20
18.5
 30
0.0
 40
2.0
  1
±0.3
 41
1.0749725
  7
ASAMI
100
AcDbText
  0
TEXT
  5
2D5A
330
2CF1
100
AcDbEntity
  8
AM_BOR
 62
     2
100
AcDbText
 10
-150.2499999999999
 20
10.5
 30
0.0
 40
2.0
  1
±0.5
 41
1.0749725
  7
ASAMI
100
AcDbText
  0
TEXT
  5
2D5B
330
2CF1
100
AcDbEntity
  8
AM_BOR
 62
     2
100
AcDbText
 10
-154.75
 20
16.5
 30
0.0
 40
2.0
  1
63
 41
0.9000000399999999
  7
ASAMI
100
AcDbText
  0
TEXT
  5
2D5C
330
2CF1
100
AcDbEntity
  8
AM_BOR
 62
     2
100
AcDbText
 10
-141.25
 20
10.5
 30
0.0
 40
2.0
  1
±1.0
 41
1.1837313
  7
ASAMI
100
AcDbText
  0
TEXT
  5
2D5D
330
2CF1
100
AcDbEntity
  8
AM_BOR
 62
     2
100
AcDbText
 10
-150.2499999999999
 20
26.5
 30
0.0
 40
2.0
  1
±0.2
 41
1.0749725
  7
ASAMI
100
AcDbText
  0
TEXT
  5
2D5E
330
2CF1
100
AcDbEntity
  8
AM_BOR
 62
     2
100
AcDbText
 10
-154.75
 20
24.5
 30
0.0
 40
2.0
  1
16
 41
1.125
  7
ASAMI
100
AcDbText
  0
TEXT
  5
2D5F
330
2CF1
100
AcDbEntity
  8
AM_BOR
 62
     2
100
AcDbText
 10
-141.25
 20
26.5
 30
0.0
 40
2.0
  1
±0.7
 41
1.0749725
  7
ASAMI
100
AcDbText
  0
TEXT
  5
2D60
330
2CF1
100
AcDbEntity
  8
AM_BOR
 62
     2
100
AcDbText
 10
-132.25
 20
22.5
 30
0.0
 40
2.0
  1
±0.3
 41
1.0749725
  7
ASAMI
100
AcDbText
  0
TEXT
  5
2D61
330
2CF1
100
AcDbEntity
  8
AM_BOR
 62
     2
100
AcDbText
 10
-154.0
 20
49.39999999999963
 30
0.0
 40
3.2
  1
普通寸法差
 41
1.350540199999999
  7
ASAMI
100
AcDbText
  0
TEXT
  5
2D62
330
2CF1
100
AcDbEntity
  8
AM_BOR
 62
     2
100
AcDbText
 10
-139.7499999999999
 20
44.0
 30
0.0
 40
2.0
  1
溶接
 41
1.134453799999999
  7
ASAMI
100
AcDbText
  0
TEXT
  5
2D63
330
2CF1
100
AcDbEntity
  8
AM_BOR
 62
     2
100
AcDbText
 10
-148.75
 20
44.0
 30
0.0
 40
2.0
  1
削り
 41
1.134453799999999
  7
ASAMI
100
AcDbText
  0
TEXT
  5
2D64
330
2CF1
100
AcDbEntity
  8
AM_BOR
 62
     2
100
AcDbText
 10
-150.2499999999999
 20
34.5
 30
0.0
 40
2.0
  1
±0.1
 41
1.160253899999999
  7
ASAMI
100
AcDbText
  0
TEXT
  5
2D65
330
2CF1
100
AcDbEntity
  8
AM_BOR
 62
     2
100
AcDbText
 10
-148.75
 20
41.0
 30
0.0
 40
2.0
  1
加工
 41
1.134453799999999
  7
ASAMI
100
AcDbText
  0
ARC
  5
2D66
330
2CF1
100
AcDbEntity
  8
AM_BOR
 62
     2
100
AcDbCircle
 10
-155.2999999999992
 20
37.4423999999999
 30
0.0
 40
0.55729419
100
AcDbArc
 50
89.99999600000091
 51
240.0000099999997
  0
ARC
  5
2D67
330
2CF1
100
AcDbEntity
  8
AM_BOR
 62
     2
100
AcDbCircle
 10
-155.2999999999992
 20
37.4423999999999
 30
0.0
 40
0.55729419
100
AcDbArc
 50
89.99999600000091
 51
240.0000099999997
  0
ARC
  5
2D68
330
2CF1
100
AcDbEntity
  8
AM_BOR
 62
     2
100
AcDbCircle
 10
-155.8580000000001
 20
36.47750000000087
 30
0.0
 40
0.5572935300000001
100
AcDbArc
 50
269.9999299999995
 51
60.00002199999901
  0
TEXT
  5
2D69
330
2CF1
100
AcDbEntity
  8
AM_BOR
 62
     2
100
AcDbText
 10
-139.7499999999999
 20
41.0
 30
0.0
 40
2.0
  1
板金
 41
1.134453799999999
  7
ASAMI
100
AcDbText
  0
TEXT
  5
2D6A
330
2CF1
100
AcDbEntity
  8
AM_BOR
 62
     2
100
AcDbText
 10
-132.25
 20
44.0
 30
0.0
 40
2.0
  1
穴・タッ
 41
0.8594347199999999
  7
ASAMI
100
AcDbText
  0
TEXT
  5
2D6B
330
2CF1
100
AcDbEntity
  8
AM_BOR
 62
     2
100
AcDbText
 10
-122.24999985
 20
39.0
 30
0.0
 40
3.0
  1
承　認
 41
0.99999997
  7
ASAMI
 72
     4
 11
-117.25
 21
40.49999999999999
 31
0.0
100
AcDbText
  0
TEXT
  5
2D6C
330
2CF1
100
AcDbEntity
  8
AM_BOR
 62
     2
100
AcDbText
 10
-132.25
 20
41.0
 30
0.0
 40
2.0
  1
プ位置
 41
0.8707430699999999
  7
ASAMI
100
AcDbText
  0
LINE
  5
2D6D
330
2CF1
100
AcDbEntity
  8
AM_BOR
 62
     3
100
AcDbLine
 10
-83.49999999999999
 20
43.5
 30
0.0
 11
-83.49999999999999
 21
18.5
 31
0.0
  0
LINE
  5
2D6E
330
2CF1
100
AcDbEntity
  8
AM_BOR
 62
     3
100
AcDbLine
 10
-97.0
 20
43.5
 30
0.0
 11
-97.0
 21
18.5
 31
0.0
  0
POINT
  5
2D6F
330
2CF1
100
AcDbEntity
  8
AM_BOR
100
AcDbPoint
 10
-76.34587636248324
 20
51.50851578116371
 30
0.0
  0
ATTDEF
  5
2D70
330
2CF1
100
AcDbEntity
  8
AM_BOR
 62
     3
100
AcDbText
 10
-76.75
 20
20.5
 30
0.0
 40
3.0
  1

  7
ASAMI
 72
     4
 11
-76.75
 21
20.5
 31
0.0
100
AcDbAttributeDefinition
  3
アサミ管理No.
  2
ASAMI{4}
 70
     0
  0
ATTDEF
  5
2D71
330
2CF1
100
AcDbEntity
  8
AM_BOR
 62
     2
100
AcDbText
 10
-76.75
 20
30.0
 30
0.0
 40
3.5
  1

  7
ASAMI
 72
     4
 11
-76.75
 21
30.0
 31
0.0
100
AcDbAttributeDefinition
  3
製図者名
  2
GEN-TITLE-NAME{3}
 70
     0
  0
LINE
  5
2D72
330
2CF1
100
AcDbEntity
  8
AM_BOR
 62
     3
100
AcDbLine
 10
-83.49999999999999
 20
22.5
 30
0.0
 11
-70.0
 21
22.5
 31
0.0
  0
ATTDEF
  5
2D73
330
2CF1
100
AcDbEntity
  8
AM_BOR
 62
     2
100
AcDbText
 10
-79.0
 20
50.0
 30
0.0
 40
3.5
  1

  7
ASAMI
 72
     2
 11
-79.0
 21
51.75
 31
0.0
100
AcDbAttributeDefinition
  3
製作台数
  2
DAISU
 70
     0
 74
     2
  0
ATTDEF
  5
2D74
330
2CF1
100
AcDbEntity
  8
AM_BOR
 62
     2
100
AcDbText
 10
-88.0
 20
46.25
 30
0.0
 40
3.0
  1

 41
1.5
  7
ASAMI
 72
     4
 11
-88.0
 21
46.25
 31
0.0
100
AcDbAttributeDefinition
  3
尺　度
  2
SYAKUDO
 70
     0
  0
TEXT
  5
2D75
330
2CF1
100
AcDbEntity
  8
AM_BOR
 62
     2
100
AcDbText
 10
-94.9499999
 20
39.0
 30
0.0
 40
3.0
  1
設　計
 41
0.9399999799999999
  7
ASAMI
 72
     4
 11
-90.25
 21
40.49999999999999
 31
0.0
100
AcDbText
  0
LINE
  5
2D76
330
2CF1
100
AcDbEntity
  8
AM_BOR
 62
     3
100
AcDbLine
 10
-106.0
 20
54.5
 30
0.0
 11
-106.0
 21
43.5
 31
0.0
  0
TEXT
  5
2D77
330
2CF1
100
AcDbEntity
  8
AM_BOR
 62
     2
100
AcDbText
 10
-108.6499998529999
 20
39.0
 30
0.0
 40
3.0
  1
検　図
 41
0.99999997
  7
ASAMI
 72
     4
 11
-103.75
 21
40.49999999999999
 31
0.0
100
AcDbText
  0
TEXT
  5
2D78
330
2CF1
100
AcDbEntity
  8
AM_BOR
 62
     2
100
AcDbText
 10
-82.93000000000001
 20
33.1
 30
0.0
 40
3.0
  1
アサミテクノ
 41
0.6
  7
ASAMI
 72
     4
 11
-76.75
 21
34.5
 31
0.0
100
AcDbText
  0
TEXT
  5
2D79
330
2CF1
100
AcDbEntity
  8
AM_BOR
 62
     2
100
AcDbText
 10
-81.35599990200001
 20
39.0
 30
0.0
 40
3.0
  1
製　図
 41
0.9399999799999999
  7
ASAMI
 72
     4
 11
-76.75
 21
40.49999999999999
 31
0.0
100
AcDbText
  0
TEXT
  5
2D7A
330
2CF1
100
AcDbEntity
  8
AM_BOR
 62
     2
100
AcDbText
 10
-77.03499999999985
 20
50.22211181968356
 30
0.0
 40
3.5
  1
台
 41
0.9999999899999998
  7
ASAMI
100
AcDbText
  0
TEXT
  5
2D7B
330
2CF1
100
AcDbEntity
  8
AM_BOR
 62
     2
100
AcDbText
 10
-157.2333333333333
 20
56.25
 30
0.0
 40
3.5
  1
部　品　名　称
  7
ASAMI
 72
     4
 11
-143.0
 21
58.0
 31
0.0
100
AcDbText
  0
TEXT
  5
2D7C
330
2CF1
100
AcDbEntity
  8
AM_BOR
 62
     2
100
AcDbText
 10
-173.7833333333334
 20
56.25
 30
0.0
 40
3.5
  1
品 番
  7
ASAMI
 72
     4
 11
-169.0
 21
58.0
 31
0.0
100
AcDbText
  0
TEXT
  5
2D7D
330
2CF1
100
AcDbEntity
  8
AM_BOR
 62
     2
100
AcDbText
 10
-120.9333333333333
 20
56.25
 30
0.0
 40
3.5
  1
材　　質
  7
ASAMI
 72
     4
 11
-113.0
 21
58.0
 31
0.0
100
AcDbText
  0
TEXT
  5
2D7E
330
2CF1
100
AcDbEntity
  8
AM_BOR
 62
     2
100
AcDbText
 10
-89.71051655433333
 20
56.25
 30
0.0
 40
3.5
  1
単重量ｋｇ
 41
0.49238849
  7
ASAMI
 72
     4
 11
-85.0
 21
58.0
 31
0.0
100
AcDbText
  0
TEXT
  5
2D7F
330
2CF1
100
AcDbEntity
  8
AM_BOR
 62
     2
100
AcDbText
 10
-102.2275244688333
 20
56.25
 30
0.0
 40
3.5
  1
１台分数量
 41
0.49238849
  7
ASAMI
 72
     4
 11
-97.0
 21
58.0
 31
0.0
100
AcDbText
  0
TEXT
  5
2D80
330
2CF1
100
AcDbEntity
  8
AM_BOR
 62
     2
100
AcDbText
 10
-76.47163166266667
 20
56.25
 30
0.0
 40
3.5
  1
表面処理
 41
0.62667626
  7
ASAMI
 72
     4
 11
-71.5
 21
58.0
 31
0.0
100
AcDbText
  0
LINE
  5
2D81
330
2CF1
100
AcDbEntity
  8
AM_BOR
 62
     3
100
AcDbLine
 10
-0.0000000000001705
 20
61.5
 30
0.0
 11
0.0
 21
0.0
 31
0.0
  0
LINE
  5
2D82
330
2CF1
100
AcDbEntity
  8
AM_BOR
 62
     3
100
AcDbLine
 10
-40.0
 20
9.5
 30
0.0
 11
-40.0
 21
0.0
 31
0.0
  0
ATTDEF
  5
2D83
330
2CF1
100
AcDbEntity
  8
AM_BOR
 62
     2
100
AcDbText
 10
-9.520548045499936
 20
4.75
 30
0.0
 40
4.0
  1

  7
ASAMI
 72
     4
 11
-9.520548045499936
 21
4.75
 31
0.0
100
AcDbAttributeDefinition
  3
葉 番 号
  2
YOUBAN
 70
     0
  0
TEXT
  5
2D84
330
2CF1
100
AcDbEntity
  8
AM_BOR
 62
     2
100
AcDbText
 10
-38.55500000000029
 20
3.0
 30
0.0
 40
3.5
  1
　　葉ノ内　第　　号
 41
0.87492169
  7
ASAMI
100
AcDbText
  0
ATTDEF
  5
2D85
330
2CF1
100
AcDbEntity
  8
AM_BOR
 62
     2
100
AcDbText
 10
-35.25
 20
4.75
 30
0.0
 40
4.0
  1

  7
ASAMI
 72
     4
 11
-35.25
 21
4.75
 31
0.0
100
AcDbAttributeDefinition
  3
全 葉 数
  2
YOUSU
 70
     0
  0
POINT
  5
2D86
330
2CF1
100
AcDbEntity
  8
AM_BOR
100
AcDbPoint
 10
0.0
 20
0.0
 30
0.0
  0
POINT
  5
2D87
330
2CF1
100
AcDbEntity
  8
AM_BOR
100
AcDbPoint
 10
0.0
 20
0.0
 30
0.0
  0
POINT
  5
2D88
330
2CF1
100
AcDbEntity
  8
AM_BOR
100
AcDbPoint
 10
0.0
 20
0.0
 30
0.0
  0
ATTDEF
  5
2D89
330
2CF1
100
AcDbEntity
  8
AM_BOR
 62
     2
100
AcDbText
 10
-27.50000000000005
 20
14.0
 30
0.0
 40
4.0
  1

  7
ASAMI
 72
     4
 11
-27.50000000000005
 21
14.0
 31
0.0
100
AcDbAttributeDefinition
  3
図面番号
  2
ZUBAN{12}
 70
     0
  0
ATTDEF
  5
2D8A
330
2CF1
100
AcDbEntity
  8
AM_BOR
 62
     2
100
AcDbText
 10
-27.50000000000005
 20
49.5
 30
0.0
 40
5.0
  1

  7
ASAMI
 72
     4
 11
-27.50000000000005
 21
49.5
 31
0.0
100
AcDbAttributeDefinition
  3
部品名称
  2
BUHIN{9}
 70
     0
  0
ATTDEF
  5
2D8B
330
2CF1
100
AcDbEntity
  8
AM_BOR
 62
     2
100
AcDbText
 10
-27.50000000000005
 20
31.75
 30
0.0
 40
5.0
  1

  7
ASAMI
 72
     4
 11
-27.50000000000005
 21
31.75
 31
0.0
100
AcDbAttributeDefinition
  3
部分名称２
  2
BUBUN2{9}
 70
     0
  0
ATTDEF
  5
2D8C
330
2CF1
100
AcDbEntity
  8
AM_BOR
 62
     2
100
AcDbText
 10
-27.50000000000005
 20
40.25
 30
0.0
 40
5.0
  1

  7
ASAMI
 72
     4
 11
-27.50000000000005
 21
40.25
 31
0.0
100
AcDbAttributeDefinition
  3
部分名称１
  2
BUBUN1{9}
 70
     0
  0
ATTDEF
  5
2D8D
330
2CF1
100
AcDbEntity
  8
AM_BOR
 62
     2
100
AcDbText
 10
-27.50000000000005
 20
23.0
 30
0.0
 40
5.0
  1

  7
ASAMI
 72
     4
 11
-27.50000000000005
 21
23.0
 31
0.0
100
AcDbAttributeDefinition
  3
機械名称
  2
KIKAI{9}
 70
     0
  0
LINE
  5
2D8E
330
2CF1
100
AcDbEntity
  8
AM_BOR
 62
     3
100
AcDbLine
 10
-53.60099999999874
 20
36.0
 30
0.0
 11
-1.344999999999345
 21
36.0
 31
0.0
  0
LINE
  5
2D8F
330
2CF1
100
AcDbEntity
  8
AM_BOR
 62
     3
100
AcDbLine
 10
-55.0
 20
54.5
 30
0.0
 11
-55.0
 21
9.5
 31
0.0
  0
TEXT
  5
2D90
330
2CF1
100
AcDbEntity
  8
AM_BOR
 62
     2
100
AcDbText
 10
-50.4333333333334
 20
56.25
 30
0.0
 40
3.5
  1
備　　　　　　　考
  7
ASAMI
 72
     4
 11
-32.00000000000005
 21
58.0
 31
0.0
100
AcDbText
  0
ENDBLK
  5
2D92
330
2CF1
100
AcDbEntity
  8
0
100
AcDbBlockEnd
  0
ENDSEC
  0
SECTION
  2
ENTITIES
  0
DIMENSION
  5
C4F
330
1F
100
AcDbEntity
  8
AM_5
100
AcDbDimension
  2
*D5
 10
-0.0000000000000611
 20
-19.12256601505726
 30
0.0
 11
-40.00000000000006
 21
-17.57256601505726
 31
0.0
 70
    32
  1
<>
  3
AM_JIS
100
AcDbAlignedDimension
 13
-80.00000000000007
 23
-3.000000000000003
 33
0.0
 14
-0.00000000000006
 24
-0.0000000000000036
 34
0.0
 50
0.0000000000002036
100
AcDbRotatedDimension
1001
GENIUS_GENDTOL_13
1000

1000
H7
1000

1040
0.0
  0
LINE
  5
C50
330
1F
100
AcDbEntity
  8
AM_7
100
AcDbLine
 10
-82.38487321524642
 20
-0.0000000000000036
 30
0.0
 11
1.32952988907452
 21
-0.0000000000000036
 31
0.0
1001
GENIUS_GENODEF_13
1002
{
1000
HIER
1070
     0
1002
}
1002
{
1000
MANEDIT
1070
     0
1002
}
1002
{
1000
NOSEL
1070
     0
1002
}
1002
{
1000
BEHIND
1070
     0
1002
}
1002
{
1000
REACTOR
1002
}
1001
GENIUS_GENOBJ-N-CEN_13
1002
{
1000
OWNER
1000
GEN
1002
}
  0
TEXT
  5
C58
330
1F
100
AcDbEntity
  8
AM_6
100
AcDbText
 10
-50.53571428571434
 20
-30.37256601505729
 30
0.0
 40
2.5
  1
SHB2050ZX
 50
0.0000000000002036
 72
     4
 11
-40.00000000000006
 21
-29.12256601505726
 31
0.0
100
AcDbText
  0
DIMENSION
  5
18C3
330
1F
100
AcDbEntity
  8
AM_5
100
AcDbDimension
  2
*D6
 10
-86.21481817191886
 20
2.999999999999998
 30
0.0
 11
-86.21481817191886
 21
-0.0000000000000125
 31
0.0
 70
   160
  1
%%c<>
  3
AM_JIS
100
AcDbAlignedDimension
 13
-79.50000000000007
 23
-3.000000000000003
 33
0.0
 14
-79.50000000000007
 24
2.999999999999996
 34
0.0
 50
270.0
100
AcDbRotatedDimension
1001
ACAD
1000
DSTYLE
1002
{
1070
    48
1040
0.1
1070
    47
1040
0.1
1070
   274
1070
     2
1070
   272
1070
     3
1002
}
1001
GENIUS_GENDTOL_13
1000

1000
h6
1000

1040
0.0
  0
DIMENSION
  5
195B
330
1F
100
AcDbEntity
  8
AM_5
100
AcDbDimension
  2
*D7
 10
-0.0000000000000573
 20
-13.17267970183553
 30
0.0
 11
-5.000000000000055
 21
-11.62267970183553
 31
0.0
 70
    32
  1
<>
  3
AM_JIS
100
AcDbAlignedDimension
 13
-10.00000000000005
 23
-2.499999999999994
 33
0.0
 14
-0.0000000000000568
 24
-6.250000000000002
 34
0.0
 50
359.9999999999988
100
AcDbRotatedDimension
1001
GENIUS_GENDTOL_13
1000

1000
H7
1000

1040
0.0
  0
LINE
  5
2156
330
1F
100
AcDbEntity
  8
AM_7
  6
AM_ISO08W050X2
100
AcDbLine
 10
0.5366507762258408
 20
0.000000000000032
 30
0.0
 11
-17.6064564361163
 21
0.000000000000032
 31
0.0
1001
GENIUS_GENODEF_13
1002
{
1000
HIER
1070
     0
1002
}
1002
{
1000
MANEDIT
1070
     0
1002
}
1002
{
1000
NOSEL
1070
     0
1002
}
1002
{
1000
BEHIND
1070
     0
1002
}
1002
{
1000
REACTOR
1002
}
1001
GENIUS_GENOBJ-N-CEN_13
1002
{
1000
OWNER
1000
GEN
1002
}
  0
DIMENSION
  5
21D2
330
1F
100
AcDbEntity
  8
AM_5
100
AcDbDimension
  2
*D8
 10
10.46859952920058
 20
-2.499999999999998
 30
0.0
 11
10.46859952920058
 21
-0.000000000000006
 31
0.0
 70
   160
  1
%%c<>
  3
AM_JIS
100
AcDbAlignedDimension
 13
-3.672597274944478
 23
2.499999999999986
 33
0.0
 14
-3.040082607657324
 24
-2.499999999999994
 34
0.0
 50
270.0
100
AcDbRotatedDimension
1001
GENIUS_GENDTOL_13
1000

1000
h7
1000

1040
0.0
  0
DIMENSION
  5
2347
330
1F
100
AcDbEntity
  8
AM_5
100
AcDbDimension
  2
*D9
 10
-2.500000000000069
 20
0.0000000000000409
 30
0.0
 11
5.096397864088709
 21
-9.154556349209478
 31
0.0
 70
   164
  1
<>
  3
AM_JIS$4
100
AcDbRadialDimension
 15
-0.9035608764554792
 25
-1.923897638861282
 35
0.0
 40
0.0
1001
GENIUS_GENDTOL_13
1000

1000
h7
1000

1040
0.0
1001
ACAD
1000
DSTYLE
1002
{
1070
    74
1070
     0
1070
    78
1070
     0
1070
   271
1070
     1
1002
}
  0
LINE
  5
244E
330
1F
100
AcDbEntity
  8
AM_0
100
AcDbLine
 10
-80.00000000000008
 20
-2.500000000000003
 30
0.0
 11
-80.00000000000007
 21
-0.0000000000000036
 31
0.0
  0
LINE
  5
2456
330
1F
100
AcDbEntity
  8
AM_0
100
AcDbLine
 10
-79.50000000000009
 20
-3.000000000000003
 30
0.0
 11
-16.90000000000009
 21
-3.000000000000003
 31
0.0
1001
GENIUS_GENODEF_13
1002
{
1000
HIER
1070
     0
1002
}
1002
{
1000
MANEDIT
1070
     0
1002
}
1002
{
1000
NOSEL
1070
     0
1002
}
1002
{
1000
BEHIND
1070
     0
1002
}
1002
{
1000
REACTOR
1002
}
1001
GENIUS_GENOBJ-N-CEN_13
1002
{
1000
OWNER
1000
GEN
1002
}
  0
LINE
  5
2463
330
1F
100
AcDbEntity
  8
AM_0
100
AcDbLine
 10
-79.50000000000009
 20
-3.000000000000003
 30
0.0
 11
-80.00000000000008
 21
-2.500000000000003
 31
0.0
1001
GENIUS_GENFIL_13
1070
     0
1040
0.5
1040
0.5
1040
20.0
1040
0.0
1002
{
1002
}
1001
GENIUS_GENODEF_13
1002
{
1000
HIER
1070
     0
1002
}
1002
{
1000
MANEDIT
1070
     0
1002
}
1002
{
1000
NOSEL
1070
     0
1002
}
1002
{
1000
BEHIND
1070
     0
1002
}
1002
{
1000
REACTOR
1002
}
1001
GENIUS_GENOBJ-N-CHA_13
1002
{
1000
OWNER
1000
GEN
1002
}
  0
LINE
  5
2466
330
1F
100
AcDbEntity
  8
AM_0
100
AcDbLine
 10
-79.50000000000009
 20
-3.000000000000003
 30
0.0
 11
-79.50000000000007
 21
-0.0000000000000036
 31
0.0
  0
LINE
  5
246F
330
1F
100
AcDbEntity
  8
AM_0
100
AcDbLine
 10
-16.90000000000009
 20
-3.000000000000003
 30
0.0
 11
-15.02211071648146
 21
-2.496821083006127
 31
0.0
1001
GENIUS_GENODEF_13
1002
{
1000
HIER
1070
     0
1002
}
1002
{
1000
MANEDIT
1070
     0
1002
}
1002
{
1000
NOSEL
1070
     0
1002
}
1002
{
1000
BEHIND
1070
     0
1002
}
1002
{
1000
REACTOR
1002
}
1001
GENIUS_GENOBJ-N-CEN_13
1002
{
1000
OWNER
1000
GEN
1002
}
  0
LINE
  5
2472
330
1F
100
AcDbEntity
  8
AM_0
100
AcDbLine
 10
-79.50000000000009
 20
2.999999999999996
 30
0.0
 11
-16.90000000000004
 21
2.999999999999995
 31
0.0
1001
GENIUS_GENODEF_13
1002
{
1000
HIER
1070
     0
1002
}
1002
{
1000
MANEDIT
1070
     0
1002
}
1002
{
1000
NOSEL
1070
     0
1002
}
1002
{
1000
BEHIND
1070
     0
1002
}
1002
{
1000
REACTOR
1002
}
1001
GENIUS_GENOBJ-N-CEN_13
1002
{
1000
OWNER
1000
GEN
1002
}
  0
LINE
  5
2473
330
1F
100
AcDbEntity
  8
AM_0
100
AcDbLine
 10
-16.90000000000004
 20
2.999999999999995
 30
0.0
 11
-15.02370017497838
 21
2.497246977126784
 31
0.0
1001
GENIUS_GENODEF_13
1002
{
1000
HIER
1070
     0
1002
}
1002
{
1000
MANEDIT
1070
     0
1002
}
1002
{
1000
NOSEL
1070
     0
1002
}
1002
{
1000
BEHIND
1070
     0
1002
}
1002
{
1000
REACTOR
1002
}
1001
GENIUS_GENOBJ-N-CEN_13
1002
{
1000
OWNER
1000
GEN
1002
}
  0
LINE
  5
2475
330
1F
100
AcDbEntity
  8
AM_0
100
AcDbLine
 10
-79.50000000000009
 20
2.999999999999996
 30
0.0
 11
-79.50000000000007
 21
-0.0000000000000036
 31
0.0
  0
LINE
  5
2476
330
1F
100
AcDbEntity
  8
AM_0
100
AcDbLine
 10
-79.50000000000009
 20
2.999999999999996
 30
0.0
 11
-80.00000000000008
 21
2.499999999999996
 31
0.0
1001
GENIUS_GENFIL_13
1070
     0
1040
0.5
1040
0.5
1040
20.0
1040
0.0
1002
{
1002
}
1001
GENIUS_GENODEF_13
1002
{
1000
HIER
1070
     0
1002
}
1002
{
1000
MANEDIT
1070
     0
1002
}
1002
{
1000
NOSEL
1070
     0
1002
}
1002
{
1000
BEHIND
1070
     0
1002
}
1002
{
1000
REACTOR
1002
}
1001
GENIUS_GENOBJ-N-CHA_13
1002
{
1000
OWNER
1000
GEN
1002
}
  0
LINE
  5
2477
330
1F
100
AcDbEntity
  8
AM_0
100
AcDbLine
 10
-80.00000000000008
 20
2.499999999999996
 30
0.0
 11
-80.00000000000007
 21
-0.0000000000000036
 31
0.0
  0
LINE
  5
2A88
330
1F
100
AcDbEntity
  8
AM_0
100
AcDbLine
 10
-10.92942071715278
 20
2.500000000001163
 30
0.0
 11
-15.02211071648145
 21
2.500000000001168
 31
0.0
  0
LINE
  5
2A8C
330
1F
100
AcDbEntity
  8
AM_0
100
AcDbLine
 10
-4.93161000227142
 20
2.069280868776592
 30
0.0
 11
-8.375296125355689
 21
2.150127095154324
 31
0.0
  0
LINE
  5
2A91
330
1F
100
AcDbEntity
  8
AM_0
100
AcDbLine
 10
-3.170959764577087
 20
2.069280868776592
 30
0.0
 11
-4.93161000227142
 21
2.069280868776592
 31
0.0
  0
SPLINE
  5
2A92
330
1F
100
AcDbEntity
  8
AM_0
100
AcDbSpline
210
0.0
220
0.0
230
1.0
 70
     8
 71
     3
 72
     8
 73
     4
 74
     2
 42
0.0000000001
 43
0.0000000001
 44
0.0000000001
 12
0.9369893402418066
 22
-0.3493579486332383
 32
0.0
 13
0.563585370616417
 23
-0.8260578248689107
 33
0.0
 40
0.0
 40
0.0
 40
0.0
 40
0.0
 40
2.868505873731557
 40
2.868505873731557
 40
2.868505873731557
 40
2.868505873731557
 10
-4.931610002271426
 20
2.06928086877658
 30
0.0
 10
-4.035690193568933
 20
1.735235759546829
 30
0.0
 10
-3.175615924485592
 20
1.138123959556841
 30
0.0
 10
-2.636733275831469
 20
0.3482733853307138
 30
0.0
 11
-4.931610002271426
 21
2.06928086877658
 31
0.0
 11
-2.636733275831469
 21
0.3482733853307138
 31
0.0
  0
ARC
  5
2A93
330
1F
100
AcDbEntity
  8
AM_0
100
AcDbCircle
 10
-6.194057332895094
 20
-7.850710398225707
 30
0.0
 40
10.0
100
AcDbArc
 50
51.72724905405108
 51
82.74735677978425
  0
ARC
  5
2A94
330
1F
100
AcDbEntity
  8
AM_0
100
AcDbCircle
 10
-2.500000000001461
 20
-0.2317420282004173
 30
0.0
 40
2.5
100
AcDbArc
 50
5.529769865859073
 51
90.0
  0
LINE
  5
2A95
330
1F
100
AcDbEntity
  8
AM_0
100
AcDbLine
 10
-2.63673327583147
 20
0.3482733853307138
 30
0.0
 11
-0.4350000000016321
 21
-0.4273449933151572
 31
0.0
  0
LINE
  5
2A96
330
1F
100
AcDbEntity
  8
AM_0
100
AcDbLine
 10
-0.4350000000016321
 20
-0.4273449933151572
 30
0.0
 11
-0.1350000000014549
 21
-0.329287366748531
 31
0.0
  0
LINE
  5
2A97
330
1F
100
AcDbEntity
  8
AM_0
100
AcDbLine
 10
-0.1350000000014549
 20
-0.329287366748531
 30
0.0
 11
-0.0125387069118501
 21
0.0000000000011392
 31
0.0
  0
SPLINE
  5
2A98
330
1F
100
AcDbEntity
  8
AM_0
100
AcDbSpline
210
0.0
220
0.0
230
1.0
 70
     8
 71
     3
 72
     8
 73
     4
 74
     0
 42
0.0000000001
 43
0.0000000001
 40
2.760385419275965
 40
2.760385419275965
 40
2.760385419275965
 40
2.760385419275965
 40
3.834752168165156
 40
3.834752168165156
 40
3.834752168165156
 40
3.834752168165156
 10
-2.500000000001461
 20
2.268257971799605
 30
0.0
 10
-2.664721808262453
 20
2.21098167381572
 30
0.0
 10
-2.827070322165448
 20
2.144225599417976
 30
0.0
 10
-2.987370298378988
 20
2.069286941513299
 30
0.0
  0
SPLINE
  5
2A99
330
1F
100
AcDbEntity
  8
AM_0
100
AcDbSpline
210
0.0
220
0.0
230
1.0
 70
     8
 71
     3
 72
     8
 73
     4
 74
     2
 42
0.0000000001
 43
0.0000000001
 44
0.0000000001
 12
-0.3350454581421354
 22
-0.9422019640068294
 32
0.0
 13
-1.0
 23
0.0000000000000001
 33
0.0
 40
0.0
 40
0.0
 40
0.0
 40
0.0
 40
0.699842048755872
 40
0.699842048755872
 40
0.699842048755872
 40
0.699842048755872
 10
-2.500000000001461
 20
2.268257971799605
 30
0.0
 10
-2.578159633285641
 20
2.048460454188823
 30
0.0
 10
-2.937679081658463
 20
2.06928086877658
 30
0.0
 10
-3.170959764577087
 20
2.06928086877658
 30
0.0
 11
-2.500000000001461
 21
2.268257971799605
 31
0.0
 11
-3.170959764577087
 21
2.06928086877658
 31
0.0
  0
ARC
  5
2A9A
330
1F
100
AcDbEntity
  8
AM_0
100
AcDbCircle
 10
-0.4571414728219312
 20
0.2057414974944199
 30
0.0
 40
2.18424718536994
100
AcDbArc
 50
176.2585359014462
 51
219.2555783427083
  0
ARC
  5
2A9B
330
1F
100
AcDbEntity
  8
AM_0
100
AcDbCircle
 10
-2.500000000001461
 20
0.250072620215891
 30
0.0
 40
2.5
100
AcDbArc
 50
270.0
 51
354.4702301341409
  0
ARC
  5
2A9C
330
1F
100
AcDbEntity
  8
AM_0
100
AcDbCircle
 10
-2.422099541978112
 20
0.3950744476169655
 30
0.0
 40
2.399067392346576
100
AcDbArc
 50
271.2370494223207
 51
342.4261541586427
  0
ARC
  5
2A9D
330
1F
100
AcDbEntity
  8
AM_0
100
AcDbCircle
 10
-2.068408070661788
 20
0.9747508654277485
 30
0.0
 40
2.152648304392031
100
AcDbArc
 50
267.868497180084
 51
319.3576453751792
  0
SPLINE
  5
2A9E
330
1F
100
AcDbEntity
  8
AM_0
100
AcDbSpline
210
0.0
220
0.0
230
1.0
 70
     8
 71
     3
 72
     9
 73
     5
 74
     3
 42
0.0000000001
 43
0.0000000001
 44
0.0000000001
 12
0.7290715920995501
 22
-0.6844374431556382
 32
0.0
 13
-0.7860840150089525
 23
0.6181196658798401
 33
0.0
 40
0.0
 40
0.0
 40
0.0
 40
0.0
 40
0.2307821193945437
 40
0.7127036816753487
 40
0.7127036816753487
 40
0.7127036816753487
 40
0.7127036816753487
 10
-2.148471867352198
 20
-1.176408010820523
 30
0.0
 10
-2.092386304947169
 20
-1.229059985395336
 30
0.0
 10
-1.899811993650188
 20
-1.478872321407121
 30
0.0
 10
-2.3737230544691
 20
-1.613701830444056
 30
0.0
 10
-2.500000000001461
 20
-1.514406765424956
 30
0.0
 11
-2.148471867352198
 21
-1.176408010820523
 31
0.0
 11
-2.037554364722252
 21
-1.378788084549567
 31
0.0
 11
-2.500000000001461
 21
-1.514406765424956
 31
0.0
  0
LINE
  5
2A9F
330
1F
100
AcDbEntity
  8
AM_0
100
AcDbLine
 10
-2.500000000001461
 20
-2.249927379784132
 30
0.0
 11
-2.387594354431811
 21
-2.003744792130305
 31
0.0
  0
LINE
  5
2AA0
330
1F
100
AcDbEntity
  8
AM_0
100
AcDbLine
 10
-2.387594354431811
 20
-2.003744792130305
 30
0.0
 11
-2.500000000001461
 21
-1.514406765424944
 31
0.0
  0
LINE
  5
2AB3
330
1F
100
AcDbEntity
  8
AM_0
100
AcDbLine
 10
-15.02211071648146
 20
-2.496821083006122
 30
0.0
 11
-15.02211071648146
 21
-2.33264447028813
 31
0.0
  0
ARC
  5
2AB4
330
1F
100
AcDbEntity
  8
AM_11
100
AcDbCircle
 10
-2.500000000001461
 20
0.0000000000011392
 30
0.0
 40
2.5
100
AcDbArc
 50
270.0
 51
90.0
  0
LINE
  5
2AB5
330
1F
100
AcDbEntity
  8
AM_11
100
AcDbLine
 10
-2.50000000000146
 20
2.499999999999986
 30
0.0
 11
-10.00000000000005
 21
2.499999999999986
 31
0.0
  0
LINE
  5
2AB6
330
1F
100
AcDbEntity
  8
AM_11
100
AcDbLine
 10
-2.484527052101769
 20
-2.499999999999994
 30
0.0
 11
-10.00000000000005
 21
-2.499999999999994
 31
0.0
  0
SPLINE
  5
2AF6
330
1F
100
AcDbEntity
  8
AM_0
100
AcDbSpline
210
0.0
220
0.0
230
1.0
 70
     8
 71
     3
 72
     8
 73
     4
 74
     0
 42
0.0000000001
 43
0.0000000001
 40
0.0
 40
0.0
 40
0.0
 40
0.0
 40
1.990690753765647
 40
1.990690753765647
 40
1.990690753765647
 40
1.990690753765647
 10
-9.65588440320795
 20
-2.26675278204073
 30
0.0
 10
-9.301983824760643
 20
-2.26675278204073
 30
0.0
 10
-8.958245253348588
 20
-2.225228134368995
 30
0.0
 10
-8.622723573498964
 20
-2.150127095152129
 30
0.0
  0
SPLINE
  5
2AF7
330
1F
100
AcDbEntity
  8
AM_0
100
AcDbSpline
210
0.0
220
0.0
230
1.0
 70
     8
 71
     3
 72
     8
 73
     4
 74
     0
 42
0.0000000001
 43
0.0000000001
 40
0.0
 40
0.0
 40
0.0
 40
0.0
 40
1.55285541345115
 40
1.55285541345115
 40
1.55285541345115
 40
1.55285541345115
 10
-10.92942071715278
 20
-2.49999999999886
 30
0.0
 10
-10.65335753253924
 20
-2.49999999999886
 30
0.0
 10
-10.38444225460777
 20
-2.473233188653691
 30
0.0
 10
-10.12162890623397
 20
-2.423616443113822
 30
0.0
  0
LINE
  5
2AF8
330
1F
100
AcDbEntity
  8
AM_0
100
AcDbLine
 10
-13.10109501680642
 20
-1.069306809837712
 30
0.0
 11
-13.10109501680666
 21
-1.552893626523089
 31
0.0
  0
ELLIPSE
  5
2AF9
330
1F
100
AcDbEntity
  8
AM_0
100
AcDbEllipse
 10
-15.59306193976207
 20
4.168804852134177
 30
0.0
 11
7.437534519211109
 21
1.108754968668789
 31
0.0
210
0.0
220
0.0
230
1.0
 40
0.8893337072363269
 41
4.656753647323318
 42
4.939643334521898
  0
ELLIPSE
  5
2AFA
330
1F
100
AcDbEntity
  8
AM_0
100
AcDbEllipse
 10
-12.36441550367498
 20
-27.71652367899306
 30
0.0
 11
27.40986666292631
 21
0.0000000000010911
 31
0.0
210
0.0
220
0.0
230
0.9999999999999998
 40
0.9374999999999349
 41
1.592404999857204
 42
1.621792883025485
  0
ELLIPSE
  5
2AFB
330
1F
100
AcDbEntity
  8
AM_0
100
AcDbEllipse
 10
-13.37388962694056
 20
-9.198526496794833
 30
0.0
 11
-7.631558181164804
 21
0.000000000001956
 31
0.0
210
0.0
220
0.0
230
1.0
 40
0.9375000000002138
 41
-1.519968450920297
 42
-1.474903855427013
  0
ELLIPSE
  5
2AFC
330
1F
100
AcDbEntity
  8
AM_0
100
AcDbEllipse
 10
-2.613325866139708
 20
-114.0773388992549
 30
0.0
 11
120.0186156465983
 21
0.0000000001819434
 31
0.0
210
0.0
220
0.0
230
1.0
 40
0.9374999999990055
 41
1.666688798161186
 42
1.67635053735905
  0
ELLIPSE
  5
2AFD
330
1F
100
AcDbEntity
  8
AM_0
100
AcDbEllipse
 10
-14.94913746018171
 20
-4.921666124639522
 30
0.0
 11
2.934244436990527
 21
0.0000000000008993
 31
0.0
210
0.0
220
0.0
230
1.0
 40
0.9374999999998673
 41
1.676350537359855
 42
1.738152020788853
  0
ELLIPSE
  5
2AFE
330
1F
100
AcDbEntity
  8
AM_0
100
AcDbEllipse
 10
-14.87274839747221
 20
-5.345582988798136
 30
0.0
 11
-3.392829458689778
 21
0.0000000000008862
 31
0.0
210
0.0
220
0.0
230
1.0
 40
0.9375000000000694
 41
-1.403440632800712
 42
-1.303822551284381
  0
ELLIPSE
  5
2AFF
330
1F
100
AcDbEntity
  8
AM_0
100
AcDbEllipse
 10
-15.76544285641567
 20
-2.285647400539211
 30
0.0
 11
0.0090222995993542
 21
0.0000000000000102
 31
0.0
210
0.0
220
0.0
230
1.0
 40
0.937499999999887
 41
1.83777010231175
 42
4.452461315804514
  0
ELLIPSE
  5
2B00
330
1F
100
AcDbEntity
  8
AM_0
100
AcDbEllipse
 10
-15.66542633021771
 20
-1.933071437193548
 30
0.0
 11
-0.3981755403797087
 21
0.0000000000000325
 31
0.0
210
0.0
220
0.0
230
1.0
 40
0.9374999999999678
 41
1.310868662202186
 42
1.485160221981302
  0
ELLIPSE
  5
2B01
330
1F
100
AcDbEntity
  8
AM_0
100
AcDbEllipse
 10
-15.19946073071215
 20
3.155604183436754
 30
0.0
 11
-5.846060143870477
 21
0.0000000000002327
 31
0.0
210
0.0
220
0.0
230
1.0
 40
0.9374999999999792
 41
1.48516022198228
 42
1.530593023688154
  0
ELLIPSE
  5
2B02
330
1F
100
AcDbEntity
  8
AM_0
100
AcDbEllipse
 10
-14.83895964335506
 20
11.55759198528658
 30
0.0
 11
-14.81542810936264
 21
0.0000000000264006
 31
0.0
210
0.0
220
0.0
230
1.0
 40
0.9374999999968657
 41
1.530593023689804
 42
1.541841609080054
  0
ELLIPSE
  5
2B03
330
1F
100
AcDbEntity
  8
AM_0
100
AcDbEllipse
 10
-4.838634561512607
 20
335.2590592552704
 30
0.0
 11
360.2417815875355
 21
0.0000000090239051
 31
0.0
210
0.0
220
0.0
230
1.0
 40
0.9375000000530237
 41
4.683434262644847
 42
4.685715422792929
  0
ELLIPSE
  5
2B04
330
1F
100
AcDbEntity
  8
AM_0
100
AcDbEllipse
 10
-14.24877187542236
 20
4.597827135619775
 30
0.0
 11
-7.410958985827522
 21
0.0000000000007294
 31
0.0
210
0.0
220
0.0
230
1.0
 40
0.9374999999995957
 41
1.544122769228391
 42
1.570796326794932
  0
ELLIPSE
  5
2B05
330
1F
100
AcDbEntity
  8
AM_0
100
AcDbEllipse
 10
-14.24877187540394
 20
34.78983872064699
 30
0.0
 11
39.61577134331979
 21
0.0000000000035474
 31
0.0
210
0.0
220
0.0
230
1.0
 40
0.9374999999968506
 41
4.712388980384129
 42
4.716453926124832
  0
LINE
  5
2B06
330
1F
100
AcDbEntity
  8
AM_0
100
AcDbLine
 10
-13.10109501680642
 20
-1.552893626523089
 30
0.0
 11
-12.95666025862622
 21
-2.025772801850048
 31
0.0
  0
SPLINE
  5
2B07
330
1F
100
AcDbEntity
  8
AM_0
100
AcDbSpline
210
0.0
220
0.0
230
1.0
 70
     8
 71
     3
 72
     8
 73
     4
 74
     0
 42
0.0000000001
 43
0.0000000001
 40
0.0
 40
0.0
 40
0.0
 40
0.0
 40
5.706047288453516
 40
5.706047288453516
 40
5.706047288453516
 40
5.706047288453516
 10
-10.28514770557236
 20
-2.426694435328954
 30
0.0
 10
-11.29955611240857
 20
-2.426694435328954
 30
0.0
 10
-12.22153033624763
 20
-2.071318657180881
 30
0.0
 10
-13.10109501680641
 20
-1.552893626523089
 30
0.0
  0
SPLINE
  5
2B08
330
1F
100
AcDbEntity
  8
AM_0
100
AcDbSpline
210
0.0
220
0.0
230
1.0
 70
     8
 71
     3
 72
     8
 73
     4
 74
     0
 42
0.0000000001
 43
0.0000000001
 40
0.0
 40
0.0
 40
0.0
 40
0.0
 40
4.038522933284047
 40
4.038522933284047
 40
4.038522933284047
 40
4.038522933284047
 10
-10.92942071715254
 20
-2.49999999999886
 30
0.0
 10
-11.6473803497364
 20
-2.49999999999886
 30
0.0
 10
-12.3169938273207
 20
-2.318957847701653
 30
0.0
 10
-12.95666025862283
 20
-2.025772801849941
 30
0.0
  0
SPLINE
  5
2B09
330
1F
100
AcDbEntity
  8
AM_0
100
AcDbSpline
210
0.0
220
0.0
230
1.0
 70
     8
 71
     3
 72
     8
 73
     4
 74
     0
 42
0.0000000001
 43
0.0000000001
 40
0.0
 40
0.0
 40
0.0
 40
0.0
 40
7.009223135314643
 40
7.009223135314643
 40
7.009223135314643
 40
7.009223135314643
 10
-9.655884403207471
 20
-2.26675278204073
 30
0.0
 10
-10.90196851615261
 20
-2.26675278204073
 30
0.0
 10
-12.02206971080431
 20
-1.751953266869923
 30
0.0
 10
-13.10109501680641
 20
-1.069306809837712
 30
0.0
  0
SPLINE
  5
2B0A
330
1F
100
AcDbEntity
  8
AM_0
100
AcDbSpline
210
0.0
220
0.0
230
1.0
 70
     8
 71
     3
 72
     8
 73
     4
 74
     0
 42
0.0000000001
 43
0.0000000001
 40
0.0
 40
0.0
 40
0.0
 40
0.0
 40
2.754526791728521
 40
2.754526791728521
 40
2.754526791728521
 40
2.754526791728521
 10
-10.2851477055726
 20
-2.426694435328954
 30
0.0
 10
-9.79545405371009
 20
-2.426694435328954
 30
0.0
 10
-9.32730090659297
 20
-2.343879037522815
 30
0.0
 10
-8.875060720568885
 20
-2.199884098256577
 30
0.0
  0
POLYLINE
  5
2B0B
330
1F
100
AcDbEntity
  8
AM_0
100
AcDb2dPolyline
 66
     1
 10
0.0
 20
0.0
 30
0.0
 70
     2
  0
VERTEX
  5
2B0C
330
2B0B
100
AcDbEntity
  8
AM_0
100
AcDbVertex
100
AcDb2dVertex
 10
-13.10109501680665
 20
2.500000000001174
 30
0.0
 42
0.021906895434734
  0
VERTEX
  5
2B0D
330
2B0B
100
AcDbEntity
  8
AM_0
100
AcDbVertex
100
AcDb2dVertex
 10
-13.70097290059717
 20
2.460734282314928
 30
0.0
 42
0.0324199514990089
 70
     1
  0
VERTEX
  5
2B0E
330
2B0B
100
AcDbEntity
  8
AM_0
100
AcDbVertex
100
AcDb2dVertex
 10
-14.10109501680641
 20
2.393121557847997
 30
0.0
 42
0.0201411646801006
  0
VERTEX
  5
2B0F
330
2B0B
100
AcDbEntity
  8
AM_0
100
AcDbVertex
100
AcDb2dVertex
 10
-15.03539867878552
 20
2.137998789461597
 30
0.0
 42
0.0450475812707586
 70
     1
  0
VERTEX
  5
2B10
330
2B0B
100
AcDbEntity
  8
AM_0
100
AcDbVertex
100
AcDb2dVertex
 10
-15.43442835013974
 20
1.973743115695282
 30
0.0
 42
0.0705235240614635
  0
VERTEX
  5
2B11
330
2B0B
100
AcDbEntity
  8
AM_0
100
AcDbVertex
100
AcDb2dVertex
 10
-15.71855027803108
 20
1.773518719003765
 30
0.0
 42
0.2003780791347506
 70
     1
  0
VERTEX
  5
2B12
330
2B0B
100
AcDbEntity
  8
AM_0
100
AcDbVertex
100
AcDb2dVertex
 10
-15.76776168347331
 20
1.661243115695732
 30
0.0
 42
0.1302188019897481
  0
VERTEX
  5
2B13
330
2B0B
100
AcDbEntity
  8
AM_0
100
AcDbVertex
100
AcDb2dVertex
 10
-15.72515440346061
 20
1.513832365448974
 30
0.0
 42
0.0390250736119977
 70
     1
  0
VERTEX
  5
2B14
330
2B0B
100
AcDbEntity
  8
AM_0
100
AcDbVertex
100
AcDb2dVertex
 10
-15.4221662048554
 20
1.100065995852939
 30
0.0
 42
0.0142833409954576
  0
VERTEX
  5
2B15
330
2B0B
100
AcDbEntity
  8
AM_0
100
AcDbVertex
100
AcDb2dVertex
 10
-14.98181208857209
 20
0.6179979791236694
 30
0.0
 42
0.0074968472652126
 70
     1
  0
VERTEX
  5
2B16
330
2B0B
100
AcDbEntity
  8
AM_0
100
AcDbVertex
100
AcDb2dVertex
 10
-14.10109501680641
 20
-0.2652089669138485
 30
0.0
 42
0.0237820438473651
  0
VERTEX
  5
2B17
330
2B0B
100
AcDbEntity
  8
AM_0
100
AcDbVertex
100
AcDb2dVertex
 10
-13.76995556724995
 20
-0.5582118788197452
 30
0.0
 42
0.0125443765840406
 70
     1
  0
VERTEX
  5
2B18
330
2B0B
100
AcDbEntity
  8
AM_0
100
AcDbVertex
100
AcDb2dVertex
 10
-13.10109501680665
 20
-1.069306809837819
 30
0.0
  0
SEQEND
  5
2B19
330
2B0B
100
AcDbEntity
  8
AM_0
  0
LINE
  5
2B1A
330
1F
100
AcDbEntity
  8
AM_11
100
AcDbLine
 10
-10.00000000000005
 20
-2.499999999999994
 30
0.0
 11
-10.00000000000005
 21
2.499999999999986
 31
0.0
  0
LINE
  5
2B1B
330
1F
100
AcDbEntity
  8
AM_0
100
AcDbLine
 10
-2.972660258623421
 20
-2.025772801850048
 30
0.0
 11
-8.622723573498964
 21
-2.150127095152129
 31
0.0
  0
SPLINE
  5
2B1C
330
1F
100
AcDbEntity
  8
AM_0
100
AcDbSpline
210
0.0
220
0.0
230
1.0
 70
     8
 71
     3
 72
     8
 73
     4
 74
     0
 42
0.0000000001
 43
0.0000000001
 40
2.760385419276007
 40
2.760385419276007
 40
2.760385419276007
 40
2.760385419276007
 40
10.61176705360609
 40
10.61176705360609
 40
10.61176705360609
 40
10.61176705360609
 10
-2.355741039787789
 20
-2.268257971797316
 30
0.0
 10
-3.63976566817952
 20
-1.84968761438688
 30
0.0
 10
-4.788593192666118
 20
-0.9248438071929355
 30
0.0
 10
-5.937420717152722
 20
0.0000000000011392
 30
0.0
  0
SPLINE
  5
2B1D
330
1F
100
AcDbEntity
  8
AM_0
100
AcDbSpline
210
0.0
220
0.0
230
1.0
 70
     8
 71
     3
 72
     8
 73
     4
 74
     0
 42
0.0000000001
 43
0.0000000001
 40
5.3774483993125
 40
5.3774483993125
 40
5.3774483993125
 40
5.3774483993125
 40
10.40010926382874
 40
10.40010926382874
 40
10.40010926382874
 40
10.40010926382874
 10
-2.355741039787789
 20
-1.514406765424956
 30
0.0
 10
-3.145950004006648
 20
-1.094712584172616
 30
0.0
 10
-3.904917203607144
 20
-0.5473562920857447
 30
0.0
 10
-4.663884403208126
 20
0.0000000000011392
 30
0.0
  0
SPLINE
  5
2B1E
330
1F
100
AcDbEntity
  8
AM_0
100
AcDbSpline
210
0.0
220
0.0
230
1.0
 70
     8
 71
     3
 72
     8
 73
     4
 74
     0
 42
0.0000000001
 43
0.0000000001
 40
3.83382056918599
 40
3.83382056918599
 40
3.83382056918599
 40
3.83382056918599
 40
10.54348061741694
 40
10.54348061741694
 40
10.54348061741694
 40
10.54348061741694
 10
-2.235841684513497
 20
-2.003744792130305
 30
0.0
 10
-3.309167268229853
 20
-1.544299770902062
 30
0.0
 10
-4.301157486901319
 20
-0.7721498854504081
 30
0.0
 10
-5.293147705572785
 20
0.0000000000011392
 30
0.0
  0
SPLINE
  5
2B1F
330
1F
100
AcDbEntity
  8
AM_0
100
AcDbSpline
210
0.0
220
0.0
230
1.0
 70
     8
 71
     3
 72
     8
 73
     4
 74
     0
 42
0.0000000001
 43
0.0000000001
 40
1.494727388119111
 40
1.494727388119111
 40
1.494727388119111
 40
1.494727388119111
 40
10.40010926382874
 40
10.40010926382874
 40
10.40010926382874
 40
10.40010926382874
 10
-8.875060720568885
 20
2.199884098258879
 30
0.0
 10
-7.355243794534968
 20
1.94096991001132
 30
0.0
 10
-6.009564098871307
 20
0.9704849550062419
 30
0.0
 10
-4.663884403208126
 20
0.0000000000011392
 30
0.0
  0
SPLINE
  5
2B20
330
1F
100
AcDbEntity
  8
AM_0
100
AcDbSpline
210
0.0
220
0.0
230
1.0
 70
     8
 71
     3
 72
     8
 73
     4
 74
     0
 42
0.0000000001
 43
0.0000000001
 40
0.0
 40
0.0
 40
0.0
 40
0.0
 40
3.183530116081869
 40
3.183530116081869
 40
3.183530116081869
 40
3.183530116081869
 10
-10.92942071715278
 20
2.500000000001162
 30
0.0
 10
-9.042884352067233
 20
2.500000000001162
 30
0.0
 10
-7.490152534609978
 20
1.25000000000115
 30
0.0
 10
-5.937420717152722
 20
0.0000000000011392
 30
0.0
  0
SPLINE
  5
2B21
330
1F
100
AcDbEntity
  8
AM_0
100
AcDbSpline
210
0.0
220
0.0
230
1.0
 70
     8
 71
     3
 72
     8
 73
     4
 74
     0
 42
0.0000000001
 43
0.0000000001
 40
0.3080988623970067
 40
0.3080988623970067
 40
0.3080988623970067
 40
0.3080988623970067
 40
10.54348061741694
 40
10.54348061741694
 40
10.54348061741694
 40
10.54348061741694
 10
-10.12162890623809
 20
2.423616443116112
 30
0.0
 10
-8.319649350175856
 20
2.355782198467439
 30
0.0
 10
-6.806398527874319
 20
1.177891099234242
 30
0.0
 10
-5.293147705572785
 20
0.0000000000011392
 30
0.0
  0
LINE
  5
2C98
330
1F
100
AcDbEntity
  8
AM_0
100
AcDbLine
 10
-16.90000000000008
 20
-3.000000000000002
 30
0.0
 11
-16.90000000000005
 21
2.999999999999995
 31
0.0
  0
LINE
  5
2C99
330
1F
100
AcDbEntity
  8
AM_0
100
AcDbLine
 10
-15.02211071648146
 20
-2.162885554781681
 30
0.0
 11
-15.02211071648146
 21
0.6598719485775666
 31
0.0
  0
LINE
  5
2C9A
330
1F
100
AcDbEntity
  8
AM_0
100
AcDbLine
 10
-15.02211071648145
 20
2.142200572699653
 30
0.0
 11
-15.02211071648145
 21
2.503178916993861
 31
0.0
  0
VIEWPORT
  5
E7
330
23
100
AcDbEntity
 67
     1
  8
0
100
AcDbViewport
 10
184.8623601886681
 20
138.8676977131493
 30
0.0
 40
590.6903616576021
 41
377.2671555767242
 68
     1
 69
     1
1001
ACAD
1000
MVIEW
1002
{
1070
    16
1010
0.0
1020
0.0
1030
0.0
1010
0.0
1020
0.0
1030
1.0
1040
0.0
1040
377.2671555767242
1040
184.8623601886681
1040
138.8676977131493
1040
50.0
1040
0.0
1040
0.0
1070
     0
1070
   100
1070
     1
1070
     1
1070
     0
1070
     0
1070
     0
1070
     0
1040
0.0
1040
0.0
1040
0.0
1040
5.0
1040
5.0
1040
20.0
1040
20.0
1070
     0
1002
{
1002
}
1002
}
  0
INSERT
  5
2CE8
330
23
100
AcDbEntity
 67
     1
  8
AM_11
100
AcDbBlockReference
  2
オートネット_A3
 10
0.0
 20
0.0
 30
0.0
1001
GENIUS_GENOREF_13
1005
2DA2
1001
GENIUS_GENODEF_13
1002
{
1000
HIER
1070
     0
1002
}
1002
{
1000
MANEDIT
1070
     0
1002
}
1002
{
1000
NOSEL
1070
     0
1002
}
1002
{
1000
BEHIND
1070
     0
1002
}
1002
{
1000
REACTOR
1002
}
1001
GENIUS_GENOBJ-N-SDF_13
1002
{
1000
OWNER
1000
GEN
1002
}
1001
GENIUS_GENSCREG_15
1040
1.0
1040
0.5
1011
0.0
1021
0.0
1031
0.0
1011
420.0
1021
297.0
1031
0.0
1070
     5
  0
INSERT
  5
2D94
330
23
100
AcDbEntity
 67
     1
  8
AM_11
100
AcDbBlockReference
 66
     1
  2
オートネット
 10
410.0
 20
10.0
 30
0.0
1001
GENIUS_GENOREF_13
1005
2DA2
  0
ATTRIB
  5
2D96
330
2D94
100
AcDbEntity
 67
     1
  8
AM_BOR
 62
     2
100
AcDbText
 10
333.25
 20
35.5
 30
0.0
 40
3.0
  1

  7
ASAMI
 72
     4
 11
333.25
 21
35.5
 31
0.0
100
AcDbAttribute
  2
GEN-TITLE-PLOT{4}
 70
     0
  0
ATTRIB
  5
2D97
330
2D94
100
AcDbEntity
 67
     1
  8
AM_BOR
 62
     3
100
AcDbText
 10
333.25
 20
30.5
 30
0.0
 40
3.0
  1

  7
ASAMI
 72
     4
 11
333.25
 21
30.5
 31
0.0
100
AcDbAttribute
  2
ASAMI{4}
 70
     0
  0
ATTRIB
  5
2D98
330
2D94
100
AcDbEntity
 67
     1
  8
AM_BOR
 62
     2
100
AcDbText
 10
328.5833333333333
 20
38.25
 30
0.0
 40
3.5
  1
藤 田
  7
ASAMI
 72
     4
 11
333.25
 21
40.0
 31
0.0
100
AcDbAttribute
  2
GEN-TITLE-NAME{3}
 70
     0
  0
ATTRIB
  5
2D99
330
2D94
100
AcDbEntity
 67
     1
  8
AM_BOR
 62
     2
100
AcDbText
 10
331.0
 20
60.0
 30
0.0
 40
3.5
  1

  7
ASAMI
 72
     2
 11
331.0
 21
61.75
 31
0.0
100
AcDbAttribute
  2
DAISU
 70
     0
 74
     2
  0
ATTRIB
  5
2D9A
330
2D94
100
AcDbEntity
 67
     1
  8
AM_BOR
 62
     2
100
AcDbText
 10
322.0
 20
56.25
 30
0.0
 40
3.0
  1

 41
1.5
  7
ASAMI
 72
     4
 11
322.0
 21
56.25
 31
0.0
100
AcDbAttribute
  2
SYAKUDO
 70
     0
  0
ATTRIB
  5
2D9B
330
2D94
100
AcDbEntity
 67
     1
  8
AM_BOR
 62
     2
100
AcDbText
 10
400.4794519545
 20
14.75
 30
0.0
 40
4.0
  1

  7
ASAMI
 72
     4
 11
400.4794519545
 21
14.75
 31
0.0
100
AcDbAttribute
  2
YOUBAN
 70
     0
  0
ATTRIB
  5
2D9C
330
2D94
100
AcDbEntity
 67
     1
  8
AM_BOR
 62
     2
100
AcDbText
 10
374.75
 20
14.75
 30
0.0
 40
4.0
  1

  7
ASAMI
 72
     4
 11
374.75
 21
14.75
 31
0.0
100
AcDbAttribute
  2
YOUSU
 70
     0
  0
ATTRIB
  5
2D9D
330
2D94
100
AcDbEntity
 67
     1
  8
AM_BOR
 62
     2
100
AcDbText
 10
382.4999999999999
 20
24.0
 30
0.0
 40
4.0
  1

  7
ASAMI
 72
     4
 11
382.4999999999999
 21
24.0
 31
0.0
100
AcDbAttribute
  2
ZUBAN{12}
 70
     0
  0
ATTRIB
  5
2D9E
330
2D94
100
AcDbEntity
 67
     1
  8
AM_BOR
 62
     2
100
AcDbText
 10
382.4999999999999
 20
59.5
 30
0.0
 40
5.0
  1

  7
ASAMI
 72
     4
 11
382.4999999999999
 21
59.5
 31
0.0
100
AcDbAttribute
  2
BUHIN{9}
 70
     0
  0
ATTRIB
  5
2D9F
330
2D94
100
AcDbEntity
 67
     1
  8
AM_BOR
 62
     2
100
AcDbText
 10
382.4999999999999
 20
41.74999999999999
 30
0.0
 40
5.0
  1

  7
ASAMI
 72
     4
 11
382.4999999999999
 21
41.74999999999999
 31
0.0
100
AcDbAttribute
  2
BUBUN2{9}
 70
     0
  0
ATTRIB
  5
2DA0
330
2D94
100
AcDbEntity
 67
     1
  8
AM_BOR
 62
     2
100
AcDbText
 10
382.4999999999999
 20
50.25
 30
0.0
 40
5.0
  1

  7
ASAMI
 72
     4
 11
382.4999999999999
 21
50.25
 31
0.0
100
AcDbAttribute
  2
BUBUN1{9}
 70
     0
  0
ATTRIB
  5
2DA1
330
2D94
100
AcDbEntity
 67
     1
  8
AM_BOR
 62
     2
100
AcDbText
 10
382.4999999999999
 20
33.0
 30
0.0
 40
5.0
  1

  7
ASAMI
 72
     4
 11
382.4999999999999
 21
33.0
 31
0.0
100
AcDbAttribute
  2
KIKAI{9}
 70
     0
  0
SEQEND
  5
2D95
330
2D94
100
AcDbEntity
 67
     1
  8
AM_11
  0
POINT
  5
2DA2
330
23
100
AcDbEntity
 67
     1
  8
0
 60
     1
100
AcDbPoint
 10
0.0
 20
0.0
 30
0.0
1001
GENIUS_GENOBJ-N-TIT_13
1002
{
1000
OWNER
1000
GEN
1002
}
1001
GENIUS_GENOENT_13
1002
{
1000
MYREF
1005
2DA2
1002
}
1002
{
1000
GRP
1005
0
1002
}
1001
GENIUS_GENOLIS_13
1002
{
1000
ENT
1005
2D94
1005
2CE8
1002
}
1001
GENIUS_GENTITLE_13
1002
{
1000
SCALE
1000
2:1
1002
}
1002
{
1000
BORDER
1000
オートネット_A3
1002
}
1002
{
1000
TITLE
1000
オートネット
1002
}
1002
{
1000
UNCHG
1002
{
1000
GEN-TITLE-SCA
1000
GEN-TITLE-SIZ
1002
}
1002
}
1002
{
1000
HRA
1005
2CE8
1002
}
1002
{
1000
HTIT
1005
2D94
1002
}
1002
{
1000
GENIUSID
1005
2DA2
1002
}
1001
GENIUS_GENODEF_13
1002
{
1000
HIER
1070
     1
1002
}
1002
{
1000
MANEDIT
1070
     0
1002
}
1002
{
1000
NOSEL
1070
     0
1002
}
1002
{
1000
BEHIND
1070
     0
1002
}
1002
{
1000
REACTOR
1002
}
  0
ENDSEC
  0
SECTION
  2
OBJECTS
  0
DICTIONARY
  5
C
330
0
100
AcDbDictionary
  3
ACAD_GROUP
350
D
  3
ACAD_LAYOUT
350
1A
  3
ACAD_MLINESTYLE
350
17
  3
ACAD_PLOTSETTINGS
350
19
  3
ACAD_PLOTSTYLENAME
350
E
  3
ACDBVARIABLEDICTIONARY
350
34
  3
ACMDICTIONARY
350
43
  3
AMG
350
2B
  3
AMGSNAPSETTINGS
350
6E
  3
DWGPROPS
350
2E5B
  3
ACDBHEADERROUNDTRIPXREC
350
2E69
  0
DICTIONARY
  5
74
330
1F
100
AcDbDictionary
280
     1
  3
ACAD_INDEX
360
2E5D
  3
ACAD_LAYOUTSELFREF
360
2E8C
  0
DICTIONARY
  5
2E8D
330
23
100
AcDbDictionary
280
     1
  3
ACAD_LAYOUTSELFREF
360
2E8E
  0
DICTIONARY
  5
D
102
{ACAD_REACTORS
330
C
102
}
330
C
100
AcDbDictionary
  0
DICTIONARY
  5
1A
102
{ACAD_REACTORS
330
C
102
}
330
C
100
AcDbDictionary
  0
DICTIONARY
  5
17
102
{ACAD_REACTORS
330
C
102
}
330
C
100
AcDbDictionary
  3
STANDARD
350
18
  0
DICTIONARY
  5
19
102
{ACAD_REACTORS
330
C
102
}
330
C
100
AcDbDictionary
  0
ACDBDICTIONARYWDFLT
  5
E
102
{ACAD_REACTORS
330
C
102
}
330
C
100
AcDbDictionary
281
     1
  3
Normal
350
F
100
AcDbDictionaryWithDefault
340
F
  0
DICTIONARY
  5
34
102
{ACAD_REACTORS
330
C
102
}
330
C
100
AcDbDictionary
  3
INDEXCTL
350
35
  3
SORTENTS
350
B5E
  0
DICTIONARY
  5
43
102
{ACAD_REACTORS
330
C
102
}
330
C
100
AcDbDictionary
  3
ACMSTDDICTIONARY
350
260
  0
DICTIONARY
  5
2B
102
{ACAD_REACTORS
330
C
102
}
330
C
100
AcDbDictionary
  3
ACMGSETTINGS
350
2C
  0
DICTIONARY
  5
6E
102
{ACAD_REACTORS
330
C
102
}
330
C
100
AcDbDictionary
  0
XRECORD
  5
2E5B
102
{ACAD_REACTORS
330
C
102
}
330
C
100
AcDbXrecord
  1
DWGPROPS COOKIE
  2

  3

  4

  6

  7

  8

  9

300
AmdtFileType=82
301
=
302
=
303
=
304
=
305
=
306
=
307
=
308
=
309
=
 40
0.4676348263888889
 41
2452838.620506898
 42
2452850.728486319
  1

 90
        1
  0
DICTIONARY
  5
2E69
102
{ACAD_REACTORS
330
C
102
}
330
C
100
AcDbDictionary
  3
TSTACKALIGN
350
2E6A
  3
TSTACKSIZE
350
2E6B
  3
HYPERLINKBASE
350
2E6C
  3
STYLESHEET
350
2E6D
  3
LAYOUTDICT
350
2E6E
  3
PLOTSETDICT
350
2E6F
  3
PLOTSTYLNAMDICT
350
2E70
  3
LWETCUNION
350
2E71
  3
INSUNITS
350
2E72
  3
CEPSNTYPE
350
2E73
  3
FINGERPRINTGUID
350
2E74
  3
VERSIONGUID
350
2E75
  3
PSVPSCALE
350
2E76
  3
DIMSTYLEDATA
350
2E77
  3
PUCSORTHOREF
350
2E78
  3
PUCSORTHOVIEW
350
2E79
  3
PUCSBASE
350
2E7A
  3
PUCSORGTOP
350
2E7B
  3
PUCSORGBOTTOM
350
2E7C
  3
PUCSORGLEFT
350
2E7D
  3
PUCSORGRIGHT
350
2E7E
  3
PUCSORGFRONT
350
2E7F
  3
PUCSORGBACK
350
2E80
  3
UCSORTHOREF
350
2E81
  3
UCSORTHOVIEW
350
2E82
  3
UCSBASE
350
2E83
  3
UCSORGTOP
350
2E84
  3
UCSORGBOTTOM
350
2E85
  3
UCSORGLEFT
350
2E86
  3
UCSORGRIGHT
350
2E87
  3
UCSORGFRONT
350
2E88
  3
UCSORGBACK
350
2E89
  0
DICTIONARY
  5
2E5D
102
{ACAD_REACTORS
330
74
102
}
330
74
100
AcDbDictionary
  3
*A1
350
2E5E
  0
XRECORD
  5
2E8C
102
{ACAD_REACTORS
330
74
102
}
330
74
100
AcDbXrecord
340
1F
  0
XRECORD
  5
2E8E
102
{ACAD_REACTORS
330
2E8D
102
}
330
2E8D
100
AcDbXrecord
340
23
  0
MLINESTYLE
  5
18
102
{ACAD_REACTORS
330
17
102
}
330
17
100
AcDbMlineStyle
  2
STANDARD
 70
     0
  3

 62
   256
 51
90.0
 52
90.0
 71
     2
 49
0.5
 62
   256
  6
BYLAYER
 49
-0.5
 62
   256
  6
BYLAYER
  0
ACDBPLACEHOLDER
  5
F
102
{ACAD_REACTORS
330
E
102
}
330
E
100
AcDbPlaceHolder
280
     0
  0
DICTIONARYVAR
  5
35
102
{ACAD_REACTORS
330
34
102
}
330
34
100
DictionaryVariables
280
     0
  1
1
  0
DICTIONARYVAR
  5
B5E
102
{ACAD_REACTORS
330
34
102
}
330
34
100
DictionaryVariables
280
     0
  1
96
  0
DICTIONARY
  5
260
102
{ACAD_REACTORS
330
43
102
}
330
43
100
AcDbDictionary
  0
DICTIONARY
  5
2C
102
{ACAD_REACTORS
330
2B
102
}
330
2B
100
AcDbDictionary
  3
DWGSETTINGS
350
2D
  0
XRECORD
  5
2E6A
102
{ACAD_REACTORS
330
2E69
102
}
330
2E69
100
AcDbXrecord
 90
        1
  0
XRECORD
  5
2E6B
102
{ACAD_REACTORS
330
2E69
102
}
330
2E69
100
AcDbXrecord
 90
       70
  0
XRECORD
  5
2E6C
102
{ACAD_REACTORS
330
2E69
102
}
330
2E69
100
AcDbXrecord
  1

  0
XRECORD
  5
2E6D
102
{ACAD_REACTORS
330
2E69
102
}
330
2E69
100
AcDbXrecord
  1
ASAMI.ctb
  0
XRECORD
  5
2E6E
102
{ACAD_REACTORS
330
2E69
102
}
330
2E69
100
AcDbXrecord
340
1A
  0
XRECORD
  5
2E6F
102
{ACAD_REACTORS
330
2E69
102
}
330
2E69
100
AcDbXrecord
340
19
  0
XRECORD
  5
2E70
102
{ACAD_REACTORS
330
2E69
102
}
330
2E69
100
AcDbXrecord
340
E
  0
XRECORD
  5
2E71
102
{ACAD_REACTORS
330
2E69
102
}
330
2E69
100
AcDbXrecord
 90
    10781
  0
XRECORD
  5
2E72
102
{ACAD_REACTORS
330
2E69
102
}
330
2E69
100
AcDbXrecord
 90
        4
  0
XRECORD
  5
2E73
102
{ACAD_REACTORS
330
2E69
102
}
330
2E69
100
AcDbXrecord
 90
        0
  0
XRECORD
  5
2E74
102
{ACAD_REACTORS
330
2E69
102
}
330
2E69
100
AcDbXrecord
  1
{AFB28963-8C59-40AE-9337-C84526B81ACE}
  0
XRECORD
  5
2E75
102
{ACAD_REACTORS
330
2E69
102
}
330
2E69
100
AcDbXrecord
  1
{4D6186BB-D9F1-463D-B9C5-6EFB577855A6}
  0
XRECORD
  5
2E76
102
{ACAD_REACTORS
330
2E69
102
}
330
2E69
100
AcDbXrecord
 40
0.0
  0
XRECORD
  5
2E77
102
{ACAD_REACTORS
330
2E69
102
}
330
2E69
100
AcDbXrecord
1000
DSTYLE
1002
{
1070
    79
 70
     2
1070
   341
340
59
1070
   342
340
59
1070
   371
 70
    -1
1070
   372
 70
    -1
1002
}
  0
XRECORD
  5
2E78
102
{ACAD_REACTORS
330
2E69
102
}
330
2E69
100
AcDbXrecord
340
0
  0
XRECORD
  5
2E79
102
{ACAD_REACTORS
330
2E69
102
}
330
2E69
100
AcDbXrecord
 70
     0
  0
XRECORD
  5
2E7A
102
{ACAD_REACTORS
330
2E69
102
}
330
2E69
100
AcDbXrecord
340
0
  0
XRECORD
  5
2E7B
102
{ACAD_REACTORS
330
2E69
102
}
330
2E69
100
AcDbXrecord
 10
0.0
 20
0.0
 30
0.0
  0
XRECORD
  5
2E7C
102
{ACAD_REACTORS
330
2E69
102
}
330
2E69
100
AcDbXrecord
 10
0.0
 20
0.0
 30
0.0
  0
XRECORD
  5
2E7D
102
{ACAD_REACTORS
330
2E69
102
}
330
2E69
100
AcDbXrecord
 10
0.0
 20
0.0
 30
0.0
  0
XRECORD
  5
2E7E
102
{ACAD_REACTORS
330
2E69
102
}
330
2E69
100
AcDbXrecord
 10
0.0
 20
0.0
 30
0.0
  0
XRECORD
  5
2E7F
102
{ACAD_REACTORS
330
2E69
102
}
330
2E69
100
AcDbXrecord
 10
0.0
 20
0.0
 30
0.0
  0
XRECORD
  5
2E80
102
{ACAD_REACTORS
330
2E69
102
}
330
2E69
100
AcDbXrecord
 10
0.0
 20
0.0
 30
0.0
  0
XRECORD
  5
2E81
102
{ACAD_REACTORS
330
2E69
102
}
330
2E69
100
AcDbXrecord
340
0
  0
XRECORD
  5
2E82
102
{ACAD_REACTORS
330
2E69
102
}
330
2E69
100
AcDbXrecord
 70
     0
  0
XRECORD
  5
2E83
102
{ACAD_REACTORS
330
2E69
102
}
330
2E69
100
AcDbXrecord
340
0
  0
XRECORD
  5
2E84
102
{ACAD_REACTORS
330
2E69
102
}
330
2E69
100
AcDbXrecord
 10
0.0
 20
0.0
 30
0.0
  0
XRECORD
  5
2E85
102
{ACAD_REACTORS
330
2E69
102
}
330
2E69
100
AcDbXrecord
 10
0.0
 20
0.0
 30
0.0
  0
XRECORD
  5
2E86
102
{ACAD_REACTORS
330
2E69
102
}
330
2E69
100
AcDbXrecord
 10
0.0
 20
0.0
 30
0.0
  0
XRECORD
  5
2E87
102
{ACAD_REACTORS
330
2E69
102
}
330
2E69
100
AcDbXrecord
 10
0.0
 20
0.0
 30
0.0
  0
XRECORD
  5
2E88
102
{ACAD_REACTORS
330
2E69
102
}
330
2E69
100
AcDbXrecord
 10
0.0
 20
0.0
 30
0.0
  0
XRECORD
  5
2E89
102
{ACAD_REACTORS
330
2E69
102
}
330
2E69
100
AcDbXrecord
 10
0.0
 20
0.0
 30
0.0
  0
LAYER_INDEX
  5
2E5E
102
{ACAD_REACTORS
330
2E5D
102
}
330
2E5D
100
AcDbIndex
 40
2453151.875825324
100
AcDbLayerIndex
  8
0
360
2E5F
 90
        0
  8
AM_0
360
2E60
 90
       61
  8
AM_11
360
2E61
 90
        4
  8
AM_7
360
2E62
 90
        2
  8
AM_5
360
2E63
 90
        5
  8
Defpoints
360
2E64
 90
        0
  8
AM_6
360
2E65
 90
        1
  8
AM_CL
360
2E66
 90
        0
  8
AM_BOR
360
2E67
 90
        0
  0
XRECORD
  5
2D
102
{ACAD_REACTORS
330
2C
102
}
330
2C
100
AcDbXrecord
  1
VERSION
140
15.0
  1
PRODUCT
  2
AutoCAD Mechanical 2000
  0
IDBUFFER
  5
2E5F
330
0
100
AcDbIdBuffer
  0
IDBUFFER
  5
2E60
330
0
100
AcDbIdBuffer
330
2B09
330
2B0A
330
2B0B
330
2B1B
330
2B1C
330
2B1D
330
2B1E
330
2B1F
330
2B20
330
2B21
330
2C98
330
2C99
330
2C9A
330
244E
330
2456
330
2463
330
2466
330
246F
330
2472
330
2473
330
2475
330
2476
330
2477
330
2A88
330
2A8C
330
2A91
330
2A92
330
2A93
330
2A94
330
2A95
330
2A96
330
2A97
330
2A98
330
2A99
330
2A9A
330
2A9B
330
2A9C
330
2A9D
330
2A9E
330
2A9F
330
2AA0
330
2AB3
330
2AF6
330
2AF7
330
2AF8
330
2AF9
330
2AFA
330
2AFB
330
2AFC
330
2AFD
330
2AFE
330
2AFF
330
2B00
330
2B01
330
2B02
330
2B03
330
2B04
330
2B05
330
2B06
330
2B07
330
2B08
  0
IDBUFFER
  5
2E61
330
0
100
AcDbIdBuffer
330
2AB4
330
2AB5
330
2AB6
330
2B1A
  0
IDBUFFER
  5
2E62
330
0
100
AcDbIdBuffer
330
C50
330
2156
  0
IDBUFFER
  5
2E63
330
0
100
AcDbIdBuffer
330
C4F
330
18C3
330
195B
330
21D2
330
2347
  0
IDBUFFER
  5
2E64
330
0
100
AcDbIdBuffer
  0
IDBUFFER
  5
2E65
330
0
100
AcDbIdBuffer
330
C58
  0
IDBUFFER
  5
2E66
330
0
100
AcDbIdBuffer
  0
IDBUFFER
  5
2E67
330
0
100
AcDbIdBuffer
  0
ENDSEC
  0
EOF
