  0
SECTION
  2
HEADER
  9
$ACADVER
  1
AC1014
  9
$ACADMAINTVER
 70
     9
  9
$DWGCODEPAGE
  3
ANSI_932
  9
$INSBASE
 10
0.0
 20
0.0
 30
0.0
  9
$EXTMIN
 10
-131.635044123829
 20
-32.24999999999965
 30
-0.00000001
  9
$EXTMAX
 10
8.829530889074536
 20
8.427837378307398
 30
0.00000001
  9
$LIMMIN
 10
-166.1525103345889
 20
-75.57604861636182
  9
$LIMMAX
 10
43.66287193888001
 20
38.25603164111146
  9
$ORTHOMODE
 70
     0
  9
$REGENMODE
 70
     1
  9
$FILLMODE
 70
     1
  9
$QTEXTMODE
 70
     0
  9
$MIRRTEXT
 70
     0
  9
$DRAGMODE
 70
     2
  9
$LTSCALE
 40
0.3
  9
$OSMODE
 70
    55
  9
$ATTMODE
 70
     1
  9
$TEXTSIZE
 40
2.5
  9
$TRACEWID
 40
1.0
  9
$TEXTSTYLE
  7
STANDARD
  9
$CLAYER
  8
AM_0
  9
$CELTYPE
  6
BYLAYER
  9
$CECOLOR
 62
   256
  9
$CELTSCALE
 40
1.0
  9
$DELOBJ
 70
     1
  9
$DISPSILH
 70
     0
  9
$DIMSCALE
 40
0.3333333333333333
  9
$DIMASZ
 40
2.5
  9
$DIMEXO
 40
1.0
  9
$DIMDLI
 40
12.0
  9
$DIMRND
 40
0.0
  9
$DIMDLE
 40
0.0
  9
$DIMEXE
 40
1.0
  9
$DIMTP
 40
0.1
  9
$DIMTM
 40
0.1
  9
$DIMTXT
 40
3.2
  9
$DIMCEN
 40
0.0
  9
$DIMTSZ
 40
0.0
  9
$DIMTOL
 70
     0
  9
$DIMLIM
 70
     0
  9
$DIMTIH
 70
     0
  9
$DIMTOH
 70
     0
  9
$DIMSE1
 70
     0
  9
$DIMSE2
 70
     0
  9
$DIMTAD
 70
     3
  9
$DIMZIN
 70
     8
  9
$DIMBLK
  1
OPEN30
  9
$DIMASO
 70
     1
  9
$DIMSHO
 70
     1
  9
$DIMPOST
  1

  9
$DIMAPOST
  1
"
  9
$DIMALT
 70
     0
  9
$DIMALTD
 70
     2
  9
$DIMALTF
 40
0.0393701
  9
$DIMLFAC
 40
1.0
  9
$DIMTOFL
 70
     1
  9
$DIMTVP
 40
0.0
  9
$DIMTIX
 70
     0
  9
$DIMSOXD
 70
     0
  9
$DIMSAH
 70
     0
  9
$DIMBLK1
  1

  9
$DIMBLK2
  1

  9
$DIMSTYLE
  2
AM_JIS
  9
$DIMCLRD
 70
   256
  9
$DIMCLRE
 70
   256
  9
$DIMCLRT
 70
     2
  9
$DIMTFAC
 40
0.71
  9
$DIMGAP
 40
1.5
  9
$DIMJUST
 70
     0
  9
$DIMSD1
 70
     0
  9
$DIMSD2
 70
     0
  9
$DIMTOLJ
 70
     0
  9
$DIMTZIN
 70
     0
  9
$DIMALTZ
 70
     0
  9
$DIMALTTZ
 70
     0
  9
$DIMFIT
 70
     3
  9
$DIMUPT
 70
     0
  9
$DIMUNIT
 70
     2
  9
$DIMDEC
 70
     3
  9
$DIMTDEC
 70
     3
  9
$DIMALTU
 70
     2
  9
$DIMALTTD
 70
     2
  9
$DIMTXSTY
  7
ASAMI
  9
$DIMAUNIT
 70
     0
  9
$LUNITS
 70
     2
  9
$LUPREC
 70
     2
  9
$SKETCHINC
 40
1.0
  9
$FILLETRAD
 40
0.5
  9
$AUNITS
 70
     0
  9
$AUPREC
 70
     0
  9
$MENU
  1
.
  9
$ELEVATION
 40
0.0
  9
$PELEVATION
 40
0.0
  9
$THICKNESS
 40
0.0
  9
$LIMCHECK
 70
     0
  9
$BLIPMODE
 70
     0
  9
$CHAMFERA
 40
0.5
  9
$CHAMFERB
 40
0.5
  9
$CHAMFERC
 40
20.0
  9
$CHAMFERD
 40
0.0
  9
$SKPOLY
 70
     0
  9
$TDCREATE
 40
2452838.620506898
  9
$TDUPDATE
 40
2453151.877228715
  9
$TDINDWG
 40
0.4629361458
  9
$TDUSRTIMER
 40
0.4629361458
  9
$USRTIMER
 70
     1
  9
$ANGBASE
 50
0.0
  9
$ANGDIR
 70
     0
  9
$PDMODE
 70
     0
  9
$PDSIZE
 40
0.0
  9
$PLINEWID
 40
0.0
  9
$COORDS
 70
     1
  9
$SPLFRAME
 70
     0
  9
$SPLINETYPE
 70
     6
  9
$SPLINESEGS
 70
     8
  9
$ATTDIA
 70
     1
  9
$ATTREQ
 70
     1
  9
$HANDLING
 70
 12289
  9
$HANDSEED
  5
2FF3
  9
$SURFTAB1
 70
     6
  9
$SURFTAB2
 70
     6
  9
$SURFTYPE
 70
     6
  9
$SURFU
 70
     6
  9
$SURFV
 70
     6
  9
$UCSNAME
  2

  9
$UCSORG
 10
-0.0000000000000568
 20
-0.0000000000000036
 30
0.0
  9
$UCSXDIR
 10
1.0
 20
0.0
 30
0.0
  9
$UCSYDIR
 10
0.0
 20
1.0
 30
0.0
  9
$PUCSNAME
  2

  9
$PUCSORG
 10
0.0
 20
0.0
 30
0.0
  9
$PUCSXDIR
 10
1.0
 20
0.0
 30
0.0
  9
$PUCSYDIR
 10
0.0
 20
1.0
 30
0.0
  9
$USERI1
 70
     0
  9
$USERI2
 70
     0
  9
$USERI3
 70
     0
  9
$USERI4
 70
     0
  9
$USERI5
 70
     0
  9
$USERR1
 40
0.0
  9
$USERR2
 40
0.0
  9
$USERR3
 40
0.0
  9
$USERR4
 40
0.0
  9
$USERR5
 40
0.0
  9
$WORLDVIEW
 70
     1
  9
$SHADEDGE
 70
     3
  9
$SHADEDIF
 70
    70
  9
$TILEMODE
 70
     1
  9
$MAXACTVP
 70
    64
  9
$PINSBASE
 10
0.0
 20
0.0
 30
0.0
  9
$PLIMCHECK
 70
     0
  9
$PEXTMIN
 10
1.000000000000000E+20
 20
1.000000000000000E+20
 30
1.000000000000000E+20
  9
$PEXTMAX
 10
-1.000000000000000E+20
 20
-1.000000000000000E+20
 30
-1.000000000000000E+20
  9
$PLIMMIN
 10
0.0
 20
0.0
  9
$PLIMMAX
 10
841.0
 20
594.0
  9
$UNITMODE
 70
     0
  9
$VISRETAIN
 70
     1
  9
$PLINEGEN
 70
     0
  9
$PSLTSCALE
 70
     0
  9
$TREEDEPTH
 70
  3020
  9
$PICKSTYLE
 70
     0
  9
$CMLSTYLE
  2
STANDARD
  9
$CMLJUST
 70
     0
  9
$CMLSCALE
 40
20.0
  9
$PROXYGRAPHICS
 70
     1
  9
$MEASUREMENT
 70
     1
  0
ENDSEC
  0
SECTION
  2
CLASSES
  0
CLASS
  1
ACDBDICTIONARYWDFLT
  2
AcDbDictionaryWithDefault
  3
AutoCAD 2000
 90
        0
280
     0
281
     0
  0
CLASS
  1
ACDBPLACEHOLDER
  2
AcDbPlaceHolder
  3
AutoCAD 2000
 90
        0
280
     0
281
     0
  0
CLASS
  1
LAYOUT
  2
AcDbLayout
  3
AutoCAD 2000
 90
        0
280
     0
281
     0
  0
CLASS
  1
AMGSETTINGSOBJ
  2
AmgSettingsObj
  3
"AcadM|Product Description: AutoCAD Mechanical 2000|Company: Autodesk"
 90
        0
280
     0
281
     0
  0
CLASS
  1
ACME_DOCUMENT
  2
AcMeDbDoc
  3
AcMeServices
 90
        0
280
     0
281
     0
  0
CLASS
  1
ACMESCOPE
  2
AcMeScope
  3
AcMeServices
 90
        0
280
     0
281
     0
  0
CLASS
  1
ACMECOMMANDHISTORY
  2
AcMeCommandHistory
  3
AcMeServices
 90
        0
280
     0
281
     0
  0
CLASS
  1
DICTIONARYVAR
  2
AcDbDictionaryVar
  3
AutoCAD 2000
 90
        0
280
     0
281
     0
  0
CLASS
  1
ACIMSYSVARMAN
  2
AcImSysVarManager
  3
AcMeServices
 90
        0
280
     0
281
     0
  0
CLASS
  1
ACIMREALSYSVAR
  2
AcImRealSysVar
  3
AcMeServices
 90
        0
280
     0
281
     0
  0
CLASS
  1
ACIMINTSYSVAR
  2
AcImIntSysVar
  3
AcMeServices
 90
        0
280
     0
281
     0
  0
CLASS
  1
ACMEDRAWINGMAN
  2
AcMeDrawingMan
  3
AcMeServices
 90
        0
280
     0
281
     0
  0
CLASS
  1
ACMEVIEW
  2
AcMeView
  3
AcMeServices
 90
        0
280
     0
281
     0
  0
CLASS
  1
ACDBENTITYCACHE
  2
AcMeEntityCache
  3
AcMeServices
 90
        0
280
     0
281
     0
  0
CLASS
  1
GSMANAGER
  2
AcMeGSManager
  3
AcMeServices
 90
        0
280
     0
281
     0
  0
CLASS
  1
AmdtInternalReactor
  2
AmdtInternalReactor
  3
AcMeServices
 90
        0
280
     0
281
     0
  0
CLASS
  1
ACMESTATEMGR
  2
AcMeStateMgr
  3
AcMeServices
 90
        0
280
     0
281
     0
  0
CLASS
  1
ACME_DATABASE
  2
AcMeDbDatabase
  3
AcMeServices
 90
        0
280
     0
281
     0
  0
CLASS
  1
ACRFINSADJUSTERMGR
  2
AcRfInsAdjusterMgr
  3
AcMeServices
 90
        0
280
     0
281
     0
  0
CLASS
  1
ACMDATADICTIONARY
  2
AcmDataDictionary
  3
"AcmSymBB|Product Description: AutoCAD Mechanical 2000|Company: Autodesk"
 90
        0
280
     0
281
     0
  0
CLASS
  1
ACMDATAENTRYBLOCK
  2
AcmDataEntryBlock
  3
"AcmSymBB|Product Description: AutoCAD Mechanical 2000|Company: Autodesk"
 90
        0
280
     0
281
     0
  0
CLASS
  1
AMGOBJPROPCFG
  2
AmgObjPropCfg
  3
"AmgLay|Product Description: AutoCAD Mechanical 2000|Company: Autodesk"
 90
        1
280
     0
281
     0
  0
CLASS
  1
ACAMGFILTERDAT
  2
AcAmgFilterDat
  3
"AcadM|Product Description: AutoCAD Mechanical 2000|Company: Autodesk"
 90
        0
280
     0
281
     0
  0
CLASS
  1
LAYER_INDEX
  2
AcDbLayerIndex
  3
AutoCAD 2000
 90
        0
280
     0
281
     0
  0
CLASS
  1
IDBUFFER
  2
AcDbIdBuffer
  3
AutoCAD 2000
 90
        0
280
     0
281
     0
  0
CLASS
  1
ACIMSTRSYSVAR
  2
AcImStrSysVar
  3
AcMeServices
 90
        0
280
     0
281
     0
  0
CLASS
  1
ACMSTANDARDJIS
  2
AcmStandardJIS
  3
"AcmSymBB|Product Description: AutoCAD Mechanical 2000|Company: Autodesk"
 90
        0
280
     0
281
     0
  0
CLASS
  1
ACMSURFSTANDARDJIS
  2
AcmSurfTextStdJIS
  3
"AcmSymBB|Product Description: AutoCAD Mechanical 2000|Company: Autodesk"
 90
        0
280
     0
281
     0
  0
CLASS
  1
ACMFCFSTANDARDJIS
  2
AcmFCFStdJIS
  3
"AcmSymBB|Product Description: AutoCAD Mechanical 2000|Company: Autodesk"
 90
        0
280
     0
281
     0
  0
CLASS
  1
ACMWELDSTANDARDJIS
  2
AcmWeldingStdJIS
  3
"AcmSymBB|Product Description: AutoCAD Mechanical 2000|Company: Autodesk"
 90
        0
280
     0
281
     0
  0
CLASS
  1
ACMIDSTANDARDJIS
  2
AcmIdStdJIS
  3
"AcmSymBB|Product Description: AutoCAD Mechanical 2000|Company: Autodesk"
 90
        0
280
     0
281
     0
  0
CLASS
  1
ACMDATUMSTANDARDJIS
  2
AcmDatumStdJIS
  3
"AcmSymBB|Product Description: AutoCAD Mechanical 2000|Company: Autodesk"
 90
        0
280
     0
281
     0
  0
CLASS
  1
ACMBOMSTANDARDJIS
  2
AcmBOMStdJIS
  3
"AcmSymBB|Product Description: AutoCAD Mechanical 2000|Company: Autodesk"
 90
        0
280
     0
281
     0
  0
CLASS
  1
ACMSTANDARDANSI
  2
AcmStandardANSI
  3
"AcmSymBB|Product Description: AutoCAD Mechanical 2000|Company: Autodesk"
 90
        0
280
     0
281
     0
  0
CLASS
  1
ACMSURFSTANDARDANSI
  2
AcmSurfTextStdANSI
  3
"AcmSymBB|Product Description: AutoCAD Mechanical 2000|Company: Autodesk"
 90
        0
280
     0
281
     0
  0
CLASS
  1
ACMFCFSTANDARDANSI
  2
AcmFCFStdANSI
  3
"AcmSymBB|Product Description: AutoCAD Mechanical 2000|Company: Autodesk"
 90
        0
280
     0
281
     0
  0
CLASS
  1
ACMWELDSTANDARDANSI
  2
AcmWeldingStdANSI
  3
"AcmSymBB|Product Description: AutoCAD Mechanical 2000|Company: Autodesk"
 90
        0
280
     0
281
     0
  0
CLASS
  1
ACMIDSTANDARDANSI
  2
AcmIdStdANSI
  3
"AcmSymBB|Product Description: AutoCAD Mechanical 2000|Company: Autodesk"
 90
        0
280
     0
281
     0
  0
CLASS
  1
ACMDATUMSTANDARDANSI
  2
AcmDatumStdANSI
  3
"AcmSymBB|Product Description: AutoCAD Mechanical 2000|Company: Autodesk"
 90
        0
280
     0
281
     0
  0
CLASS
  1
ACMBOMSTANDARDANSI
  2
AcmBOMStdANSI
  3
"AcmSymBB|Product Description: AutoCAD Mechanical 2000|Company: Autodesk"
 90
        0
280
     0
281
     0
  0
CLASS
  1
ACMSTANDARDBSI
  2
AcmStandardBSI
  3
"AcmSymBB|Product Description: AutoCAD Mechanical 2000|Company: Autodesk"
 90
        0
280
     0
281
     0
  0
CLASS
  1
ACMSURFSTANDARDBSI
  2
AcmSurfTextStdBSI
  3
"AcmSymBB|Product Description: AutoCAD Mechanical 2000|Company: Autodesk"
 90
        0
280
     0
281
     0
  0
CLASS
  1
ACMFCFSTANDARDBSI
  2
AcmFCFStdBSI
  3
"AcmSymBB|Product Description: AutoCAD Mechanical 2000|Company: Autodesk"
 90
        0
280
     0
281
     0
  0
CLASS
  1
ACMWELDSTANDARDBSI
  2
AcmWeldingStdBSI
  3
"AcmSymBB|Product Description: AutoCAD Mechanical 2000|Company: Autodesk"
 90
        0
280
     0
281
     0
  0
CLASS
  1
ACMIDSTANDARDBSI
  2
AcmIdStdBSI
  3
"AcmSymBB|Product Description: AutoCAD Mechanical 2000|Company: Autodesk"
 90
        0
280
     0
281
     0
  0
CLASS
  1
ACMDATUMSTANDARDBSI
  2
AcmDatumStdBSI
  3
"AcmSymBB|Product Description: AutoCAD Mechanical 2000|Company: Autodesk"
 90
        0
280
     0
281
     0
  0
CLASS
  1
ACMBOMSTANDARDBSI
  2
AcmBOMStdBSI
  3
"AcmSymBB|Product Description: AutoCAD Mechanical 2000|Company: Autodesk"
 90
        0
280
     0
281
     0
  0
CLASS
  1
LONG_TRANSACTION
  2
AcDbLongTransaction
  3
AutoCAD 2000
 90
        0
280
     0
281
     0
  0
CLASS
  1
LWPOLYLINE
  2
AcDbPolyline
  3
AutoCAD 2000
 90
        0
280
     0
281
     1
  0
CLASS
  1
HATCH
  2
AcDbHatch
  3
AutoCAD 2000
 90
        0
280
     0
281
     1
  0
CLASS
  1
XRECORD
  2
AcDbXrecord
  3
AutoCAD 2000
 90
        0
280
     0
281
     0
  0
ENDSEC
  0
SECTION
  2
TABLES
  0
TABLE
  2
VPORT
  5
8
330
0
100
AcDbSymbolTable
 70
     3
  0
VPORT
  5
2FC8
330
8
100
AcDbSymbolTableRecord
100
AcDbViewportTableRecord
  2
*ACTIVE
 70
     0
 10
0.0
 20
0.0
 11
1.0
 21
1.0
 12
-58.39545819846382
 22
-16.61910407130986
 13
0.0
 23
0.0
 14
2.5
 24
2.5
 15
10.0
 25
10.0
 16
0.0
 26
0.0
 36
1.0
 17
0.0
 27
0.0
 37
0.0
 40
95.82546949020235
 41
1.56570841889117
 42
50.0
 43
0.0
 44
0.0
 50
0.0
 51
0.0
 71
     0
 72
   100
 73
     1
 74
     3
 75
     0
 76
     0
 77
     0
 78
     0
  0
ENDTAB
  0
TABLE
  2
LTYPE
  5
5
330
0
100
AcDbSymbolTable
 70
    10
  0
LTYPE
  5
14
330
5
100
AcDbSymbolTableRecord
100
AcDbLinetypeTableRecord
  2
BYBLOCK
 70
     0
  3

 72
    65
 73
     0
 40
0.0
  0
LTYPE
  5
15
330
5
100
AcDbSymbolTableRecord
100
AcDbLinetypeTableRecord
  2
BYLAYER
 70
     0
  3

 72
    65
 73
     0
 40
0.0
  0
LTYPE
  5
16
330
5
100
AcDbSymbolTableRecord
100
AcDbLinetypeTableRecord
  2
CONTINUOUS
 70
     0
  3
Solid line
 72
    65
 73
     0
 40
0.0
  0
LTYPE
  5
4B
330
5
100
AcDbSymbolTableRecord
100
AcDbLinetypeTableRecord
  2
AM_ISO02W050
 70
     0
  3
__ __ __ __ __ __ __ __ __ __ __ __ __ __ __
 72
    65
 73
     2
 40
7.5
 49
6.0
 74
     0
 49
-1.5
 74
     0
  0
LTYPE
  5
4C
330
5
100
AcDbSymbolTableRecord
100
AcDbLinetypeTableRecord
  2
AM_ISO08W050
 70
     0
  3
____ . ____ . ____ . ____ . ____ . ____ . ____
 72
    65
 73
     4
 40
18.0
 49
12.0
 74
     0
 49
-1.5
 74
     0
 49
3.0
 74
     0
 49
-1.5
 74
     0
  0
LTYPE
  5
4D
330
5
100
AcDbSymbolTableRecord
100
AcDbLinetypeTableRecord
  2
AM_ISO09W050
 70
     0
  3
_____ . . _____ . . _____ . . ____ .. ____
 72
    65
 73
     6
 40
22.5
 49
12.0
 74
     0
 49
-1.5
 74
     0
 49
3.0
 74
     0
 49
-1.5
 74
     0
 49
3.0
 74
     0
 49
-1.5
 74
     0
  0
LTYPE
  5
4E
330
5
100
AcDbSymbolTableRecord
100
AcDbLinetypeTableRecord
  2
AMCONSTR
 70
     0
  3
_______________________
 72
    65
 73
     2
 40
9999.0
 49
9999.0
 74
     0
 49
0.0
 74
     0
  0
LTYPE
  5
4F
330
5
100
AcDbSymbolTableRecord
100
AcDbLinetypeTableRecord
  2
AM_ISO02W050X2
 70
     0
  3
 _ _ _ _ _ _ _ _ _ _ _ _
 72
    65
 73
     2
 40
3.75
 49
3.0
 74
     0
 49
-0.75
 74
     0
  0
LTYPE
  5
50
330
5
100
AcDbSymbolTableRecord
100
AcDbLinetypeTableRecord
  2
AM_ISO08W050X2
 70
     0
  3
__ . __ . __ . __ . __ . __
 72
    65
 73
     4
 40
9.0
 49
6.0
 74
     0
 49
-0.75
 74
     0
 49
1.5
 74
     0
 49
-0.75
 74
     0
  0
LTYPE
  5
53
330
5
100
AcDbSymbolTableRecord
100
AcDbLinetypeTableRecord
  2
AMZIGZAG
 70
     0
  3
/\/-/\/-/\/-/\/-/\/-/\/
 72
    65
 73
     2
 40
11.00009999999999
 49
0.0001
 74
     4
 75
   135
340
52
 46
0.04
 50
0.0
 44
0.0
 45
0.0
 49
-11.0
 74
     0
  0
LTYPE
  5
166
330
5
100
AcDbSymbolTableRecord
100
AcDbLinetypeTableRecord
  2
ACJISTGL
 70
     0
  3
_ _ _ _ _
 72
    65
 73
     2
 40
3.0
 49
2.0
 74
     0
 49
-1.0
 74
     0
  0
LTYPE
  5
26A
330
5
100
AcDbSymbolTableRecord
100
AcDbLinetypeTableRecord
  2
ACJISTGB
 70
     0
  3
__ . . __ . .
 72
    65
 73
     6
 40
9.0
 49
4.0
 74
     0
 49
-1.0
 74
     0
 49
1.0
 74
     0
 49
-1.0
 74
     0
 49
1.0
 74
     0
 49
-1.0
 74
     0
  0
ENDTAB
  0
TABLE
  2
LAYER
  5
2
330
0
100
AcDbSymbolTable
 70
     8
  0
LAYER
  5
10
330
2
100
AcDbSymbolTableRecord
100
AcDbLayerTableRecord
  2
0
 70
     0
 62
     7
  6
CONTINUOUS
  0
LAYER
  5
3F9
330
2
100
AcDbSymbolTableRecord
100
AcDbLayerTableRecord
  2
AM_0
 70
     0
 62
     7
  6
CONTINUOUS
  0
LAYER
  5
BD6
330
2
100
AcDbSymbolTableRecord
100
AcDbLayerTableRecord
  2
AM_11
 70
     0
 62
     3
  6
AM_ISO09W050
  0
LAYER
  5
BD7
330
2
100
AcDbSymbolTableRecord
100
AcDbLayerTableRecord
  2
AM_7
 70
     0
 62
     4
  6
AM_ISO08W050
  0
LAYER
  5
BD8
330
2
100
AcDbSymbolTableRecord
100
AcDbLayerTableRecord
  2
AM_5
 70
     0
 62
     3
  6
CONTINUOUS
  0
LAYER
  5
BD9
330
2
100
AcDbSymbolTableRecord
100
AcDbLayerTableRecord
  2
DEFPOINTS
 70
     0
 62
     7
  6
CONTINUOUS
  0
LAYER
  5
BDA
330
2
100
AcDbSymbolTableRecord
100
AcDbLayerTableRecord
  2
AM_6
 70
     0
 62
     2
  6
CONTINUOUS
  0
LAYER
  5
1F9B
330
2
100
AcDbSymbolTableRecord
100
AcDbLayerTableRecord
  2
AM_CL
 70
     0
 62
     1
  6
AMCONSTR
  0
ENDTAB
  0
TABLE
  2
STYLE
  5
3
330
0
100
AcDbSymbolTable
 70
     5
  0
STYLE
  5
11
330
3
100
AcDbSymbolTableRecord
100
AcDbTextStyleTableRecord
  2
STANDARD
 70
     0
 40
0.0
 41
1.0
 50
0.0
 71
     0
 42
2.5
  3
simplex.shx
  4
EXTFONT.SHX
  0
STYLE
  5
52
330
3
100
AcDbSymbolTableRecord
100
AcDbTextStyleTableRecord
  2

 70
     1
 40
0.0
 41
1.0
 50
0.0
 71
     0
 42
2.5
  3
ltypeshp.shx
  4

  0
STYLE
  5
6B
330
3
100
AcDbSymbolTableRecord
100
AcDbTextStyleTableRecord
  2
ASAMI
 70
     0
 40
0.0
 41
1.0
 50
0.0
 71
     0
 42
2.5
  3
simplex.shx
  4
EXTFONT.SHX
  0
STYLE
  5
262
330
3
100
AcDbSymbolTableRecord
100
AcDbTextStyleTableRecord
  2
ACJISTS
 70
     0
 40
1.0
 41
1.0
 50
0.0
 71
     0
 42
2.5
  3
simplex.shx
  4
bigfont.shx
  0
STYLE
  5
269
330
3
100
AcDbSymbolTableRecord
100
AcDbTextStyleTableRecord
  2
ACJISGDT
 70
     0
 40
0.0
 41
1.0
 50
0.0
 71
     0
 42
2.5
  3
amgdtans.shx
  4

  0
ENDTAB
  0
TABLE
  2
VIEW
  5
6
330
0
100
AcDbSymbolTable
 70
     0
  0
ENDTAB
  0
TABLE
  2
UCS
  5
7
330
0
100
AcDbSymbolTable
 70
     0
  0
ENDTAB
  0
TABLE
  2
APPID
  5
9
330
0
100
AcDbSymbolTable
 70
    14
  0
APPID
  5
12
330
9
100
AcDbSymbolTableRecord
100
AcDbRegAppTableRecord
  2
ACAD
 70
     0
  0
APPID
  5
30
330
9
100
AcDbSymbolTableRecord
100
AcDbRegAppTableRecord
  2
MCAD_NO_VIS
 70
     0
  0
APPID
  5
31
330
9
100
AcDbSymbolTableRecord
100
AcDbRegAppTableRecord
  2
ACAD_TEMP_GRAPHIC
 70
     0
  0
APPID
  5
2C2
330
9
100
AcDbSymbolTableRecord
100
AcDbRegAppTableRecord
  2
GENIUS_GENDTOL_13
 70
     0
  0
APPID
  5
339
330
9
100
AcDbSymbolTableRecord
100
AcDbRegAppTableRecord
  2
GENIUS_GENODEF_13
 70
     0
  0
APPID
  5
33A
330
9
100
AcDbSymbolTableRecord
100
AcDbRegAppTableRecord
  2
GENIUS_GENOBJ-N-RSBK_13
 70
     0
  0
APPID
  5
33B
330
9
100
AcDbSymbolTableRecord
100
AcDbRegAppTableRecord
  2
GENIUS_GENOBJ-N-LIB_13
 70
     0
  0
APPID
  5
33C
330
9
100
AcDbSymbolTableRecord
100
AcDbRegAppTableRecord
  2
GENIUS_GENSCALE_13
 70
     0
  0
APPID
  5
378
330
9
100
AcDbSymbolTableRecord
100
AcDbRegAppTableRecord
  2
GENIUS_GENDIMSH_14
 70
     0
  0
APPID
  5
BDB
330
9
100
AcDbSymbolTableRecord
100
AcDbRegAppTableRecord
  2
GENIUS_GENOBJ-N-CEN_13
 70
     0
  0
APPID
  5
BDC
330
9
100
AcDbSymbolTableRecord
100
AcDbRegAppTableRecord
  2
GENIUS_GENFIL_13
 70
     0
  0
APPID
  5
BDD
330
9
100
AcDbSymbolTableRecord
100
AcDbRegAppTableRecord
  2
GENIUS_GENOBJ-N-FIL_13
 70
     0
  0
APPID
  5
12AD
330
9
100
AcDbSymbolTableRecord
100
AcDbRegAppTableRecord
  2
GENIUS_GENOREF_13
 70
     0
  0
APPID
  5
2464
330
9
100
AcDbSymbolTableRecord
100
AcDbRegAppTableRecord
  2
GENIUS_GENOBJ-N-CHA_13
 70
     0
  0
ENDTAB
  0
TABLE
  2
DIMSTYLE
  5
A
330
0
100
AcDbSymbolTable
 70
     8
  0
DIMSTYLE
105
58
102
{ACAD_REACTORS
330
195B
330
21D2
330
2ED4
330
2EE7
102
}
330
A
100
AcDbSymbolTableRecord
100
AcDbDimStyleTableRecord
  2
AM_JIS
 70
     0
  3

  4
"
  5
OPEN30
  6

  7

 40
0.5
 41
2.5
 42
1.0
 43
12.0
 44
1.0
 45
0.0
 46
0.0
 47
0.1
 48
0.1
140
3.2
141
0.0
142
0.0
143
0.0393701
144
1.0
145
0.0
146
0.71
147
1.5
 71
     0
 72
     0
 73
     0
 74
     0
 75
     0
 76
     0
 77
     3
 78
     8
170
     0
171
     2
172
     1
173
     0
174
     0
175
     0
176
   256
177
   256
178
     2
270
     2
271
     3
272
     3
273
     2
274
     2
340
6B
275
     0
280
     0
281
     0
282
     0
283
     0
284
     0
285
     0
286
     0
287
     3
288
     0
  0
DIMSTYLE
105
5F
330
A
100
AcDbSymbolTableRecord
100
AcDbDimStyleTableRecord
  2
AM_JIS$3
 70
     0
  3

  4
"
  5
OPEN30
  6

  7

 40
0.5
 41
2.5
 42
1.0
 43
10.0
 44
1.0
 45
0.0
 46
0.0
 47
0.1
 48
0.1
140
3.2
141
0.0
142
0.0
143
0.0393701
144
1.0
145
0.0
146
0.71
147
1.5
 71
     0
 72
     0
 73
     0
 74
     1
 75
     0
 76
     0
 77
     3
 78
     8
170
     0
171
     2
172
     0
173
     0
174
     0
175
     0
176
   256
177
   256
178
     2
270
     2
271
     2
272
     3
273
     2
274
     2
340
6B
275
     0
280
     0
281
     0
282
     0
283
     0
284
     0
285
     0
286
     0
287
     0
288
     1
  0
DIMSTYLE
105
60
102
{ACAD_REACTORS
330
2347
102
}
330
A
100
AcDbSymbolTableRecord
100
AcDbDimStyleTableRecord
  2
AM_JIS$4
 70
     0
  3

  4
"
  5
OPEN30
  6

  7

 40
0.5
 41
2.5
 42
1.0
 43
10.0
 44
1.0
 45
0.0
 46
0.0
 47
0.1
 48
0.1
140
3.2
141
0.0
142
0.0
143
0.0393701
144
1.0
145
0.0
146
0.71
147
1.5
 71
     0
 72
     0
 73
     0
 74
     1
 75
     0
 76
     0
 77
     3
 78
     8
170
     0
171
     2
172
     0
173
     0
174
     0
175
     0
176
   256
177
   256
178
     2
270
     2
271
     2
272
     3
273
     2
274
     2
340
6B
275
     0
280
     0
281
     0
282
     0
283
     0
284
     0
285
     0
286
     0
287
     0
288
     1
  0
DIMSTYLE
105
61
330
A
100
AcDbSymbolTableRecord
100
AcDbDimStyleTableRecord
  2
AM_JIS$6
 70
     0
  3

  4
"
  5
OPEN30
  6

  7

 40
0.5
 41
2.5
 42
1.0
 43
10.0
 44
1.0
 45
0.0
 46
0.0
 47
0.1
 48
0.1
140
3.2
141
0.0
142
0.0
143
0.0393701
144
1.0
145
0.0
146
0.71
147
1.5
 71
     0
 72
     0
 73
     0
 74
     0
 75
     0
 76
     0
 77
     0
 78
     8
170
     0
171
     2
172
     1
173
     0
174
     0
175
     0
176
   256
177
   256
178
     2
270
     2
271
     2
272
     2
273
     2
274
     2
340
6B
275
     0
280
     0
281
     0
282
     0
283
     0
284
     0
285
     0
286
     0
287
     3
288
     0
  0
DIMSTYLE
105
62
330
A
100
AcDbSymbolTableRecord
100
AcDbDimStyleTableRecord
  2
AM_JIS$7
 70
     0
  3

  4
"
  5
OPEN30
  6

  7

 40
0.5
 41
2.5
 42
1.0
 43
10.0
 44
1.0
 45
0.0
 46
0.0
 47
0.1
 48
0.1
140
3.2
141
0.0
142
0.0
143
0.0393701
144
1.0
145
0.0
146
0.71
147
1.5
 71
     0
 72
     0
 73
     0
 74
     0
 75
     0
 76
     0
 77
     3
 78
     8
170
     0
171
     2
172
     1
173
     0
174
     0
175
     0
176
   256
177
   256
178
     2
270
     2
271
     2
272
     3
273
     2
274
     2
340
6B
275
     0
280
     0
281
     0
282
     0
283
     0
284
     0
285
     0
286
     0
287
     3
288
     0
  0
DIMSTYLE
105
63
330
A
100
AcDbSymbolTableRecord
100
AcDbDimStyleTableRecord
  2
AM_JIS$SF
 70
     0
  3

  4
"
  5
OPEN30
  6

  7

 40
0.5
 41
2.5
 42
1.0
 43
10.0
 44
1.0
 45
0.0
 46
0.0
 47
0.1
 48
0.1
140
3.2
141
0.0
142
0.0
143
0.0393701
144
1.0
145
0.0
146
0.71
147
1.5
 71
     0
 72
     0
 73
     0
 74
     0
 75
     1
 76
     1
 77
     3
 78
     8
170
     0
171
     2
172
     1
173
     0
174
     0
175
     0
176
   256
177
   256
178
     2
270
     2
271
     2
272
     2
273
     2
274
     2
340
6B
275
     0
280
     0
281
     0
282
     0
283
     0
284
     0
285
     0
286
     0
287
     3
288
     0
  0
DIMSTYLE
105
68
330
A
100
AcDbSymbolTableRecord
100
AcDbDimStyleTableRecord
  2
AM_JIS$SH
 70
     0
  3

  4
"
  5

  6
GENAXEH
  7
OPEN30
 40
0.5
 41
2.5
 42
1.0
 43
10.0
 44
1.0
 45
0.0
 46
0.0
 47
0.1
 48
0.1
140
3.2
141
0.0
142
0.0
143
0.0393701
144
2.0
145
0.0
146
0.71
147
1.5
 71
     0
 72
     0
 73
     0
 74
     0
 75
     1
 76
     1
 77
     3
 78
     8
170
     0
171
     2
172
     1
173
     1
174
     0
175
     0
176
   256
177
   256
178
     2
270
     2
271
     2
272
     2
273
     2
274
     2
340
6B
275
     0
280
     0
281
     0
282
     0
283
     0
284
     0
285
     0
286
     0
287
     3
288
     0
  0
DIMSTYLE
105
B34
330
A
100
AcDbSymbolTableRecord
100
AcDbDimStyleTableRecord
  2
AM_JIS$2
 70
     0
  3

  4
"
  5
OPEN30
  6

  7

 40
0.5
 41
2.5
 42
1.0
 43
12.0
 44
1.0
 45
0.0
 46
0.0
 47
0.1
 48
0.1
140
3.2
141
0.0
142
0.0
143
0.0393701
144
1.0
145
0.0
146
0.71
147
1.5
 71
     0
 72
     0
 73
     0
 74
     0
 75
     0
 76
     0
 77
     3
 78
     8
170
     0
171
     2
172
     1
173
     0
174
     0
175
     0
176
   256
177
   256
178
     2
270
     2
271
     3
272
     3
273
     2
274
     2
340
6B
275
     0
280
     0
281
     0
282
     0
283
     0
284
     0
285
     0
286
     0
287
     3
288
     0
  0
ENDTAB
  0
TABLE
  2
BLOCK_RECORD
  5
1
330
0
100
AcDbSymbolTable
 70
    19
  0
BLOCK_RECORD
  5
1F
102
{ACAD_XDICTIONARY
360
74
102
}
330
1
100
AcDbSymbolTableRecord
100
AcDbBlockTableRecord
  2
*MODEL_SPACE
  0
BLOCK_RECORD
  5
101
102
{ACAD_XDICTIONARY
360
2FF1
102
}
330
1
100
AcDbSymbolTableRecord
100
AcDbBlockTableRecord
  2
*PAPER_SPACE
  0
BLOCK_RECORD
  5
59
330
1
100
AcDbSymbolTableRecord
100
AcDbBlockTableRecord
  2
_OPEN30
  0
BLOCK_RECORD
  5
64
330
1
100
AcDbSymbolTableRecord
100
AcDbBlockTableRecord
  2
GENAXEH
  0
BLOCK_RECORD
  5
195C
330
1
100
AcDbSymbolTableRecord
100
AcDbBlockTableRecord
  2
*D7
  0
BLOCK_RECORD
  5
21D3
330
1
100
AcDbSymbolTableRecord
100
AcDbBlockTableRecord
  2
*D8
  0
BLOCK_RECORD
  5
2348
330
1
100
AcDbSymbolTableRecord
100
AcDbBlockTableRecord
  2
*D9
  0
BLOCK_RECORD
  5
2B22
330
1
100
AcDbSymbolTableRecord
100
AcDbBlockTableRecord
  2
A$C586537D0
  0
BLOCK_RECORD
  5
2ED5
330
1
100
AcDbSymbolTableRecord
100
AcDbBlockTableRecord
  2
*D17
  0
BLOCK_RECORD
  5
2EE8
330
1
100
AcDbSymbolTableRecord
100
AcDbBlockTableRecord
  2
*D18
  0
ENDTAB
  0
ENDSEC
  0
SECTION
  2
BLOCKS
  0
BLOCK
  5
20
330
1F
100
AcDbEntity
  8
0
100
AcDbBlockBegin
  2
*MODEL_SPACE
 70
     0
 10
0.0
 20
0.0
 30
0.0
  3
*MODEL_SPACE
  1

  0
ENDBLK
  5
21
330
1F
100
AcDbEntity
  8
0
100
AcDbBlockEnd
  0
BLOCK
  5
103
330
101
100
AcDbEntity
 67
     1
  8
0
100
AcDbBlockBegin
  2
*PAPER_SPACE
 70
     0
 10
0.0
 20
0.0
 30
0.0
  3
*PAPER_SPACE
  1

  0
ENDBLK
  5
104
330
101
100
AcDbEntity
 67
     1
  8
0
100
AcDbBlockEnd
  0
BLOCK
  5
5D
330
59
100
AcDbEntity
  8
0
100
AcDbBlockBegin
  2
_OPEN30
 70
     0
 10
0.0
 20
0.0
 30
0.0
  3
_OPEN30
  1

  0
LINE
  5
5A
330
59
100
AcDbEntity
  8
0
 62
     0
100
AcDbLine
 10
-1.0
 20
0.26794919
 30
0.0
 11
0.0
 21
0.0
 31
0.0
  0
LINE
  5
5B
330
59
100
AcDbEntity
  8
0
 62
     0
100
AcDbLine
 10
0.0
 20
0.0
 30
0.0
 11
-1.0
 21
-0.26794919
 31
0.0
  0
LINE
  5
5C
330
59
100
AcDbEntity
  8
0
 62
     0
100
AcDbLine
 10
0.0
 20
0.0
 30
0.0
 11
-1.0
 21
0.0
 31
0.0
  0
ENDBLK
  5
5E
330
59
100
AcDbEntity
  8
0
100
AcDbBlockEnd
  0
BLOCK
  5
66
330
64
100
AcDbEntity
  8
0
100
AcDbBlockBegin
  2
GENAXEH
 70
     0
 10
0.0
 20
0.0
 30
0.0
  3
GENAXEH
  1

  0
LINE
  5
65
330
64
100
AcDbEntity
  8
0
100
AcDbLine
 10
-1.0
 20
0.0
 30
0.0
 11
1.0
 21
0.0
 31
0.0
  0
ENDBLK
  5
67
330
64
100
AcDbEntity
  8
0
100
AcDbBlockEnd
  0
BLOCK
  5
1968
330
195C
100
AcDbEntity
  8
0
100
AcDbBlockBegin
  2
*D7
 70
     1
 10
0.0
 20
0.0
 30
0.0
  3
*D7
  1

  0
LINE
  5
2F89
330
195C
100
AcDbEntity
  8
AM_5
100
AcDbLine
 10
-28.00000000000005
 20
-7.499999999999976
 30
0.0
 11
-28.00000000000005
 21
-15.50000000000044
 31
0.0
  0
LINE
  5
2F8A
330
195C
100
AcDbEntity
  8
AM_5
100
AcDbLine
 10
-0.0000000000000568
 20
-17.0
 30
0.0
 11
-0.0000000000000567
 21
-14.50000000000044
 31
0.0
  0
LINE
  5
2F8B
330
195C
100
AcDbEntity
  8
AM_5
100
AcDbLine
 10
-26.75000000000005
 20
-15.00000000000044
 30
0.0
 11
-1.250000000000056
 21
-15.00000000000044
 31
0.0
  0
INSERT
  5
2F8C
330
195C
100
AcDbEntity
  8
AM_5
100
AcDbBlockReference
  2
_OPEN30
 10
-28.00000000000005
 20
-15.00000000000044
 30
0.0
 41
1.25
 42
1.25
 43
1.25
 50
180.0
  0
INSERT
  5
2F8D
330
195C
100
AcDbEntity
  8
AM_5
100
AcDbBlockReference
  2
_OPEN30
 10
-0.0000000000000567
 20
-15.00000000000044
 30
0.0
 41
1.25
 42
1.25
 43
1.25
  0
MTEXT
  5
2F8E
330
195C
100
AcDbEntity
  8
AM_5
 62
     2
100
AcDbMText
 10
-14.00000000000005
 20
-13.45000000000044
 30
0.0
 40
1.6
 41
0.0
 71
     5
 72
     1
  1
28
  7
ASAMI
1001
ACAD
1000
MTEXTBEGIN
1070
    73
1070
     1
1070
    44
1040
1.0
1070
    74
1070
     0
1000
MTEXTEND
  0
POINT
  5
2F8F
330
195C
100
AcDbEntity
  8
DEFPOINTS
 62
     0
100
AcDbPoint
 10
-28.00000000000005
 20
-6.999999999999976
 30
0.0
  0
POINT
  5
2F90
330
195C
100
AcDbEntity
  8
DEFPOINTS
 62
     0
100
AcDbPoint
 10
-0.0000000000000568
 20
-17.5
 30
0.0
  0
POINT
  5
2F91
330
195C
100
AcDbEntity
  8
DEFPOINTS
 62
     0
100
AcDbPoint
 10
-0.0000000000000567
 20
-15.00000000000044
 30
0.0
  0
ENDBLK
  5
1969
330
195C
100
AcDbEntity
  8
0
100
AcDbBlockEnd
  0
BLOCK
  5
21DF
330
21D3
100
AcDbEntity
  8
0
100
AcDbBlockBegin
  2
*D8
 70
     1
 10
0.0
 20
0.0
 30
0.0
  3
*D8
  1

  0
LINE
  5
2F76
330
21D3
100
AcDbEntity
  8
AM_5
100
AcDbLine
 10
-9.783272369844436
 20
6.999999999999968
 30
0.0
 11
8.829530889074536
 21
6.999999999999964
 31
0.0
  0
LINE
  5
2F77
330
21D3
100
AcDbEntity
  8
AM_5
100
AcDbLine
 10
-8.012231301440406
 20
-6.999999999999976
 30
0.0
 11
8.829530889074534
 21
-6.999999999999981
 31
0.0
  0
LINE
  5
2F78
330
21D3
100
AcDbEntity
  8
AM_5
100
AcDbLine
 10
8.329530889074536
 20
5.749999999999964
 30
0.0
 11
8.329530889074533
 21
-5.749999999999981
 31
0.0
  0
INSERT
  5
2F79
330
21D3
100
AcDbEntity
  8
AM_5
100
AcDbBlockReference
  2
_OPEN30
 10
8.329530889074536
 20
6.999999999999964
 30
0.0
 41
1.25
 42
1.25
 43
1.25
 50
90.0
  0
INSERT
  5
2F7A
330
21D3
100
AcDbEntity
  8
AM_5
100
AcDbBlockReference
  2
_OPEN30
 10
8.329530889074533
 20
-6.999999999999981
 30
0.0
 41
1.25
 42
1.25
 43
1.25
 50
270.0
  0
MTEXT
  5
2F7B
330
21D3
100
AcDbEntity
  8
AM_5
 62
     2
100
AcDbMText
 10
6.779530889074534
 20
-0.0000000000000155
 30
0.0
 40
1.6
 41
0.0
 71
     5
 72
     1
  1
%%c14
  7
ASAMI
 11
0.0000000000000001
 21
1.0
 31
0.0
1001
ACAD
1000
MTEXTBEGIN
1070
    73
1070
     1
1070
    44
1040
1.0
1070
    74
1070
     0
1000
MTEXTEND
  0
POINT
  5
2F7C
330
21D3
100
AcDbEntity
  8
DEFPOINTS
 62
     0
100
AcDbPoint
 10
-10.28327236984443
 20
6.999999999999969
 30
0.0
  0
POINT
  5
2F7D
330
21D3
100
AcDbEntity
  8
DEFPOINTS
 62
     0
100
AcDbPoint
 10
-8.512231301440406
 20
-6.999999999999976
 30
0.0
  0
POINT
  5
2F7E
330
21D3
100
AcDbEntity
  8
DEFPOINTS
 62
     0
100
AcDbPoint
 10
8.329530889074533
 20
-6.999999999999981
 30
0.0
  0
ENDBLK
  5
21E0
330
21D3
100
AcDbEntity
  8
0
100
AcDbBlockEnd
  0
BLOCK
  5
234F
330
2348
100
AcDbEntity
  8
0
100
AcDbBlockBegin
  2
*D9
 70
     1
 10
0.0
 20
0.0
 30
0.0
  3
*D9
  1

  0
LINE
  5
2F92
330
2348
100
AcDbEntity
  8
AM_5
100
AcDbLine
 10
-1.054398865713687
 20
-5.719469132006108
 30
0.0
 11
7.248942442934406
 21
-13.70700533477307
 31
0.0
  0
INSERT
  5
2F93
330
2348
100
AcDbEntity
  8
AM_5
100
AcDbBlockReference
  2
_OPEN30
 10
-1.955247522423751
 20
-4.852882899883953
 30
0.0
 41
1.25
 42
1.25
 43
1.25
 50
136.1105622542506
  0
MTEXT
  5
2F94
330
2348
100
AcDbEntity
  8
AM_5
 62
     2
100
AcDbMText
 10
5.998461885352292
 20
-10.35333520135636
 30
0.0
 40
1.6
 41
0.0
 71
     5
 72
     1
  1
R7.0
  7
ASAMI
 11
0.7206789253680497
 21
-0.6932689856977255
 31
0.0
1001
ACAD
1000
MTEXTBEGIN
1070
    73
1070
     1
1070
    44
1040
1.0
1070
    74
1070
     0
1000
MTEXTEND
  0
POINT
  5
2F95
330
2348
100
AcDbEntity
  8
DEFPOINTS
 62
     0
100
AcDbPoint
 10
-1.955247522423751
 20
-4.852882899883953
 30
0.0
  0
POINT
  5
2F96
330
2348
100
AcDbEntity
  8
DEFPOINTS
 62
     0
100
AcDbPoint
 10
-7.00000000000009
 20
0.0000000000001195
 30
0.0
  0
ENDBLK
  5
2350
330
2348
100
AcDbEntity
  8
0
100
AcDbBlockEnd
  0
BLOCK
  5
2B6A
330
2B22
100
AcDbEntity
  8
0
100
AcDbBlockBegin
  2
A$C586537D0
 70
     0
 10
0.0
 20
0.0
 30
0.0
  3
A$C586537D0
  1

  0
POLYLINE
  5
2B23
330
2B22
100
AcDbEntity
  8
AM_0
100
AcDb2dPolyline
 66
     1
 10
0.0
 20
0.0
 30
0.0
  0
VERTEX
  5
2B24
330
2B23
100
AcDbEntity
  8
AM_0
100
AcDbVertex
100
AcDb2dVertex
 10
29.43449156617043
 20
4.051545603702379
 30
0.0
 42
0.0073471029864721
  0
VERTEX
  5
2B25
330
2B23
100
AcDbEntity
  8
AM_0
100
AcDbVertex
100
AcDb2dVertex
 10
30.94378830759433
 20
4.106361103890094
 30
0.0
 42
0.0112666255536717
  0
VERTEX
  5
2B26
330
2B23
100
AcDbEntity
  8
AM_0
100
AcDbVertex
100
AcDb2dVertex
 10
31.58683653429034
 20
4.153620041925933
 30
0.0
 42
0.002415439496957
  0
VERTEX
  5
2B27
330
2B23
100
AcDbEntity
  8
AM_0
100
AcDbVertex
100
AcDb2dVertex
 10
33.75003701518199
 20
4.372244651572827
 30
0.0
 42
0.0154516003810555
  0
VERTEX
  5
2B28
330
2B23
100
AcDbEntity
  8
AM_0
100
AcDbVertex
100
AcDb2dVertex
 10
34.08683653429034
 20
4.41848999956187
 30
0.0
 42
0.0249096705429985
  0
VERTEX
  5
2B29
330
2B23
100
AcDbEntity
  8
AM_0
100
AcDbVertex
100
AcDb2dVertex
 10
34.70542182259305
 20
4.554977289866883
 30
0.0
 42
0.7660160075951127
  0
VERTEX
  5
2B2A
330
2B23
100
AcDbEntity
  8
AM_0
100
AcDbVertex
100
AcDb2dVertex
 10
34.70530673776465
 20
4.587643352959503
 30
0.0
 42
0.0436004866852417
  0
VERTEX
  5
2B2B
330
2B23
100
AcDbEntity
  8
AM_0
100
AcDbVertex
100
AcDb2dVertex
 10
34.57728396444918
 20
4.609986150277791
 30
0.0
 42
0.0113586888872964
  0
VERTEX
  5
2B2C
330
2B23
100
AcDbEntity
  8
AM_0
100
AcDbVertex
100
AcDb2dVertex
 10
34.08030673776465
 20
4.641297140077313
 30
0.0
 42
0.0028121537605697
  0
VERTEX
  5
2B2D
330
2B23
100
AcDbEntity
  8
AM_0
100
AcDbVertex
100
AcDb2dVertex
 10
33.76802153882909
 20
4.652099959238285
 30
0.0
 42
0.0005702900988137
  0
VERTEX
  5
2B2E
330
2B23
100
AcDbEntity
  8
AM_0
100
AcDbVertex
100
AcDb2dVertex
 10
32.22780060050763
 20
4.694950927195122
 30
0.0
 42
0.006668488235414
  0
VERTEX
  5
2B2F
330
2B23
100
AcDbEntity
  8
AM_0
100
AcDbVertex
100
AcDb2dVertex
 10
31.85720084767035
 20
4.699893827183359
 30
0.0
 42
0.0010162367850142
  0
VERTEX
  5
2B30
330
2B23
100
AcDbEntity
  8
AM_0
100
AcDbVertex
100
AcDb2dVertex
 10
31.55525925235815
 20
4.699280138237554
 30
0.0
  0
SEQEND
  5
2B31
330
2B23
100
AcDbEntity
  8
AM_0
  0
ARC
  5
2B32
330
2B22
100
AcDbEntity
  8
AM_0
100
AcDbCircle
 10
34.37774471830653
 20
-8.337609704266071
 30
0.0
 40
13.33892503056602
100
AcDbArc
 50
91.94350279975884
 51
111.751920491689
  0
ARC
  5
2B33
330
2B22
100
AcDbEntity
  8
AM_11
100
AcDbCircle
 10
9.557768030854731
 20
0.0
 30
0.0
 40
5.0
100
AcDbArc
 50
90.0
 51
270.0
  0
ARC
  5
2B34
330
2B22
100
AcDbEntity
  8
AM_0
100
AcDbCircle
 10
9.40196711480803
 20
-0.7901488952316527
 30
0.0
 40
4.798134784693152
100
AcDbArc
 50
91.23704942232077
 51
162.4261541586426
  0
LINE
  5
2B35
330
2B22
100
AcDbEntity
  8
AM_0
100
AcDbLine
 10
9.557768030854731
 20
4.499854759570553
 30
0.0
 11
9.332956739715427
 21
4.007489584262884
 31
0.0
  0
ARC
  5
2B36
330
2B22
100
AcDbEntity
  8
AM_0
100
AcDbCircle
 10
9.557768030854731
 20
-0.5001452404295037
 30
0.0
 40
5.0
100
AcDbArc
 50
90.0
 51
174.4702301341409
  0
LINE
  5
2B37
330
2B22
100
AcDbEntity
  8
AM_0
100
AcDbLine
 10
10.71449156617154
 20
4.051545603702379
 30
0.0
 11
21.30836028156318
 21
4.300254190306532
 31
0.0
  0
SPLINE
  5
2B38
330
2B22
100
AcDbEntity
  8
AM_0
100
AcDbSpline
210
0.0
220
0.0
230
1.0
 70
     8
 71
     3
 72
     8
 73
     4
 74
     0
 42
0.0000000001
 43
0.0000000001
 40
2.760385419276007
 40
2.760385419276007
 40
2.760385419276007
 40
2.760385419276007
 40
10.61176705360609
 40
10.61176705360609
 40
10.61176705360609
 40
10.61176705360609
 10
9.557768030854731
 20
4.536515943596896
 30
0.0
 10
11.96531420908922
 20
3.699375228776034
 30
0.0
 10
14.1193658175016
 20
1.84968761438813
 30
0.0
 10
16.27341742591397
 20
0.0
 30
0.0
  0
SPLINE
  5
2B39
330
2B22
100
AcDbEntity
  8
AM_0
100
AcDbSpline
210
0.0
220
0.0
230
1.0
 70
     8
 71
     3
 72
     8
 73
     4
 74
     0
 42
0.0000000001
 43
0.0000000001
 40
0.0
 40
0.0
 40
0.0
 40
0.0
 40
5.706047288453516
 40
5.706047288453516
 40
5.706047288453516
 40
5.706047288453516
 10
24.42540552920081
 20
4.853388870660182
 30
0.0
 10
26.3274212920187
 20
4.853388870660182
 30
0.0
 10
28.05612296171693
 20
4.142637314364037
 30
0.0
 10
29.70530673776465
 20
3.105787253048447
 30
0.0
  0
SPLINE
  5
2B3A
330
2B22
100
AcDbEntity
  8
AM_0
100
AcDbSpline
210
0.0
220
0.0
230
1.0
 70
     8
 71
     3
 72
     8
 73
     4
 74
     0
 42
0.0000000001
 43
0.0000000001
 40
0.0
 40
0.0
 40
0.0
 40
0.0
 40
7.009223135314643
 40
7.009223135314643
 40
7.009223135314643
 40
7.009223135314643
 10
23.24553683726662
 20
4.533505564083725
 30
0.0
 10
25.58194454903878
 20
4.533505564083725
 30
0.0
 10
27.68213428901072
 20
3.50390653374211
 30
0.0
 10
29.70530673776465
 20
2.138613619677698
 30
0.0
  0
SPLINE
  5
2B3B
330
2B22
100
AcDbEntity
  8
AM_0
100
AcDbSpline
210
0.0
220
0.0
230
1.0
 70
     8
 71
     3
 72
     8
 73
     4
 74
     0
 42
0.0000000001
 43
0.0000000001
 40
0.0
 40
0.0
 40
0.0
 40
0.0
 40
4.038522933284047
 40
4.038522933284047
 40
4.038522933284047
 40
4.038522933284047
 10
25.63341742591365
 20
5.0
 30
0.0
 10
26.97959173700837
 20
5.0
 30
0.0
 10
28.23511700747895
 20
4.637915695405581
 30
0.0
 10
29.43449156617043
 20
4.051545603702152
 30
0.0
  0
SPLINE
  5
2B3C
330
2B22
100
AcDbEntity
  8
AM_0
100
AcDbSpline
210
0.0
220
0.0
230
1.0
 70
     8
 71
     3
 72
     8
 73
     4
 74
     2
 42
0.0000000001
 43
0.0000000001
 44
0.0000000001
 12
-1.0
 22
0.0000000000000001
 32
0.0
 40
0.0
 40
0.0
 40
0.0
 40
0.0
 40
10.61176705360624
 40
10.61176705360624
 40
10.61176705360624
 40
10.61176705360624
 10
25.6334174259141
 20
-5.000000000000056
 30
0.0
 10
22.09616174137868
 20
-5.000000000000056
 30
0.0
 10
19.18478958364633
 20
-2.500000000000028
 30
0.0
 10
16.27341742591397
 20
0.0
 30
0.0
 11
25.6334174259141
 21
-5.000000000000056
 31
0.0
 11
16.27341742591397
 21
0.0
 31
0.0
  0
ARC
  5
2B3D
330
2B22
100
AcDbEntity
  8
AM_0
100
AcDbCircle
 10
5.472050976495665
 20
-0.4114829949865566
 30
0.0
 40
4.368494370739881
100
AcDbArc
 50
356.2585359014461
 51
39.25557834270841
  0
ARC
  5
2B3E
330
2B22
100
AcDbEntity
  8
AM_0
100
AcDbCircle
 10
16.945882696642
 20
15.7014207964537
 30
0.0
 40
20.0
100
AcDbArc
 50
231.7272490540511
 51
262.7473567797843
  0
SPLINE
  5
2B3F
330
2B22
100
AcDbEntity
  8
AM_0
100
AcDbSpline
210
0.0
220
0.0
230
1.0
 70
     8
 71
     3
 72
     8
 73
     4
 74
     0
 42
0.0000000001
 43
0.0000000001
 40
3.83382056918599
 40
3.83382056918599
 40
3.83382056918599
 40
3.83382056918599
 40
10.54348061741694
 40
10.54348061741694
 40
10.54348061741694
 40
10.54348061741694
 10
9.332956739715427
 20
4.007489584262884
 30
0.0
 10
11.3454422091836
 20
3.088599541806388
 30
0.0
 10
13.2054238691926
 20
1.54429977090308
 30
0.0
 10
15.06540552920159
 20
0.0
 30
0.0
  0
SPLINE
  5
2B40
330
2B22
100
AcDbEntity
  8
AM_0
100
AcDbSpline
210
0.0
220
0.0
230
1.0
 70
     8
 71
     3
 72
     8
 73
     4
 74
     0
 42
0.0000000001
 43
0.0000000001
 40
5.3774483993125
 40
5.3774483993125
 40
5.3774483993125
 40
5.3774483993125
 40
10.40010926382874
 40
10.40010926382874
 40
10.40010926382874
 40
10.40010926382874
 10
9.557768030854731
 20
3.028813530852175
 30
0.0
 10
11.03940983876509
 20
2.189425168347497
 30
0.0
 10
12.46247333801602
 20
1.094712584173748
 30
0.0
 10
13.88553683726786
 20
0.0
 30
0.0
  0
SPLINE
  5
2B41
330
2B22
100
AcDbEntity
  8
AM_0
100
AcDbSpline
210
0.0
220
0.0
230
1.0
 70
     8
 71
     3
 72
     8
 73
     4
 74
     0
 42
0.0000000001
 43
0.0000000001
 40
2.760385419275965
 40
2.760385419275965
 40
2.760385419275965
 40
2.760385419275965
 40
3.834752168165156
 40
3.834752168165156
 40
3.834752168165156
 40
3.834752168165156
 10
9.557768030854731
 20
-4.536515943596953
 30
0.0
 10
9.887211647376716
 20
-4.421963347629173
 30
0.0
 10
10.21190867518271
 20
-4.288451198833683
 30
0.0
 10
10.53250862760978
 20
-4.138573883024321
 30
0.0
  0
SPLINE
  5
2B42
330
2B22
100
AcDbEntity
  8
AM_0
100
AcDbSpline
210
0.0
220
0.0
230
1.0
 70
     8
 71
     3
 72
     8
 73
     4
 74
     2
 42
0.0000000001
 43
0.0000000001
 44
0.0000000001
 12
0.3350454581421353
 22
0.9422019640068294
 32
0.0
 13
1.0
 23
0.0
 33
0.0
 40
0.0
 40
0.0
 40
0.0
 40
0.0
 40
1.399684097511745
 40
1.399684097511745
 40
1.399684097511745
 40
1.399684097511745
 10
9.557768030854731
 20
-4.536515943596953
 30
0.0
 10
9.714087297423093
 20
-4.096920908375389
 30
0.0
 10
10.43312619416873
 20
-4.138561737550901
 30
0.0
 10
10.89968756000598
 20
-4.138561737550901
 30
0.0
 11
9.557768030854731
 21
-4.536515943596953
 31
0.0
 11
10.89968756000598
 21
-4.138561737550901
 31
0.0
  0
SPLINE
  5
2B43
330
2B22
100
AcDbEntity
  8
AM_0
100
AcDbSpline
210
0.0
220
0.0
230
1.0
 70
     8
 71
     3
 72
     8
 73
     4
 74
     2
 42
0.0000000001
 43
0.0000000001
 44
0.0000000001
 12
-0.9369893402418064
 22
0.3493579486332382
 32
0.0
 13
-0.5635853706164172
 23
0.8260578248689105
 33
0.0
 40
0.0
 40
0.0
 40
0.0
 40
0.0
 40
5.737011747463116
 40
5.737011747463116
 40
5.737011747463116
 40
5.737011747463116
 10
14.42098803539465
 20
-4.138561737550901
 30
0.0
 10
12.62914841798967
 20
-3.4704715190914
 30
0.0
 10
10.908999879823
 20
-2.27624791911141
 30
0.0
 10
9.831234582514753
 20
-0.696546770659154
 30
0.0
 11
14.42098803539465
 21
-4.138561737550901
 31
0.0
 11
9.831234582514753
 21
-0.696546770659154
 31
0.0
  0
ARC
  5
2B44
330
2B22
100
AcDbEntity
  8
AM_0
100
AcDbCircle
 10
8.694584172175382
 20
-1.949501730853228
 30
0.0
 40
4.305296608784062
100
AcDbArc
 50
87.86849718008397
 51
139.357645375179
  0
LINE
  5
2B45
330
2B22
100
AcDbEntity
  8
AM_0
100
AcDbLine
 10
9.831234582514753
 20
-0.696546770659154
 30
0.0
 11
5.427768030855077
 21
0.8546899866325929
 31
0.0
  0
LINE
  5
2B46
330
2B22
100
AcDbEntity
  8
AM_0
100
AcDbLine
 10
5.427768030855077
 20
0.8546899866325929
 30
0.0
 11
4.827768030854713
 21
0.6585747334993357
 31
0.0
  0
LINE
  5
2B47
330
2B22
100
AcDbEntity
  8
AM_0
100
AcDbLine
 10
4.827768030854713
 20
0.6585747334993357
 30
0.0
 11
4.582845444675513
 21
0.0
 31
0.0
  0
LINE
  5
2B48
330
2B22
100
AcDbEntity
  8
AM_0
100
AcDbLine
 10
9.332956739715427
 20
4.007489584262884
 30
0.0
 11
9.557768030854731
 21
3.028813530852175
 31
0.0
  0
ARC
  5
2B49
330
2B22
100
AcDbEntity
  8
AM_0
100
AcDbCircle
 10
9.557768030854731
 20
0.4634840564031038
 30
0.0
 40
5.0
100
AcDbArc
 50
185.529769865859
 51
270.0
  0
SPLINE
  5
2B4A
330
2B22
100
AcDbEntity
  8
AM_0
100
AcDbSpline
210
0.0
220
0.0
230
1.0
 70
     8
 71
     3
 72
     9
 73
     5
 74
     3
 42
0.0000000001
 43
0.0000000001
 44
0.0000000001
 12
-0.7290715920995502
 22
0.684437443155638
 32
0.0
 13
0.7860840150089525
 23
-0.6181196658798399
 33
0.0
 40
0.0
 40
0.0
 40
0.0
 40
0.0
 40
0.4615642387890897
 40
1.425407363350696
 40
1.425407363350696
 40
1.425407363350696
 40
1.425407363350696
 10
8.854711765556203
 20
2.35281602164332
 30
0.0
 10
8.742540640746144
 20
2.458119970792948
 30
0.0
 10
8.357392018152186
 20
2.957744642816525
 30
0.0
 10
9.30521413979001
 20
3.227403660890376
 30
0.0
 10
9.557768030854731
 20
3.028813530852175
 30
0.0
 11
8.854711765556203
 21
2.35281602164332
 31
0.0
 11
8.632876760296312
 21
2.757576169101412
 31
0.0
 11
9.557768030854731
 21
3.028813530852175
 31
0.0
  0
LINE
  5
2B4B
330
2B22
100
AcDbEntity
  8
AM_0
100
AcDbLine
 10
14.42098803539465
 20
-4.138561737550901
 30
0.0
 11
21.30836028156318
 21
-4.300254190306361
 31
0.0
  0
SPLINE
  5
2B4C
330
2B22
100
AcDbEntity
  8
AM_0
100
AcDbSpline
210
0.0
220
0.0
230
1.0
 70
     8
 71
     3
 72
     8
 73
     4
 74
     0
 42
0.0000000001
 43
0.0000000001
 40
0.3080988623970067
 40
0.3080988623970067
 40
0.3080988623970067
 40
0.3080988623970067
 40
10.54348061741694
 40
10.54348061741694
 40
10.54348061741694
 40
10.54348061741694
 10
24.11880778044906
 20
-4.84723288622996
 30
0.0
 10
20.74009611283236
 20
-4.711564396932601
 30
0.0
 10
17.90275082101698
 20
-2.355782198466215
 30
0.0
 10
15.06540552920159
 20
0.0
 30
0.0
  0
SPLINE
  5
2B4D
330
2B22
100
AcDbEntity
  8
AM_0
100
AcDbSpline
210
0.0
220
0.0
230
1.0
 70
     8
 71
     3
 72
     8
 73
     4
 74
     0
 42
0.0000000001
 43
0.0000000001
 40
1.494727388119111
 40
1.494727388119111
 40
1.494727388119111
 40
1.494727388119111
 40
10.40010926382874
 40
10.40010926382874
 40
10.40010926382874
 40
10.40010926382874
 10
21.78149243231928
 20
-4.399768196515481
 30
0.0
 10
18.93183569600569
 20
-3.881939820020363
 30
0.0
 10
16.40868626663632
 20
-1.94096991001021
 30
0.0
 10
13.88553683726786
 20
0.0
 30
0.0
  0
LINE
  5
2B4E
330
2B22
100
AcDbEntity
  8
AM_0
100
AcDbLine
 10
10.89968756000598
 20
-4.138561737550901
 30
0.0
 11
14.42098803539465
 21
-4.138561737550901
 31
0.0
  0
POLYLINE
  5
2B4F
330
2B22
100
AcDbEntity
  8
AM_0
100
AcDb2dPolyline
 66
     1
 10
0.0
 20
0.0
 30
0.0
 70
     2
  0
VERTEX
  5
2B50
330
2B4F
100
AcDbEntity
  8
AM_0
100
AcDbVertex
100
AcDb2dVertex
 10
29.70530673776511
 20
-5.000000000000056
 30
0.0
 42
0.021906895434734
  0
VERTEX
  5
2B51
330
2B4F
100
AcDbEntity
  8
AM_0
100
AcDbVertex
100
AcDb2dVertex
 10
30.83007776987233
 20
-4.921468564627559
 30
0.0
 42
0.0324199514990089
 70
     1
  0
VERTEX
  5
2B52
330
2B4F
100
AcDbEntity
  8
AM_0
100
AcDbVertex
100
AcDb2dVertex
 10
31.58030673776465
 20
-4.786243115693707
 30
0.0
 42
0.0201411646801006
  0
VERTEX
  5
2B53
330
2B4F
100
AcDbEntity
  8
AM_0
100
AcDbVertex
100
AcDb2dVertex
 10
33.33212610397549
 20
-4.275997578920907
 30
0.0
 42
0.0450475812707586
 70
     1
  0
VERTEX
  5
2B54
330
2B4F
100
AcDbEntity
  8
AM_0
100
AcDbVertex
100
AcDb2dVertex
 10
34.08030673776465
 20
-3.947486231388268
 30
0.0
 42
0.0705235240614635
  0
VERTEX
  5
2B55
330
2B4F
100
AcDbEntity
  8
AM_0
100
AcDbVertex
100
AcDb2dVertex
 10
34.61303535256092
 20
-3.547037438005247
 30
0.0
 42
0.2003780791347506
 70
     1
  0
VERTEX
  5
2B56
330
2B4F
100
AcDbEntity
  8
AM_0
100
AcDbVertex
100
AcDb2dVertex
 10
34.70530673776511
 20
-3.322486231389177
 30
0.0
 42
0.1302188019897481
  0
VERTEX
  5
2B57
330
2B4F
100
AcDbEntity
  8
AM_0
100
AcDbVertex
100
AcDb2dVertex
 10
34.62541808774131
 20
-3.027664730895651
 30
0.0
 42
0.0390250736119977
 70
     1
  0
VERTEX
  5
2B58
330
2B4F
100
AcDbEntity
  8
AM_0
100
AcDbVertex
100
AcDb2dVertex
 10
34.05731521535654
 20
-2.200131991703585
 30
0.0
 42
0.0142833409954576
  0
VERTEX
  5
2B59
330
2B4F
100
AcDbEntity
  8
AM_0
100
AcDbVertex
100
AcDb2dVertex
 10
33.23165124732531
 20
-1.235995958245041
 30
0.0
 42
0.0074968472652126
 70
     1
  0
VERTEX
  5
2B5A
330
2B4F
100
AcDbEntity
  8
AM_0
100
AcDbVertex
100
AcDb2dVertex
 10
31.58030673776465
 20
0.5304179338299946
 30
0.0
 42
0.0237820438473651
  0
VERTEX
  5
2B5B
330
2B4F
100
AcDbEntity
  8
AM_0
100
AcDbVertex
100
AcDb2dVertex
 10
30.9594202698463
 20
1.116423757641769
 30
0.0
 42
0.0125443765840406
 70
     1
  0
VERTEX
  5
2B5C
330
2B4F
100
AcDbEntity
  8
AM_0
100
AcDbVertex
100
AcDb2dVertex
 10
29.70530673776511
 20
2.138613619677926
 30
0.0
  0
SEQEND
  5
2B5D
330
2B4F
100
AcDbEntity
  8
AM_0
  0
LINE
  5
2B5E
330
2B22
100
AcDbEntity
  8
AM_0
100
AcDbLine
 10
29.70530673776465
 20
3.105787253048447
 30
0.0
 11
29.4344915661768
 21
4.051545603702379
 31
0.0
  0
LINE
  5
2B5F
330
2B22
100
AcDbEntity
  8
AM_0
100
AcDbLine
 10
29.70530673776465
 20
2.138613619677698
 30
0.0
 11
29.70530673776511
 21
3.105787253048447
 31
0.0
  0
SPLINE
  5
2B60
330
2B22
100
AcDbEntity
  8
AM_0
100
AcDbSpline
210
0.0
220
0.0
230
1.0
 70
     8
 71
     3
 72
     8
 73
     4
 74
     0
 42
0.0000000001
 43
0.0000000001
 40
0.0
 40
0.0
 40
0.0
 40
0.0
 40
1.55285541345115
 40
1.55285541345115
 40
1.55285541345115
 40
1.55285541345115
 10
25.6334174259141
 20
5.0
 30
0.0
 10
25.1157989547637
 20
5.0
 30
0.0
 10
24.6115828086422
 20
4.946466377309661
 30
0.0
 10
24.11880778044133
 20
4.847232886229903
 30
0.0
  0
SPLINE
  5
2B61
330
2B22
100
AcDbEntity
  8
AM_0
100
AcDbSpline
210
0.0
220
0.0
230
1.0
 70
     8
 71
     3
 72
     8
 73
     4
 74
     0
 42
0.0000000001
 43
0.0000000001
 40
0.0
 40
0.0
 40
0.0
 40
0.0
 40
1.990690753765647
 40
1.990690753765647
 40
1.990690753765647
 40
1.990690753765647
 10
23.24553683726753
 20
4.533505564083725
 30
0.0
 10
22.58197325267883
 20
4.533505564083725
 30
0.0
 10
21.93746343128123
 20
4.450456268740254
 30
0.0
 10
21.30836028156318
 20
4.300254190306532
 30
0.0
  0
SPLINE
  5
2B62
330
2B22
100
AcDbEntity
  8
AM_0
100
AcDbSpline
210
0.0
220
0.0
230
1.0
 70
     8
 71
     3
 72
     8
 73
     4
 74
     0
 42
0.0000000001
 43
0.0000000001
 40
0.0
 40
0.0
 40
0.0
 40
0.0
 40
2.754526791728521
 40
2.754526791728521
 40
2.754526791728521
 40
2.754526791728521
 10
24.42540552920127
 20
4.853388870660182
 30
0.0
 10
23.50722993195904
 20
4.853388870660182
 30
0.0
 10
22.62944278111445
 20
4.687758075047895
 30
0.0
 10
21.78149243231928
 20
4.399768196515424
 30
0.0
  0
LINE
  5
2B63
330
2B22
100
AcDbEntity
  8
AM_7
  6
AM_ISO08W050X2
100
AcDbLine
 10
0.0
 20
0.0
 30
0.0
 11
45.35776803085491
 21
0.0
 31
0.0
1001
GENIUS_GENODEF_13
1002
{
1000
HIER
1070
     0
1002
}
1002
{
1000
MANEDIT
1070
     0
1002
}
1002
{
1000
NOSEL
1070
     0
1002
}
1002
{
1000
BEHIND
1070
     0
1002
}
1002
{
1000
REACTOR
1002
}
1001
GENIUS_GENOBJ-N-CEN_13
1002
{
1000
OWNER
1000
GEN
1002
}
  0
LINE
  5
2B64
330
2B22
100
AcDbEntity
  8
AM_11
100
AcDbLine
 10
9.557768030854731
 20
-5.000000000000056
 30
0.0
 11
45.35776803085491
 21
-5.000000000000056
 31
0.0
  0
LINE
  5
2B65
330
2B22
100
AcDbEntity
  8
AM_0
100
AcDbLine
 10
25.63341742591319
 20
-5.000000000000056
 30
0.0
 11
44.50322174914117
 21
-5.000000000000056
 31
0.0
  0
LINE
  5
2B66
330
2B22
100
AcDbEntity
  8
AM_11
100
AcDbLine
 10
45.35776803085491
 20
5.0
 30
0.0
 11
9.557768030854731
 21
5.0
 31
0.0
  0
LINE
  5
2B67
330
2B22
100
AcDbEntity
  8
AM_0
100
AcDbLine
 10
33.92536816917845
 20
4.993642166014524
 30
0.0
 11
44.95366313908789
 21
4.993642166014524
 31
0.0
  0
LINE
  5
2B68
330
2B22
100
AcDbEntity
  8
AM_7
  6
AM_ISO08W050X2
100
AcDbLine
 10
9.557768030854731
 20
8.0
 30
0.0
 11
9.557768030854731
 21
-8.000000000000056
 31
0.0
1001
GENIUS_GENODEF_13
1002
{
1000
HIER
1070
     0
1002
}
1002
{
1000
MANEDIT
1070
     0
1002
}
1002
{
1000
NOSEL
1070
     0
1002
}
1002
{
1000
BEHIND
1070
     0
1002
}
1002
{
1000
REACTOR
1002
}
1001
GENIUS_GENOBJ-N-CEN_13
1002
{
1000
OWNER
1000
GEN
1002
}
  0
LINE
  5
2B69
330
2B22
100
AcDbEntity
  8
AM_7
  6
AM_ISO08W050X2
100
AcDbLine
 10
9.557768030854731
 20
-6.29890176298619
 30
0.0
 11
9.557768030854731
 21
-22.29890176298613
 31
0.0
1001
GENIUS_GENODEF_13
1002
{
1000
HIER
1070
     0
1002
}
1002
{
1000
MANEDIT
1070
     0
1002
}
1002
{
1000
NOSEL
1070
     0
1002
}
1002
{
1000
BEHIND
1070
     0
1002
}
1002
{
1000
REACTOR
1002
}
1001
GENIUS_GENOBJ-N-CEN_13
1002
{
1000
OWNER
1000
GEN
1002
}
  0
ENDBLK
  5
2B6B
330
2B22
100
AcDbEntity
  8
0
100
AcDbBlockEnd
  0
BLOCK
  5
2EDF
330
2ED5
100
AcDbEntity
  8
0
100
AcDbBlockBegin
  2
*D17
 70
     1
 10
0.0
 20
0.0
 30
0.0
  3
*D17
  1

  0
LINE
  5
2F80
330
2ED5
100
AcDbEntity
  8
AM_5
100
AcDbLine
 10
-120.0
 20
-8.500000000000001
 30
0.0
 11
-120.0
 21
-21.49999999999962
 31
0.0
  0
LINE
  5
2F81
330
2ED5
100
AcDbEntity
  8
AM_5
100
AcDbLine
 10
-0.0000000000000569
 20
-0.5000000000000036
 30
0.0
 11
-0.0000000000000582
 21
-21.49999999999962
 31
0.0
  0
LINE
  5
2F82
330
2ED5
100
AcDbEntity
  8
AM_5
100
AcDbLine
 10
-118.75
 20
-20.99999999999962
 30
0.0
 11
-1.250000000000058
 21
-20.99999999999962
 31
0.0
  0
INSERT
  5
2F83
330
2ED5
100
AcDbEntity
  8
AM_5
100
AcDbBlockReference
  2
_OPEN30
 10
-120.0
 20
-20.99999999999962
 30
0.0
 41
1.25
 42
1.25
 43
1.25
 50
180.0
  0
INSERT
  5
2F84
330
2ED5
100
AcDbEntity
  8
AM_5
100
AcDbBlockReference
  2
_OPEN30
 10
-0.0000000000000581
 20
-20.99999999999962
 30
0.0
 41
1.25
 42
1.25
 43
1.25
  0
MTEXT
  5
2F85
330
2ED5
100
AcDbEntity
  8
AM_5
 62
     2
100
AcDbMText
 10
-60.00000000000007
 20
-19.44999999999962
 30
0.0
 40
1.6
 41
0.0
 71
     5
 72
     1
  1
120
  7
ASAMI
1001
ACAD
1000
MTEXTBEGIN
1070
    73
1070
     1
1070
    44
1040
1.0
1070
    74
1070
     0
1000
MTEXTEND
  0
POINT
  5
2F86
330
2ED5
100
AcDbEntity
  8
DEFPOINTS
 62
     0
100
AcDbPoint
 10
-120.0
 20
-8.000000000000001
 30
0.0
  0
POINT
  5
2F87
330
2ED5
100
AcDbEntity
  8
DEFPOINTS
 62
     0
100
AcDbPoint
 10
-0.0000000000000568
 20
-0.0000000000000036
 30
0.0
  0
POINT
  5
2F88
330
2ED5
100
AcDbEntity
  8
DEFPOINTS
 62
     0
100
AcDbPoint
 10
-0.0000000000000581
 20
-20.99999999999962
 30
0.0
  0
ENDBLK
  5
2EE0
330
2ED5
100
AcDbEntity
  8
0
100
AcDbBlockEnd
  0
BLOCK
  5
2EF2
330
2EE8
100
AcDbEntity
  8
0
100
AcDbBlockBegin
  2
*D18
 70
     1
 10
0.0
 20
0.0
 30
0.0
  3
*D18
  1

  0
LINE
  5
2F5B
330
2EE8
100
AcDbEntity
  8
AM_5
100
AcDbLine
 10
-120.0
 20
-8.000000000000003
 30
0.0
 11
-129.785044123829
 21
-8.000000000000001
 31
0.0
  0
LINE
  5
2F5C
330
2EE8
100
AcDbEntity
  8
AM_5
100
AcDbLine
 10
-120.0
 20
7.999999999999996
 30
0.0
 11
-129.785044123829
 21
7.999999999999999
 31
0.0
  0
LINE
  5
2F5D
330
2EE8
100
AcDbEntity
  8
AM_5
100
AcDbLine
 10
-129.2850441238291
 20
-6.750000000000001
 30
0.0
 11
-129.2850441238291
 21
6.749999999999999
 31
0.0
  0
INSERT
  5
2F5E
330
2EE8
100
AcDbEntity
  8
AM_5
100
AcDbBlockReference
  2
_OPEN30
 10
-129.2850441238291
 20
-8.000000000000001
 30
0.0
 41
1.25
 42
1.25
 43
1.25
 50
270.0
  0
INSERT
  5
2F5F
330
2EE8
100
AcDbEntity
  8
AM_5
100
AcDbBlockReference
  2
_OPEN30
 10
-129.2850441238291
 20
7.999999999999999
 30
0.0
 41
1.25
 42
1.25
 43
1.25
 50
90.0
  0
MTEXT
  5
2F60
330
2EE8
100
AcDbEntity
  8
AM_5
 62
     2
100
AcDbMText
 10
-130.8350441238291
 20
-0.0000000000000259
 30
0.0
 40
1.6
 41
0.0
 71
     5
 72
     1
  1
%%c16
  7
ASAMI
 11
0.0000000000000001
 21
1.0
 31
0.0
1001
ACAD
1000
MTEXTBEGIN
1070
    73
1070
     1
1070
    44
1040
1.0
1070
    74
1070
     0
1000
MTEXTEND
  0
POINT
  5
2F61
330
2EE8
100
AcDbEntity
  8
DEFPOINTS
 62
     0
100
AcDbPoint
 10
-119.5
 20
-8.000000000000003
 30
0.0
  0
POINT
  5
2F62
330
2EE8
100
AcDbEntity
  8
DEFPOINTS
 62
     0
100
AcDbPoint
 10
-119.5
 20
7.999999999999996
 30
0.0
  0
POINT
  5
2F63
330
2EE8
100
AcDbEntity
  8
DEFPOINTS
 62
     0
100
AcDbPoint
 10
-129.2850441238291
 20
7.999999999999999
 30
0.0
  0
ENDBLK
  5
2EF3
330
2EE8
100
AcDbEntity
  8
0
100
AcDbBlockEnd
  0
ENDSEC
  0
SECTION
  2
ENTITIES
  0
LINE
  5
C50
330
1F
100
AcDbEntity
  8
AM_7
100
AcDbLine
 10
-122.2850431238291
 20
-0.0000000000000036
 30
0.0
 11
1.32952988907452
 21
-0.0000000000000036
 31
0.0
1001
GENIUS_GENODEF_13
1002
{
1000
HIER
1070
     0
1002
}
1002
{
1000
MANEDIT
1070
     0
1002
}
1002
{
1000
NOSEL
1070
     0
1002
}
1002
{
1000
BEHIND
1070
     0
1002
}
1002
{
1000
REACTOR
1002
}
1001
GENIUS_GENOBJ-N-CEN_13
1002
{
1000
OWNER
1000
GEN
1002
}
  0
TEXT
  5
C58
330
1F
100
AcDbEntity
  8
AM_6
100
AcDbText
 10
-70.29761904761911
 20
-32.24999999999965
 30
0.0
 40
2.5
  1
SHB2140ZX
 50
0.0000000000002036
 72
     4
 11
-60.00000000000007
 21
-30.99999999999962
 31
0.0
100
AcDbText
  0
DIMENSION
  5
195B
330
1F
100
AcDbEntity
  8
AM_5
100
AcDbDimension
  2
*D7
 10
-0.0000000000000567
 20
-15.00000000000044
 30
0.0
 11
-14.00000000000005
 21
-13.45000000000044
 31
0.0
 70
    32
  1
<>
  3
AM_JIS
100
AcDbAlignedDimension
 13
-28.00000000000005
 23
-6.999999999999976
 33
0.0
 14
-0.0000000000000568
 24
-17.5
 34
0.0
 50
359.9999999999988
100
AcDbRotatedDimension
1001
GENIUS_GENDTOL_13
1000

1000
H7
1000

1040
0.0
  0
LINE
  5
2156
330
1F
100
AcDbEntity
  8
AM_7
  6
AM_ISO08W050X2
100
AcDbLine
 10
1.001748115621618
 20
0.0000000000000628
 30
0.0
 11
-32.86538534741704
 21
0.0000000000000628
 31
0.0
1001
GENIUS_GENODEF_13
1002
{
1000
HIER
1070
     0
1002
}
1002
{
1000
MANEDIT
1070
     0
1002
}
1002
{
1000
NOSEL
1070
     0
1002
}
1002
{
1000
BEHIND
1070
     0
1002
}
1002
{
1000
REACTOR
1002
}
1001
GENIUS_GENOBJ-N-CEN_13
1002
{
1000
OWNER
1000
GEN
1002
}
  0
DIMENSION
  5
21D2
330
1F
100
AcDbEntity
  8
AM_5
100
AcDbDimension
  2
*D8
 10
8.329530889074533
 20
-6.999999999999981
 30
0.0
 11
8.329530889074534
 21
-0.0000000000000157
 31
0.0
 70
   160
  1
%%c<>
  3
AM_JIS
100
AcDbAlignedDimension
 13
-10.28327236984443
 23
6.999999999999969
 33
0.0
 14
-8.512231301440406
 24
-6.999999999999976
 34
0.0
 50
270.0
100
AcDbRotatedDimension
1001
GENIUS_GENDTOL_13
1000

1000
h7
1000

1040
0.0
  0
DIMENSION
  5
2347
330
1F
100
AcDbEntity
  8
AM_5
100
AcDbDimension
  2
*D9
 10
-7.00000000000009
 20
0.0000000000001195
 30
0.0
 11
4.923894957520818
 21
-11.47038753567684
 31
0.0
 70
   164
  1
<>
  3
AM_JIS$4
100
AcDbRadialDimension
 15
-1.955247522423751
 25
-4.852882899883953
 35
0.0
 40
0.0
1001
GENIUS_GENDTOL_13
1000

1000
h7
1000

1040
0.0
1001
ACAD
1000
DSTYLE
1002
{
1070
    74
1070
     0
1070
    78
1070
     0
1070
   271
1070
     1
1002
}
  0
LINE
  5
2A88
330
1F
100
AcDbEntity
  8
AM_0
100
AcDbLine
 10
-37.25252258054541
 20
7.000000000003268
 30
0.0
 11
-30.60237800802769
 21
7.000000000003263
 31
0.0
  0
LINE
  5
2A8C
330
1F
100
AcDbEntity
  8
AM_0
100
AcDbLine
 10
-13.80850800635987
 20
5.793986432574464
 30
0.0
 11
-23.45082915099582
 21
6.020355866432115
 31
0.0
  0
LINE
  5
2A91
330
1F
100
AcDbEntity
  8
AM_0
100
AcDbLine
 10
-8.878687340815742
 20
5.793986432574464
 30
0.0
 11
-13.80850800635987
 21
5.793986432574464
 31
0.0
  0
SPLINE
  5
2A92
330
1F
100
AcDbEntity
  8
AM_0
100
AcDbSpline
210
0.0
220
0.0
230
1.0
 70
     8
 71
     3
 72
     8
 73
     4
 74
     2
 42
0.0000000001
 43
0.0000000001
 44
0.0000000001
 12
0.9369893402418064
 22
-0.3493579486332383
 32
0.0
 13
0.5635853706164172
 23
-0.8260578248689107
 33
0.0
 40
0.0
 40
0.0
 40
0.0
 40
0.0
 40
8.031816446448363
 40
8.031816446448363
 40
8.031816446448363
 40
8.031816446448363
 10
-13.80850800635989
 20
5.793986432574431
 30
0.0
 10
-11.29993254199291
 20
4.85866012673113
 30
0.0
 10
-8.891724588559556
 20
3.186747086759164
 30
0.0
 10
-7.382853172328012
 20
0.9751654789260049
 30
0.0
 11
-13.80850800635989
 21
5.793986432574431
 31
0.0
 11
-7.382853172328012
 21
0.9751654789260049
 31
0.0
  0
ARC
  5
2A93
330
1F
100
AcDbEntity
  8
AM_0
100
AcDbCircle
 10
-17.34336053210616
 20
-21.98198911503197
 30
0.0
 40
28.0
100
AcDbArc
 50
51.72724905405108
 51
82.74735677978425
  0
ARC
  5
2A94
330
1F
100
AcDbEntity
  8
AM_0
100
AcDbCircle
 10
-7.000000000003988
 20
-0.6488776789611622
 30
0.0
 40
7.0
100
AcDbArc
 50
5.529769865859073
 51
90.0
  0
LINE
  5
2A95
330
1F
100
AcDbEntity
  8
AM_0
100
AcDbLine
 10
-7.382853172328014
 20
0.9751654789260053
 30
0.0
 11
-1.218000000004467
 21
-1.196565981282433
 31
0.0
  0
LINE
  5
2A96
330
1F
100
AcDbEntity
  8
AM_0
100
AcDbLine
 10
-1.218000000004467
 20
-1.196565981282433
 30
0.0
 11
-0.3780000000039714
 21
-0.9220046268958805
 31
0.0
  0
LINE
  5
2A97
330
1F
100
AcDbEntity
  8
AM_0
100
AcDbLine
 10
-0.3780000000039714
 20
-0.9220046268958805
 30
0.0
 11
-0.035108379353078
 21
0.0000000000031963
 31
0.0
  0
SPLINE
  5
2A98
330
1F
100
AcDbEntity
  8
AM_0
100
AcDbSpline
210
0.0
220
0.0
230
1.0
 70
     8
 71
     3
 72
     8
 73
     4
 74
     0
 42
0.0000000001
 43
0.0000000001
 40
2.760385419275965
 40
2.760385419275965
 40
2.760385419275965
 40
2.760385419275965
 40
3.834752168165156
 40
3.834752168165156
 40
3.834752168165156
 40
3.834752168165156
 10
-7.000000000003988
 20
6.351122321038904
 30
0.0
 10
-7.461221063134767
 20
6.190748686684026
 30
0.0
 10
-7.915796902063152
 20
6.003831678370341
 30
0.0
 10
-8.364636835461066
 20
5.794003436237246
 30
0.0
  0
SPLINE
  5
2A99
330
1F
100
AcDbEntity
  8
AM_0
100
AcDbSpline
210
0.0
220
0.0
230
1.0
 70
     8
 71
     3
 72
     8
 73
     4
 74
     2
 42
0.0000000001
 43
0.0000000001
 44
0.0000000001
 12
-0.3350454581421354
 22
-0.9422019640068294
 32
0.0
 13
-1.0
 23
0.0000000000000001
 33
0.0
 40
0.0
 40
0.0
 40
0.0
 40
0.0
 40
1.959557736516442
 40
1.959557736516442
 40
1.959557736516442
 40
1.959557736516442
 10
-7.000000000003988
 20
6.351122321038904
 30
0.0
 10
-7.218846973199694
 20
5.735689271728714
 30
0.0
 10
-8.225501428643596
 20
5.793986432574431
 30
0.0
 10
-8.878687340815744
 20
5.793986432574431
 30
0.0
 11
-7.000000000003988
 21
6.351122321038904
 31
0.0
 11
-8.878687340815744
 21
5.793986432574431
 31
0.0
  0
ARC
  5
2A9A
330
1F
100
AcDbEntity
  8
AM_0
100
AcDbCircle
 10
-1.279996123901305
 20
0.5760761929843821
 30
0.0
 40
6.115892119035834
100
AcDbArc
 50
176.2585359014462
 51
219.2555783427083
  0
ARC
  5
2A9B
330
1F
100
AcDbEntity
  8
AM_0
100
AcDbCircle
 10
-7.000000000003988
 20
0.7002033366045014
 30
0.0
 40
7.0
100
AcDbArc
 50
270.0
 51
354.4702301341409
  0
ARC
  5
2A9C
330
1F
100
AcDbEntity
  8
AM_0
100
AcDbCircle
 10
-6.781878717538612
 20
1.106208453327509
 30
0.0
 40
6.717388698570411
100
AcDbArc
 50
271.2370494223207
 51
342.4261541586427
  0
ARC
  5
2A9D
330
1F
100
AcDbEntity
  8
AM_0
100
AcDbCircle
 10
-5.791542597852904
 20
2.729302423197702
 30
0.0
 40
6.027415252297688
100
AcDbArc
 50
267.868497180084
 51
319.3576453751792
  0
SPLINE
  5
2A9E
330
1F
100
AcDbEntity
  8
AM_0
100
AcDbSpline
210
0.0
220
0.0
230
1.0
 70
     8
 71
     3
 72
     9
 73
     5
 74
     3
 42
0.0000000001
 43
0.0000000001
 44
0.0000000001
 12
0.7290715920995502
 22
-0.6844374431556381
 32
0.0
 13
-0.7860840150089522
 23
0.6181196658798403
 33
0.0
 40
0.0
 40
0.0
 40
0.0
 40
0.0
 40
0.6461899343047209
 40
1.995570308690975
 40
1.995570308690975
 40
1.995570308690975
 40
1.995570308690975
 10
-6.015721228586052
 20
-3.293942430297458
 30
0.0
 10
-5.85868165385197
 20
-3.441367959106936
 30
0.0
 10
-5.319473582220425
 20
-4.140842499939934
 30
0.0
 10
-6.646424552513378
 20
-4.51836512524335
 30
0.0
 10
-7.000000000003988
 20
-4.240338943189868
 30
0.0
 11
-6.015721228586052
 21
-3.293942430297458
 31
0.0
 11
-5.705152221222203
 21
-3.86060663673878
 31
0.0
 11
-7.000000000003988
 21
-4.240338943189868
 31
0.0
  0
LINE
  5
2A9F
330
1F
100
AcDbEntity
  8
AM_0
100
AcDbLine
 10
-7.000000000003988
 20
-6.299796663395564
 30
0.0
 11
-6.685264192408971
 21
-5.610485417964849
 31
0.0
  0
LINE
  5
2AA0
330
1F
100
AcDbEntity
  8
AM_0
100
AcDbLine
 10
-6.685264192408971
 20
-5.610485417964849
 30
0.0
 11
-7.000000000003988
 21
-4.240338943189836
 31
0.0
  0
ARC
  5
2AB4
330
1F
100
AcDbEntity
  8
AM_11
100
AcDbCircle
 10
-7.000000000003988
 20
0.0000000000031963
 30
0.0
 40
7.0
100
AcDbArc
 50
270.0
 51
90.0
  0
LINE
  5
2AB5
330
1F
100
AcDbEntity
  8
AM_11
 48
0.5
100
AcDbLine
 10
-7.000000000003987
 20
6.999999999999968
 30
0.0
 11
-28.00000000000006
 21
6.999999999999968
 31
0.0
  0
LINE
  5
2AB6
330
1F
100
AcDbEntity
  8
AM_11
 48
0.5
100
AcDbLine
 10
-6.956675745884854
 20
-6.999999999999978
 30
0.0
 11
-28.00000000000006
 21
-6.999999999999978
 31
0.0
  0
SPLINE
  5
2AF6
330
1F
100
AcDbEntity
  8
AM_0
100
AcDbSpline
210
0.0
220
0.0
230
1.0
 70
     8
 71
     3
 72
     8
 73
     4
 74
     0
 42
0.0000000001
 43
0.0000000001
 40
0.0
 40
0.0
 40
0.0
 40
0.0
 40
1.990690753765647
 40
1.990690753765647
 40
1.990690753765647
 40
1.990690753765647
 10
-27.03647632898215
 20
-6.346907789714038
 30
0.0
 10
-26.04555470932969
 20
-6.346907789714038
 30
0.0
 10
-25.08308670937594
 20
-6.230638776233178
 30
0.0
 10
-24.143626005797
 20
-6.020355866425953
 30
0.0
  0
ELLIPSE
  5
2AF9
330
1F
100
AcDbEntity
  8
AM_0
100
AcDbEllipse
 10
-37.97750738427588
 20
11.6726535859757
 30
0.0
 11
-19.70471927779492
 21
0.5718748027417119
 31
0.0
210
0.0
220
0.0
230
1.0
 40
0.9471862833022823
 41
1.632556238552531
 42
1.966221248002097
  0
ELLIPSE
  5
2AFA
330
1F
100
AcDbEntity
  8
AM_0
100
AcDbEllipse
 10
-28.93729736323203
 20
-77.60626630118055
 30
0.0
 11
-3.406697765421019
 21
71.89731205872636
 31
0.0
210
0.0
220
0.0
230
1.0
 40
0.3341304456601835
 41
-0.0604229748966314
 42
0.0210740918461008
  0
ELLIPSE
  5
2AFB
330
1F
100
AcDbEntity
  8
AM_0
100
AcDbEllipse
 10
-31.76382490837565
 20
-25.75587419102552
 30
0.0
 11
-21.36836290726144
 21
0.0000000000054767
 31
0.0
210
0.0
220
0.0
230
1.0
 40
0.937500000000214
 41
-1.519968450920297
 42
-1.474903855427013
  0
ELLIPSE
  5
2AFC
330
1F
100
AcDbEntity
  8
AM_0
100
AcDbEllipse
 10
-1.634246378133261
 20
-319.4165489179139
 30
0.0
 11
336.0521238104751
 21
0.0000000005094415
 31
0.0
210
0.0
220
0.0
230
1.0
 40
0.9374999999990057
 41
1.666688798161186
 42
1.67635053735905
  0
ELLIPSE
  5
2AFD
330
1F
100
AcDbEntity
  8
AM_0
100
AcDbEllipse
 10
-36.17451884145088
 20
-13.78066514899066
 30
0.0
 11
8.215884423573477
 21
0.000000000002518
 31
0.0
210
0.0
220
0.0
230
1.0
 40
0.9374999999998671
 41
1.676350537359855
 42
1.738152020788853
  0
ELLIPSE
  5
2AFE
330
1F
100
AcDbEntity
  8
AM_0
100
AcDbEllipse
 10
-35.96062946586428
 20
-14.96763236863477
 30
0.0
 11
-9.499922484331381
 21
0.0000000000024812
 31
0.0
210
0.0
220
0.0
230
1.0
 40
0.9375000000000692
 41
-1.403440632800712
 42
-1.303822551284381
  0
ELLIPSE
  5
2AFF
330
1F
100
AcDbEntity
  8
AM_0
100
AcDbEllipse
 10
-38.46017395090597
 20
-6.399812721509784
 30
0.0
 11
0.0252624388781918
 21
0.0000000000000285
 31
0.0
210
0.0
220
0.0
230
1.0
 40
0.9374999999998873
 41
1.83777010231175
 42
4.452461315804514
  0
ELLIPSE
  5
2B00
330
1F
100
AcDbEntity
  8
AM_0
100
AcDbEllipse
 10
-38.18012767755167
 20
-5.412600024141929
 30
0.0
 11
-1.114891513063184
 21
0.0000000000000909
 31
0.0
210
0.0
220
0.0
230
1.0
 40
0.9374999999999676
 41
1.310868662202186
 42
1.485160221981302
  0
ELLIPSE
  5
2B01
330
1F
100
AcDbEntity
  8
AM_0
100
AcDbEllipse
 10
-36.87542399893612
 20
8.835691713622916
 30
0.0
 11
-16.36896840283734
 21
0.0000000000006516
 31
0.0
210
0.0
220
0.0
230
1.0
 40
0.937499999999979
 41
1.48516022198228
 42
1.530593023688154
  0
ELLIPSE
  5
2B02
330
1F
100
AcDbEntity
  8
AM_0
100
AcDbEllipse
 10
-35.86602095433625
 20
32.36125755880244
 30
0.0
 11
-41.4831987062154
 21
0.0000000000739218
 31
0.0
210
0.0
220
0.0
230
1.0
 40
0.9374999999968657
 41
1.530593023689804
 42
1.541841609080054
  0
ELLIPSE
  5
2B03
330
1F
100
AcDbEntity
  8
AM_0
100
AcDbEllipse
 10
-7.86511072517738
 20
938.7253659147573
 30
0.0
 11
1008.676988445099
 21
0.0000000252669342
 31
0.0
210
0.0
220
0.0
230
1.0
 40
0.9375000000530238
 41
4.683434262644847
 42
4.685715422792929
  0
ELLIPSE
  5
2B04
330
1F
100
AcDbEntity
  8
AM_0
100
AcDbEllipse
 10
-34.2134952041247
 20
12.87391597973537
 30
0.0
 11
-20.75068516031706
 21
0.0000000000020424
 31
0.0
210
0.0
220
0.0
230
1.0
 40
0.9374999999995957
 41
1.544122769228391
 42
1.570796326794932
  0
ELLIPSE
  5
2B05
330
1F
100
AcDbEntity
  8
AM_0
100
AcDbEllipse
 10
-34.2134952040731
 20
97.4115484178116
 30
0.0
 11
110.9241597612954
 21
0.0000000000099327
 31
0.0
210
0.0
220
0.0
230
0.9999999999999998
 40
0.9374999999968503
 41
4.712388980384129
 42
4.716453926124832
  0
LINE
  5
2B06
330
1F
100
AcDbEntity
  8
AM_0
100
AcDbLine
 10
-31.00000000000077
 20
-4.452305560956972
 30
0.0
 11
-30.8871152765407
 21
-5.771424047254798
 31
0.0
  0
SPLINE
  5
2B07
330
1F
100
AcDbEntity
  8
AM_0
100
AcDbSpline
210
0.0
220
0.0
230
1.0
 70
     8
 71
     3
 72
     8
 73
     4
 74
     0
 42
0.0000000001
 43
0.0000000001
 40
0.0
 40
0.0
 40
0.0
 40
0.0
 40
1.508900654236106
 40
1.508900654236106
 40
1.508900654236106
 40
1.508900654236106
 10
-28.79841357560252
 20
-6.794744418921064
 30
0.0
 10
-29.54951079015562
 20
-6.794744418921064
 30
0.0
 10
-30.10134750757133
 20
-6.423407025312538
 30
0.0
 10
-30.88711527654069
 20
-5.771424047254798
 30
0.0
  0
SPLINE
  5
2B09
330
1F
100
AcDbEntity
  8
AM_0
100
AcDbSpline
210
0.0
220
0.0
230
1.0
 70
     8
 71
     3
 72
     8
 73
     4
 74
     0
 42
0.0000000001
 43
0.0000000001
 40
0.0
 40
0.0
 40
0.0
 40
0.0
 40
2.75254881461922
 40
2.75254881461922
 40
2.75254881461922
 40
2.75254881461922
 10
-27.03647632898215
 20
-6.346907789714038
 30
0.0
 10
-28.73990100359003
 20
-6.250738940853807
 30
0.0
 10
-29.92074771292323
 20
-5.506164650292419
 30
0.0
 10
-31.00000000000005
 20
-4.452305560956972
 30
0.0
  0
SPLINE
  5
2B0A
330
1F
100
AcDbEntity
  8
AM_0
100
AcDbSpline
210
0.0
220
0.0
230
1.0
 70
     8
 71
     3
 72
     8
 73
     4
 74
     0
 42
0.0000000001
 43
0.0000000001
 40
0.0
 40
0.0
 40
0.0
 40
0.0
 40
2.754526791728521
 40
2.754526791728521
 40
2.754526791728521
 40
2.754526791728521
 10
-28.79841357560319
 20
-6.794744418921064
 30
0.0
 10
-27.42727135038814
 20
-6.794744418921064
 30
0.0
 10
-26.11644253846021
 20
-6.562861305063876
 30
0.0
 10
-24.85017001759278
 20
-6.15967547511841
 30
0.0
  0
POLYLINE
  5
2B0B
330
1F
100
AcDbEntity
  8
AM_0
100
AcDb2dPolyline
 66
     1
 10
0.0
 20
0.0
 30
0.0
 70
     2
  0
VERTEX
  5
2B0C
330
2B0B
100
AcDbEntity
  8
AM_0
100
AcDbVertex
100
AcDb2dVertex
 10
-31.0000000000007
 20
7.000000000003295
 30
0.0
 42
0.021906895434734
  0
VERTEX
  5
2B0D
330
2B0B
100
AcDbEntity
  8
AM_0
100
AcDbVertex
100
AcDb2dVertex
 10
-32.67965807461415
 20
6.890055990481807
 30
0.0
 42
0.0324199514990089
 70
     1
  0
VERTEX
  5
2B0E
330
2B0B
100
AcDbEntity
  8
AM_0
100
AcDbVertex
100
AcDb2dVertex
 10
-33.80000000000003
 20
6.7007403619744
 30
0.0
 42
0.0201411646801006
  0
VERTEX
  5
2B0F
330
2B0B
100
AcDbEntity
  8
AM_0
100
AcDbVertex
100
AcDb2dVertex
 10
-36.41605025354153
 20
5.98639661049248
 30
0.0
 42
0.0450475812707586
 70
     1
  0
VERTEX
  5
2B10
330
2B0B
100
AcDbEntity
  8
AM_0
100
AcDbVertex
100
AcDb2dVertex
 10
-37.53333333333336
 20
5.526480723946798
 30
0.0
 42
0.0705235240614635
  0
VERTEX
  5
2B11
330
2B0B
100
AcDbEntity
  8
AM_0
100
AcDbVertex
100
AcDb2dVertex
 10
-38.32887473142912
 20
4.96585241321055
 30
0.0
 42
0.2003780791347506
 70
     1
  0
VERTEX
  5
2B12
330
2B0B
100
AcDbEntity
  8
AM_0
100
AcDbVertex
100
AcDb2dVertex
 10
-38.46666666666736
 20
4.651480723948058
 30
0.0
 42
0.1302188019897481
  0
VERTEX
  5
2B13
330
2B0B
100
AcDbEntity
  8
AM_0
100
AcDbVertex
100
AcDb2dVertex
 10
-38.34736628263181
 20
4.238730623257133
 30
0.0
 42
0.0390250736119977
 70
     1
  0
VERTEX
  5
2B14
330
2B0B
100
AcDbEntity
  8
AM_0
100
AcDbVertex
100
AcDb2dVertex
 10
-37.49899932653722
 20
3.080184788388236
 30
0.0
 42
0.0142833409954576
  0
VERTEX
  5
2B15
330
2B0B
100
AcDbEntity
  8
AM_0
100
AcDbVertex
100
AcDb2dVertex
 10
-36.26600780094395
 20
1.730394341546281
 30
0.0
 42
0.0074968472652126
 70
     1
  0
VERTEX
  5
2B16
330
2B0B
100
AcDbEntity
  8
AM_0
100
AcDbVertex
100
AcDb2dVertex
 10
-33.80000000000003
 20
-0.7425851073587695
 30
0.0
 42
0.0237820438473651
  0
VERTEX
  5
2B17
330
2B0B
100
AcDbEntity
  8
AM_0
100
AcDbVertex
100
AcDb2dVertex
 10
-32.87280954124195
 20
-1.56299326069528
 30
0.0
 42
0.0125443765840406
 70
     1
  0
VERTEX
  5
2B18
330
2B0B
100
AcDbEntity
  8
AM_0
100
AcDbVertex
100
AcDb2dVertex
 10
-31.00000000000005
 20
-2.994059067546406
 30
0.0
  0
SEQEND
  5
2B19
330
2B0B
100
AcDbEntity
  8
AM_0
  0
LINE
  5
2B1A
330
1F
100
AcDbEntity
  8
AM_11
 48
0.5
100
AcDbLine
 10
-28.00000000000006
 20
-6.999999999999978
 30
0.0
 11
-28.00000000000006
 21
6.999999999999968
 31
0.0
  0
LINE
  5
2B1B
330
1F
100
AcDbEntity
  8
AM_0
100
AcDbLine
 10
-8.323448724145475
 20
-5.672163845180127
 30
0.0
 11
-24.14362600579699
 21
-6.020355866425955
 31
0.0
  0
SPLINE
  5
2B1C
330
1F
100
AcDbEntity
  8
AM_0
100
AcDbSpline
210
0.0
220
0.0
230
1.0
 70
     8
 71
     3
 72
     8
 73
     4
 74
     0
 42
0.0000000001
 43
0.0000000001
 40
2.760385419276007
 40
2.760385419276007
 40
2.760385419276007
 40
2.760385419276007
 40
10.61176705360609
 40
10.61176705360609
 40
10.61176705360609
 40
10.61176705360609
 10
-6.596074911405708
 20
-6.351122321032477
 30
0.0
 10
-10.19134387090255
 20
-5.179125320283257
 30
0.0
 10
-13.40806093946503
 20
-2.589562660140213
 30
0.0
 10
-16.62477800802752
 20
0.0000000000031963
 30
0.0
  0
SPLINE
  5
2B1D
330
1F
100
AcDbEntity
  8
AM_0
100
AcDbSpline
210
0.0
220
0.0
230
1.0
 70
     8
 71
     3
 72
     8
 73
     4
 74
     0
 42
0.0000000001
 43
0.0000000001
 40
5.3774483993125
 40
5.3774483993125
 40
5.3774483993125
 40
5.3774483993125
 40
10.40010926382874
 40
10.40010926382874
 40
10.40010926382874
 40
10.40010926382874
 10
-6.596074911405708
 20
-4.240338943189868
 30
0.0
 10
-8.808660011218513
 20
-3.06519523568332
 30
0.0
 10
-10.9337681700999
 20
-1.532597617840078
 30
0.0
 10
-13.05887632898265
 20
0.0000000000031963
 30
0.0
  0
SPLINE
  5
2B1E
330
1F
100
AcDbEntity
  8
AM_0
100
AcDbSpline
210
0.0
220
0.0
230
1.0
 70
     8
 71
     3
 72
     8
 73
     4
 74
     0
 42
0.0000000001
 43
0.0000000001
 40
3.83382056918599
 40
3.83382056918599
 40
3.83382056918599
 40
3.83382056918599
 40
10.54348061741694
 40
10.54348061741694
 40
10.54348061741694
 40
10.54348061741694
 10
-6.260356716637689
 20
-5.610485417964847
 30
0.0
 10
-9.265668351043489
 20
-4.324039358525766
 30
0.0
 10
-12.04324096332359
 20
-2.162019679261136
 30
0.0
 10
-14.82081357560369
 20
0.0000000000031963
 30
0.0
  0
SPLINE
  5
2B1F
330
1F
100
AcDbEntity
  8
AM_0
100
AcDbSpline
210
0.0
220
0.0
230
1.0
 70
     8
 71
     3
 72
     8
 73
     4
 74
     0
 42
0.0000000001
 43
0.0000000001
 40
1.494727388119111
 40
1.494727388119111
 40
1.494727388119111
 40
1.494727388119111
 40
10.40010926382874
 40
10.40010926382874
 40
10.40010926382874
 40
10.40010926382874
 10
-24.85017001759278
 20
6.15967547512487
 30
0.0
 10
-20.5946826246978
 20
5.434715748031705
 30
0.0
 10
-16.82677947683955
 20
2.717357874017483
 30
0.0
 10
-13.05887632898265
 20
0.0000000000031963
 30
0.0
  0
SPLINE
  5
2B20
330
1F
100
AcDbEntity
  8
AM_0
100
AcDbSpline
210
0.0
220
0.0
230
1.0
 70
     8
 71
     3
 72
     8
 73
     4
 74
     0
 42
0.0000000001
 43
0.0000000001
 40
0.0
 40
0.0
 40
0.0
 40
0.0
 40
3.183530116081869
 40
3.183530116081869
 40
3.183530116081869
 40
3.183530116081869
 10
-30.60237800802769
 20
7.000000000003262
 30
0.0
 10
-25.32007618578815
 20
7.000000000003262
 30
0.0
 10
-20.97242709690783
 20
3.500000000003228
 30
0.0
 10
-16.62477800802752
 20
0.0000000000031963
 30
0.0
  0
SPLINE
  5
2B21
330
1F
100
AcDbEntity
  8
AM_0
100
AcDbSpline
210
0.0
220
0.0
230
1.0
 70
     8
 71
     3
 72
     8
 73
     4
 74
     0
 42
0.0000000001
 43
0.0000000001
 40
0.3080988623970067
 40
0.3080988623970067
 40
0.3080988623970067
 40
0.3080988623970067
 40
10.54348061741694
 40
10.54348061741694
 40
10.54348061741694
 40
10.54348061741694
 10
-28.34056093746657
 20
6.786126040725121
 30
0.0
 10
-23.29501818049229
 20
6.596190155708838
 30
0.0
 10
-19.05791587804799
 20
3.298095077855884
 30
0.0
 10
-14.82081357560369
 20
0.0000000000031963
 30
0.0
  0
LINE
  5
2ED2
330
1F
100
AcDbEntity
  8
AM_0
100
AcDbLine
 10
-119.5
 20
7.999999999999996
 30
0.0
 11
-40.00000000000008
 21
7.999999999999993
 31
0.0
1001
GENIUS_GENODEF_13
1002
{
1000
HIER
1070
     0
1002
}
1002
{
1000
MANEDIT
1070
     0
1002
}
1002
{
1000
NOSEL
1070
     0
1002
}
1002
{
1000
BEHIND
1070
     0
1002
}
1002
{
1000
REACTOR
1002
}
1001
GENIUS_GENOBJ-N-CEN_13
1002
{
1000
OWNER
1000
GEN
1002
}
  0
LINE
  5
2ED3
330
1F
100
AcDbEntity
  8
AM_0
100
AcDbLine
 10
-119.5
 20
-8.000000000000003
 30
0.0
 11
-40.00000000000009
 21
-8.000000000000001
 31
0.0
1001
GENIUS_GENODEF_13
1002
{
1000
HIER
1070
     0
1002
}
1002
{
1000
MANEDIT
1070
     0
1002
}
1002
{
1000
NOSEL
1070
     0
1002
}
1002
{
1000
BEHIND
1070
     0
1002
}
1002
{
1000
REACTOR
1002
}
1001
GENIUS_GENOBJ-N-CEN_13
1002
{
1000
OWNER
1000
GEN
1002
}
  0
DIMENSION
  5
2ED4
330
1F
100
AcDbEntity
  8
AM_5
100
AcDbDimension
  2
*D17
 10
-0.0000000000000581
 20
-20.99999999999962
 30
0.0
 11
-60.00000000000007
 21
-19.44999999999962
 31
0.0
 70
    32
  1
<>
  3
AM_JIS
100
AcDbAlignedDimension
 13
-120.0
 23
-8.000000000000001
 33
0.0
 14
-0.0000000000000568
 24
-0.0000000000000036
 34
0.0
 50
0.0000000000005428
100
AcDbRotatedDimension
1001
GENIUS_GENDTOL_13
1000

1000
H7
1000

1040
0.0
  0
LINE
  5
2EE1
330
1F
100
AcDbEntity
  8
AM_0
100
AcDbLine
 10
-119.5
 20
-8.000000000000003
 30
0.0
 11
-119.5
 21
-0.0000000000000036
 31
0.0
  0
LINE
  5
2EE2
330
1F
100
AcDbEntity
  8
AM_0
100
AcDbLine
 10
-120.0
 20
6.666666666666661
 30
0.0
 11
-120.0
 21
-0.0000000000000036
 31
0.0
  0
LINE
  5
2EE3
330
1F
100
AcDbEntity
  8
AM_0
100
AcDbLine
 10
-120.0
 20
-6.666666666666668
 30
0.0
 11
-120.0
 21
-0.0000000000000036
 31
0.0
  0
LINE
  5
2EE4
330
1F
100
AcDbEntity
  8
AM_0
100
AcDbLine
 10
-119.5
 20
-8.000000000000003
 30
0.0
 11
-120.0
 21
-6.666666666666668
 31
0.0
1001
GENIUS_GENFIL_13
1070
     0
1040
0.5
1040
0.5
1040
20.0
1040
0.0
1002
{
1002
}
1001
GENIUS_GENODEF_13
1002
{
1000
HIER
1070
     0
1002
}
1002
{
1000
MANEDIT
1070
     0
1002
}
1002
{
1000
NOSEL
1070
     0
1002
}
1002
{
1000
BEHIND
1070
     0
1002
}
1002
{
1000
REACTOR
1002
}
1001
GENIUS_GENOBJ-N-CHA_13
1002
{
1000
OWNER
1000
GEN
1002
}
  0
LINE
  5
2EE5
330
1F
100
AcDbEntity
  8
AM_0
100
AcDbLine
 10
-119.5
 20
7.999999999999996
 30
0.0
 11
-119.5
 21
-0.0000000000000036
 31
0.0
  0
LINE
  5
2EE6
330
1F
100
AcDbEntity
  8
AM_0
100
AcDbLine
 10
-119.5
 20
7.999999999999996
 30
0.0
 11
-120.0
 21
6.666666666666661
 31
0.0
1001
GENIUS_GENFIL_13
1070
     0
1040
0.5
1040
0.5
1040
20.0
1040
0.0
1002
{
1002
}
1001
GENIUS_GENODEF_13
1002
{
1000
HIER
1070
     0
1002
}
1002
{
1000
MANEDIT
1070
     0
1002
}
1002
{
1000
NOSEL
1070
     0
1002
}
1002
{
1000
BEHIND
1070
     0
1002
}
1002
{
1000
REACTOR
1002
}
1001
GENIUS_GENOBJ-N-CHA_13
1002
{
1000
OWNER
1000
GEN
1002
}
  0
DIMENSION
  5
2EE7
330
1F
100
AcDbEntity
  8
AM_5
100
AcDbDimension
  2
*D18
 10
-129.2850441238291
 20
7.999999999999999
 30
0.0
 11
-129.2850441238291
 21
-0.0000000000000261
 31
0.0
 70
   160
  1
%%c<>
  3
AM_JIS
100
AcDbAlignedDimension
 13
-119.5
 23
-8.000000000000003
 33
0.0
 14
-119.5
 24
7.999999999999996
 34
0.0
 50
270.0
100
AcDbRotatedDimension
1001
ACAD
1000
DSTYLE
1002
{
1070
    48
1040
0.1
1070
    47
1040
0.1
1070
   274
1070
     2
1070
   272
1070
     3
1002
}
1001
GENIUS_GENDTOL_13
1000

1000
h6
1000

1040
0.0
  0
LINE
  5
2F24
330
1F
100
AcDbEntity
  8
AM_0
100
AcDbLine
 10
-40.00000000000009
 20
-8.000000000000003
 30
0.0
 11
-40.00000000000007
 21
7.999999999999993
 31
0.0
  0
LINE
  5
2F25
330
1F
100
AcDbEntity
  8
AM_0
100
AcDbLine
 10
-40.00000000000009
 20
-8.000000000000003
 30
0.0
 11
-37.25252258054541
 21
-6.999999999999978
 31
0.0
  0
LINE
  5
2F27
330
1F
100
AcDbEntity
  8
AM_0
100
AcDbLine
 10
-37.25252258054541
 20
-6.999999999999979
 30
0.0
 11
-37.25252258054541
 21
-6.505992794301306
 31
0.0
  0
LINE
  5
2F28
330
1F
100
AcDbEntity
  8
AM_0
100
AcDbLine
 10
-40.00000000000009
 20
7.999999999999996
 30
0.0
 11
-37.25252258054541
 21
6.999999999999971
 31
0.0
  0
SPLINE
  5
2F39
330
1F
100
AcDbEntity
  8
AM_0
100
AcDbSpline
210
0.0
220
0.0
230
1.0
 70
     8
 71
     3
 72
     8
 73
     4
 74
     0
 42
0.0000000001
 43
0.0000000001
 40
0.0
 40
0.0
 40
0.0
 40
0.0
 40
7.009223135314643
 40
7.009223135314643
 40
7.009223135314643
 40
7.009223135314643
 10
-23.96953603756581
 20
-5.980255734590851
 30
0.0
 10
-26.6017469986925
 20
-5.667255821755645
 30
0.0
 10
-28.84194938799591
 20
-4.710659889218163
 30
0.0
 10
-31.00000000000011
 20
-2.994059067546362
 30
0.0
  0
LINE
  5
2F3B
330
1F
100
AcDbEntity
  8
AM_0
100
AcDbLine
 10
-31.00000000000004
 20
-2.957965292581154
 30
0.0
 11
-31.00000000000077
 21
-4.452305560956972
 31
0.0
  0
LINE
  5
2F3D
330
1F
100
AcDbEntity
  8
AM_0
100
AcDbLine
 10
-37.25252258054541
 20
5.664644571158754
 30
0.0
 11
-37.25252258054541
 21
7.000000000003267
 31
0.0
  0
LINE
  5
2F3F
330
1F
100
AcDbEntity
  8
AM_0
100
AcDbLine
 10
-37.25252258054541
 20
-6.134796669695163
 30
0.0
 11
-37.25252258054541
 21
2.79773912112094
 31
0.0
  0
VIEWPORT
  5
110
330
101
100
AcDbEntity
 67
     1
  8
0
100
AcDbViewport
 10
420.5
 20
297.0
 30
0.0
 40
948.9782706766916
 41
628.452
 68
     1
 69
     1
1001
ACAD
1000
MVIEW
1002
{
1070
    16
1010
0.0
1020
0.0
1030
0.0
1010
0.0
1020
0.0
1030
1.0
1040
0.0
1040
628.452
1040
420.5
1040
297.0
1040
50.0
1040
0.0
1040
0.0
1070
     0
1070
   100
1070
     1
1070
     1
1070
     0
1070
     0
1070
     0
1070
     0
1040
0.0
1040
0.0
1040
0.0
1040
10.0
1040
10.0
1040
10.0
1040
10.0
1070
     0
1002
{
1002
}
1002
}
  0
ENDSEC
  0
SECTION
  2
OBJECTS
  0
DICTIONARY
  5
C
330
0
100
AcDbDictionary
  3
ACAD_GROUP
350
D
  3
ACAD_LAYOUT
350
1A
  3
ACAD_MLINESTYLE
350
17
  3
ACAD_PLOTSETTINGS
350
19
  3
ACAD_PLOTSTYLENAME
350
E
  3
ACDBVARIABLEDICTIONARY
350
34
  3
ACMDICTIONARY
350
43
  3
AMG
350
2B
  3
AMGSNAPSETTINGS
350
6E
  3
DWGPROPS
350
2FBC
  3
ACDBHEADERROUNDTRIPXREC
350
2FC9
  0
DICTIONARY
  5
74
330
1F
100
AcDbDictionary
280
     1
  3
ACAD_INDEX
360
2FBE
  3
ACAD_LAYOUTSELFREF
360
2FEC
  0
DICTIONARY
  5
2FF1
330
101
100
AcDbDictionary
280
     1
  3
ACAD_LAYOUTSELFREF
360
2FF2
  0
DICTIONARY
  5
D
102
{ACAD_REACTORS
330
C
102
}
330
C
100
AcDbDictionary
  0
DICTIONARY
  5
1A
102
{ACAD_REACTORS
330
C
102
}
330
C
100
AcDbDictionary
  0
DICTIONARY
  5
17
102
{ACAD_REACTORS
330
C
102
}
330
C
100
AcDbDictionary
  3
STANDARD
350
18
  0
DICTIONARY
  5
19
102
{ACAD_REACTORS
330
C
102
}
330
C
100
AcDbDictionary
  0
ACDBDICTIONARYWDFLT
  5
E
102
{ACAD_REACTORS
330
C
102
}
330
C
100
AcDbDictionary
281
     1
  3
Normal
350
F
100
AcDbDictionaryWithDefault
340
F
  0
DICTIONARY
  5
34
102
{ACAD_REACTORS
330
C
102
}
330
C
100
AcDbDictionary
  3
INDEXCTL
350
35
  3
SORTENTS
350
B5E
  0
DICTIONARY
  5
43
102
{ACAD_REACTORS
330
C
102
}
330
C
100
AcDbDictionary
  3
ACMSTDDICTIONARY
350
260
  0
DICTIONARY
  5
2B
102
{ACAD_REACTORS
330
C
102
}
330
C
100
AcDbDictionary
  3
ACMGSETTINGS
350
2C
  0
DICTIONARY
  5
6E
102
{ACAD_REACTORS
330
C
102
}
330
C
100
AcDbDictionary
  0
XRECORD
  5
2FBC
102
{ACAD_REACTORS
330
C
102
}
330
C
100
AcDbXrecord
  1
DWGPROPS COOKIE
  2

  3

  4

  6

  7

  8

  9

300
AmdtFileType=82
301
=
302
=
303
=
304
=
305
=
306
=
307
=
308
=
309
=
 40
0.4626920023148149
 41
2452838.620506898
 42
2452850.689203368
  1

 90
        1
  0
DICTIONARY
  5
2FC9
102
{ACAD_REACTORS
330
C
102
}
330
C
100
AcDbDictionary
  3
TSTACKALIGN
350
2FCA
  3
TSTACKSIZE
350
2FCB
  3
HYPERLINKBASE
350
2FCC
  3
STYLESHEET
350
2FCD
  3
LAYOUTDICT
350
2FCE
  3
PLOTSETDICT
350
2FCF
  3
PLOTSTYLNAMDICT
350
2FD0
  3
LWETCUNION
350
2FD1
  3
INSUNITS
350
2FD2
  3
CEPSNTYPE
350
2FD3
  3
FINGERPRINTGUID
350
2FD4
  3
VERSIONGUID
350
2FD5
  3
PSVPSCALE
350
2FD6
  3
DIMSTYLEDATA
350
2FD7
  3
PUCSORTHOREF
350
2FD8
  3
PUCSORTHOVIEW
350
2FD9
  3
PUCSBASE
350
2FDA
  3
PUCSORGTOP
350
2FDB
  3
PUCSORGBOTTOM
350
2FDC
  3
PUCSORGLEFT
350
2FDD
  3
PUCSORGRIGHT
350
2FDE
  3
PUCSORGFRONT
350
2FDF
  3
PUCSORGBACK
350
2FE0
  3
UCSORTHOREF
350
2FE1
  3
UCSORTHOVIEW
350
2FE2
  3
UCSBASE
350
2FE3
  3
UCSORGTOP
350
2FE4
  3
UCSORGBOTTOM
350
2FE5
  3
UCSORGLEFT
350
2FE6
  3
UCSORGRIGHT
350
2FE7
  3
UCSORGFRONT
350
2FE8
  3
UCSORGBACK
350
2FE9
  0
DICTIONARY
  5
2FBE
102
{ACAD_REACTORS
330
74
102
}
330
74
100
AcDbDictionary
  3
*A1
350
2FBF
  0
XRECORD
  5
2FEC
102
{ACAD_REACTORS
330
74
102
}
330
74
100
AcDbXrecord
340
1F
  0
XRECORD
  5
2FF2
102
{ACAD_REACTORS
330
2FF1
102
}
330
2FF1
100
AcDbXrecord
340
101
  0
MLINESTYLE
  5
18
102
{ACAD_REACTORS
330
17
102
}
330
17
100
AcDbMlineStyle
  2
STANDARD
 70
     0
  3

 62
   256
 51
90.0
 52
90.0
 71
     2
 49
0.5
 62
   256
  6
BYLAYER
 49
-0.5
 62
   256
  6
BYLAYER
  0
ACDBPLACEHOLDER
  5
F
102
{ACAD_REACTORS
330
E
102
}
330
E
100
AcDbPlaceHolder
280
     0
  0
DICTIONARYVAR
  5
35
102
{ACAD_REACTORS
330
34
102
}
330
34
100
DictionaryVariables
280
     0
  1
1
  0
DICTIONARYVAR
  5
B5E
102
{ACAD_REACTORS
330
34
102
}
330
34
100
DictionaryVariables
280
     0
  1
96
  0
DICTIONARY
  5
260
102
{ACAD_REACTORS
330
43
102
}
330
43
100
AcDbDictionary
  0
DICTIONARY
  5
2C
102
{ACAD_REACTORS
330
2B
102
}
330
2B
100
AcDbDictionary
  3
DWGSETTINGS
350
2D
  0
XRECORD
  5
2FCA
102
{ACAD_REACTORS
330
2FC9
102
}
330
2FC9
100
AcDbXrecord
 90
        1
  0
XRECORD
  5
2FCB
102
{ACAD_REACTORS
330
2FC9
102
}
330
2FC9
100
AcDbXrecord
 90
       70
  0
XRECORD
  5
2FCC
102
{ACAD_REACTORS
330
2FC9
102
}
330
2FC9
100
AcDbXrecord
  1

  0
XRECORD
  5
2FCD
102
{ACAD_REACTORS
330
2FC9
102
}
330
2FC9
100
AcDbXrecord
  1
ASAMI.ctb
  0
XRECORD
  5
2FCE
102
{ACAD_REACTORS
330
2FC9
102
}
330
2FC9
100
AcDbXrecord
340
1A
  0
XRECORD
  5
2FCF
102
{ACAD_REACTORS
330
2FC9
102
}
330
2FC9
100
AcDbXrecord
340
19
  0
XRECORD
  5
2FD0
102
{ACAD_REACTORS
330
2FC9
102
}
330
2FC9
100
AcDbXrecord
340
E
  0
XRECORD
  5
2FD1
102
{ACAD_REACTORS
330
2FC9
102
}
330
2FC9
100
AcDbXrecord
 90
    10781
  0
XRECORD
  5
2FD2
102
{ACAD_REACTORS
330
2FC9
102
}
330
2FC9
100
AcDbXrecord
 90
        4
  0
XRECORD
  5
2FD3
102
{ACAD_REACTORS
330
2FC9
102
}
330
2FC9
100
AcDbXrecord
 90
        0
  0
XRECORD
  5
2FD4
102
{ACAD_REACTORS
330
2FC9
102
}
330
2FC9
100
AcDbXrecord
  1
{AFB28963-8C59-40AE-9337-C84526B81ACE}
  0
XRECORD
  5
2FD5
102
{ACAD_REACTORS
330
2FC9
102
}
330
2FC9
100
AcDbXrecord
  1
{D358E5F9-C626-46E7-B6C9-DC9686F67DDE}
  0
XRECORD
  5
2FD6
102
{ACAD_REACTORS
330
2FC9
102
}
330
2FC9
100
AcDbXrecord
 40
0.0
  0
XRECORD
  5
2FD7
102
{ACAD_REACTORS
330
2FC9
102
}
330
2FC9
100
AcDbXrecord
1000
DSTYLE
1002
{
1070
    79
 70
     2
1070
   341
340
59
1070
   342
340
59
1070
   371
 70
    -1
1070
   372
 70
    -1
1002
}
  0
XRECORD
  5
2FD8
102
{ACAD_REACTORS
330
2FC9
102
}
330
2FC9
100
AcDbXrecord
340
0
  0
XRECORD
  5
2FD9
102
{ACAD_REACTORS
330
2FC9
102
}
330
2FC9
100
AcDbXrecord
 70
     0
  0
XRECORD
  5
2FDA
102
{ACAD_REACTORS
330
2FC9
102
}
330
2FC9
100
AcDbXrecord
340
0
  0
XRECORD
  5
2FDB
102
{ACAD_REACTORS
330
2FC9
102
}
330
2FC9
100
AcDbXrecord
 10
0.0
 20
0.0
 30
0.0
  0
XRECORD
  5
2FDC
102
{ACAD_REACTORS
330
2FC9
102
}
330
2FC9
100
AcDbXrecord
 10
0.0
 20
0.0
 30
0.0
  0
XRECORD
  5
2FDD
102
{ACAD_REACTORS
330
2FC9
102
}
330
2FC9
100
AcDbXrecord
 10
0.0
 20
0.0
 30
0.0
  0
XRECORD
  5
2FDE
102
{ACAD_REACTORS
330
2FC9
102
}
330
2FC9
100
AcDbXrecord
 10
0.0
 20
0.0
 30
0.0
  0
XRECORD
  5
2FDF
102
{ACAD_REACTORS
330
2FC9
102
}
330
2FC9
100
AcDbXrecord
 10
0.0
 20
0.0
 30
0.0
  0
XRECORD
  5
2FE0
102
{ACAD_REACTORS
330
2FC9
102
}
330
2FC9
100
AcDbXrecord
 10
0.0
 20
0.0
 30
0.0
  0
XRECORD
  5
2FE1
102
{ACAD_REACTORS
330
2FC9
102
}
330
2FC9
100
AcDbXrecord
340
0
  0
XRECORD
  5
2FE2
102
{ACAD_REACTORS
330
2FC9
102
}
330
2FC9
100
AcDbXrecord
 70
     0
  0
XRECORD
  5
2FE3
102
{ACAD_REACTORS
330
2FC9
102
}
330
2FC9
100
AcDbXrecord
340
0
  0
XRECORD
  5
2FE4
102
{ACAD_REACTORS
330
2FC9
102
}
330
2FC9
100
AcDbXrecord
 10
0.0
 20
0.0
 30
0.0
  0
XRECORD
  5
2FE5
102
{ACAD_REACTORS
330
2FC9
102
}
330
2FC9
100
AcDbXrecord
 10
0.0
 20
0.0
 30
0.0
  0
XRECORD
  5
2FE6
102
{ACAD_REACTORS
330
2FC9
102
}
330
2FC9
100
AcDbXrecord
 10
0.0
 20
0.0
 30
0.0
  0
XRECORD
  5
2FE7
102
{ACAD_REACTORS
330
2FC9
102
}
330
2FC9
100
AcDbXrecord
 10
0.0
 20
0.0
 30
0.0
  0
XRECORD
  5
2FE8
102
{ACAD_REACTORS
330
2FC9
102
}
330
2FC9
100
AcDbXrecord
 10
0.0
 20
0.0
 30
0.0
  0
XRECORD
  5
2FE9
102
{ACAD_REACTORS
330
2FC9
102
}
330
2FC9
100
AcDbXrecord
 10
0.0
 20
0.0
 30
0.0
  0
LAYER_INDEX
  5
2FBF
102
{ACAD_REACTORS
330
2FBE
102
}
330
2FBE
100
AcDbIndex
 40
2453151.877228715
100
AcDbLayerIndex
  8
0
360
2FC0
 90
        0
  8
AM_0
360
2FC1
 90
       60
  8
AM_11
360
2FC2
 90
        4
  8
AM_7
360
2FC3
 90
        2
  8
AM_5
360
2FC4
 90
        5
  8
Defpoints
360
2FC5
 90
        0
  8
AM_6
360
2FC6
 90
        1
  8
AM_CL
360
2FC7
 90
        0
  0
XRECORD
  5
2D
102
{ACAD_REACTORS
330
2C
102
}
330
2C
100
AcDbXrecord
  1
VERSION
140
15.0
  1
PRODUCT
  2
AutoCAD Mechanical 2000
  0
IDBUFFER
  5
2FC0
330
0
100
AcDbIdBuffer
  0
IDBUFFER
  5
2FC1
330
0
100
AcDbIdBuffer
330
2EE3
330
2EE4
330
2EE5
330
2EE6
330
2F24
330
2F25
330
2F27
330
2F28
330
2F39
330
2F3B
330
2F3D
330
2F3F
330
2A88
330
2A8C
330
2A91
330
2A92
330
2A93
330
2A94
330
2A95
330
2A96
330
2A97
330
2A98
330
2A99
330
2A9A
330
2A9B
330
2A9C
330
2A9D
330
2A9E
330
2A9F
330
2AA0
330
2AF6
330
2AF9
330
2AFA
330
2AFB
330
2AFC
330
2AFD
330
2AFE
330
2AFF
330
2B00
330
2B01
330
2B02
330
2B03
330
2B04
330
2B05
330
2B06
330
2B07
330
2B09
330
2B0A
330
2B0B
330
2B1B
330
2B1C
330
2B1D
330
2B1E
330
2B1F
330
2B20
330
2B21
330
2ED2
330
2ED3
330
2EE1
330
2EE2
  0
IDBUFFER
  5
2FC2
330
0
100
AcDbIdBuffer
330
2AB4
330
2AB5
330
2AB6
330
2B1A
  0
IDBUFFER
  5
2FC3
330
0
100
AcDbIdBuffer
330
C50
330
2156
  0
IDBUFFER
  5
2FC4
330
0
100
AcDbIdBuffer
330
195B
330
21D2
330
2347
330
2ED4
330
2EE7
  0
IDBUFFER
  5
2FC5
330
0
100
AcDbIdBuffer
  0
IDBUFFER
  5
2FC6
330
0
100
AcDbIdBuffer
330
C58
  0
IDBUFFER
  5
2FC7
330
0
100
AcDbIdBuffer
  0
ENDSEC
  0
EOF
