  0
SECTION
  2
HEADER
  9
$ACADVER
  1
AC1014
  9
$ACADMAINTVER
 70
     9
  9
$DWGCODEPAGE
  3
ANSI_932
  9
$INSBASE
 10
0.0
 20
0.0
 30
0.0
  9
$EXTMIN
 10
-135.4626531506397
 20
-54.74587829616996
 30
-0.00000001
  9
$EXTMAX
 10
19.07730170281049
 20
9.631814144707304
 30
0.00000001
  9
$LIMMIN
 10
-154.9287790464059
 20
-86.82556259073265
  9
$LIMMAX
 10
45.08859822548163
 20
47.82575171981614
  9
$ORTHOMODE
 70
     0
  9
$REGENMODE
 70
     1
  9
$FILLMODE
 70
     1
  9
$QTEXTMODE
 70
     0
  9
$MIRRTEXT
 70
     0
  9
$DRAGMODE
 70
     2
  9
$LTSCALE
 40
0.3
  9
$OSMODE
 70
    55
  9
$ATTMODE
 70
     1
  9
$TEXTSIZE
 40
2.5
  9
$TRACEWID
 40
1.0
  9
$TEXTSTYLE
  7
STANDARD
  9
$CLAYER
  8
AM_11
  9
$CELTYPE
  6
BYLAYER
  9
$CECOLOR
 62
   256
  9
$CELTSCALE
 40
1.0
  9
$DELOBJ
 70
     1
  9
$DISPSILH
 70
     0
  9
$DIMSCALE
 40
0.3333333333333333
  9
$DIMASZ
 40
2.5
  9
$DIMEXO
 40
1.0
  9
$DIMDLI
 40
12.0
  9
$DIMRND
 40
0.0
  9
$DIMDLE
 40
0.0
  9
$DIMEXE
 40
1.0
  9
$DIMTP
 40
0.1
  9
$DIMTM
 40
0.1
  9
$DIMTXT
 40
3.2
  9
$DIMCEN
 40
0.0
  9
$DIMTSZ
 40
0.0
  9
$DIMTOL
 70
     0
  9
$DIMLIM
 70
     0
  9
$DIMTIH
 70
     0
  9
$DIMTOH
 70
     0
  9
$DIMSE1
 70
     0
  9
$DIMSE2
 70
     0
  9
$DIMTAD
 70
     3
  9
$DIMZIN
 70
     8
  9
$DIMBLK
  1
OPEN30
  9
$DIMASO
 70
     1
  9
$DIMSHO
 70
     1
  9
$DIMPOST
  1

  9
$DIMAPOST
  1
"
  9
$DIMALT
 70
     0
  9
$DIMALTD
 70
     2
  9
$DIMALTF
 40
0.0393701
  9
$DIMLFAC
 40
1.0
  9
$DIMTOFL
 70
     1
  9
$DIMTVP
 40
0.0
  9
$DIMTIX
 70
     0
  9
$DIMSOXD
 70
     0
  9
$DIMSAH
 70
     0
  9
$DIMBLK1
  1

  9
$DIMBLK2
  1

  9
$DIMSTYLE
  2
AM_JIS
  9
$DIMCLRD
 70
   256
  9
$DIMCLRE
 70
   256
  9
$DIMCLRT
 70
     2
  9
$DIMTFAC
 40
0.71
  9
$DIMGAP
 40
1.5
  9
$DIMJUST
 70
     0
  9
$DIMSD1
 70
     0
  9
$DIMSD2
 70
     0
  9
$DIMTOLJ
 70
     0
  9
$DIMTZIN
 70
     0
  9
$DIMALTZ
 70
     0
  9
$DIMALTTZ
 70
     0
  9
$DIMFIT
 70
     3
  9
$DIMUPT
 70
     0
  9
$DIMUNIT
 70
     2
  9
$DIMDEC
 70
     3
  9
$DIMTDEC
 70
     3
  9
$DIMALTU
 70
     2
  9
$DIMALTTD
 70
     2
  9
$DIMTXSTY
  7
ASAMI
  9
$DIMAUNIT
 70
     0
  9
$LUNITS
 70
     2
  9
$LUPREC
 70
     2
  9
$SKETCHINC
 40
1.0
  9
$FILLETRAD
 40
0.5
  9
$AUNITS
 70
     0
  9
$AUPREC
 70
     0
  9
$MENU
  1
.
  9
$ELEVATION
 40
0.0
  9
$PELEVATION
 40
0.0
  9
$THICKNESS
 40
0.0
  9
$LIMCHECK
 70
     0
  9
$BLIPMODE
 70
     0
  9
$CHAMFERA
 40
0.5
  9
$CHAMFERB
 40
0.5
  9
$CHAMFERC
 40
20.0
  9
$CHAMFERD
 40
0.0
  9
$SKPOLY
 70
     0
  9
$TDCREATE
 40
2452838.620506898
  9
$TDUPDATE
 40
2453151.877505231
  9
$TDINDWG
 40
0.4442606250
  9
$TDUSRTIMER
 40
0.4442606250
  9
$USRTIMER
 70
     1
  9
$ANGBASE
 50
0.0
  9
$ANGDIR
 70
     0
  9
$PDMODE
 70
     0
  9
$PDSIZE
 40
0.0
  9
$PLINEWID
 40
0.0
  9
$COORDS
 70
     1
  9
$SPLFRAME
 70
     0
  9
$SPLINETYPE
 70
     6
  9
$SPLINESEGS
 70
     8
  9
$ATTDIA
 70
     1
  9
$ATTREQ
 70
     1
  9
$HANDLING
 70
 12289
  9
$HANDSEED
  5
3012
  9
$SURFTAB1
 70
     6
  9
$SURFTAB2
 70
     6
  9
$SURFTYPE
 70
     6
  9
$SURFU
 70
     6
  9
$SURFV
 70
     6
  9
$UCSNAME
  2

  9
$UCSORG
 10
-0.0000000000000568
 20
-0.0000000000000036
 30
0.0
  9
$UCSXDIR
 10
1.0
 20
0.0
 30
0.0
  9
$UCSYDIR
 10
0.0
 20
1.0
 30
0.0
  9
$PUCSNAME
  2

  9
$PUCSORG
 10
0.0
 20
0.0
 30
0.0
  9
$PUCSXDIR
 10
1.0
 20
0.0
 30
0.0
  9
$PUCSYDIR
 10
0.0
 20
1.0
 30
0.0
  9
$USERI1
 70
     0
  9
$USERI2
 70
     0
  9
$USERI3
 70
     0
  9
$USERI4
 70
     0
  9
$USERI5
 70
     0
  9
$USERR1
 40
0.0
  9
$USERR2
 40
0.0
  9
$USERR3
 40
0.0
  9
$USERR4
 40
0.0
  9
$USERR5
 40
0.0
  9
$WORLDVIEW
 70
     1
  9
$SHADEDGE
 70
     3
  9
$SHADEDIF
 70
    70
  9
$TILEMODE
 70
     1
  9
$MAXACTVP
 70
    64
  9
$PINSBASE
 10
0.0
 20
0.0
 30
0.0
  9
$PLIMCHECK
 70
     0
  9
$PEXTMIN
 10
1.000000000000000E+20
 20
1.000000000000000E+20
 30
1.000000000000000E+20
  9
$PEXTMAX
 10
-1.000000000000000E+20
 20
-1.000000000000000E+20
 30
-1.000000000000000E+20
  9
$PLIMMIN
 10
0.0
 20
0.0
  9
$PLIMMAX
 10
841.0
 20
594.0
  9
$UNITMODE
 70
     0
  9
$VISRETAIN
 70
     1
  9
$PLINEGEN
 70
     0
  9
$PSLTSCALE
 70
     0
  9
$TREEDEPTH
 70
  3020
  9
$PICKSTYLE
 70
     0
  9
$CMLSTYLE
  2
STANDARD
  9
$CMLJUST
 70
     0
  9
$CMLSCALE
 40
20.0
  9
$PROXYGRAPHICS
 70
     1
  9
$MEASUREMENT
 70
     1
  0
ENDSEC
  0
SECTION
  2
CLASSES
  0
CLASS
  1
ACDBDICTIONARYWDFLT
  2
AcDbDictionaryWithDefault
  3
AutoCAD 2000
 90
        0
280
     0
281
     0
  0
CLASS
  1
ACDBPLACEHOLDER
  2
AcDbPlaceHolder
  3
AutoCAD 2000
 90
        0
280
     0
281
     0
  0
CLASS
  1
LAYOUT
  2
AcDbLayout
  3
AutoCAD 2000
 90
        0
280
     0
281
     0
  0
CLASS
  1
AMGSETTINGSOBJ
  2
AmgSettingsObj
  3
"AcadM|Product Description: AutoCAD Mechanical 2000|Company: Autodesk"
 90
        0
280
     0
281
     0
  0
CLASS
  1
ACME_DOCUMENT
  2
AcMeDbDoc
  3
AcMeServices
 90
        0
280
     0
281
     0
  0
CLASS
  1
ACMESCOPE
  2
AcMeScope
  3
AcMeServices
 90
        0
280
     0
281
     0
  0
CLASS
  1
ACMECOMMANDHISTORY
  2
AcMeCommandHistory
  3
AcMeServices
 90
        0
280
     0
281
     0
  0
CLASS
  1
DICTIONARYVAR
  2
AcDbDictionaryVar
  3
AutoCAD 2000
 90
        0
280
     0
281
     0
  0
CLASS
  1
ACIMSYSVARMAN
  2
AcImSysVarManager
  3
AcMeServices
 90
        0
280
     0
281
     0
  0
CLASS
  1
ACIMREALSYSVAR
  2
AcImRealSysVar
  3
AcMeServices
 90
        0
280
     0
281
     0
  0
CLASS
  1
ACIMINTSYSVAR
  2
AcImIntSysVar
  3
AcMeServices
 90
        0
280
     0
281
     0
  0
CLASS
  1
ACMEDRAWINGMAN
  2
AcMeDrawingMan
  3
AcMeServices
 90
        0
280
     0
281
     0
  0
CLASS
  1
ACMEVIEW
  2
AcMeView
  3
AcMeServices
 90
        0
280
     0
281
     0
  0
CLASS
  1
ACDBENTITYCACHE
  2
AcMeEntityCache
  3
AcMeServices
 90
        0
280
     0
281
     0
  0
CLASS
  1
GSMANAGER
  2
AcMeGSManager
  3
AcMeServices
 90
        0
280
     0
281
     0
  0
CLASS
  1
AmdtInternalReactor
  2
AmdtInternalReactor
  3
AcMeServices
 90
        0
280
     0
281
     0
  0
CLASS
  1
ACMESTATEMGR
  2
AcMeStateMgr
  3
AcMeServices
 90
        0
280
     0
281
     0
  0
CLASS
  1
ACME_DATABASE
  2
AcMeDbDatabase
  3
AcMeServices
 90
        0
280
     0
281
     0
  0
CLASS
  1
ACRFINSADJUSTERMGR
  2
AcRfInsAdjusterMgr
  3
AcMeServices
 90
        0
280
     0
281
     0
  0
CLASS
  1
ACMDATADICTIONARY
  2
AcmDataDictionary
  3
"AcmSymBB|Product Description: AutoCAD Mechanical 2000|Company: Autodesk"
 90
        0
280
     0
281
     0
  0
CLASS
  1
ACMDATAENTRYBLOCK
  2
AcmDataEntryBlock
  3
"AcmSymBB|Product Description: AutoCAD Mechanical 2000|Company: Autodesk"
 90
        0
280
     0
281
     0
  0
CLASS
  1
AMGOBJPROPCFG
  2
AmgObjPropCfg
  3
"AmgLay|Product Description: AutoCAD Mechanical 2000|Company: Autodesk"
 90
        1
280
     0
281
     0
  0
CLASS
  1
ACAMGFILTERDAT
  2
AcAmgFilterDat
  3
"AcadM|Product Description: AutoCAD Mechanical 2000|Company: Autodesk"
 90
        0
280
     0
281
     0
  0
CLASS
  1
LAYER_INDEX
  2
AcDbLayerIndex
  3
AutoCAD 2000
 90
        0
280
     0
281
     0
  0
CLASS
  1
IDBUFFER
  2
AcDbIdBuffer
  3
AutoCAD 2000
 90
        0
280
     0
281
     0
  0
CLASS
  1
ACIMSTRSYSVAR
  2
AcImStrSysVar
  3
AcMeServices
 90
        0
280
     0
281
     0
  0
CLASS
  1
ACMSTANDARDJIS
  2
AcmStandardJIS
  3
"AcmSymBB|Product Description: AutoCAD Mechanical 2000|Company: Autodesk"
 90
        0
280
     0
281
     0
  0
CLASS
  1
ACMSURFSTANDARDJIS
  2
AcmSurfTextStdJIS
  3
"AcmSymBB|Product Description: AutoCAD Mechanical 2000|Company: Autodesk"
 90
        0
280
     0
281
     0
  0
CLASS
  1
ACMFCFSTANDARDJIS
  2
AcmFCFStdJIS
  3
"AcmSymBB|Product Description: AutoCAD Mechanical 2000|Company: Autodesk"
 90
        0
280
     0
281
     0
  0
CLASS
  1
ACMWELDSTANDARDJIS
  2
AcmWeldingStdJIS
  3
"AcmSymBB|Product Description: AutoCAD Mechanical 2000|Company: Autodesk"
 90
        0
280
     0
281
     0
  0
CLASS
  1
ACMIDSTANDARDJIS
  2
AcmIdStdJIS
  3
"AcmSymBB|Product Description: AutoCAD Mechanical 2000|Company: Autodesk"
 90
        0
280
     0
281
     0
  0
CLASS
  1
ACMDATUMSTANDARDJIS
  2
AcmDatumStdJIS
  3
"AcmSymBB|Product Description: AutoCAD Mechanical 2000|Company: Autodesk"
 90
        0
280
     0
281
     0
  0
CLASS
  1
ACMBOMSTANDARDJIS
  2
AcmBOMStdJIS
  3
"AcmSymBB|Product Description: AutoCAD Mechanical 2000|Company: Autodesk"
 90
        0
280
     0
281
     0
  0
CLASS
  1
ACMSTANDARDANSI
  2
AcmStandardANSI
  3
"AcmSymBB|Product Description: AutoCAD Mechanical 2000|Company: Autodesk"
 90
        0
280
     0
281
     0
  0
CLASS
  1
ACMSURFSTANDARDANSI
  2
AcmSurfTextStdANSI
  3
"AcmSymBB|Product Description: AutoCAD Mechanical 2000|Company: Autodesk"
 90
        0
280
     0
281
     0
  0
CLASS
  1
ACMFCFSTANDARDANSI
  2
AcmFCFStdANSI
  3
"AcmSymBB|Product Description: AutoCAD Mechanical 2000|Company: Autodesk"
 90
        0
280
     0
281
     0
  0
CLASS
  1
ACMWELDSTANDARDANSI
  2
AcmWeldingStdANSI
  3
"AcmSymBB|Product Description: AutoCAD Mechanical 2000|Company: Autodesk"
 90
        0
280
     0
281
     0
  0
CLASS
  1
ACMIDSTANDARDANSI
  2
AcmIdStdANSI
  3
"AcmSymBB|Product Description: AutoCAD Mechanical 2000|Company: Autodesk"
 90
        0
280
     0
281
     0
  0
CLASS
  1
ACMDATUMSTANDARDANSI
  2
AcmDatumStdANSI
  3
"AcmSymBB|Product Description: AutoCAD Mechanical 2000|Company: Autodesk"
 90
        0
280
     0
281
     0
  0
CLASS
  1
ACMBOMSTANDARDANSI
  2
AcmBOMStdANSI
  3
"AcmSymBB|Product Description: AutoCAD Mechanical 2000|Company: Autodesk"
 90
        0
280
     0
281
     0
  0
CLASS
  1
ACMSTANDARDBSI
  2
AcmStandardBSI
  3
"AcmSymBB|Product Description: AutoCAD Mechanical 2000|Company: Autodesk"
 90
        0
280
     0
281
     0
  0
CLASS
  1
ACMSURFSTANDARDBSI
  2
AcmSurfTextStdBSI
  3
"AcmSymBB|Product Description: AutoCAD Mechanical 2000|Company: Autodesk"
 90
        0
280
     0
281
     0
  0
CLASS
  1
ACMFCFSTANDARDBSI
  2
AcmFCFStdBSI
  3
"AcmSymBB|Product Description: AutoCAD Mechanical 2000|Company: Autodesk"
 90
        0
280
     0
281
     0
  0
CLASS
  1
ACMWELDSTANDARDBSI
  2
AcmWeldingStdBSI
  3
"AcmSymBB|Product Description: AutoCAD Mechanical 2000|Company: Autodesk"
 90
        0
280
     0
281
     0
  0
CLASS
  1
ACMIDSTANDARDBSI
  2
AcmIdStdBSI
  3
"AcmSymBB|Product Description: AutoCAD Mechanical 2000|Company: Autodesk"
 90
        0
280
     0
281
     0
  0
CLASS
  1
ACMDATUMSTANDARDBSI
  2
AcmDatumStdBSI
  3
"AcmSymBB|Product Description: AutoCAD Mechanical 2000|Company: Autodesk"
 90
        0
280
     0
281
     0
  0
CLASS
  1
ACMBOMSTANDARDBSI
  2
AcmBOMStdBSI
  3
"AcmSymBB|Product Description: AutoCAD Mechanical 2000|Company: Autodesk"
 90
        0
280
     0
281
     0
  0
CLASS
  1
LONG_TRANSACTION
  2
AcDbLongTransaction
  3
AutoCAD 2000
 90
        0
280
     0
281
     0
  0
CLASS
  1
LWPOLYLINE
  2
AcDbPolyline
  3
AutoCAD 2000
 90
        0
280
     0
281
     1
  0
CLASS
  1
HATCH
  2
AcDbHatch
  3
AutoCAD 2000
 90
        0
280
     0
281
     1
  0
CLASS
  1
XRECORD
  2
AcDbXrecord
  3
AutoCAD 2000
 90
        0
280
     0
281
     0
  0
ENDSEC
  0
SECTION
  2
TABLES
  0
TABLE
  2
VPORT
  5
8
330
0
100
AcDbSymbolTable
 70
     3
  0
VPORT
  5
2FE7
330
8
100
AcDbSymbolTableRecord
100
AcDbViewportTableRecord
  2
*ACTIVE
 70
     0
 10
0.0
 20
0.0
 11
1.0
 21
1.0
 12
-58.18575452499223
 22
-22.55614642856062
 13
0.0
 23
0.0
 14
2.5
 24
2.5
 15
10.0
 25
10.0
 16
0.0
 26
0.0
 36
1.0
 17
0.0
 27
0.0
 37
0.0
 40
99.10012655357446
 41
1.56570841889117
 42
50.0
 43
0.0
 44
0.0
 50
0.0
 51
0.0
 71
     0
 72
   100
 73
     1
 74
     3
 75
     0
 76
     0
 77
     0
 78
     0
  0
ENDTAB
  0
TABLE
  2
LTYPE
  5
5
330
0
100
AcDbSymbolTable
 70
    10
  0
LTYPE
  5
14
330
5
100
AcDbSymbolTableRecord
100
AcDbLinetypeTableRecord
  2
BYBLOCK
 70
     0
  3

 72
    65
 73
     0
 40
0.0
  0
LTYPE
  5
15
330
5
100
AcDbSymbolTableRecord
100
AcDbLinetypeTableRecord
  2
BYLAYER
 70
     0
  3

 72
    65
 73
     0
 40
0.0
  0
LTYPE
  5
16
330
5
100
AcDbSymbolTableRecord
100
AcDbLinetypeTableRecord
  2
CONTINUOUS
 70
     0
  3
Solid line
 72
    65
 73
     0
 40
0.0
  0
LTYPE
  5
4B
330
5
100
AcDbSymbolTableRecord
100
AcDbLinetypeTableRecord
  2
AM_ISO02W050
 70
     0
  3
__ __ __ __ __ __ __ __ __ __ __ __ __ __ __
 72
    65
 73
     2
 40
7.5
 49
6.0
 74
     0
 49
-1.5
 74
     0
  0
LTYPE
  5
4C
330
5
100
AcDbSymbolTableRecord
100
AcDbLinetypeTableRecord
  2
AM_ISO08W050
 70
     0
  3
____ . ____ . ____ . ____ . ____ . ____ . ____
 72
    65
 73
     4
 40
18.0
 49
12.0
 74
     0
 49
-1.5
 74
     0
 49
3.0
 74
     0
 49
-1.5
 74
     0
  0
LTYPE
  5
4D
330
5
100
AcDbSymbolTableRecord
100
AcDbLinetypeTableRecord
  2
AM_ISO09W050
 70
     0
  3
_____ . . _____ . . _____ . . ____ .. ____
 72
    65
 73
     6
 40
22.5
 49
12.0
 74
     0
 49
-1.5
 74
     0
 49
3.0
 74
     0
 49
-1.5
 74
     0
 49
3.0
 74
     0
 49
-1.5
 74
     0
  0
LTYPE
  5
4E
330
5
100
AcDbSymbolTableRecord
100
AcDbLinetypeTableRecord
  2
AMCONSTR
 70
     0
  3
_______________________
 72
    65
 73
     2
 40
9999.0
 49
9999.0
 74
     0
 49
0.0
 74
     0
  0
LTYPE
  5
4F
330
5
100
AcDbSymbolTableRecord
100
AcDbLinetypeTableRecord
  2
AM_ISO02W050X2
 70
     0
  3
 _ _ _ _ _ _ _ _ _ _ _ _
 72
    65
 73
     2
 40
3.75
 49
3.0
 74
     0
 49
-0.75
 74
     0
  0
LTYPE
  5
50
330
5
100
AcDbSymbolTableRecord
100
AcDbLinetypeTableRecord
  2
AM_ISO08W050X2
 70
     0
  3
__ . __ . __ . __ . __ . __
 72
    65
 73
     4
 40
9.0
 49
6.0
 74
     0
 49
-0.75
 74
     0
 49
1.5
 74
     0
 49
-0.75
 74
     0
  0
LTYPE
  5
53
330
5
100
AcDbSymbolTableRecord
100
AcDbLinetypeTableRecord
  2
AMZIGZAG
 70
     0
  3
/\/-/\/-/\/-/\/-/\/-/\/
 72
    65
 73
     2
 40
11.00009999999999
 49
0.0001
 74
     4
 75
   135
340
52
 46
0.04
 50
0.0
 44
0.0
 45
0.0
 49
-11.0
 74
     0
  0
LTYPE
  5
166
330
5
100
AcDbSymbolTableRecord
100
AcDbLinetypeTableRecord
  2
ACJISTGL
 70
     0
  3
_ _ _ _ _
 72
    65
 73
     2
 40
3.0
 49
2.0
 74
     0
 49
-1.0
 74
     0
  0
LTYPE
  5
26A
330
5
100
AcDbSymbolTableRecord
100
AcDbLinetypeTableRecord
  2
ACJISTGB
 70
     0
  3
__ . . __ . .
 72
    65
 73
     6
 40
9.0
 49
4.0
 74
     0
 49
-1.0
 74
     0
 49
1.0
 74
     0
 49
-1.0
 74
     0
 49
1.0
 74
     0
 49
-1.0
 74
     0
  0
ENDTAB
  0
TABLE
  2
LAYER
  5
2
330
0
100
AcDbSymbolTable
 70
     8
  0
LAYER
  5
10
330
2
100
AcDbSymbolTableRecord
100
AcDbLayerTableRecord
  2
0
 70
     0
 62
     7
  6
CONTINUOUS
  0
LAYER
  5
3F9
330
2
100
AcDbSymbolTableRecord
100
AcDbLayerTableRecord
  2
AM_0
 70
     0
 62
     7
  6
CONTINUOUS
  0
LAYER
  5
BD6
330
2
100
AcDbSymbolTableRecord
100
AcDbLayerTableRecord
  2
AM_11
 70
     0
 62
     3
  6
AM_ISO09W050
  0
LAYER
  5
BD7
330
2
100
AcDbSymbolTableRecord
100
AcDbLayerTableRecord
  2
AM_7
 70
     0
 62
     4
  6
AM_ISO08W050
  0
LAYER
  5
BD8
330
2
100
AcDbSymbolTableRecord
100
AcDbLayerTableRecord
  2
AM_5
 70
     0
 62
     3
  6
CONTINUOUS
  0
LAYER
  5
BD9
330
2
100
AcDbSymbolTableRecord
100
AcDbLayerTableRecord
  2
DEFPOINTS
 70
     0
 62
     7
  6
CONTINUOUS
  0
LAYER
  5
BDA
330
2
100
AcDbSymbolTableRecord
100
AcDbLayerTableRecord
  2
AM_6
 70
     0
 62
     2
  6
CONTINUOUS
  0
LAYER
  5
1F9B
330
2
100
AcDbSymbolTableRecord
100
AcDbLayerTableRecord
  2
AM_CL
 70
     0
 62
     1
  6
AMCONSTR
  0
ENDTAB
  0
TABLE
  2
STYLE
  5
3
330
0
100
AcDbSymbolTable
 70
     5
  0
STYLE
  5
11
330
3
100
AcDbSymbolTableRecord
100
AcDbTextStyleTableRecord
  2
STANDARD
 70
     0
 40
0.0
 41
1.0
 50
0.0
 71
     0
 42
2.5
  3
simplex.shx
  4
EXTFONT.SHX
  0
STYLE
  5
52
330
3
100
AcDbSymbolTableRecord
100
AcDbTextStyleTableRecord
  2

 70
     1
 40
0.0
 41
1.0
 50
0.0
 71
     0
 42
2.5
  3
ltypeshp.shx
  4

  0
STYLE
  5
6B
330
3
100
AcDbSymbolTableRecord
100
AcDbTextStyleTableRecord
  2
ASAMI
 70
     0
 40
0.0
 41
1.0
 50
0.0
 71
     0
 42
2.5
  3
simplex.shx
  4
EXTFONT.SHX
  0
STYLE
  5
262
330
3
100
AcDbSymbolTableRecord
100
AcDbTextStyleTableRecord
  2
ACJISTS
 70
     0
 40
1.0
 41
1.0
 50
0.0
 71
     0
 42
2.5
  3
simplex.shx
  4
bigfont.shx
  0
STYLE
  5
269
330
3
100
AcDbSymbolTableRecord
100
AcDbTextStyleTableRecord
  2
ACJISGDT
 70
     0
 40
0.0
 41
1.0
 50
0.0
 71
     0
 42
2.5
  3
amgdtans.shx
  4

  0
ENDTAB
  0
TABLE
  2
VIEW
  5
6
330
0
100
AcDbSymbolTable
 70
     0
  0
ENDTAB
  0
TABLE
  2
UCS
  5
7
330
0
100
AcDbSymbolTable
 70
     0
  0
ENDTAB
  0
TABLE
  2
APPID
  5
9
330
0
100
AcDbSymbolTable
 70
    14
  0
APPID
  5
12
330
9
100
AcDbSymbolTableRecord
100
AcDbRegAppTableRecord
  2
ACAD
 70
     0
  0
APPID
  5
30
330
9
100
AcDbSymbolTableRecord
100
AcDbRegAppTableRecord
  2
MCAD_NO_VIS
 70
     0
  0
APPID
  5
31
330
9
100
AcDbSymbolTableRecord
100
AcDbRegAppTableRecord
  2
ACAD_TEMP_GRAPHIC
 70
     0
  0
APPID
  5
2C2
330
9
100
AcDbSymbolTableRecord
100
AcDbRegAppTableRecord
  2
GENIUS_GENDTOL_13
 70
     0
  0
APPID
  5
339
330
9
100
AcDbSymbolTableRecord
100
AcDbRegAppTableRecord
  2
GENIUS_GENODEF_13
 70
     0
  0
APPID
  5
33A
330
9
100
AcDbSymbolTableRecord
100
AcDbRegAppTableRecord
  2
GENIUS_GENOBJ-N-RSBK_13
 70
     0
  0
APPID
  5
33B
330
9
100
AcDbSymbolTableRecord
100
AcDbRegAppTableRecord
  2
GENIUS_GENOBJ-N-LIB_13
 70
     0
  0
APPID
  5
33C
330
9
100
AcDbSymbolTableRecord
100
AcDbRegAppTableRecord
  2
GENIUS_GENSCALE_13
 70
     0
  0
APPID
  5
378
330
9
100
AcDbSymbolTableRecord
100
AcDbRegAppTableRecord
  2
GENIUS_GENDIMSH_14
 70
     0
  0
APPID
  5
BDB
330
9
100
AcDbSymbolTableRecord
100
AcDbRegAppTableRecord
  2
GENIUS_GENOBJ-N-CEN_13
 70
     0
  0
APPID
  5
BDC
330
9
100
AcDbSymbolTableRecord
100
AcDbRegAppTableRecord
  2
GENIUS_GENFIL_13
 70
     0
  0
APPID
  5
BDD
330
9
100
AcDbSymbolTableRecord
100
AcDbRegAppTableRecord
  2
GENIUS_GENOBJ-N-FIL_13
 70
     0
  0
APPID
  5
12AD
330
9
100
AcDbSymbolTableRecord
100
AcDbRegAppTableRecord
  2
GENIUS_GENOREF_13
 70
     0
  0
APPID
  5
2464
330
9
100
AcDbSymbolTableRecord
100
AcDbRegAppTableRecord
  2
GENIUS_GENOBJ-N-CHA_13
 70
     0
  0
ENDTAB
  0
TABLE
  2
DIMSTYLE
  5
A
330
0
100
AcDbSymbolTable
 70
     8
  0
DIMSTYLE
105
58
102
{ACAD_REACTORS
330
195B
330
21D2
330
2EE3
330
2EF6
102
}
330
A
100
AcDbSymbolTableRecord
100
AcDbDimStyleTableRecord
  2
AM_JIS
 70
     0
  3

  4
"
  5
OPEN30
  6

  7

 40
1.0
 41
2.5
 42
1.0
 43
12.0
 44
1.0
 45
0.0
 46
0.0
 47
0.1
 48
0.1
140
3.2
141
0.0
142
0.0
143
0.0393701
144
1.0
145
0.0
146
0.71
147
1.5
 71
     0
 72
     0
 73
     0
 74
     0
 75
     0
 76
     0
 77
     3
 78
     8
170
     0
171
     2
172
     1
173
     0
174
     0
175
     0
176
   256
177
   256
178
     2
270
     2
271
     3
272
     3
273
     2
274
     2
340
6B
275
     0
280
     0
281
     0
282
     0
283
     0
284
     0
285
     0
286
     0
287
     3
288
     0
  0
DIMSTYLE
105
5F
330
A
100
AcDbSymbolTableRecord
100
AcDbDimStyleTableRecord
  2
AM_JIS$3
 70
     0
  3

  4
"
  5
OPEN30
  6

  7

 40
1.0
 41
2.5
 42
1.0
 43
10.0
 44
1.0
 45
0.0
 46
0.0
 47
0.1
 48
0.1
140
3.2
141
0.0
142
0.0
143
0.0393701
144
1.0
145
0.0
146
0.71
147
1.5
 71
     0
 72
     0
 73
     0
 74
     1
 75
     0
 76
     0
 77
     3
 78
     8
170
     0
171
     2
172
     0
173
     0
174
     0
175
     0
176
   256
177
   256
178
     2
270
     2
271
     2
272
     3
273
     2
274
     2
340
6B
275
     0
280
     0
281
     0
282
     0
283
     0
284
     0
285
     0
286
     0
287
     0
288
     1
  0
DIMSTYLE
105
60
102
{ACAD_REACTORS
330
2347
102
}
330
A
100
AcDbSymbolTableRecord
100
AcDbDimStyleTableRecord
  2
AM_JIS$4
 70
     0
  3

  4
"
  5
OPEN30
  6

  7

 40
1.0
 41
2.5
 42
1.0
 43
10.0
 44
1.0
 45
0.0
 46
0.0
 47
0.1
 48
0.1
140
3.2
141
0.0
142
0.0
143
0.0393701
144
1.0
145
0.0
146
0.71
147
1.5
 71
     0
 72
     0
 73
     0
 74
     1
 75
     0
 76
     0
 77
     3
 78
     8
170
     0
171
     2
172
     0
173
     0
174
     0
175
     0
176
   256
177
   256
178
     2
270
     2
271
     2
272
     3
273
     2
274
     2
340
6B
275
     0
280
     0
281
     0
282
     0
283
     0
284
     0
285
     0
286
     0
287
     0
288
     1
  0
DIMSTYLE
105
61
330
A
100
AcDbSymbolTableRecord
100
AcDbDimStyleTableRecord
  2
AM_JIS$6
 70
     0
  3

  4
"
  5
OPEN30
  6

  7

 40
1.0
 41
2.5
 42
1.0
 43
10.0
 44
1.0
 45
0.0
 46
0.0
 47
0.1
 48
0.1
140
3.2
141
0.0
142
0.0
143
0.0393701
144
1.0
145
0.0
146
0.71
147
1.5
 71
     0
 72
     0
 73
     0
 74
     0
 75
     0
 76
     0
 77
     0
 78
     8
170
     0
171
     2
172
     1
173
     0
174
     0
175
     0
176
   256
177
   256
178
     2
270
     2
271
     2
272
     2
273
     2
274
     2
340
6B
275
     0
280
     0
281
     0
282
     0
283
     0
284
     0
285
     0
286
     0
287
     3
288
     0
  0
DIMSTYLE
105
62
330
A
100
AcDbSymbolTableRecord
100
AcDbDimStyleTableRecord
  2
AM_JIS$7
 70
     0
  3

  4
"
  5
OPEN30
  6

  7

 40
1.0
 41
2.5
 42
1.0
 43
10.0
 44
1.0
 45
0.0
 46
0.0
 47
0.1
 48
0.1
140
3.2
141
0.0
142
0.0
143
0.0393701
144
1.0
145
0.0
146
0.71
147
1.5
 71
     0
 72
     0
 73
     0
 74
     0
 75
     0
 76
     0
 77
     3
 78
     8
170
     0
171
     2
172
     1
173
     0
174
     0
175
     0
176
   256
177
   256
178
     2
270
     2
271
     2
272
     3
273
     2
274
     2
340
6B
275
     0
280
     0
281
     0
282
     0
283
     0
284
     0
285
     0
286
     0
287
     3
288
     0
  0
DIMSTYLE
105
63
330
A
100
AcDbSymbolTableRecord
100
AcDbDimStyleTableRecord
  2
AM_JIS$SF
 70
     0
  3

  4
"
  5
OPEN30
  6

  7

 40
1.0
 41
2.5
 42
1.0
 43
10.0
 44
1.0
 45
0.0
 46
0.0
 47
0.1
 48
0.1
140
3.2
141
0.0
142
0.0
143
0.0393701
144
1.0
145
0.0
146
0.71
147
1.5
 71
     0
 72
     0
 73
     0
 74
     0
 75
     1
 76
     1
 77
     3
 78
     8
170
     0
171
     2
172
     1
173
     0
174
     0
175
     0
176
   256
177
   256
178
     2
270
     2
271
     2
272
     2
273
     2
274
     2
340
6B
275
     0
280
     0
281
     0
282
     0
283
     0
284
     0
285
     0
286
     0
287
     3
288
     0
  0
DIMSTYLE
105
68
330
A
100
AcDbSymbolTableRecord
100
AcDbDimStyleTableRecord
  2
AM_JIS$SH
 70
     0
  3

  4
"
  5

  6
GENAXEH
  7
OPEN30
 40
1.0
 41
2.5
 42
1.0
 43
10.0
 44
1.0
 45
0.0
 46
0.0
 47
0.1
 48
0.1
140
3.2
141
0.0
142
0.0
143
0.0393701
144
2.0
145
0.0
146
0.71
147
1.5
 71
     0
 72
     0
 73
     0
 74
     0
 75
     1
 76
     1
 77
     3
 78
     8
170
     0
171
     2
172
     1
173
     1
174
     0
175
     0
176
   256
177
   256
178
     2
270
     2
271
     2
272
     2
273
     2
274
     2
340
6B
275
     0
280
     0
281
     0
282
     0
283
     0
284
     0
285
     0
286
     0
287
     3
288
     0
  0
DIMSTYLE
105
B34
330
A
100
AcDbSymbolTableRecord
100
AcDbDimStyleTableRecord
  2
AM_JIS$2
 70
     0
  3

  4
"
  5
OPEN30
  6

  7

 40
1.0
 41
2.5
 42
1.0
 43
12.0
 44
1.0
 45
0.0
 46
0.0
 47
0.1
 48
0.1
140
3.2
141
0.0
142
0.0
143
0.0393701
144
1.0
145
0.0
146
0.71
147
1.5
 71
     0
 72
     0
 73
     0
 74
     0
 75
     0
 76
     0
 77
     3
 78
     8
170
     0
171
     2
172
     1
173
     0
174
     0
175
     0
176
   256
177
   256
178
     2
270
     2
271
     3
272
     3
273
     2
274
     2
340
6B
275
     0
280
     0
281
     0
282
     0
283
     0
284
     0
285
     0
286
     0
287
     3
288
     0
  0
ENDTAB
  0
TABLE
  2
BLOCK_RECORD
  5
1
330
0
100
AcDbSymbolTable
 70
    11
  0
BLOCK_RECORD
  5
1F
102
{ACAD_XDICTIONARY
360
74
102
}
330
1
100
AcDbSymbolTableRecord
100
AcDbBlockTableRecord
  2
*MODEL_SPACE
  0
BLOCK_RECORD
  5
101
102
{ACAD_XDICTIONARY
360
3010
102
}
330
1
100
AcDbSymbolTableRecord
100
AcDbBlockTableRecord
  2
*PAPER_SPACE
  0
BLOCK_RECORD
  5
59
330
1
100
AcDbSymbolTableRecord
100
AcDbBlockTableRecord
  2
_OPEN30
  0
BLOCK_RECORD
  5
64
330
1
100
AcDbSymbolTableRecord
100
AcDbBlockTableRecord
  2
GENAXEH
  0
BLOCK_RECORD
  5
195C
330
1
100
AcDbSymbolTableRecord
100
AcDbBlockTableRecord
  2
*D5
  0
BLOCK_RECORD
  5
21D3
330
1
100
AcDbSymbolTableRecord
100
AcDbBlockTableRecord
  2
*D6
  0
BLOCK_RECORD
  5
2348
330
1
100
AcDbSymbolTableRecord
100
AcDbBlockTableRecord
  2
*D7
  0
BLOCK_RECORD
  5
2B22
330
1
100
AcDbSymbolTableRecord
100
AcDbBlockTableRecord
  2
A$C586537D0
  0
BLOCK_RECORD
  5
2EE4
330
1
100
AcDbSymbolTableRecord
100
AcDbBlockTableRecord
  2
*D9
  0
BLOCK_RECORD
  5
2EF7
330
1
100
AcDbSymbolTableRecord
100
AcDbBlockTableRecord
  2
*D10
  0
ENDTAB
  0
ENDSEC
  0
SECTION
  2
BLOCKS
  0
BLOCK
  5
20
330
1F
100
AcDbEntity
  8
0
100
AcDbBlockBegin
  2
*MODEL_SPACE
 70
     0
 10
0.0
 20
0.0
 30
0.0
  3
*MODEL_SPACE
  1

  0
ENDBLK
  5
21
330
1F
100
AcDbEntity
  8
0
100
AcDbBlockEnd
  0
BLOCK
  5
103
330
101
100
AcDbEntity
 67
     1
  8
0
100
AcDbBlockBegin
  2
*PAPER_SPACE
 70
     0
 10
0.0
 20
0.0
 30
0.0
  3
*PAPER_SPACE
  1

  0
ENDBLK
  5
104
330
101
100
AcDbEntity
 67
     1
  8
0
100
AcDbBlockEnd
  0
BLOCK
  5
5D
330
59
100
AcDbEntity
  8
0
100
AcDbBlockBegin
  2
_OPEN30
 70
     0
 10
0.0
 20
0.0
 30
0.0
  3
_OPEN30
  1

  0
LINE
  5
5A
330
59
100
AcDbEntity
  8
0
 62
     0
100
AcDbLine
 10
-1.0
 20
0.26794919
 30
0.0
 11
0.0
 21
0.0
 31
0.0
  0
LINE
  5
5B
330
59
100
AcDbEntity
  8
0
 62
     0
100
AcDbLine
 10
0.0
 20
0.0
 30
0.0
 11
-1.0
 21
-0.26794919
 31
0.0
  0
LINE
  5
5C
330
59
100
AcDbEntity
  8
0
 62
     0
100
AcDbLine
 10
0.0
 20
0.0
 30
0.0
 11
-1.0
 21
0.0
 31
0.0
  0
ENDBLK
  5
5E
330
59
100
AcDbEntity
  8
0
100
AcDbBlockEnd
  0
BLOCK
  5
66
330
64
100
AcDbEntity
  8
0
100
AcDbBlockBegin
  2
GENAXEH
 70
     0
 10
0.0
 20
0.0
 30
0.0
  3
GENAXEH
  1

  0
LINE
  5
65
330
64
100
AcDbEntity
  8
0
100
AcDbLine
 10
-1.0
 20
0.0
 30
0.0
 11
1.0
 21
0.0
 31
0.0
  0
ENDBLK
  5
67
330
64
100
AcDbEntity
  8
0
100
AcDbBlockEnd
  0
BLOCK
  5
1968
330
195C
100
AcDbEntity
  8
0
100
AcDbBlockBegin
  2
*D5
 70
     1
 10
0.0
 20
0.0
 30
0.0
  3
*D5
  1

  0
LINE
  5
2F6C
330
195C
100
AcDbEntity
  8
AM_5
100
AcDbLine
 10
-32.00000000000005
 20
-8.999999999999971
 30
0.0
 11
-32.00000000000005
 21
-22.96941670009066
 31
0.0
  0
LINE
  5
2F6D
330
195C
100
AcDbEntity
  8
AM_5
100
AcDbLine
 10
-0.0000000000000569
 20
-21.0
 30
0.0
 11
-0.000000000000057
 21
-22.96941670009066
 31
0.0
  0
LINE
  5
2F6E
330
195C
100
AcDbEntity
  8
AM_5
100
AcDbLine
 10
-29.50000000000004
 20
-21.96941670009066
 30
0.0
 11
-2.500000000000056
 21
-21.96941670009066
 31
0.0
  0
INSERT
  5
2F6F
330
195C
100
AcDbEntity
  8
AM_5
100
AcDbBlockReference
  2
_OPEN30
 10
-32.00000000000005
 20
-21.96941670009066
 30
0.0
 41
2.5
 42
2.5
 43
2.5
 50
180.0
  0
INSERT
  5
2F70
330
195C
100
AcDbEntity
  8
AM_5
100
AcDbBlockReference
  2
_OPEN30
 10
-0.000000000000057
 20
-21.96941670009066
 30
0.0
 41
2.5
 42
2.5
 43
2.5
  0
MTEXT
  5
2F71
330
195C
100
AcDbEntity
  8
AM_5
 62
     2
100
AcDbMText
 10
-16.00000000000005
 20
-18.86941670009066
 30
0.0
 40
3.2
 41
0.0
 71
     5
 72
     1
  1
32
  7
ASAMI
1001
ACAD
1000
MTEXTBEGIN
1070
    73
1070
     1
1070
    44
1040
1.0
1070
    74
1070
     0
1000
MTEXTEND
  0
POINT
  5
2F72
330
195C
100
AcDbEntity
  8
DEFPOINTS
 62
     0
100
AcDbPoint
 10
-32.00000000000005
 20
-7.999999999999972
 30
0.0
  0
POINT
  5
2F73
330
195C
100
AcDbEntity
  8
DEFPOINTS
 62
     0
100
AcDbPoint
 10
-0.0000000000000568
 20
-20.0
 30
0.0
  0
POINT
  5
2F74
330
195C
100
AcDbEntity
  8
DEFPOINTS
 62
     0
100
AcDbPoint
 10
-0.000000000000057
 20
-21.96941670009066
 30
0.0
  0
ENDBLK
  5
1969
330
195C
100
AcDbEntity
  8
0
100
AcDbBlockEnd
  0
BLOCK
  5
21DF
330
21D3
100
AcDbEntity
  8
0
100
AcDbBlockBegin
  2
*D6
 70
     1
 10
0.0
 20
0.0
 30
0.0
  3
*D6
  1

  0
LINE
  5
2F75
330
21D3
100
AcDbEntity
  8
AM_5
100
AcDbLine
 10
-10.7523112798222
 20
7.999999999999965
 30
0.0
 11
19.07730170281049
 21
7.999999999999956
 31
0.0
  0
LINE
  5
2F76
330
21D3
100
AcDbEntity
  8
AM_5
100
AcDbLine
 10
-8.728264344503312
 20
-7.999999999999972
 30
0.0
 11
19.07730170281049
 21
-7.99999999999998
 31
0.0
  0
LINE
  5
2F77
330
21D3
100
AcDbEntity
  8
AM_5
100
AcDbLine
 10
18.07730170281049
 20
5.499999999999956
 30
0.0
 11
18.07730170281049
 21
-5.49999999999998
 31
0.0
  0
INSERT
  5
2F78
330
21D3
100
AcDbEntity
  8
AM_5
100
AcDbBlockReference
  2
_OPEN30
 10
18.07730170281049
 20
7.999999999999956
 30
0.0
 41
2.5
 42
2.5
 43
2.5
 50
90.0
  0
INSERT
  5
2F79
330
21D3
100
AcDbEntity
  8
AM_5
100
AcDbBlockReference
  2
_OPEN30
 10
18.07730170281049
 20
-7.99999999999998
 30
0.0
 41
2.5
 42
2.5
 43
2.5
 50
270.0
  0
MTEXT
  5
2F7A
330
21D3
100
AcDbEntity
  8
AM_5
 62
     2
100
AcDbMText
 10
14.97730170281049
 20
-0.000000000000011
 30
0.0
 40
3.2
 41
0.0
 71
     5
 72
     1
  1
%%c16
  7
ASAMI
 11
0.0000000000000001
 21
1.0
 31
0.0
1001
ACAD
1000
MTEXTBEGIN
1070
    73
1070
     1
1070
    44
1040
1.0
1070
    74
1070
     0
1000
MTEXTEND
  0
POINT
  5
2F7B
330
21D3
100
AcDbEntity
  8
DEFPOINTS
 62
     0
100
AcDbPoint
 10
-11.7523112798222
 20
7.999999999999965
 30
0.0
  0
POINT
  5
2F7C
330
21D3
100
AcDbEntity
  8
DEFPOINTS
 62
     0
100
AcDbPoint
 10
-9.728264344503312
 20
-7.999999999999972
 30
0.0
  0
POINT
  5
2F7D
330
21D3
100
AcDbEntity
  8
DEFPOINTS
 62
     0
100
AcDbPoint
 10
18.07730170281049
 20
-7.99999999999998
 30
0.0
  0
ENDBLK
  5
21E0
330
21D3
100
AcDbEntity
  8
0
100
AcDbBlockEnd
  0
BLOCK
  5
234F
330
2348
100
AcDbEntity
  8
0
100
AcDbBlockBegin
  2
*D7
 70
     1
 10
0.0
 20
0.0
 30
0.0
  3
*D7
  1

  0
LINE
  5
2F90
330
2348
100
AcDbEntity
  8
AM_5
100
AcDbLine
 10
-0.4328712836355782
 20
-7.279324349825972
 30
0.0
 11
14.45254216550345
 21
-21.59859347276542
 31
0.0
  0
INSERT
  5
2F91
330
2348
100
AcDbEntity
  8
AM_5
100
AcDbBlockReference
  2
_OPEN30
 10
-2.234568597055704
 20
-5.546151885581661
 30
0.0
 41
2.5
 42
2.5
 43
2.5
 50
136.1105622542506
  0
MTEXT
  5
2F92
330
2348
100
AcDbEntity
  8
AM_5
 62
     2
100
AcDbMText
 10
11.95158105033922
 20
-14.891253205932
 30
0.0
 40
3.2
 41
0.0
 71
     5
 72
     1
  1
R8.0
  7
ASAMI
 11
0.7206789253680497
 21
-0.6932689856977255
 31
0.0
1001
ACAD
1000
MTEXTBEGIN
1070
    73
1070
     1
1070
    44
1040
1.0
1070
    74
1070
     0
1000
MTEXTEND
  0
POINT
  5
2F93
330
2348
100
AcDbEntity
  8
DEFPOINTS
 62
     0
100
AcDbPoint
 10
-2.234568597055704
 20
-5.546151885581661
 30
0.0
  0
POINT
  5
2F94
330
2348
100
AcDbEntity
  8
DEFPOINTS
 62
     0
100
AcDbPoint
 10
-8.000000000000092
 20
0.0000000000001372
 30
0.0
  0
ENDBLK
  5
2350
330
2348
100
AcDbEntity
  8
0
100
AcDbBlockEnd
  0
BLOCK
  5
2B6A
330
2B22
100
AcDbEntity
  8
0
100
AcDbBlockBegin
  2
A$C586537D0
 70
     0
 10
0.0
 20
0.0
 30
0.0
  3
A$C586537D0
  1

  0
POLYLINE
  5
2B23
330
2B22
100
AcDbEntity
  8
AM_0
100
AcDb2dPolyline
 66
     1
 10
0.0
 20
0.0
 30
0.0
  0
VERTEX
  5
2B24
330
2B23
100
AcDbEntity
  8
AM_0
100
AcDbVertex
100
AcDb2dVertex
 10
29.43449156617043
 20
4.051545603702379
 30
0.0
 42
0.0073471029864721
  0
VERTEX
  5
2B25
330
2B23
100
AcDbEntity
  8
AM_0
100
AcDbVertex
100
AcDb2dVertex
 10
30.94378830759433
 20
4.106361103890094
 30
0.0
 42
0.0112666255536717
  0
VERTEX
  5
2B26
330
2B23
100
AcDbEntity
  8
AM_0
100
AcDbVertex
100
AcDb2dVertex
 10
31.58683653429034
 20
4.153620041925933
 30
0.0
 42
0.002415439496957
  0
VERTEX
  5
2B27
330
2B23
100
AcDbEntity
  8
AM_0
100
AcDbVertex
100
AcDb2dVertex
 10
33.75003701518199
 20
4.372244651572827
 30
0.0
 42
0.0154516003810555
  0
VERTEX
  5
2B28
330
2B23
100
AcDbEntity
  8
AM_0
100
AcDbVertex
100
AcDb2dVertex
 10
34.08683653429034
 20
4.41848999956187
 30
0.0
 42
0.0249096705429985
  0
VERTEX
  5
2B29
330
2B23
100
AcDbEntity
  8
AM_0
100
AcDbVertex
100
AcDb2dVertex
 10
34.70542182259305
 20
4.554977289866883
 30
0.0
 42
0.7660160075951127
  0
VERTEX
  5
2B2A
330
2B23
100
AcDbEntity
  8
AM_0
100
AcDbVertex
100
AcDb2dVertex
 10
34.70530673776465
 20
4.587643352959503
 30
0.0
 42
0.0436004866852417
  0
VERTEX
  5
2B2B
330
2B23
100
AcDbEntity
  8
AM_0
100
AcDbVertex
100
AcDb2dVertex
 10
34.57728396444918
 20
4.609986150277791
 30
0.0
 42
0.0113586888872964
  0
VERTEX
  5
2B2C
330
2B23
100
AcDbEntity
  8
AM_0
100
AcDbVertex
100
AcDb2dVertex
 10
34.08030673776465
 20
4.641297140077313
 30
0.0
 42
0.0028121537605697
  0
VERTEX
  5
2B2D
330
2B23
100
AcDbEntity
  8
AM_0
100
AcDbVertex
100
AcDb2dVertex
 10
33.76802153882909
 20
4.652099959238285
 30
0.0
 42
0.0005702900988137
  0
VERTEX
  5
2B2E
330
2B23
100
AcDbEntity
  8
AM_0
100
AcDbVertex
100
AcDb2dVertex
 10
32.22780060050763
 20
4.694950927195122
 30
0.0
 42
0.006668488235414
  0
VERTEX
  5
2B2F
330
2B23
100
AcDbEntity
  8
AM_0
100
AcDbVertex
100
AcDb2dVertex
 10
31.85720084767035
 20
4.699893827183359
 30
0.0
 42
0.0010162367850142
  0
VERTEX
  5
2B30
330
2B23
100
AcDbEntity
  8
AM_0
100
AcDbVertex
100
AcDb2dVertex
 10
31.55525925235815
 20
4.699280138237554
 30
0.0
  0
SEQEND
  5
2B31
330
2B23
100
AcDbEntity
  8
AM_0
  0
ARC
  5
2B32
330
2B22
100
AcDbEntity
  8
AM_0
100
AcDbCircle
 10
34.37774471830653
 20
-8.337609704266071
 30
0.0
 40
13.33892503056602
100
AcDbArc
 50
91.94350279975884
 51
111.751920491689
  0
ARC
  5
2B33
330
2B22
100
AcDbEntity
  8
AM_11
100
AcDbCircle
 10
9.557768030854731
 20
0.0
 30
0.0
 40
5.0
100
AcDbArc
 50
90.0
 51
270.0
  0
ARC
  5
2B34
330
2B22
100
AcDbEntity
  8
AM_0
100
AcDbCircle
 10
9.40196711480803
 20
-0.7901488952316527
 30
0.0
 40
4.798134784693152
100
AcDbArc
 50
91.23704942232077
 51
162.4261541586426
  0
LINE
  5
2B35
330
2B22
100
AcDbEntity
  8
AM_0
100
AcDbLine
 10
9.557768030854731
 20
4.499854759570553
 30
0.0
 11
9.332956739715427
 21
4.007489584262884
 31
0.0
  0
ARC
  5
2B36
330
2B22
100
AcDbEntity
  8
AM_0
100
AcDbCircle
 10
9.557768030854731
 20
-0.5001452404295037
 30
0.0
 40
5.0
100
AcDbArc
 50
90.0
 51
174.4702301341409
  0
LINE
  5
2B37
330
2B22
100
AcDbEntity
  8
AM_0
100
AcDbLine
 10
10.71449156617154
 20
4.051545603702379
 30
0.0
 11
21.30836028156318
 21
4.300254190306532
 31
0.0
  0
SPLINE
  5
2B38
330
2B22
100
AcDbEntity
  8
AM_0
100
AcDbSpline
210
0.0
220
0.0
230
1.0
 70
     8
 71
     3
 72
     8
 73
     4
 74
     0
 42
0.0000000001
 43
0.0000000001
 40
2.760385419276007
 40
2.760385419276007
 40
2.760385419276007
 40
2.760385419276007
 40
10.61176705360609
 40
10.61176705360609
 40
10.61176705360609
 40
10.61176705360609
 10
9.557768030854731
 20
4.536515943596896
 30
0.0
 10
11.96531420908922
 20
3.699375228776034
 30
0.0
 10
14.1193658175016
 20
1.84968761438813
 30
0.0
 10
16.27341742591397
 20
0.0
 30
0.0
  0
SPLINE
  5
2B39
330
2B22
100
AcDbEntity
  8
AM_0
100
AcDbSpline
210
0.0
220
0.0
230
1.0
 70
     8
 71
     3
 72
     8
 73
     4
 74
     0
 42
0.0000000001
 43
0.0000000001
 40
0.0
 40
0.0
 40
0.0
 40
0.0
 40
5.706047288453516
 40
5.706047288453516
 40
5.706047288453516
 40
5.706047288453516
 10
24.42540552920081
 20
4.853388870660182
 30
0.0
 10
26.3274212920187
 20
4.853388870660182
 30
0.0
 10
28.05612296171693
 20
4.142637314364037
 30
0.0
 10
29.70530673776465
 20
3.105787253048447
 30
0.0
  0
SPLINE
  5
2B3A
330
2B22
100
AcDbEntity
  8
AM_0
100
AcDbSpline
210
0.0
220
0.0
230
1.0
 70
     8
 71
     3
 72
     8
 73
     4
 74
     0
 42
0.0000000001
 43
0.0000000001
 40
0.0
 40
0.0
 40
0.0
 40
0.0
 40
7.009223135314643
 40
7.009223135314643
 40
7.009223135314643
 40
7.009223135314643
 10
23.24553683726662
 20
4.533505564083725
 30
0.0
 10
25.58194454903878
 20
4.533505564083725
 30
0.0
 10
27.68213428901072
 20
3.50390653374211
 30
0.0
 10
29.70530673776465
 20
2.138613619677698
 30
0.0
  0
SPLINE
  5
2B3B
330
2B22
100
AcDbEntity
  8
AM_0
100
AcDbSpline
210
0.0
220
0.0
230
1.0
 70
     8
 71
     3
 72
     8
 73
     4
 74
     0
 42
0.0000000001
 43
0.0000000001
 40
0.0
 40
0.0
 40
0.0
 40
0.0
 40
4.038522933284047
 40
4.038522933284047
 40
4.038522933284047
 40
4.038522933284047
 10
25.63341742591365
 20
5.0
 30
0.0
 10
26.97959173700837
 20
5.0
 30
0.0
 10
28.23511700747895
 20
4.637915695405581
 30
0.0
 10
29.43449156617043
 20
4.051545603702152
 30
0.0
  0
SPLINE
  5
2B3C
330
2B22
100
AcDbEntity
  8
AM_0
100
AcDbSpline
210
0.0
220
0.0
230
1.0
 70
     8
 71
     3
 72
     8
 73
     4
 74
     2
 42
0.0000000001
 43
0.0000000001
 44
0.0000000001
 12
-1.0
 22
0.0000000000000001
 32
0.0
 40
0.0
 40
0.0
 40
0.0
 40
0.0
 40
10.61176705360624
 40
10.61176705360624
 40
10.61176705360624
 40
10.61176705360624
 10
25.6334174259141
 20
-5.000000000000056
 30
0.0
 10
22.09616174137868
 20
-5.000000000000056
 30
0.0
 10
19.18478958364633
 20
-2.500000000000028
 30
0.0
 10
16.27341742591397
 20
0.0
 30
0.0
 11
25.6334174259141
 21
-5.000000000000056
 31
0.0
 11
16.27341742591397
 21
0.0
 31
0.0
  0
ARC
  5
2B3D
330
2B22
100
AcDbEntity
  8
AM_0
100
AcDbCircle
 10
5.472050976495665
 20
-0.4114829949865566
 30
0.0
 40
4.368494370739881
100
AcDbArc
 50
356.2585359014461
 51
39.25557834270841
  0
ARC
  5
2B3E
330
2B22
100
AcDbEntity
  8
AM_0
100
AcDbCircle
 10
16.945882696642
 20
15.7014207964537
 30
0.0
 40
20.0
100
AcDbArc
 50
231.7272490540511
 51
262.7473567797843
  0
SPLINE
  5
2B3F
330
2B22
100
AcDbEntity
  8
AM_0
100
AcDbSpline
210
0.0
220
0.0
230
1.0
 70
     8
 71
     3
 72
     8
 73
     4
 74
     0
 42
0.0000000001
 43
0.0000000001
 40
3.83382056918599
 40
3.83382056918599
 40
3.83382056918599
 40
3.83382056918599
 40
10.54348061741694
 40
10.54348061741694
 40
10.54348061741694
 40
10.54348061741694
 10
9.332956739715427
 20
4.007489584262884
 30
0.0
 10
11.3454422091836
 20
3.088599541806388
 30
0.0
 10
13.2054238691926
 20
1.54429977090308
 30
0.0
 10
15.06540552920159
 20
0.0
 30
0.0
  0
SPLINE
  5
2B40
330
2B22
100
AcDbEntity
  8
AM_0
100
AcDbSpline
210
0.0
220
0.0
230
1.0
 70
     8
 71
     3
 72
     8
 73
     4
 74
     0
 42
0.0000000001
 43
0.0000000001
 40
5.3774483993125
 40
5.3774483993125
 40
5.3774483993125
 40
5.3774483993125
 40
10.40010926382874
 40
10.40010926382874
 40
10.40010926382874
 40
10.40010926382874
 10
9.557768030854731
 20
3.028813530852175
 30
0.0
 10
11.03940983876509
 20
2.189425168347497
 30
0.0
 10
12.46247333801602
 20
1.094712584173748
 30
0.0
 10
13.88553683726786
 20
0.0
 30
0.0
  0
SPLINE
  5
2B41
330
2B22
100
AcDbEntity
  8
AM_0
100
AcDbSpline
210
0.0
220
0.0
230
1.0
 70
     8
 71
     3
 72
     8
 73
     4
 74
     0
 42
0.0000000001
 43
0.0000000001
 40
2.760385419275965
 40
2.760385419275965
 40
2.760385419275965
 40
2.760385419275965
 40
3.834752168165156
 40
3.834752168165156
 40
3.834752168165156
 40
3.834752168165156
 10
9.557768030854731
 20
-4.536515943596953
 30
0.0
 10
9.887211647376716
 20
-4.421963347629173
 30
0.0
 10
10.21190867518271
 20
-4.288451198833683
 30
0.0
 10
10.53250862760978
 20
-4.138573883024321
 30
0.0
  0
SPLINE
  5
2B42
330
2B22
100
AcDbEntity
  8
AM_0
100
AcDbSpline
210
0.0
220
0.0
230
1.0
 70
     8
 71
     3
 72
     8
 73
     4
 74
     2
 42
0.0000000001
 43
0.0000000001
 44
0.0000000001
 12
0.3350454581421353
 22
0.9422019640068294
 32
0.0
 13
1.0
 23
0.0
 33
0.0
 40
0.0
 40
0.0
 40
0.0
 40
0.0
 40
1.399684097511745
 40
1.399684097511745
 40
1.399684097511745
 40
1.399684097511745
 10
9.557768030854731
 20
-4.536515943596953
 30
0.0
 10
9.714087297423093
 20
-4.096920908375389
 30
0.0
 10
10.43312619416873
 20
-4.138561737550901
 30
0.0
 10
10.89968756000598
 20
-4.138561737550901
 30
0.0
 11
9.557768030854731
 21
-4.536515943596953
 31
0.0
 11
10.89968756000598
 21
-4.138561737550901
 31
0.0
  0
SPLINE
  5
2B43
330
2B22
100
AcDbEntity
  8
AM_0
100
AcDbSpline
210
0.0
220
0.0
230
1.0
 70
     8
 71
     3
 72
     8
 73
     4
 74
     2
 42
0.0000000001
 43
0.0000000001
 44
0.0000000001
 12
-0.9369893402418064
 22
0.3493579486332382
 32
0.0
 13
-0.5635853706164172
 23
0.8260578248689105
 33
0.0
 40
0.0
 40
0.0
 40
0.0
 40
0.0
 40
5.737011747463116
 40
5.737011747463116
 40
5.737011747463116
 40
5.737011747463116
 10
14.42098803539465
 20
-4.138561737550901
 30
0.0
 10
12.62914841798967
 20
-3.4704715190914
 30
0.0
 10
10.908999879823
 20
-2.27624791911141
 30
0.0
 10
9.831234582514753
 20
-0.696546770659154
 30
0.0
 11
14.42098803539465
 21
-4.138561737550901
 31
0.0
 11
9.831234582514753
 21
-0.696546770659154
 31
0.0
  0
ARC
  5
2B44
330
2B22
100
AcDbEntity
  8
AM_0
100
AcDbCircle
 10
8.694584172175382
 20
-1.949501730853228
 30
0.0
 40
4.305296608784062
100
AcDbArc
 50
87.86849718008397
 51
139.357645375179
  0
LINE
  5
2B45
330
2B22
100
AcDbEntity
  8
AM_0
100
AcDbLine
 10
9.831234582514753
 20
-0.696546770659154
 30
0.0
 11
5.427768030855077
 21
0.8546899866325929
 31
0.0
  0
LINE
  5
2B46
330
2B22
100
AcDbEntity
  8
AM_0
100
AcDbLine
 10
5.427768030855077
 20
0.8546899866325929
 30
0.0
 11
4.827768030854713
 21
0.6585747334993357
 31
0.0
  0
LINE
  5
2B47
330
2B22
100
AcDbEntity
  8
AM_0
100
AcDbLine
 10
4.827768030854713
 20
0.6585747334993357
 30
0.0
 11
4.582845444675513
 21
0.0
 31
0.0
  0
LINE
  5
2B48
330
2B22
100
AcDbEntity
  8
AM_0
100
AcDbLine
 10
9.332956739715427
 20
4.007489584262884
 30
0.0
 11
9.557768030854731
 21
3.028813530852175
 31
0.0
  0
ARC
  5
2B49
330
2B22
100
AcDbEntity
  8
AM_0
100
AcDbCircle
 10
9.557768030854731
 20
0.4634840564031038
 30
0.0
 40
5.0
100
AcDbArc
 50
185.529769865859
 51
270.0
  0
SPLINE
  5
2B4A
330
2B22
100
AcDbEntity
  8
AM_0
100
AcDbSpline
210
0.0
220
0.0
230
1.0
 70
     8
 71
     3
 72
     9
 73
     5
 74
     3
 42
0.0000000001
 43
0.0000000001
 44
0.0000000001
 12
-0.7290715920995502
 22
0.684437443155638
 32
0.0
 13
0.7860840150089525
 23
-0.6181196658798399
 33
0.0
 40
0.0
 40
0.0
 40
0.0
 40
0.0
 40
0.4615642387890897
 40
1.425407363350696
 40
1.425407363350696
 40
1.425407363350696
 40
1.425407363350696
 10
8.854711765556203
 20
2.35281602164332
 30
0.0
 10
8.742540640746144
 20
2.458119970792948
 30
0.0
 10
8.357392018152186
 20
2.957744642816525
 30
0.0
 10
9.30521413979001
 20
3.227403660890376
 30
0.0
 10
9.557768030854731
 20
3.028813530852175
 30
0.0
 11
8.854711765556203
 21
2.35281602164332
 31
0.0
 11
8.632876760296312
 21
2.757576169101412
 31
0.0
 11
9.557768030854731
 21
3.028813530852175
 31
0.0
  0
LINE
  5
2B4B
330
2B22
100
AcDbEntity
  8
AM_0
100
AcDbLine
 10
14.42098803539465
 20
-4.138561737550901
 30
0.0
 11
21.30836028156318
 21
-4.300254190306361
 31
0.0
  0
SPLINE
  5
2B4C
330
2B22
100
AcDbEntity
  8
AM_0
100
AcDbSpline
210
0.0
220
0.0
230
1.0
 70
     8
 71
     3
 72
     8
 73
     4
 74
     0
 42
0.0000000001
 43
0.0000000001
 40
0.3080988623970067
 40
0.3080988623970067
 40
0.3080988623970067
 40
0.3080988623970067
 40
10.54348061741694
 40
10.54348061741694
 40
10.54348061741694
 40
10.54348061741694
 10
24.11880778044906
 20
-4.84723288622996
 30
0.0
 10
20.74009611283236
 20
-4.711564396932601
 30
0.0
 10
17.90275082101698
 20
-2.355782198466215
 30
0.0
 10
15.06540552920159
 20
0.0
 30
0.0
  0
SPLINE
  5
2B4D
330
2B22
100
AcDbEntity
  8
AM_0
100
AcDbSpline
210
0.0
220
0.0
230
1.0
 70
     8
 71
     3
 72
     8
 73
     4
 74
     0
 42
0.0000000001
 43
0.0000000001
 40
1.494727388119111
 40
1.494727388119111
 40
1.494727388119111
 40
1.494727388119111
 40
10.40010926382874
 40
10.40010926382874
 40
10.40010926382874
 40
10.40010926382874
 10
21.78149243231928
 20
-4.399768196515481
 30
0.0
 10
18.93183569600569
 20
-3.881939820020363
 30
0.0
 10
16.40868626663632
 20
-1.94096991001021
 30
0.0
 10
13.88553683726786
 20
0.0
 30
0.0
  0
LINE
  5
2B4E
330
2B22
100
AcDbEntity
  8
AM_0
100
AcDbLine
 10
10.89968756000598
 20
-4.138561737550901
 30
0.0
 11
14.42098803539465
 21
-4.138561737550901
 31
0.0
  0
POLYLINE
  5
2B4F
330
2B22
100
AcDbEntity
  8
AM_0
100
AcDb2dPolyline
 66
     1
 10
0.0
 20
0.0
 30
0.0
 70
     2
  0
VERTEX
  5
2B50
330
2B4F
100
AcDbEntity
  8
AM_0
100
AcDbVertex
100
AcDb2dVertex
 10
29.70530673776511
 20
-5.000000000000056
 30
0.0
 42
0.021906895434734
  0
VERTEX
  5
2B51
330
2B4F
100
AcDbEntity
  8
AM_0
100
AcDbVertex
100
AcDb2dVertex
 10
30.83007776987233
 20
-4.921468564627559
 30
0.0
 42
0.0324199514990089
 70
     1
  0
VERTEX
  5
2B52
330
2B4F
100
AcDbEntity
  8
AM_0
100
AcDbVertex
100
AcDb2dVertex
 10
31.58030673776465
 20
-4.786243115693707
 30
0.0
 42
0.0201411646801006
  0
VERTEX
  5
2B53
330
2B4F
100
AcDbEntity
  8
AM_0
100
AcDbVertex
100
AcDb2dVertex
 10
33.33212610397549
 20
-4.275997578920907
 30
0.0
 42
0.0450475812707586
 70
     1
  0
VERTEX
  5
2B54
330
2B4F
100
AcDbEntity
  8
AM_0
100
AcDbVertex
100
AcDb2dVertex
 10
34.08030673776465
 20
-3.947486231388268
 30
0.0
 42
0.0705235240614635
  0
VERTEX
  5
2B55
330
2B4F
100
AcDbEntity
  8
AM_0
100
AcDbVertex
100
AcDb2dVertex
 10
34.61303535256092
 20
-3.547037438005247
 30
0.0
 42
0.2003780791347506
 70
     1
  0
VERTEX
  5
2B56
330
2B4F
100
AcDbEntity
  8
AM_0
100
AcDbVertex
100
AcDb2dVertex
 10
34.70530673776511
 20
-3.322486231389177
 30
0.0
 42
0.1302188019897481
  0
VERTEX
  5
2B57
330
2B4F
100
AcDbEntity
  8
AM_0
100
AcDbVertex
100
AcDb2dVertex
 10
34.62541808774131
 20
-3.027664730895651
 30
0.0
 42
0.0390250736119977
 70
     1
  0
VERTEX
  5
2B58
330
2B4F
100
AcDbEntity
  8
AM_0
100
AcDbVertex
100
AcDb2dVertex
 10
34.05731521535654
 20
-2.200131991703585
 30
0.0
 42
0.0142833409954576
  0
VERTEX
  5
2B59
330
2B4F
100
AcDbEntity
  8
AM_0
100
AcDbVertex
100
AcDb2dVertex
 10
33.23165124732531
 20
-1.235995958245041
 30
0.0
 42
0.0074968472652126
 70
     1
  0
VERTEX
  5
2B5A
330
2B4F
100
AcDbEntity
  8
AM_0
100
AcDbVertex
100
AcDb2dVertex
 10
31.58030673776465
 20
0.5304179338299946
 30
0.0
 42
0.0237820438473651
  0
VERTEX
  5
2B5B
330
2B4F
100
AcDbEntity
  8
AM_0
100
AcDbVertex
100
AcDb2dVertex
 10
30.9594202698463
 20
1.116423757641769
 30
0.0
 42
0.0125443765840406
 70
     1
  0
VERTEX
  5
2B5C
330
2B4F
100
AcDbEntity
  8
AM_0
100
AcDbVertex
100
AcDb2dVertex
 10
29.70530673776511
 20
2.138613619677926
 30
0.0
  0
SEQEND
  5
2B5D
330
2B4F
100
AcDbEntity
  8
AM_0
  0
LINE
  5
2B5E
330
2B22
100
AcDbEntity
  8
AM_0
100
AcDbLine
 10
29.70530673776465
 20
3.105787253048447
 30
0.0
 11
29.4344915661768
 21
4.051545603702379
 31
0.0
  0
LINE
  5
2B5F
330
2B22
100
AcDbEntity
  8
AM_0
100
AcDbLine
 10
29.70530673776465
 20
2.138613619677698
 30
0.0
 11
29.70530673776511
 21
3.105787253048447
 31
0.0
  0
SPLINE
  5
2B60
330
2B22
100
AcDbEntity
  8
AM_0
100
AcDbSpline
210
0.0
220
0.0
230
1.0
 70
     8
 71
     3
 72
     8
 73
     4
 74
     0
 42
0.0000000001
 43
0.0000000001
 40
0.0
 40
0.0
 40
0.0
 40
0.0
 40
1.55285541345115
 40
1.55285541345115
 40
1.55285541345115
 40
1.55285541345115
 10
25.6334174259141
 20
5.0
 30
0.0
 10
25.1157989547637
 20
5.0
 30
0.0
 10
24.6115828086422
 20
4.946466377309661
 30
0.0
 10
24.11880778044133
 20
4.847232886229903
 30
0.0
  0
SPLINE
  5
2B61
330
2B22
100
AcDbEntity
  8
AM_0
100
AcDbSpline
210
0.0
220
0.0
230
1.0
 70
     8
 71
     3
 72
     8
 73
     4
 74
     0
 42
0.0000000001
 43
0.0000000001
 40
0.0
 40
0.0
 40
0.0
 40
0.0
 40
1.990690753765647
 40
1.990690753765647
 40
1.990690753765647
 40
1.990690753765647
 10
23.24553683726753
 20
4.533505564083725
 30
0.0
 10
22.58197325267883
 20
4.533505564083725
 30
0.0
 10
21.93746343128123
 20
4.450456268740254
 30
0.0
 10
21.30836028156318
 20
4.300254190306532
 30
0.0
  0
SPLINE
  5
2B62
330
2B22
100
AcDbEntity
  8
AM_0
100
AcDbSpline
210
0.0
220
0.0
230
1.0
 70
     8
 71
     3
 72
     8
 73
     4
 74
     0
 42
0.0000000001
 43
0.0000000001
 40
0.0
 40
0.0
 40
0.0
 40
0.0
 40
2.754526791728521
 40
2.754526791728521
 40
2.754526791728521
 40
2.754526791728521
 10
24.42540552920127
 20
4.853388870660182
 30
0.0
 10
23.50722993195904
 20
4.853388870660182
 30
0.0
 10
22.62944278111445
 20
4.687758075047895
 30
0.0
 10
21.78149243231928
 20
4.399768196515424
 30
0.0
  0
LINE
  5
2B63
330
2B22
100
AcDbEntity
  8
AM_7
  6
AM_ISO08W050X2
100
AcDbLine
 10
0.0
 20
0.0
 30
0.0
 11
45.35776803085491
 21
0.0
 31
0.0
1001
GENIUS_GENODEF_13
1002
{
1000
HIER
1070
     0
1002
}
1002
{
1000
MANEDIT
1070
     0
1002
}
1002
{
1000
NOSEL
1070
     0
1002
}
1002
{
1000
BEHIND
1070
     0
1002
}
1002
{
1000
REACTOR
1002
}
1001
GENIUS_GENOBJ-N-CEN_13
1002
{
1000
OWNER
1000
GEN
1002
}
  0
LINE
  5
2B64
330
2B22
100
AcDbEntity
  8
AM_11
100
AcDbLine
 10
9.557768030854731
 20
-5.000000000000056
 30
0.0
 11
45.35776803085491
 21
-5.000000000000056
 31
0.0
  0
LINE
  5
2B65
330
2B22
100
AcDbEntity
  8
AM_0
100
AcDbLine
 10
25.63341742591319
 20
-5.000000000000056
 30
0.0
 11
44.50322174914117
 21
-5.000000000000056
 31
0.0
  0
LINE
  5
2B66
330
2B22
100
AcDbEntity
  8
AM_11
100
AcDbLine
 10
45.35776803085491
 20
5.0
 30
0.0
 11
9.557768030854731
 21
5.0
 31
0.0
  0
LINE
  5
2B67
330
2B22
100
AcDbEntity
  8
AM_0
100
AcDbLine
 10
33.92536816917845
 20
4.993642166014524
 30
0.0
 11
44.95366313908789
 21
4.993642166014524
 31
0.0
  0
LINE
  5
2B68
330
2B22
100
AcDbEntity
  8
AM_7
  6
AM_ISO08W050X2
100
AcDbLine
 10
9.557768030854731
 20
8.0
 30
0.0
 11
9.557768030854731
 21
-8.000000000000056
 31
0.0
1001
GENIUS_GENODEF_13
1002
{
1000
HIER
1070
     0
1002
}
1002
{
1000
MANEDIT
1070
     0
1002
}
1002
{
1000
NOSEL
1070
     0
1002
}
1002
{
1000
BEHIND
1070
     0
1002
}
1002
{
1000
REACTOR
1002
}
1001
GENIUS_GENOBJ-N-CEN_13
1002
{
1000
OWNER
1000
GEN
1002
}
  0
LINE
  5
2B69
330
2B22
100
AcDbEntity
  8
AM_7
  6
AM_ISO08W050X2
100
AcDbLine
 10
9.557768030854731
 20
-6.29890176298619
 30
0.0
 11
9.557768030854731
 21
-22.29890176298613
 31
0.0
1001
GENIUS_GENODEF_13
1002
{
1000
HIER
1070
     0
1002
}
1002
{
1000
MANEDIT
1070
     0
1002
}
1002
{
1000
NOSEL
1070
     0
1002
}
1002
{
1000
BEHIND
1070
     0
1002
}
1002
{
1000
REACTOR
1002
}
1001
GENIUS_GENOBJ-N-CEN_13
1002
{
1000
OWNER
1000
GEN
1002
}
  0
ENDBLK
  5
2B6B
330
2B22
100
AcDbEntity
  8
0
100
AcDbBlockEnd
  0
BLOCK
  5
2EEE
330
2EE4
100
AcDbEntity
  8
0
100
AcDbBlockBegin
  2
*D9
 70
     1
 10
0.0
 20
0.0
 30
0.0
  3
*D9
  1

  0
LINE
  5
2F9E
330
2EE4
100
AcDbEntity
  8
AM_5
100
AcDbLine
 10
-120.0
 20
-9.000000000000001
 30
0.0
 11
-120.0
 21
-33.2458782961699
 31
0.0
  0
LINE
  5
2F9F
330
2EE4
100
AcDbEntity
  8
AM_5
100
AcDbLine
 10
-0.0000000000000569
 20
-1.000000000000003
 30
0.0
 11
-0.0000000000000589
 21
-33.2458782961699
 31
0.0
  0
LINE
  5
2FA0
330
2EE4
100
AcDbEntity
  8
AM_5
100
AcDbLine
 10
-117.5
 20
-32.2458782961699
 30
0.0
 11
-2.500000000000058
 21
-32.2458782961699
 31
0.0
  0
INSERT
  5
2FA1
330
2EE4
100
AcDbEntity
  8
AM_5
100
AcDbBlockReference
  2
_OPEN30
 10
-120.0
 20
-32.2458782961699
 30
0.0
 41
2.5
 42
2.5
 43
2.5
 50
180.0
  0
INSERT
  5
2FA2
330
2EE4
100
AcDbEntity
  8
AM_5
100
AcDbBlockReference
  2
_OPEN30
 10
-0.0000000000000588
 20
-32.2458782961699
 30
0.0
 41
2.5
 42
2.5
 43
2.5
  0
MTEXT
  5
2FA3
330
2EE4
100
AcDbEntity
  8
AM_5
 62
     2
100
AcDbMText
 10
-60.00000000000007
 20
-29.1458782961699
 30
0.0
 40
3.2
 41
0.0
 71
     5
 72
     1
  1
120
  7
ASAMI
1001
ACAD
1000
MTEXTBEGIN
1070
    73
1070
     1
1070
    44
1040
1.0
1070
    74
1070
     0
1000
MTEXTEND
  0
POINT
  5
2FA4
330
2EE4
100
AcDbEntity
  8
DEFPOINTS
 62
     0
100
AcDbPoint
 10
-120.0
 20
-8.000000000000001
 30
0.0
  0
POINT
  5
2FA5
330
2EE4
100
AcDbEntity
  8
DEFPOINTS
 62
     0
100
AcDbPoint
 10
-0.0000000000000568
 20
-0.0000000000000036
 30
0.0
  0
POINT
  5
2FA6
330
2EE4
100
AcDbEntity
  8
DEFPOINTS
 62
     0
100
AcDbPoint
 10
-0.0000000000000588
 20
-32.2458782961699
 30
0.0
  0
ENDBLK
  5
2EEF
330
2EE4
100
AcDbEntity
  8
0
100
AcDbBlockEnd
  0
BLOCK
  5
2F01
330
2EF7
100
AcDbEntity
  8
0
100
AcDbBlockBegin
  2
*D10
 70
     1
 10
0.0
 20
0.0
 30
0.0
  3
*D10
  1

  0
LINE
  5
2F87
330
2EF7
100
AcDbEntity
  8
AM_5
100
AcDbLine
 10
-120.5
 20
-8.000000000000003
 30
0.0
 11
-131.7626531506397
 21
-8.000000000000001
 31
0.0
  0
LINE
  5
2F88
330
2EF7
100
AcDbEntity
  8
AM_5
100
AcDbLine
 10
-120.5
 20
7.999999999999996
 30
0.0
 11
-131.7626531506397
 21
8.0
 31
0.0
  0
LINE
  5
2F89
330
2EF7
100
AcDbEntity
  8
AM_5
100
AcDbLine
 10
-130.7626531506397
 20
-5.5
 30
0.0
 11
-130.7626531506397
 21
5.5
 31
0.0
  0
INSERT
  5
2F8A
330
2EF7
100
AcDbEntity
  8
AM_5
100
AcDbBlockReference
  2
_OPEN30
 10
-130.7626531506397
 20
-8.000000000000001
 30
0.0
 41
2.5
 42
2.5
 43
2.5
 50
270.0
  0
INSERT
  5
2F8B
330
2EF7
100
AcDbEntity
  8
AM_5
100
AcDbBlockReference
  2
_OPEN30
 10
-130.7626531506397
 20
8.0
 30
0.0
 41
2.5
 42
2.5
 43
2.5
 50
90.0
  0
MTEXT
  5
2F8C
330
2EF7
100
AcDbEntity
  8
AM_5
 62
     2
100
AcDbMText
 10
-133.8626531506397
 20
-0.0000000000000257
 30
0.0
 40
3.2
 41
0.0
 71
     5
 72
     1
  1
%%c16
  7
ASAMI
 11
0.0000000000000001
 21
1.0
 31
0.0
1001
ACAD
1000
MTEXTBEGIN
1070
    73
1070
     1
1070
    44
1040
1.0
1070
    74
1070
     0
1000
MTEXTEND
  0
POINT
  5
2F8D
330
2EF7
100
AcDbEntity
  8
DEFPOINTS
 62
     0
100
AcDbPoint
 10
-119.5
 20
-8.000000000000003
 30
0.0
  0
POINT
  5
2F8E
330
2EF7
100
AcDbEntity
  8
DEFPOINTS
 62
     0
100
AcDbPoint
 10
-119.5
 20
7.999999999999996
 30
0.0
  0
POINT
  5
2F8F
330
2EF7
100
AcDbEntity
  8
DEFPOINTS
 62
     0
100
AcDbPoint
 10
-130.7626531506397
 20
8.0
 30
0.0
  0
ENDBLK
  5
2F02
330
2EF7
100
AcDbEntity
  8
0
100
AcDbBlockEnd
  0
ENDSEC
  0
SECTION
  2
ENTITIES
  0
LINE
  5
C50
330
1F
100
AcDbEntity
  8
AM_7
100
AcDbLine
 10
-122.2850431238291
 20
-0.0000000000000036
 30
0.0
 11
1.32952988907452
 21
-0.0000000000000036
 31
0.0
1001
GENIUS_GENODEF_13
1002
{
1000
HIER
1070
     0
1002
}
1002
{
1000
MANEDIT
1070
     0
1002
}
1002
{
1000
NOSEL
1070
     0
1002
}
1002
{
1000
BEHIND
1070
     0
1002
}
1002
{
1000
REACTOR
1002
}
1001
GENIUS_GENOBJ-N-CEN_13
1002
{
1000
OWNER
1000
GEN
1002
}
  0
TEXT
  5
C58
330
1F
100
AcDbEntity
  8
AM_6
100
AcDbText
 10
-80.59523809523815
 20
-54.74587829616997
 30
0.0
 40
5.0
  1
SHB2160ZX
 50
0.0000000000002036
 72
     4
 11
-60.00000000000007
 21
-52.2458782961699
 31
0.0
100
AcDbText
  0
DIMENSION
  5
195B
330
1F
100
AcDbEntity
  8
AM_5
100
AcDbDimension
  2
*D5
 10
-0.000000000000057
 20
-21.96941670009066
 30
0.0
 11
-16.00000000000005
 21
-18.86941670009066
 31
0.0
 70
    32
  1
<>
  3
AM_JIS
100
AcDbAlignedDimension
 13
-32.00000000000005
 23
-7.999999999999972
 33
0.0
 14
-0.0000000000000568
 24
-20.0
 34
0.0
 50
359.9999999999988
100
AcDbRotatedDimension
1001
GENIUS_GENDTOL_13
1000

1000
H7
1000

1040
0.0
  0
LINE
  5
2156
330
1F
100
AcDbEntity
  8
AM_7
  6
AM_ISO08W050X2
100
AcDbLine
 10
1.144854989281857
 20
0.0000000000000722
 30
0.0
 11
-37.56044039704804
 21
0.0000000000000722
 31
0.0
1001
GENIUS_GENODEF_13
1002
{
1000
HIER
1070
     0
1002
}
1002
{
1000
MANEDIT
1070
     0
1002
}
1002
{
1000
NOSEL
1070
     0
1002
}
1002
{
1000
BEHIND
1070
     0
1002
}
1002
{
1000
REACTOR
1002
}
1001
GENIUS_GENOBJ-N-CEN_13
1002
{
1000
OWNER
1000
GEN
1002
}
  0
DIMENSION
  5
21D2
330
1F
100
AcDbEntity
  8
AM_5
100
AcDbDimension
  2
*D6
 10
18.07730170281049
 20
-7.99999999999998
 30
0.0
 11
18.07730170281049
 21
-0.0000000000000114
 31
0.0
 70
   160
  1
%%c<>
  3
AM_JIS
100
AcDbAlignedDimension
 13
-11.7523112798222
 23
7.999999999999965
 33
0.0
 14
-9.728264344503312
 24
-7.999999999999972
 34
0.0
 50
270.0
100
AcDbRotatedDimension
1001
GENIUS_GENDTOL_13
1000

1000
h7
1000

1040
0.0
  0
DIMENSION
  5
2347
330
1F
100
AcDbEntity
  8
AM_5
100
AcDbDimension
  2
*D7
 10
-8.000000000000092
 20
0.0000000000001372
 30
0.0
 11
9.802447194676279
 21
-17.12535787457296
 31
0.0
 70
   164
  1
<>
  3
AM_JIS$4
100
AcDbRadialDimension
 15
-2.234568597055704
 25
-5.546151885581661
 35
0.0
 40
0.0
1001
GENIUS_GENDTOL_13
1000

1000
h7
1000

1040
0.0
1001
ACAD
1000
DSTYLE
1002
{
1070
    74
1070
     0
1070
    78
1070
     0
1070
   271
1070
     1
1002
}
  0
LINE
  5
2A87
330
1F
100
AcDbEntity
  8
AM_0
100
AcDbLine
 10
-49.12574223005631
 20
-7.989827465619576
 30
0.0
 11
-51.83383235457536
 21
-7.989827465619576
 31
0.0
  0
LINE
  5
2A88
330
1F
100
AcDbEntity
  8
AM_0
100
AcDbLine
 10
-33.72103903209808
 20
8.000000000003726
 30
0.0
 11
-34.97414629488878
 21
8.000000000003728
 31
0.0
  0
LINE
  5
2A8C
330
1F
100
AcDbEntity
  8
AM_0
100
AcDbLine
 10
-15.78115200726841
 20
6.621698780085101
 30
0.0
 11
-26.80094760113807
 21
6.880406704493847
 31
0.0
  0
LINE
  5
2A91
330
1F
100
AcDbEntity
  8
AM_0
100
AcDbLine
 10
-10.14707124664655
 20
6.621698780085101
 30
0.0
 11
-15.78115200726841
 21
6.621698780085101
 31
0.0
  0
SPLINE
  5
2A92
330
1F
100
AcDbEntity
  8
AM_0
100
AcDbSpline
210
0.0
220
0.0
230
1.0
 70
     8
 71
     3
 72
     8
 73
     4
 74
     2
 42
0.0000000001
 43
0.0000000001
 44
0.0000000001
 12
0.9369893402418064
 22
-0.3493579486332383
 32
0.0
 13
0.563585370616417
 23
-0.8260578248689105
 33
0.0
 40
0.0
 40
0.0
 40
0.0
 40
0.0
 40
9.179218795940986
 40
9.179218795940986
 40
9.179218795940986
 40
9.179218795940986
 10
-15.78115200726844
 20
6.621698780085063
 30
0.0
 10
-12.91420861942046
 20
5.55275443054986
 30
0.0
 10
-10.16197095835376
 20
3.641996670581902
 30
0.0
 10
-8.437546482660575
 20
1.114474833058291
 30
0.0
 11
-15.78115200726844
 21
6.621698780085063
 31
0.0
 11
-8.437546482660575
 21
1.114474833058291
 31
0.0
  0
ARC
  5
2A93
330
1F
100
AcDbEntity
  8
AM_0
100
AcDbCircle
 10
-19.82098346526417
 20
-25.12227327432225
 30
0.0
 40
32.0
100
AcDbArc
 50
51.72724905405108
 51
82.74735677978425
  0
ARC
  5
2A94
330
1F
100
AcDbEntity
  8
AM_0
100
AcDbCircle
 10
-8.000000000004549
 20
-0.7415744902413276
 30
0.0
 40
8.0
100
AcDbArc
 50
5.529769865859073
 51
90.0
  0
LINE
  5
2A95
330
1F
100
AcDbEntity
  8
AM_0
100
AcDbLine
 10
-8.437546482660579
 20
1.114474833058292
 30
0.0
 11
-1.392000000005097
 21
-1.367503978608495
 31
0.0
  0
LINE
  5
2A96
330
1F
100
AcDbEntity
  8
AM_0
100
AcDbLine
 10
-1.392000000005097
 20
-1.367503978608495
 30
0.0
 11
-0.4320000000045307
 21
-1.053719573595291
 31
0.0
  0
LINE
  5
2A97
330
1F
100
AcDbEntity
  8
AM_0
100
AcDbLine
 10
-0.4320000000045307
 20
-1.053719573595291
 30
0.0
 11
-0.0401238621177953
 21
0.0000000000036534
 31
0.0
  0
SPLINE
  5
2A98
330
1F
100
AcDbEntity
  8
AM_0
100
AcDbSpline
210
0.0
220
0.0
230
1.0
 70
     8
 71
     3
 72
     8
 73
     4
 74
     0
 42
0.0000000001
 43
0.0000000001
 40
2.760385419275965
 40
2.760385419275965
 40
2.760385419275965
 40
2.760385419275965
 40
3.834752168165156
 40
3.834752168165156
 40
3.834752168165156
 40
3.834752168165156
 10
-8.000000000004549
 20
7.258425509758746
 30
0.0
 10
-8.527109786439725
 20
7.075141356210314
 30
0.0
 10
-9.046625030929307
 20
6.861521918137531
 30
0.0
 10
-9.559584954812637
 20
6.621718212842567
 30
0.0
  0
SPLINE
  5
2A99
330
1F
100
AcDbEntity
  8
AM_0
100
AcDbSpline
210
0.0
220
0.0
230
1.0
 70
     8
 71
     3
 72
     8
 73
     4
 74
     2
 42
0.0000000001
 43
0.0000000001
 44
0.0000000001
 12
-0.3350454581421354
 22
-0.9422019640068292
 32
0.0
 13
-1.0
 23
0.0000000000000001
 33
0.0
 40
0.0
 40
0.0
 40
0.0
 40
0.0
 40
2.239494556018789
 40
2.239494556018789
 40
2.239494556018789
 40
2.239494556018789
 10
-8.000000000004549
 20
7.258425509758746
 30
0.0
 10
-8.250110826513926
 20
6.555073453404244
 30
0.0
 10
-9.400573061306957
 20
6.621698780085063
 30
0.0
 10
-10.14707124664655
 20
6.621698780085063
 30
0.0
 11
-8.000000000004549
 21
7.258425509758746
 31
0.0
 11
-10.14707124664655
 21
6.621698780085063
 31
0.0
  0
ARC
  5
2A9A
330
1F
100
AcDbEntity
  8
AM_0
100
AcDbCircle
 10
-1.462852713030054
 20
0.6583727919821514
 30
0.0
 40
6.98959099318381
100
AcDbArc
 50
176.2585359014462
 51
219.2555783427083
  0
ARC
  5
2A9B
330
1F
100
AcDbEntity
  8
AM_0
100
AcDbCircle
 10
-8.000000000004549
 20
0.8002323846908591
 30
0.0
 40
8.0
100
AcDbArc
 50
270.0
 51
354.4702301341409
  0
ARC
  5
2A9C
330
1F
100
AcDbEntity
  8
AM_0
100
AcDbCircle
 10
-7.750718534329834
 20
1.264238232374297
 30
0.0
 40
7.677015655509041
100
AcDbArc
 50
271.2370494223207
 51
342.4261541586427
  0
ARC
  5
2A9D
330
1F
100
AcDbEntity
  8
AM_0
100
AcDbCircle
 10
-6.618905826117597
 20
3.119202769368802
 30
0.0
 40
6.888474574054499
100
AcDbArc
 50
267.868497180084
 51
319.3576453751792
  0
SPLINE
  5
2A9E
330
1F
100
AcDbEntity
  8
AM_0
100
AcDbSpline
210
0.0
220
0.0
230
1.0
 70
     8
 71
     3
 72
     9
 73
     5
 74
     3
 42
0.0000000001
 43
0.0000000001
 44
0.0000000001
 12
0.7290715920995502
 22
-0.6844374431556381
 32
0.0
 13
-0.7860840150089522
 23
0.6181196658798403
 33
0.0
 40
0.0
 40
0.0
 40
0.0
 40
0.0
 40
0.7385027820625378
 40
2.280651781361113
 40
2.280651781361113
 40
2.280651781361113
 40
2.280651781361113
 10
-6.875109975526908
 20
-3.764505634625666
 30
0.0
 10
-6.695636175830814
 20
-3.932991953265069
 30
0.0
 10
-6.079398379680478
 20
-4.73239142850278
 30
0.0
 10
-7.595913774300995
 20
-5.16384585742097
 30
0.0
 10
-8.000000000004549
 20
-4.846101649359849
 30
0.0
 11
-6.875109975526908
 21
-3.764505634625666
 31
0.0
 11
-6.52017396711108
 21
-4.412121870558604
 31
0.0
 11
-8.000000000004549
 21
-4.846101649359849
 31
0.0
  0
LINE
  5
2A9F
330
1F
100
AcDbEntity
  8
AM_0
100
AcDbLine
 10
-8.000000000004549
 20
-7.199767615309216
 30
0.0
 11
-7.640301934181672
 21
-6.411983334816969
 31
0.0
  0
LINE
  5
2AA0
330
1F
100
AcDbEntity
  8
AM_0
100
AcDbLine
 10
-7.640301934181672
 20
-6.411983334816969
 30
0.0
 11
-8.000000000004549
 21
-4.846101649359813
 31
0.0
  0
ARC
  5
2AB4
330
1F
100
AcDbEntity
  8
AM_11
100
AcDbCircle
 10
-8.000000000004549
 20
0.0000000000036534
 30
0.0
 40
8.0
100
AcDbArc
 50
270.0
 51
90.0
  0
LINE
  5
2AB5
330
1F
100
AcDbEntity
  8
AM_11
 48
0.5
100
AcDbLine
 10
-8.000000000004547
 20
7.999999999999964
 30
0.0
 11
-32.00000000000005
 21
7.999999999999964
 31
0.0
  0
LINE
  5
2AB6
330
1F
100
AcDbEntity
  8
AM_11
 48
0.5
100
AcDbLine
 10
-7.950486566725538
 20
-7.999999999999975
 30
0.0
 11
-32.00000000000005
 21
-7.999999999999975
 31
0.0
  0
SPLINE
  5
2AF6
330
1F
100
AcDbEntity
  8
AM_0
100
AcDbSpline
210
0.0
220
0.0
230
1.0
 70
     8
 71
     3
 72
     8
 73
     4
 74
     0
 42
0.0000000001
 43
0.0000000001
 40
0.0
 40
0.0
 40
0.0
 40
0.0
 40
1.990690753765647
 40
1.990690753765647
 40
1.990690753765647
 40
1.990690753765647
 10
-30.89883009026531
 20
-7.253608902530328
 30
0.0
 10
-29.76634823923393
 20
-7.253608902530328
 30
0.0
 10
-28.66638481071535
 20
-7.120730029980774
 30
0.0
 10
-27.59271543519656
 20
-6.880406704486802
 30
0.0
  0
SPLINE
  5
2AF7
330
1F
100
AcDbEntity
  8
AM_0
100
AcDbSpline
210
0.0
220
0.0
230
1.0
 70
     8
 71
     3
 72
     8
 73
     4
 74
     0
 42
0.0000000001
 43
0.0000000001
 40
0.0
 40
0.0
 40
0.0
 40
0.0
 40
1.55285541345115
 40
1.55285541345115
 40
1.55285541345115
 40
1.55285541345115
 10
-34.97414629488878
 20
-7.999999999996345
 30
0.0
 10
-34.09074410412543
 20
-7.999999999996345
 30
0.0
 10
-33.23021521474474
 20
-7.914346203691803
 30
0.0
 10
-32.38921249994858
 20
-7.75557261796422
 30
0.0
  0
LINE
  5
2AF8
330
1F
100
AcDbEntity
  8
AM_0
100
AcDbLine
 10
-41.92350405378042
 20
-3.421781791480672
 30
0.0
 11
-41.92350405378118
 21
-4.969259604873876
 31
0.0
  0
ELLIPSE
  5
2AF9
330
1F
100
AcDbEntity
  8
AM_0
100
AcDbEllipse
 10
-49.8977982072385
 20
13.34017552682937
 30
0.0
 11
22.76509871883269
 21
0.0000000000001278
 31
0.0
210
0.0
220
0.0
230
0.9999999999999998
 40
0.9374999999999984
 41
-1.536875803917382
 42
-1.191153695582908
  0
ELLIPSE
  5
2AFA
330
1F
100
AcDbEntity
  8
AM_0
100
AcDbEllipse
 10
-39.56612961175981
 20
-88.69287577277777
 30
0.0
 11
87.71157332136422
 21
0.0000000000034916
 31
0.0
210
0.0
220
0.0
230
1.0
 40
0.9374999999999346
 41
1.592404999857204
 42
1.621792883025485
  0
ELLIPSE
  5
2AFB
330
1F
100
AcDbEntity
  8
AM_0
100
AcDbEllipse
 10
-42.79644680620966
 20
-29.43528478974345
 30
0.0
 11
-24.42098617972736
 21
0.0000000000062591
 31
0.0
210
0.0
220
0.0
230
1.0
 40
0.9375000000002142
 41
-1.519968450920297
 42
-1.474903855427013
  0
ELLIPSE
  5
2AFC
330
1F
100
AcDbEntity
  8
AM_0
100
AcDbEllipse
 10
-8.362642771646941
 20
-365.0474844776159
 30
0.0
 11
384.0595700691143
 21
0.0000000005822188
 31
0.0
210
0.0
220
0.0
230
1.0
 40
0.9374999999990057
 41
1.666688798161186
 42
1.67635053735905
  0
ELLIPSE
  5
2AFD
330
1F
100
AcDbEntity
  8
AM_0
100
AcDbEllipse
 10
-47.83723987258135
 20
-15.74933159884646
 30
0.0
 11
9.389582198369687
 21
0.0000000000028777
 31
0.0
210
0.0
220
0.0
230
1.0
 40
0.9374999999998671
 41
1.676350537359855
 42
1.738152020788853
  0
ELLIPSE
  5
2AFE
330
1F
100
AcDbEntity
  8
AM_0
100
AcDbEllipse
 10
-47.59279487191095
 20
-17.10586556415402
 30
0.0
 11
-10.85705426780729
 21
0.0000000000028357
 31
0.0
210
0.0
220
0.0
230
1.0
 40
0.9375000000000692
 41
-1.403440632800712
 42
-1.303822551284381
  0
ELLIPSE
  5
2AFF
330
1F
100
AcDbEntity
  8
AM_0
100
AcDbEllipse
 10
-50.44941714053003
 20
-7.314071681725466
 30
0.0
 11
0.0288713587179335
 21
0.0000000000000326
 31
0.0
210
0.0
220
0.0
230
1.0
 40
0.9374999999998872
 41
1.83777010231175
 42
4.452461315804514
  0
ELLIPSE
  5
2B00
330
1F
100
AcDbEntity
  8
AM_0
100
AcDbEllipse
 10
-50.12936425669654
 20
-6.185828599019347
 30
0.0
 11
-1.274161729215067
 21
0.0000000000001039
 31
0.0
210
0.0
220
0.0
230
1.0
 40
0.9374999999999678
 41
1.310868662202186
 42
1.485160221981302
  0
ELLIPSE
  5
2B01
330
1F
100
AcDbEntity
  8
AM_0
100
AcDbEllipse
 10
-48.63827433827878
 20
10.09793338699761
 30
0.0
 11
-18.70739246038552
 21
0.0000000000007447
 31
0.0
210
0.0
220
0.0
230
1.0
 40
0.937499999999979
 41
1.48516022198228
 42
1.530593023688154
  0
ELLIPSE
  5
2B02
330
1F
100
AcDbEntity
  8
AM_0
100
AcDbEllipse
 10
-47.48467085873606
 20
36.98429435291708
 30
0.0
 11
-47.40936994996044
 21
0.000000000084482
 31
0.0
210
0.0
220
0.0
230
1.0
 40
0.9374999999968659
 41
1.530593023689804
 42
1.541841609080054
  0
ELLIPSE
  5
2B03
330
1F
100
AcDbEntity
  8
AM_0
100
AcDbEllipse
 10
-15.48363059684022
 20
1072.828989616865
 30
0.0
 11
1152.773701080113
 21
0.0000000288764962
 31
0.0
210
0.0
220
0.0
230
1.0
 40
0.9375000000530237
 41
4.683434262644847
 42
4.685715422792929
  0
ELLIPSE
  5
2B04
330
1F
100
AcDbEntity
  8
AM_0
100
AcDbEllipse
 10
-45.59607000135144
 20
14.71304683398328
 30
0.0
 11
-23.71506875464807
 21
0.0000000000023342
 31
0.0
210
0.0
220
0.0
230
1.0
 40
0.9374999999995957
 41
1.544122769228391
 42
1.570796326794932
  0
ELLIPSE
  5
2B05
330
1F
100
AcDbEntity
  8
AM_0
100
AcDbEllipse
 10
-45.59607000129246
 20
111.3274839060703
 30
0.0
 11
126.7704682986233
 21
0.0000000000113517
 31
0.0
210
0.0
220
0.0
230
1.0
 40
0.9374999999968503
 41
4.712388980384129
 42
4.716453926124832
  0
LINE
  5
2B06
330
1F
100
AcDbEntity
  8
AM_0
100
AcDbLine
 10
-41.92350405378042
 20
-4.969259604873876
 30
0.0
 11
-41.46131282760379
 21
-6.482472965920145
 31
0.0
  0
SPLINE
  5
2B07
330
1F
100
AcDbEntity
  8
AM_0
100
AcDbSpline
210
0.0
220
0.0
230
1.0
 70
     8
 71
     3
 72
     8
 73
     4
 74
     0
 42
0.0000000001
 43
0.0000000001
 40
0.0
 40
0.0
 40
0.0
 40
0.0
 40
5.706047288453516
 40
5.706047288453516
 40
5.706047288453516
 40
5.706047288453516
 10
-32.91247265783144
 20
-7.765422193052644
 30
0.0
 10
-36.1585795597073
 20
-7.765422193052644
 30
0.0
 10
-39.10889707599228
 20
-6.628219702978811
 30
0.0
 10
-41.92350405378041
 20
-4.969259604873876
 30
0.0
  0
SPLINE
  5
2B08
330
1F
100
AcDbEntity
  8
AM_0
100
AcDbSpline
210
0.0
220
0.0
230
1.0
 70
     8
 71
     3
 72
     8
 73
     4
 74
     0
 42
0.0000000001
 43
0.0000000001
 40
0.0
 40
0.0
 40
0.0
 40
0.0
 40
4.038522933284047
 40
4.038522933284047
 40
4.038522933284047
 40
4.038522933284047
 10
-34.97414629488801
 20
-7.999999999996345
 30
0.0
 10
-37.27161711915635
 20
-7.999999999996345
 30
0.0
 10
-39.41438024742612
 20
-7.420665112645282
 30
0.0
 10
-41.46131282759293
 20
-6.482472965919804
 30
0.0
  0
SPLINE
  5
2B09
330
1F
100
AcDbEntity
  8
AM_0
100
AcDbSpline
210
0.0
220
0.0
230
1.0
 70
     8
 71
     3
 72
     8
 73
     4
 74
     0
 42
0.0000000001
 43
0.0000000001
 40
0.0
 40
0.0
 40
0.0
 40
0.0
 40
7.009223135314643
 40
7.009223135314643
 40
7.009223135314643
 40
7.009223135314643
 10
-30.89883009026377
 20
-7.253608902530328
 30
0.0
 10
-34.88629925168823
 20
-7.253608902530328
 30
0.0
 10
-38.47062307457369
 20
-5.606250453983744
 30
0.0
 10
-41.92350405378041
 20
-3.42178179148067
 30
0.0
  0
SPLINE
  5
2B0A
330
1F
100
AcDbEntity
  8
AM_0
100
AcDbSpline
210
0.0
220
0.0
230
1.0
 70
     8
 71
     3
 72
     8
 73
     4
 74
     0
 42
0.0000000001
 43
0.0000000001
 40
0.0
 40
0.0
 40
0.0
 40
0.0
 40
2.754526791728521
 40
2.754526791728521
 40
2.754526791728521
 40
2.754526791728521
 10
-32.91247265783221
 20
-7.765422193052644
 30
0.0
 10
-31.34545297187216
 20
-7.765422193052644
 30
0.0
 10
-29.84736290109737
 20
-7.500412920073
 30
0.0
 10
-28.40019430582031
 20
-7.039629114421039
 30
0.0
  0
POLYLINE
  5
2B0B
330
1F
100
AcDbEntity
  8
AM_0
100
AcDb2dPolyline
 66
     1
 10
0.0
 20
0.0
 30
0.0
 70
     2
  0
VERTEX
  5
2B0C
330
2B0B
100
AcDbEntity
  8
AM_0
100
AcDbVertex
100
AcDb2dVertex
 10
-41.92350405378116
 20
8.000000000003764
 30
0.0
 42
0.021906895434734
  0
VERTEX
  5
2B0D
330
2B0B
100
AcDbEntity
  8
AM_0
100
AcDbVertex
100
AcDb2dVertex
 10
-43.8431132819108
 20
7.874349703407777
 30
0.0
 42
0.0324199514990089
 70
     1
  0
VERTEX
  5
2B0E
330
2B0B
100
AcDbEntity
  8
AM_0
100
AcDbVertex
100
AcDb2dVertex
 10
-45.12350405378039
 20
7.6579889851136
 30
0.0
 42
0.0201411646801006
  0
VERTEX
  5
2B0F
330
2B0B
100
AcDbEntity
  8
AM_0
100
AcDbVertex
100
AcDb2dVertex
 10
-48.11327577211353
 20
6.841596126277121
 30
0.0
 42
0.0450475812707586
 70
     1
  0
VERTEX
  5
2B10
330
2B0B
100
AcDbEntity
  8
AM_0
100
AcDbVertex
100
AcDb2dVertex
 10
-49.39017072044705
 20
6.315977970224911
 30
0.0
 42
0.0705235240614635
  0
VERTEX
  5
2B11
330
2B0B
100
AcDbEntity
  8
AM_0
100
AcDbVertex
100
AcDb2dVertex
 10
-50.29936088969936
 20
5.675259900812055
 30
0.0
 42
0.2003780791347506
 70
     1
  0
VERTEX
  5
2B12
330
2B0B
100
AcDbEntity
  8
AM_0
100
AcDbVertex
100
AcDb2dVertex
 10
-50.45683738711449
 20
5.315977970226352
 30
0.0
 42
0.1302188019897481
  0
VERTEX
  5
2B13
330
2B0B
100
AcDbEntity
  8
AM_0
100
AcDbVertex
100
AcDb2dVertex
 10
-50.32049409107385
 20
4.844263569436724
 30
0.0
 42
0.0390250736119977
 70
     1
  0
VERTEX
  5
2B14
330
2B0B
100
AcDbEntity
  8
AM_0
100
AcDbVertex
100
AcDb2dVertex
 10
-49.35093185553718
 20
3.520211186729412
 30
0.0
 42
0.0142833409954576
  0
VERTEX
  5
2B15
330
2B0B
100
AcDbEntity
  8
AM_0
100
AcDbVertex
100
AcDb2dVertex
 10
-47.94179868343059
 20
1.977593533195749
 30
0.0
 42
0.0074968472652126
 70
     1
  0
VERTEX
  5
2B16
330
2B0B
100
AcDbEntity
  8
AM_0
100
AcDbVertex
100
AcDb2dVertex
 10
-45.12350405378039
 20
-0.8486686941243075
 30
0.0
 42
0.0237820438473651
  0
VERTEX
  5
2B17
330
2B0B
100
AcDbEntity
  8
AM_0
100
AcDbVertex
100
AcDb2dVertex
 10
-44.06385781519972
 20
-1.786278012223176
 30
0.0
 42
0.0125443765840406
 70
     1
  0
VERTEX
  5
2B18
330
2B0B
100
AcDbEntity
  8
AM_0
100
AcDbVertex
100
AcDb2dVertex
 10
-41.92350405378116
 20
-3.421781791481013
 30
0.0
  0
SEQEND
  5
2B19
330
2B0B
100
AcDbEntity
  8
AM_0
  0
LINE
  5
2B1A
330
1F
100
AcDbEntity
  8
AM_11
 48
0.5
100
AcDbLine
 10
-32.00000000000005
 20
-7.999999999999975
 30
0.0
 11
-32.00000000000005
 21
7.999999999999964
 31
0.0
  0
LINE
  5
2B1B
330
1F
100
AcDbEntity
  8
AM_0
100
AcDbLine
 10
-9.51251282759482
 20
-6.482472965920145
 30
0.0
 11
-27.59271543519655
 21
-6.880406704486805
 31
0.0
  0
SPLINE
  5
2B1C
330
1F
100
AcDbEntity
  8
AM_0
100
AcDbSpline
210
0.0
220
0.0
230
1.0
 70
     8
 71
     3
 72
     8
 73
     4
 74
     0
 42
0.0000000001
 43
0.0000000001
 40
2.760385419276007
 40
2.760385419276007
 40
2.760385419276007
 40
2.760385419276007
 40
10.61176705360609
 40
10.61176705360609
 40
10.61176705360609
 40
10.61176705360609
 10
-7.5383713273208
 20
-7.258425509751401
 30
0.0
 10
-11.64725013817433
 20
-5.919000366038008
 30
0.0
 10
-15.32349821653145
 20
-2.959500183017385
 30
0.0
 10
-18.99974629488858
 20
0.0000000000036534
 30
0.0
  0
SPLINE
  5
2B1D
330
1F
100
AcDbEntity
  8
AM_0
100
AcDbSpline
210
0.0
220
0.0
230
1.0
 70
     8
 71
     3
 72
     8
 73
     4
 74
     0
 42
0.0000000001
 43
0.0000000001
 40
5.3774483993125
 40
5.3774483993125
 40
5.3774483993125
 40
5.3774483993125
 40
10.40010926382874
 40
10.40010926382874
 40
10.40010926382874
 40
10.40010926382874
 10
-7.5383713273208
 20
-4.846101649359849
 30
0.0
 10
-10.06704001282114
 20
-3.503080269352364
 30
0.0
 10
-12.49573505154273
 20
-1.751540134674374
 30
0.0
 10
-14.92443009026588
 20
0.0000000000036534
 30
0.0
  0
SPLINE
  5
2B1E
330
1F
100
AcDbEntity
  8
AM_0
100
AcDbSpline
210
0.0
220
0.0
230
1.0
 70
     8
 71
     3
 72
     8
 73
     4
 74
     0
 42
0.0000000001
 43
0.0000000001
 40
3.83382056918599
 40
3.83382056918599
 40
3.83382056918599
 40
3.83382056918599
 40
10.54348061741694
 40
10.54348061741694
 40
10.54348061741694
 40
10.54348061741694
 10
-7.154693390443065
 20
-6.411983334816967
 30
0.0
 10
-10.5893352583354
 20
-4.941759266886589
 30
0.0
 10
-13.76370395808409
 20
-2.470879633441297
 30
0.0
 10
-16.93807265783278
 20
0.0000000000036534
 30
0.0
  0
SPLINE
  5
2B1F
330
1F
100
AcDbEntity
  8
AM_0
100
AcDbSpline
210
0.0
220
0.0
230
1.0
 70
     8
 71
     3
 72
     8
 73
     4
 74
     0
 42
0.0000000001
 43
0.0000000001
 40
1.494727388119111
 40
1.494727388119111
 40
1.494727388119111
 40
1.494727388119111
 40
10.40010926382874
 40
10.40010926382874
 40
10.40010926382874
 40
10.40010926382874
 10
-28.40019430582031
 20
7.039629114428422
 30
0.0
 10
-23.53678014251177
 20
6.211103712036234
 30
0.0
 10
-19.23060511638805
 20
3.105551856019982
 30
0.0
 10
-14.92443009026588
 20
0.0000000000036534
 30
0.0
  0
SPLINE
  5
2B20
330
1F
100
AcDbEntity
  8
AM_0
100
AcDbSpline
210
0.0
220
0.0
230
1.0
 70
     8
 71
     3
 72
     8
 73
     4
 74
     0
 42
0.0000000001
 43
0.0000000001
 40
0.0
 40
0.0
 40
0.0
 40
0.0
 40
3.183530116081869
 40
3.183530116081869
 40
3.183530116081869
 40
3.183530116081869
 10
-34.97414629488878
 20
8.000000000003728
 30
0.0
 10
-28.93722992661502
 20
8.000000000003728
 30
0.0
 10
-23.9684881107518
 20
4.00000000000369
 30
0.0
 10
-18.99974629488858
 20
0.0000000000036534
 30
0.0
  0
SPLINE
  5
2B21
330
1F
100
AcDbEntity
  8
AM_0
100
AcDbSpline
210
0.0
220
0.0
230
1.0
 70
     8
 71
     3
 72
     8
 73
     4
 74
     0
 42
0.0000000001
 43
0.0000000001
 40
0.3080988623970067
 40
0.3080988623970067
 40
0.3080988623970067
 40
0.3080988623970067
 40
10.54348061741694
 40
10.54348061741694
 40
10.54348061741694
 40
10.54348061741694
 10
-32.38921249996177
 20
7.755572617971567
 30
0.0
 10
-26.62287792056261
 20
7.538503035095815
 30
0.0
 10
-21.7804752891977
 20
3.769251517549582
 30
0.0
 10
-16.93807265783278
 20
0.0000000000036534
 30
0.0
  0
LINE
  5
2EE1
330
1F
100
AcDbEntity
  8
AM_0
100
AcDbLine
 10
-119.5
 20
7.999999999999996
 30
0.0
 11
-34.97414629488878
 21
7.999999999999993
 31
0.0
1001
GENIUS_GENODEF_13
1002
{
1000
HIER
1070
     0
1002
}
1002
{
1000
MANEDIT
1070
     0
1002
}
1002
{
1000
NOSEL
1070
     0
1002
}
1002
{
1000
BEHIND
1070
     0
1002
}
1002
{
1000
REACTOR
1002
}
1001
GENIUS_GENOBJ-N-CEN_13
1002
{
1000
OWNER
1000
GEN
1002
}
  0
LINE
  5
2EE2
330
1F
100
AcDbEntity
  8
AM_0
100
AcDbLine
 10
-119.5
 20
-8.000000000000003
 30
0.0
 11
-51.83383235457535
 21
-8.000000000000001
 31
0.0
1001
GENIUS_GENODEF_13
1002
{
1000
HIER
1070
     0
1002
}
1002
{
1000
MANEDIT
1070
     0
1002
}
1002
{
1000
NOSEL
1070
     0
1002
}
1002
{
1000
BEHIND
1070
     0
1002
}
1002
{
1000
REACTOR
1002
}
1001
GENIUS_GENOBJ-N-CEN_13
1002
{
1000
OWNER
1000
GEN
1002
}
  0
DIMENSION
  5
2EE3
330
1F
100
AcDbEntity
  8
AM_5
100
AcDbDimension
  2
*D9
 10
-0.0000000000000588
 20
-32.2458782961699
 30
0.0
 11
-60.00000000000007
 21
-29.1458782961699
 31
0.0
 70
    32
  1
<>
  3
AM_JIS
100
AcDbAlignedDimension
 13
-120.0
 23
-8.000000000000001
 33
0.0
 14
-0.0000000000000568
 24
-0.0000000000000036
 34
0.0
 50
0.0000000000005428
100
AcDbRotatedDimension
1001
GENIUS_GENDTOL_13
1000

1000
H7
1000

1040
0.0
  0
LINE
  5
2EF0
330
1F
100
AcDbEntity
  8
AM_0
100
AcDbLine
 10
-119.5
 20
7.999999999999996
 30
0.0
 11
-120.0
 21
6.666666666666661
 31
0.0
1001
GENIUS_GENFIL_13
1070
     0
1040
0.5
1040
0.5
1040
20.0
1040
0.0
1002
{
1002
}
1001
GENIUS_GENODEF_13
1002
{
1000
HIER
1070
     0
1002
}
1002
{
1000
MANEDIT
1070
     0
1002
}
1002
{
1000
NOSEL
1070
     0
1002
}
1002
{
1000
BEHIND
1070
     0
1002
}
1002
{
1000
REACTOR
1002
}
1001
GENIUS_GENOBJ-N-CHA_13
1002
{
1000
OWNER
1000
GEN
1002
}
  0
LINE
  5
2EF1
330
1F
100
AcDbEntity
  8
AM_0
100
AcDbLine
 10
-120.0
 20
6.666666666666661
 30
0.0
 11
-120.0
 21
-0.0000000000000036
 31
0.0
  0
LINE
  5
2EF2
330
1F
100
AcDbEntity
  8
AM_0
100
AcDbLine
 10
-119.5
 20
7.999999999999996
 30
0.0
 11
-119.5
 21
-0.0000000000000036
 31
0.0
  0
LINE
  5
2EF3
330
1F
100
AcDbEntity
  8
AM_0
100
AcDbLine
 10
-119.5
 20
-8.000000000000003
 30
0.0
 11
-120.0
 21
-6.666666666666668
 31
0.0
1001
GENIUS_GENFIL_13
1070
     0
1040
0.5
1040
0.5
1040
20.0
1040
0.0
1002
{
1002
}
1001
GENIUS_GENODEF_13
1002
{
1000
HIER
1070
     0
1002
}
1002
{
1000
MANEDIT
1070
     0
1002
}
1002
{
1000
NOSEL
1070
     0
1002
}
1002
{
1000
BEHIND
1070
     0
1002
}
1002
{
1000
REACTOR
1002
}
1001
GENIUS_GENOBJ-N-CHA_13
1002
{
1000
OWNER
1000
GEN
1002
}
  0
LINE
  5
2EF4
330
1F
100
AcDbEntity
  8
AM_0
100
AcDbLine
 10
-119.5
 20
-8.000000000000003
 30
0.0
 11
-119.5
 21
-0.0000000000000036
 31
0.0
  0
LINE
  5
2EF5
330
1F
100
AcDbEntity
  8
AM_0
100
AcDbLine
 10
-120.0
 20
-6.666666666666668
 30
0.0
 11
-120.0
 21
-0.0000000000000036
 31
0.0
  0
DIMENSION
  5
2EF6
330
1F
100
AcDbEntity
  8
AM_5
100
AcDbDimension
  2
*D10
 10
-130.7626531506397
 20
8.0
 30
0.0
 11
-130.7626531506397
 21
-0.0000000000000261
 31
0.0
 70
   160
  1
%%c<>
  3
AM_JIS
100
AcDbAlignedDimension
 13
-119.5
 23
-8.000000000000003
 33
0.0
 14
-119.5
 24
7.999999999999996
 34
0.0
 50
270.0
100
AcDbRotatedDimension
1001
ACAD
1000
DSTYLE
1002
{
1070
    48
1040
0.1
1070
    47
1040
0.1
1070
   274
1070
     2
1070
   272
1070
     3
1002
}
1001
GENIUS_GENDTOL_13
1000

1000
h6
1000

1040
0.0
  0
VIEWPORT
  5
110
330
101
100
AcDbEntity
 67
     1
  8
0
100
AcDbViewport
 10
420.5
 20
297.0
 30
0.0
 40
948.9782706766916
 41
628.452
 68
     1
 69
     1
1001
ACAD
1000
MVIEW
1002
{
1070
    16
1010
0.0
1020
0.0
1030
0.0
1010
0.0
1020
0.0
1030
1.0
1040
0.0
1040
628.452
1040
420.5
1040
297.0
1040
50.0
1040
0.0
1040
0.0
1070
     0
1070
   100
1070
     1
1070
     1
1070
     0
1070
     0
1070
     0
1070
     0
1040
0.0
1040
0.0
1040
0.0
1040
10.0
1040
10.0
1040
10.0
1040
10.0
1070
     0
1002
{
1002
}
1002
}
  0
ENDSEC
  0
SECTION
  2
OBJECTS
  0
DICTIONARY
  5
C
330
0
100
AcDbDictionary
  3
ACAD_GROUP
350
D
  3
ACAD_LAYOUT
350
1A
  3
ACAD_MLINESTYLE
350
17
  3
ACAD_PLOTSETTINGS
350
19
  3
ACAD_PLOTSTYLENAME
350
E
  3
ACDBVARIABLEDICTIONARY
350
34
  3
ACMDICTIONARY
350
43
  3
AMG
350
2B
  3
AMGSNAPSETTINGS
350
6E
  3
DWGPROPS
350
2FDB
  3
ACDBHEADERROUNDTRIPXREC
350
2FE8
  0
DICTIONARY
  5
74
330
1F
100
AcDbDictionary
280
     1
  3
ACAD_INDEX
360
2FDD
  3
ACAD_LAYOUTSELFREF
360
300B
  0
DICTIONARY
  5
3010
330
101
100
AcDbDictionary
280
     1
  3
ACAD_LAYOUTSELFREF
360
3011
  0
DICTIONARY
  5
D
102
{ACAD_REACTORS
330
C
102
}
330
C
100
AcDbDictionary
  0
DICTIONARY
  5
1A
102
{ACAD_REACTORS
330
C
102
}
330
C
100
AcDbDictionary
  0
DICTIONARY
  5
17
102
{ACAD_REACTORS
330
C
102
}
330
C
100
AcDbDictionary
  3
STANDARD
350
18
  0
DICTIONARY
  5
19
102
{ACAD_REACTORS
330
C
102
}
330
C
100
AcDbDictionary
  0
ACDBDICTIONARYWDFLT
  5
E
102
{ACAD_REACTORS
330
C
102
}
330
C
100
AcDbDictionary
281
     1
  3
Normal
350
F
100
AcDbDictionaryWithDefault
340
F
  0
DICTIONARY
  5
34
102
{ACAD_REACTORS
330
C
102
}
330
C
100
AcDbDictionary
  3
INDEXCTL
350
35
  3
SORTENTS
350
B5E
  0
DICTIONARY
  5
43
102
{ACAD_REACTORS
330
C
102
}
330
C
100
AcDbDictionary
  3
ACMSTDDICTIONARY
350
260
  0
DICTIONARY
  5
2B
102
{ACAD_REACTORS
330
C
102
}
330
C
100
AcDbDictionary
  3
ACMGSETTINGS
350
2C
  0
DICTIONARY
  5
6E
102
{ACAD_REACTORS
330
C
102
}
330
C
100
AcDbDictionary
  0
XRECORD
  5
2FDB
102
{ACAD_REACTORS
330
C
102
}
330
C
100
AcDbXrecord
  1
DWGPROPS COOKIE
  2

  3

  4

  6

  7

  8

  9

300
AmdtFileType=82
301
=
302
=
303
=
304
=
305
=
306
=
307
=
308
=
309
=
 40
0.444020451388889
 41
2452838.620506898
 42
2452850.687408483
  1

 90
        1
  0
DICTIONARY
  5
2FE8
102
{ACAD_REACTORS
330
C
102
}
330
C
100
AcDbDictionary
  3
TSTACKALIGN
350
2FE9
  3
TSTACKSIZE
350
2FEA
  3
HYPERLINKBASE
350
2FEB
  3
STYLESHEET
350
2FEC
  3
LAYOUTDICT
350
2FED
  3
PLOTSETDICT
350
2FEE
  3
PLOTSTYLNAMDICT
350
2FEF
  3
LWETCUNION
350
2FF0
  3
INSUNITS
350
2FF1
  3
CEPSNTYPE
350
2FF2
  3
FINGERPRINTGUID
350
2FF3
  3
VERSIONGUID
350
2FF4
  3
PSVPSCALE
350
2FF5
  3
DIMSTYLEDATA
350
2FF6
  3
PUCSORTHOREF
350
2FF7
  3
PUCSORTHOVIEW
350
2FF8
  3
PUCSBASE
350
2FF9
  3
PUCSORGTOP
350
2FFA
  3
PUCSORGBOTTOM
350
2FFB
  3
PUCSORGLEFT
350
2FFC
  3
PUCSORGRIGHT
350
2FFD
  3
PUCSORGFRONT
350
2FFE
  3
PUCSORGBACK
350
2FFF
  3
UCSORTHOREF
350
3000
  3
UCSORTHOVIEW
350
3001
  3
UCSBASE
350
3002
  3
UCSORGTOP
350
3003
  3
UCSORGBOTTOM
350
3004
  3
UCSORGLEFT
350
3005
  3
UCSORGRIGHT
350
3006
  3
UCSORGFRONT
350
3007
  3
UCSORGBACK
350
3008
  0
DICTIONARY
  5
2FDD
102
{ACAD_REACTORS
330
74
102
}
330
74
100
AcDbDictionary
  3
*A1
350
2FDE
  0
XRECORD
  5
300B
102
{ACAD_REACTORS
330
74
102
}
330
74
100
AcDbXrecord
340
1F
  0
XRECORD
  5
3011
102
{ACAD_REACTORS
330
3010
102
}
330
3010
100
AcDbXrecord
340
101
  0
MLINESTYLE
  5
18
102
{ACAD_REACTORS
330
17
102
}
330
17
100
AcDbMlineStyle
  2
STANDARD
 70
     0
  3

 62
   256
 51
90.0
 52
90.0
 71
     2
 49
0.5
 62
   256
  6
BYLAYER
 49
-0.5
 62
   256
  6
BYLAYER
  0
ACDBPLACEHOLDER
  5
F
102
{ACAD_REACTORS
330
E
102
}
330
E
100
AcDbPlaceHolder
280
     0
  0
DICTIONARYVAR
  5
35
102
{ACAD_REACTORS
330
34
102
}
330
34
100
DictionaryVariables
280
     0
  1
1
  0
DICTIONARYVAR
  5
B5E
102
{ACAD_REACTORS
330
34
102
}
330
34
100
DictionaryVariables
280
     0
  1
96
  0
DICTIONARY
  5
260
102
{ACAD_REACTORS
330
43
102
}
330
43
100
AcDbDictionary
  0
DICTIONARY
  5
2C
102
{ACAD_REACTORS
330
2B
102
}
330
2B
100
AcDbDictionary
  3
DWGSETTINGS
350
2D
  0
XRECORD
  5
2FE9
102
{ACAD_REACTORS
330
2FE8
102
}
330
2FE8
100
AcDbXrecord
 90
        1
  0
XRECORD
  5
2FEA
102
{ACAD_REACTORS
330
2FE8
102
}
330
2FE8
100
AcDbXrecord
 90
       70
  0
XRECORD
  5
2FEB
102
{ACAD_REACTORS
330
2FE8
102
}
330
2FE8
100
AcDbXrecord
  1

  0
XRECORD
  5
2FEC
102
{ACAD_REACTORS
330
2FE8
102
}
330
2FE8
100
AcDbXrecord
  1
ASAMI.ctb
  0
XRECORD
  5
2FED
102
{ACAD_REACTORS
330
2FE8
102
}
330
2FE8
100
AcDbXrecord
340
1A
  0
XRECORD
  5
2FEE
102
{ACAD_REACTORS
330
2FE8
102
}
330
2FE8
100
AcDbXrecord
340
19
  0
XRECORD
  5
2FEF
102
{ACAD_REACTORS
330
2FE8
102
}
330
2FE8
100
AcDbXrecord
340
E
  0
XRECORD
  5
2FF0
102
{ACAD_REACTORS
330
2FE8
102
}
330
2FE8
100
AcDbXrecord
 90
    10781
  0
XRECORD
  5
2FF1
102
{ACAD_REACTORS
330
2FE8
102
}
330
2FE8
100
AcDbXrecord
 90
        4
  0
XRECORD
  5
2FF2
102
{ACAD_REACTORS
330
2FE8
102
}
330
2FE8
100
AcDbXrecord
 90
        0
  0
XRECORD
  5
2FF3
102
{ACAD_REACTORS
330
2FE8
102
}
330
2FE8
100
AcDbXrecord
  1
{AFB28963-8C59-40AE-9337-C84526B81ACE}
  0
XRECORD
  5
2FF4
102
{ACAD_REACTORS
330
2FE8
102
}
330
2FE8
100
AcDbXrecord
  1
{44471DC5-1E7A-4FFE-BC25-76D52179EE55}
  0
XRECORD
  5
2FF5
102
{ACAD_REACTORS
330
2FE8
102
}
330
2FE8
100
AcDbXrecord
 40
0.0
  0
XRECORD
  5
2FF6
102
{ACAD_REACTORS
330
2FE8
102
}
330
2FE8
100
AcDbXrecord
1000
DSTYLE
1002
{
1070
    79
 70
     2
1070
   341
340
59
1070
   342
340
59
1070
   371
 70
    -1
1070
   372
 70
    -1
1002
}
  0
XRECORD
  5
2FF7
102
{ACAD_REACTORS
330
2FE8
102
}
330
2FE8
100
AcDbXrecord
340
0
  0
XRECORD
  5
2FF8
102
{ACAD_REACTORS
330
2FE8
102
}
330
2FE8
100
AcDbXrecord
 70
     0
  0
XRECORD
  5
2FF9
102
{ACAD_REACTORS
330
2FE8
102
}
330
2FE8
100
AcDbXrecord
340
0
  0
XRECORD
  5
2FFA
102
{ACAD_REACTORS
330
2FE8
102
}
330
2FE8
100
AcDbXrecord
 10
0.0
 20
0.0
 30
0.0
  0
XRECORD
  5
2FFB
102
{ACAD_REACTORS
330
2FE8
102
}
330
2FE8
100
AcDbXrecord
 10
0.0
 20
0.0
 30
0.0
  0
XRECORD
  5
2FFC
102
{ACAD_REACTORS
330
2FE8
102
}
330
2FE8
100
AcDbXrecord
 10
0.0
 20
0.0
 30
0.0
  0
XRECORD
  5
2FFD
102
{ACAD_REACTORS
330
2FE8
102
}
330
2FE8
100
AcDbXrecord
 10
0.0
 20
0.0
 30
0.0
  0
XRECORD
  5
2FFE
102
{ACAD_REACTORS
330
2FE8
102
}
330
2FE8
100
AcDbXrecord
 10
0.0
 20
0.0
 30
0.0
  0
XRECORD
  5
2FFF
102
{ACAD_REACTORS
330
2FE8
102
}
330
2FE8
100
AcDbXrecord
 10
0.0
 20
0.0
 30
0.0
  0
XRECORD
  5
3000
102
{ACAD_REACTORS
330
2FE8
102
}
330
2FE8
100
AcDbXrecord
340
0
  0
XRECORD
  5
3001
102
{ACAD_REACTORS
330
2FE8
102
}
330
2FE8
100
AcDbXrecord
 70
     0
  0
XRECORD
  5
3002
102
{ACAD_REACTORS
330
2FE8
102
}
330
2FE8
100
AcDbXrecord
340
0
  0
XRECORD
  5
3003
102
{ACAD_REACTORS
330
2FE8
102
}
330
2FE8
100
AcDbXrecord
 10
0.0
 20
0.0
 30
0.0
  0
XRECORD
  5
3004
102
{ACAD_REACTORS
330
2FE8
102
}
330
2FE8
100
AcDbXrecord
 10
0.0
 20
0.0
 30
0.0
  0
XRECORD
  5
3005
102
{ACAD_REACTORS
330
2FE8
102
}
330
2FE8
100
AcDbXrecord
 10
0.0
 20
0.0
 30
0.0
  0
XRECORD
  5
3006
102
{ACAD_REACTORS
330
2FE8
102
}
330
2FE8
100
AcDbXrecord
 10
0.0
 20
0.0
 30
0.0
  0
XRECORD
  5
3007
102
{ACAD_REACTORS
330
2FE8
102
}
330
2FE8
100
AcDbXrecord
 10
0.0
 20
0.0
 30
0.0
  0
XRECORD
  5
3008
102
{ACAD_REACTORS
330
2FE8
102
}
330
2FE8
100
AcDbXrecord
 10
0.0
 20
0.0
 30
0.0
  0
LAYER_INDEX
  5
2FDE
102
{ACAD_REACTORS
330
2FDD
102
}
330
2FDD
100
AcDbIndex
 40
2453151.877505231
100
AcDbLayerIndex
  8
0
360
2FDF
 90
        0
  8
AM_0
360
2FE0
 90
       56
  8
AM_11
360
2FE1
 90
        4
  8
AM_7
360
2FE2
 90
        2
  8
AM_5
360
2FE3
 90
        5
  8
Defpoints
360
2FE4
 90
        0
  8
AM_6
360
2FE5
 90
        1
  8
AM_CL
360
2FE6
 90
        0
  0
XRECORD
  5
2D
102
{ACAD_REACTORS
330
2C
102
}
330
2C
100
AcDbXrecord
  1
VERSION
140
15.0
  1
PRODUCT
  2
AutoCAD Mechanical 2000
  0
IDBUFFER
  5
2FDF
330
0
100
AcDbIdBuffer
  0
IDBUFFER
  5
2FE0
330
0
100
AcDbIdBuffer
330
2EE1
330
2EE2
330
2EF0
330
2EF1
330
2EF2
330
2EF3
330
2EF4
330
2EF5
330
2A87
330
2A88
330
2A8C
330
2A91
330
2A92
330
2A93
330
2A94
330
2A95
330
2A96
330
2A97
330
2A98
330
2A99
330
2A9A
330
2A9B
330
2A9C
330
2A9D
330
2A9E
330
2A9F
330
2AA0
330
2AF6
330
2AF7
330
2AF8
330
2AF9
330
2AFA
330
2AFB
330
2AFC
330
2AFD
330
2AFE
330
2AFF
330
2B00
330
2B01
330
2B02
330
2B03
330
2B04
330
2B05
330
2B06
330
2B07
330
2B08
330
2B09
330
2B0A
330
2B0B
330
2B1B
330
2B1C
330
2B1D
330
2B1E
330
2B1F
330
2B20
330
2B21
  0
IDBUFFER
  5
2FE1
330
0
100
AcDbIdBuffer
330
2AB4
330
2AB5
330
2AB6
330
2B1A
  0
IDBUFFER
  5
2FE2
330
0
100
AcDbIdBuffer
330
C50
330
2156
  0
IDBUFFER
  5
2FE3
330
0
100
AcDbIdBuffer
330
195B
330
21D2
330
2347
330
2EE3
330
2EF6
  0
IDBUFFER
  5
2FE4
330
0
100
AcDbIdBuffer
  0
IDBUFFER
  5
2FE5
330
0
100
AcDbIdBuffer
330
C58
  0
IDBUFFER
  5
2FE6
330
0
100
AcDbIdBuffer
  0
ENDSEC
  0
EOF
