  0
SECTION
  2
HEADER
  9
$ACADVER
  1
AC1014
  9
$ACADMAINTVER
 70
     9
  9
$DWGCODEPAGE
  3
ANSI_932
  9
$INSBASE
 10
0.0
 20
0.0
 30
0.0
  9
$EXTMIN
 10
-48.26668921878226
 20
-25.75000100000006
 30
-0.00000001
  9
$EXTMAX
 10
7.793874998407332
 20
9.050667900485018
 30
0.00000001
  9
$LIMMIN
 10
-54.83716955270494
 20
-33.60863713758334
  9
$LIMMAX
 10
14.79119163317136
 20
15.08122579773356
  9
$ORTHOMODE
 70
     0
  9
$REGENMODE
 70
     1
  9
$FILLMODE
 70
     1
  9
$QTEXTMODE
 70
     0
  9
$MIRRTEXT
 70
     0
  9
$DRAGMODE
 70
     2
  9
$LTSCALE
 40
1.0
  9
$OSMODE
 70
  2103
  9
$ATTMODE
 70
     1
  9
$TEXTSIZE
 40
2.5
  9
$TRACEWID
 40
1.0
  9
$TEXTSTYLE
  7
STANDARD
  9
$CLAYER
  8
AM_0
  9
$CELTYPE
  6
BYLAYER
  9
$CECOLOR
 62
   256
  9
$CELTSCALE
 40
1.0
  9
$DELOBJ
 70
     1
  9
$DISPSILH
 70
     0
  9
$DIMSCALE
 40
1.0
  9
$DIMASZ
 40
2.5
  9
$DIMEXO
 40
1.0
  9
$DIMDLI
 40
12.0
  9
$DIMRND
 40
0.0
  9
$DIMDLE
 40
0.0
  9
$DIMEXE
 40
1.0
  9
$DIMTP
 40
0.1
  9
$DIMTM
 40
0.1
  9
$DIMTXT
 40
3.2
  9
$DIMCEN
 40
0.0
  9
$DIMTSZ
 40
0.0
  9
$DIMTOL
 70
     0
  9
$DIMLIM
 70
     0
  9
$DIMTIH
 70
     0
  9
$DIMTOH
 70
     0
  9
$DIMSE1
 70
     0
  9
$DIMSE2
 70
     0
  9
$DIMTAD
 70
     3
  9
$DIMZIN
 70
     8
  9
$DIMBLK
  1
OPEN30
  9
$DIMASO
 70
     1
  9
$DIMSHO
 70
     1
  9
$DIMPOST
  1

  9
$DIMAPOST
  1
"
  9
$DIMALT
 70
     0
  9
$DIMALTD
 70
     2
  9
$DIMALTF
 40
0.0393701
  9
$DIMLFAC
 40
1.0
  9
$DIMTOFL
 70
     1
  9
$DIMTVP
 40
0.0
  9
$DIMTIX
 70
     0
  9
$DIMSOXD
 70
     0
  9
$DIMSAH
 70
     0
  9
$DIMBLK1
  1

  9
$DIMBLK2
  1

  9
$DIMSTYLE
  2
AM_JIS
  9
$DIMCLRD
 70
   256
  9
$DIMCLRE
 70
   256
  9
$DIMCLRT
 70
     2
  9
$DIMTFAC
 40
0.71
  9
$DIMGAP
 40
1.5
  9
$DIMJUST
 70
     0
  9
$DIMSD1
 70
     0
  9
$DIMSD2
 70
     0
  9
$DIMTOLJ
 70
     0
  9
$DIMTZIN
 70
     0
  9
$DIMALTZ
 70
     0
  9
$DIMALTTZ
 70
     0
  9
$DIMFIT
 70
     3
  9
$DIMUPT
 70
     0
  9
$DIMUNIT
 70
     2
  9
$DIMDEC
 70
     3
  9
$DIMTDEC
 70
     3
  9
$DIMALTU
 70
     2
  9
$DIMALTTD
 70
     2
  9
$DIMTXSTY
  7
ASAMI
  9
$DIMAUNIT
 70
     0
  9
$LUNITS
 70
     2
  9
$LUPREC
 70
     2
  9
$SKETCHINC
 40
1.0
  9
$FILLETRAD
 40
2.5
  9
$AUNITS
 70
     0
  9
$AUPREC
 70
     0
  9
$MENU
  1
.
  9
$ELEVATION
 40
0.0
  9
$PELEVATION
 40
0.0
  9
$THICKNESS
 40
0.0
  9
$LIMCHECK
 70
     0
  9
$BLIPMODE
 70
     0
  9
$CHAMFERA
 40
0.2
  9
$CHAMFERB
 40
0.2
  9
$CHAMFERC
 40
20.0
  9
$CHAMFERD
 40
0.0
  9
$SKPOLY
 70
     0
  9
$TDCREATE
 40
2452810.397252777
  9
$TDUPDATE
 40
2452839.679105717
  9
$TDINDWG
 40
0.0453481366
  9
$TDUSRTIMER
 40
0.0453481366
  9
$USRTIMER
 70
     1
  9
$ANGBASE
 50
0.0
  9
$ANGDIR
 70
     0
  9
$PDMODE
 70
     0
  9
$PDSIZE
 40
0.0
  9
$PLINEWID
 40
0.0
  9
$COORDS
 70
     2
  9
$SPLFRAME
 70
     0
  9
$SPLINETYPE
 70
     6
  9
$SPLINESEGS
 70
     8
  9
$ATTDIA
 70
     1
  9
$ATTREQ
 70
     1
  9
$HANDLING
 70
 12289
  9
$HANDSEED
  5
2249
  9
$SURFTAB1
 70
     6
  9
$SURFTAB2
 70
     6
  9
$SURFTYPE
 70
     6
  9
$SURFU
 70
     6
  9
$SURFV
 70
     6
  9
$UCSNAME
  2

  9
$UCSORG
 10
0.0
 20
0.0
 30
0.0
  9
$UCSXDIR
 10
1.0
 20
0.0
 30
0.0
  9
$UCSYDIR
 10
0.0
 20
1.0
 30
0.0
  9
$PUCSNAME
  2

  9
$PUCSORG
 10
0.0
 20
0.0
 30
0.0
  9
$PUCSXDIR
 10
1.0
 20
0.0
 30
0.0
  9
$PUCSYDIR
 10
0.0
 20
1.0
 30
0.0
  9
$USERI1
 70
     0
  9
$USERI2
 70
     0
  9
$USERI3
 70
     0
  9
$USERI4
 70
     0
  9
$USERI5
 70
     0
  9
$USERR1
 40
0.0
  9
$USERR2
 40
0.0
  9
$USERR3
 40
0.0
  9
$USERR4
 40
0.0
  9
$USERR5
 40
0.0
  9
$WORLDVIEW
 70
     1
  9
$SHADEDGE
 70
     3
  9
$SHADEDIF
 70
    70
  9
$TILEMODE
 70
     1
  9
$MAXACTVP
 70
    64
  9
$PINSBASE
 10
0.0
 20
0.0
 30
0.0
  9
$PLIMCHECK
 70
     0
  9
$PEXTMIN
 10
1.000000000000000E+20
 20
1.000000000000000E+20
 30
1.000000000000000E+20
  9
$PEXTMAX
 10
-1.000000000000000E+20
 20
-1.000000000000000E+20
 30
-1.000000000000000E+20
  9
$PLIMMIN
 10
0.0
 20
0.0
  9
$PLIMMAX
 10
841.0
 20
594.0
  9
$UNITMODE
 70
     0
  9
$VISRETAIN
 70
     1
  9
$PLINEGEN
 70
     0
  9
$PSLTSCALE
 70
     0
  9
$TREEDEPTH
 70
  3020
  9
$PICKSTYLE
 70
     0
  9
$CMLSTYLE
  2
STANDARD
  9
$CMLJUST
 70
     0
  9
$CMLSCALE
 40
20.0
  9
$PROXYGRAPHICS
 70
     1
  9
$MEASUREMENT
 70
     1
  0
ENDSEC
  0
SECTION
  2
CLASSES
  0
CLASS
  1
ACDBDICTIONARYWDFLT
  2
AcDbDictionaryWithDefault
  3
AutoCAD 2000
 90
        0
280
     0
281
     0
  0
CLASS
  1
ACDBPLACEHOLDER
  2
AcDbPlaceHolder
  3
AutoCAD 2000
 90
        0
280
     0
281
     0
  0
CLASS
  1
LAYOUT
  2
AcDbLayout
  3
AutoCAD 2000
 90
        0
280
     0
281
     0
  0
CLASS
  1
AMGSETTINGSOBJ
  2
AmgSettingsObj
  3
"AcadM|Product Description: AutoCAD Mechanical 2000|Company: Autodesk"
 90
        0
280
     0
281
     0
  0
CLASS
  1
ACME_DOCUMENT
  2
AcMeDbDoc
  3
AcMeServices
 90
        0
280
     0
281
     0
  0
CLASS
  1
ACMESCOPE
  2
AcMeScope
  3
AcMeServices
 90
        0
280
     0
281
     0
  0
CLASS
  1
ACMECOMMANDHISTORY
  2
AcMeCommandHistory
  3
AcMeServices
 90
        0
280
     0
281
     0
  0
CLASS
  1
DICTIONARYVAR
  2
AcDbDictionaryVar
  3
AutoCAD 2000
 90
        0
280
     0
281
     0
  0
CLASS
  1
ACIMSYSVARMAN
  2
AcImSysVarManager
  3
AcMeServices
 90
        0
280
     0
281
     0
  0
CLASS
  1
ACIMREALSYSVAR
  2
AcImRealSysVar
  3
AcMeServices
 90
        0
280
     0
281
     0
  0
CLASS
  1
ACIMINTSYSVAR
  2
AcImIntSysVar
  3
AcMeServices
 90
        0
280
     0
281
     0
  0
CLASS
  1
ACMEDRAWINGMAN
  2
AcMeDrawingMan
  3
AcMeServices
 90
        0
280
     0
281
     0
  0
CLASS
  1
ACMEVIEW
  2
AcMeView
  3
AcMeServices
 90
        0
280
     0
281
     0
  0
CLASS
  1
ACDBENTITYCACHE
  2
AcMeEntityCache
  3
AcMeServices
 90
        0
280
     0
281
     0
  0
CLASS
  1
GSMANAGER
  2
AcMeGSManager
  3
AcMeServices
 90
        0
280
     0
281
     0
  0
CLASS
  1
AmdtInternalReactor
  2
AmdtInternalReactor
  3
AcMeServices
 90
        0
280
     0
281
     0
  0
CLASS
  1
ACMESTATEMGR
  2
AcMeStateMgr
  3
AcMeServices
 90
        0
280
     0
281
     0
  0
CLASS
  1
ACME_DATABASE
  2
AcMeDbDatabase
  3
AcMeServices
 90
        0
280
     0
281
     0
  0
CLASS
  1
ACRFINSADJUSTERMGR
  2
AcRfInsAdjusterMgr
  3
AcMeServices
 90
        0
280
     0
281
     0
  0
CLASS
  1
ACMDATADICTIONARY
  2
AcmDataDictionary
  3
"AcmSymBB|Product Description: AutoCAD Mechanical 2000|Company: Autodesk"
 90
        0
280
     0
281
     0
  0
CLASS
  1
ACMDATAENTRYBLOCK
  2
AcmDataEntryBlock
  3
"AcmSymBB|Product Description: AutoCAD Mechanical 2000|Company: Autodesk"
 90
        0
280
     0
281
     0
  0
CLASS
  1
AMGOBJPROPCFG
  2
AmgObjPropCfg
  3
"AmgLay|Product Description: AutoCAD Mechanical 2000|Company: Autodesk"
 90
        1
280
     0
281
     0
  0
CLASS
  1
ACAMGFILTERDAT
  2
AcAmgFilterDat
  3
"AcadM|Product Description: AutoCAD Mechanical 2000|Company: Autodesk"
 90
        0
280
     0
281
     0
  0
CLASS
  1
LAYER_INDEX
  2
AcDbLayerIndex
  3
AutoCAD 2000
 90
        0
280
     0
281
     0
  0
CLASS
  1
IDBUFFER
  2
AcDbIdBuffer
  3
AutoCAD 2000
 90
        0
280
     0
281
     0
  0
CLASS
  1
ACIMSTRSYSVAR
  2
AcImStrSysVar
  3
AcMeServices
 90
        0
280
     0
281
     0
  0
CLASS
  1
ACMSTANDARDJIS
  2
AcmStandardJIS
  3
"AcmSymBB|Product Description: AutoCAD Mechanical 2000|Company: Autodesk"
 90
        0
280
     0
281
     0
  0
CLASS
  1
ACMSURFSTANDARDJIS
  2
AcmSurfTextStdJIS
  3
"AcmSymBB|Product Description: AutoCAD Mechanical 2000|Company: Autodesk"
 90
        0
280
     0
281
     0
  0
CLASS
  1
ACMFCFSTANDARDJIS
  2
AcmFCFStdJIS
  3
"AcmSymBB|Product Description: AutoCAD Mechanical 2000|Company: Autodesk"
 90
        0
280
     0
281
     0
  0
CLASS
  1
ACMWELDSTANDARDJIS
  2
AcmWeldingStdJIS
  3
"AcmSymBB|Product Description: AutoCAD Mechanical 2000|Company: Autodesk"
 90
        0
280
     0
281
     0
  0
CLASS
  1
ACMIDSTANDARDJIS
  2
AcmIdStdJIS
  3
"AcmSymBB|Product Description: AutoCAD Mechanical 2000|Company: Autodesk"
 90
        0
280
     0
281
     0
  0
CLASS
  1
ACMDATUMSTANDARDJIS
  2
AcmDatumStdJIS
  3
"AcmSymBB|Product Description: AutoCAD Mechanical 2000|Company: Autodesk"
 90
        0
280
     0
281
     0
  0
CLASS
  1
ACMBOMSTANDARDJIS
  2
AcmBOMStdJIS
  3
"AcmSymBB|Product Description: AutoCAD Mechanical 2000|Company: Autodesk"
 90
        0
280
     0
281
     0
  0
CLASS
  1
ACMSTANDARDANSI
  2
AcmStandardANSI
  3
"AcmSymBB|Product Description: AutoCAD Mechanical 2000|Company: Autodesk"
 90
        0
280
     0
281
     0
  0
CLASS
  1
ACMSURFSTANDARDANSI
  2
AcmSurfTextStdANSI
  3
"AcmSymBB|Product Description: AutoCAD Mechanical 2000|Company: Autodesk"
 90
        0
280
     0
281
     0
  0
CLASS
  1
ACMFCFSTANDARDANSI
  2
AcmFCFStdANSI
  3
"AcmSymBB|Product Description: AutoCAD Mechanical 2000|Company: Autodesk"
 90
        0
280
     0
281
     0
  0
CLASS
  1
ACMWELDSTANDARDANSI
  2
AcmWeldingStdANSI
  3
"AcmSymBB|Product Description: AutoCAD Mechanical 2000|Company: Autodesk"
 90
        0
280
     0
281
     0
  0
CLASS
  1
ACMIDSTANDARDANSI
  2
AcmIdStdANSI
  3
"AcmSymBB|Product Description: AutoCAD Mechanical 2000|Company: Autodesk"
 90
        0
280
     0
281
     0
  0
CLASS
  1
ACMDATUMSTANDARDANSI
  2
AcmDatumStdANSI
  3
"AcmSymBB|Product Description: AutoCAD Mechanical 2000|Company: Autodesk"
 90
        0
280
     0
281
     0
  0
CLASS
  1
ACMBOMSTANDARDANSI
  2
AcmBOMStdANSI
  3
"AcmSymBB|Product Description: AutoCAD Mechanical 2000|Company: Autodesk"
 90
        0
280
     0
281
     0
  0
CLASS
  1
ACMSTANDARDBSI
  2
AcmStandardBSI
  3
"AcmSymBB|Product Description: AutoCAD Mechanical 2000|Company: Autodesk"
 90
        0
280
     0
281
     0
  0
CLASS
  1
ACMSURFSTANDARDBSI
  2
AcmSurfTextStdBSI
  3
"AcmSymBB|Product Description: AutoCAD Mechanical 2000|Company: Autodesk"
 90
        0
280
     0
281
     0
  0
CLASS
  1
ACMFCFSTANDARDBSI
  2
AcmFCFStdBSI
  3
"AcmSymBB|Product Description: AutoCAD Mechanical 2000|Company: Autodesk"
 90
        0
280
     0
281
     0
  0
CLASS
  1
ACMWELDSTANDARDBSI
  2
AcmWeldingStdBSI
  3
"AcmSymBB|Product Description: AutoCAD Mechanical 2000|Company: Autodesk"
 90
        0
280
     0
281
     0
  0
CLASS
  1
ACMIDSTANDARDBSI
  2
AcmIdStdBSI
  3
"AcmSymBB|Product Description: AutoCAD Mechanical 2000|Company: Autodesk"
 90
        0
280
     0
281
     0
  0
CLASS
  1
ACMDATUMSTANDARDBSI
  2
AcmDatumStdBSI
  3
"AcmSymBB|Product Description: AutoCAD Mechanical 2000|Company: Autodesk"
 90
        0
280
     0
281
     0
  0
CLASS
  1
ACMBOMSTANDARDBSI
  2
AcmBOMStdBSI
  3
"AcmSymBB|Product Description: AutoCAD Mechanical 2000|Company: Autodesk"
 90
        0
280
     0
281
     0
  0
CLASS
  1
LONG_TRANSACTION
  2
AcDbLongTransaction
  3
AutoCAD 2000
 90
        0
280
     0
281
     0
  0
CLASS
  1
LWPOLYLINE
  2
AcDbPolyline
  3
AutoCAD 2000
 90
        0
280
     0
281
     1
  0
CLASS
  1
HATCH
  2
AcDbHatch
  3
AutoCAD 2000
 90
        0
280
     0
281
     1
  0
CLASS
  1
XRECORD
  2
AcDbXrecord
  3
AutoCAD 2000
 90
        0
280
     0
281
     0
  0
ENDSEC
  0
SECTION
  2
TABLES
  0
TABLE
  2
VPORT
  5
8
330
0
100
AcDbSymbolTable
 70
     3
  0
VPORT
  5
221E
330
8
100
AcDbSymbolTableRecord
100
AcDbViewportTableRecord
  2
*ACTIVE
 70
     0
 10
0.0
 20
0.0
 11
1.0
 21
1.0
 12
-20.23536023388845
 22
-8.35236364469209
 13
0.0
 23
0.0
 14
2.5
 24
2.5
 15
10.0
 25
10.0
 16
0.0
 26
0.0
 36
1.0
 17
0.0
 27
0.0
 37
0.0
 40
35.95055333069472
 41
1.56570841889117
 42
50.0
 43
0.0
 44
0.0
 50
0.0
 51
0.0
 71
     0
 72
   100
 73
     1
 74
     3
 75
     0
 76
     0
 77
     0
 78
     0
  0
ENDTAB
  0
TABLE
  2
LTYPE
  5
5
330
0
100
AcDbSymbolTable
 70
    10
  0
LTYPE
  5
14
330
5
100
AcDbSymbolTableRecord
100
AcDbLinetypeTableRecord
  2
BYBLOCK
 70
     0
  3

 72
    65
 73
     0
 40
0.0
  0
LTYPE
  5
15
330
5
100
AcDbSymbolTableRecord
100
AcDbLinetypeTableRecord
  2
BYLAYER
 70
     0
  3

 72
    65
 73
     0
 40
0.0
  0
LTYPE
  5
16
330
5
100
AcDbSymbolTableRecord
100
AcDbLinetypeTableRecord
  2
CONTINUOUS
 70
     0
  3
Solid line
 72
    65
 73
     0
 40
0.0
  0
LTYPE
  5
4B
330
5
100
AcDbSymbolTableRecord
100
AcDbLinetypeTableRecord
  2
AM_ISO02W050
 70
     0
  3
__ __ __ __ __ __ __ __ __ __ __ __ __ __ __
 72
    65
 73
     2
 40
7.5
 49
6.0
 74
     0
 49
-1.5
 74
     0
  0
LTYPE
  5
4C
330
5
100
AcDbSymbolTableRecord
100
AcDbLinetypeTableRecord
  2
AM_ISO08W050
 70
     0
  3
____ . ____ . ____ . ____ . ____ . ____ . ____
 72
    65
 73
     4
 40
18.0
 49
12.0
 74
     0
 49
-1.5
 74
     0
 49
3.0
 74
     0
 49
-1.5
 74
     0
  0
LTYPE
  5
4D
330
5
100
AcDbSymbolTableRecord
100
AcDbLinetypeTableRecord
  2
AM_ISO09W050
 70
     0
  3
_____ . . _____ . . _____ . . ____ .. ____
 72
    65
 73
     6
 40
22.5
 49
12.0
 74
     0
 49
-1.5
 74
     0
 49
3.0
 74
     0
 49
-1.5
 74
     0
 49
3.0
 74
     0
 49
-1.5
 74
     0
  0
LTYPE
  5
4E
330
5
100
AcDbSymbolTableRecord
100
AcDbLinetypeTableRecord
  2
AMCONSTR
 70
     0
  3
_______________________
 72
    65
 73
     2
 40
9999.0
 49
9999.0
 74
     0
 49
0.0
 74
     0
  0
LTYPE
  5
4F
330
5
100
AcDbSymbolTableRecord
100
AcDbLinetypeTableRecord
  2
AM_ISO02W050X2
 70
     0
  3
 _ _ _ _ _ _ _ _ _ _ _ _
 72
    65
 73
     2
 40
3.75
 49
3.0
 74
     0
 49
-0.75
 74
     0
  0
LTYPE
  5
50
330
5
100
AcDbSymbolTableRecord
100
AcDbLinetypeTableRecord
  2
AM_ISO08W050X2
 70
     0
  3
__ . __ . __ . __ . __ . __
 72
    65
 73
     4
 40
9.0
 49
6.0
 74
     0
 49
-0.75
 74
     0
 49
1.5
 74
     0
 49
-0.75
 74
     0
  0
LTYPE
  5
53
330
5
100
AcDbSymbolTableRecord
100
AcDbLinetypeTableRecord
  2
AMZIGZAG
 70
     0
  3
/\/-/\/-/\/-/\/-/\/-/\/
 72
    65
 73
     2
 40
11.00009999999999
 49
0.0001
 74
     4
 75
   135
340
52
 46
0.04
 50
0.0
 44
0.0
 45
0.0
 49
-11.0
 74
     0
  0
LTYPE
  5
166
330
5
100
AcDbSymbolTableRecord
100
AcDbLinetypeTableRecord
  2
ACJISTGL
 70
     0
  3
_ _ _ _ _
 72
    65
 73
     2
 40
3.0
 49
2.0
 74
     0
 49
-1.0
 74
     0
  0
LTYPE
  5
26A
330
5
100
AcDbSymbolTableRecord
100
AcDbLinetypeTableRecord
  2
ACJISTGB
 70
     0
  3
__ . . __ . .
 72
    65
 73
     6
 40
9.0
 49
4.0
 74
     0
 49
-1.0
 74
     0
 49
1.0
 74
     0
 49
-1.0
 74
     0
 49
1.0
 74
     0
 49
-1.0
 74
     0
  0
ENDTAB
  0
TABLE
  2
LAYER
  5
2
330
0
100
AcDbSymbolTable
 70
     8
  0
LAYER
  5
10
330
2
100
AcDbSymbolTableRecord
100
AcDbLayerTableRecord
  2
0
 70
     0
 62
     7
  6
CONTINUOUS
  0
LAYER
  5
3F9
330
2
100
AcDbSymbolTableRecord
100
AcDbLayerTableRecord
  2
AM_0
 70
     0
 62
     7
  6
CONTINUOUS
  0
LAYER
  5
BA4
330
2
100
AcDbSymbolTableRecord
100
AcDbLayerTableRecord
  2
AM_11
 70
     0
 62
     3
  6
AM_ISO09W050
  0
LAYER
  5
BA5
330
2
100
AcDbSymbolTableRecord
100
AcDbLayerTableRecord
  2
AM_7
 70
     0
 62
     4
  6
AM_ISO08W050
  0
LAYER
  5
C84
330
2
100
AcDbSymbolTableRecord
100
AcDbLayerTableRecord
  2
AM_5
 70
     0
 62
     3
  6
CONTINUOUS
  0
LAYER
  5
F05
330
2
100
AcDbSymbolTableRecord
100
AcDbLayerTableRecord
  2
AM_6
 70
     0
 62
     2
  6
CONTINUOUS
  0
LAYER
  5
F0F
330
2
100
AcDbSymbolTableRecord
100
AcDbLayerTableRecord
  2
DEFPOINTS
 70
     0
 62
     7
  6
CONTINUOUS
  0
LAYER
  5
20EE
330
2
100
AcDbSymbolTableRecord
100
AcDbLayerTableRecord
  2
AM_CL
 70
     0
 62
     1
  6
AMCONSTR
  0
ENDTAB
  0
TABLE
  2
STYLE
  5
3
330
0
100
AcDbSymbolTable
 70
     5
  0
STYLE
  5
11
330
3
100
AcDbSymbolTableRecord
100
AcDbTextStyleTableRecord
  2
STANDARD
 70
     0
 40
0.0
 41
1.0
 50
0.0
 71
     0
 42
2.5
  3
simplex.shx
  4
EXTFONT.SHX
  0
STYLE
  5
52
330
3
100
AcDbSymbolTableRecord
100
AcDbTextStyleTableRecord
  2

 70
     1
 40
0.0
 41
1.0
 50
0.0
 71
     0
 42
2.5
  3
ltypeshp.shx
  4

  0
STYLE
  5
6B
330
3
100
AcDbSymbolTableRecord
100
AcDbTextStyleTableRecord
  2
ASAMI
 70
     0
 40
0.0
 41
1.0
 50
0.0
 71
     0
 42
2.5
  3
simplex.shx
  4
EXTFONT.SHX
  0
STYLE
  5
262
330
3
100
AcDbSymbolTableRecord
100
AcDbTextStyleTableRecord
  2
ACJISTS
 70
     0
 40
1.0
 41
1.0
 50
0.0
 71
     0
 42
2.5
  3
simplex.shx
  4
bigfont.shx
  0
STYLE
  5
269
330
3
100
AcDbSymbolTableRecord
100
AcDbTextStyleTableRecord
  2
ACJISGDT
 70
     0
 40
0.0
 41
1.0
 50
0.0
 71
     0
 42
2.5
  3
amgdtans.shx
  4

  0
ENDTAB
  0
TABLE
  2
VIEW
  5
6
330
0
100
AcDbSymbolTable
 70
     0
  0
ENDTAB
  0
TABLE
  2
UCS
  5
7
330
0
100
AcDbSymbolTable
 70
     0
  0
ENDTAB
  0
TABLE
  2
APPID
  5
9
330
0
100
AcDbSymbolTable
 70
    13
  0
APPID
  5
12
330
9
100
AcDbSymbolTableRecord
100
AcDbRegAppTableRecord
  2
ACAD
 70
     0
  0
APPID
  5
30
330
9
100
AcDbSymbolTableRecord
100
AcDbRegAppTableRecord
  2
MCAD_NO_VIS
 70
     0
  0
APPID
  5
31
330
9
100
AcDbSymbolTableRecord
100
AcDbRegAppTableRecord
  2
ACAD_TEMP_GRAPHIC
 70
     0
  0
APPID
  5
2C2
330
9
100
AcDbSymbolTableRecord
100
AcDbRegAppTableRecord
  2
GENIUS_GENDTOL_13
 70
     0
  0
APPID
  5
339
330
9
100
AcDbSymbolTableRecord
100
AcDbRegAppTableRecord
  2
GENIUS_GENODEF_13
 70
     0
  0
APPID
  5
33A
330
9
100
AcDbSymbolTableRecord
100
AcDbRegAppTableRecord
  2
GENIUS_GENOBJ-N-RSBK_13
 70
     0
  0
APPID
  5
33B
330
9
100
AcDbSymbolTableRecord
100
AcDbRegAppTableRecord
  2
GENIUS_GENOBJ-N-LIB_13
 70
     0
  0
APPID
  5
33C
330
9
100
AcDbSymbolTableRecord
100
AcDbRegAppTableRecord
  2
GENIUS_GENSCALE_13
 70
     0
  0
APPID
  5
378
330
9
100
AcDbSymbolTableRecord
100
AcDbRegAppTableRecord
  2
GENIUS_GENDIMSH_14
 70
     0
  0
APPID
  5
BA6
330
9
100
AcDbSymbolTableRecord
100
AcDbRegAppTableRecord
  2
GENIUS_GENOBJ-N-CEN_13
 70
     0
  0
APPID
  5
BEC
330
9
100
AcDbSymbolTableRecord
100
AcDbRegAppTableRecord
  2
GENIUS_GENOREF_13
 70
     0
  0
APPID
  5
EEE
330
9
100
AcDbSymbolTableRecord
100
AcDbRegAppTableRecord
  2
GENIUS_GENFIL_13
 70
     0
  0
APPID
  5
EEF
330
9
100
AcDbSymbolTableRecord
100
AcDbRegAppTableRecord
  2
GENIUS_GENOBJ-N-CHA_13
 70
     0
  0
ENDTAB
  0
TABLE
  2
DIMSTYLE
  5
A
330
0
100
AcDbSymbolTable
 70
     8
  0
DIMSTYLE
105
58
102
{ACAD_REACTORS
330
1968
330
1FFA
330
2009
330
2029
102
}
330
A
100
AcDbSymbolTableRecord
100
AcDbDimStyleTableRecord
  2
AM_JIS
 70
     0
  3

  4
"
  5
OPEN30
  6

  7

 40
0.5
 41
2.5
 42
1.0
 43
12.0
 44
1.0
 45
0.0
 46
0.0
 47
0.1
 48
0.1
140
3.2
141
0.0
142
0.0
143
0.0393701
144
1.0
145
0.0
146
0.71
147
1.5
 71
     0
 72
     0
 73
     0
 74
     0
 75
     0
 76
     0
 77
     3
 78
     8
170
     0
171
     2
172
     1
173
     0
174
     0
175
     0
176
   256
177
   256
178
     2
270
     2
271
     3
272
     3
273
     2
274
     2
340
6B
275
     0
280
     0
281
     0
282
     0
283
     0
284
     0
285
     0
286
     0
287
     3
288
     0
  0
DIMSTYLE
105
5F
330
A
100
AcDbSymbolTableRecord
100
AcDbDimStyleTableRecord
  2
AM_JIS$3
 70
     0
  3

  4
"
  5
OPEN30
  6

  7

 40
0.5
 41
2.5
 42
1.0
 43
10.0
 44
1.0
 45
0.0
 46
0.0
 47
0.1
 48
0.1
140
3.2
141
0.0
142
0.0
143
0.0393701
144
1.0
145
0.0
146
0.71
147
1.5
 71
     0
 72
     0
 73
     0
 74
     1
 75
     0
 76
     0
 77
     3
 78
     8
170
     0
171
     2
172
     0
173
     0
174
     0
175
     0
176
   256
177
   256
178
     2
270
     2
271
     2
272
     3
273
     2
274
     2
340
6B
275
     0
280
     0
281
     0
282
     0
283
     0
284
     0
285
     0
286
     0
287
     0
288
     1
  0
DIMSTYLE
105
60
330
A
100
AcDbSymbolTableRecord
100
AcDbDimStyleTableRecord
  2
AM_JIS$4
 70
     0
  3

  4
"
  5
OPEN30
  6

  7

 40
0.5
 41
2.5
 42
1.0
 43
10.0
 44
1.0
 45
0.0
 46
0.0
 47
0.1
 48
0.1
140
3.2
141
0.0
142
0.0
143
0.0393701
144
1.0
145
0.0
146
0.71
147
1.5
 71
     0
 72
     0
 73
     0
 74
     1
 75
     0
 76
     0
 77
     3
 78
     8
170
     0
171
     2
172
     0
173
     0
174
     0
175
     0
176
   256
177
   256
178
     2
270
     2
271
     2
272
     3
273
     2
274
     2
340
6B
275
     0
280
     0
281
     0
282
     0
283
     0
284
     0
285
     0
286
     0
287
     0
288
     1
  0
DIMSTYLE
105
61
330
A
100
AcDbSymbolTableRecord
100
AcDbDimStyleTableRecord
  2
AM_JIS$6
 70
     0
  3

  4
"
  5
OPEN30
  6

  7

 40
0.5
 41
2.5
 42
1.0
 43
10.0
 44
1.0
 45
0.0
 46
0.0
 47
0.1
 48
0.1
140
3.2
141
0.0
142
0.0
143
0.0393701
144
1.0
145
0.0
146
0.71
147
1.5
 71
     0
 72
     0
 73
     0
 74
     0
 75
     0
 76
     0
 77
     0
 78
     8
170
     0
171
     2
172
     1
173
     0
174
     0
175
     0
176
   256
177
   256
178
     2
270
     2
271
     2
272
     2
273
     2
274
     2
340
6B
275
     0
280
     0
281
     0
282
     0
283
     0
284
     0
285
     0
286
     0
287
     3
288
     0
  0
DIMSTYLE
105
62
330
A
100
AcDbSymbolTableRecord
100
AcDbDimStyleTableRecord
  2
AM_JIS$7
 70
     0
  3

  4
"
  5
OPEN30
  6

  7

 40
0.5
 41
2.5
 42
1.0
 43
10.0
 44
1.0
 45
0.0
 46
0.0
 47
0.1
 48
0.1
140
3.2
141
0.0
142
0.0
143
0.0393701
144
1.0
145
0.0
146
0.71
147
1.5
 71
     0
 72
     0
 73
     0
 74
     0
 75
     0
 76
     0
 77
     3
 78
     8
170
     0
171
     2
172
     1
173
     0
174
     0
175
     0
176
   256
177
   256
178
     2
270
     2
271
     2
272
     3
273
     2
274
     2
340
6B
275
     0
280
     0
281
     0
282
     0
283
     0
284
     0
285
     0
286
     0
287
     3
288
     0
  0
DIMSTYLE
105
63
330
A
100
AcDbSymbolTableRecord
100
AcDbDimStyleTableRecord
  2
AM_JIS$SF
 70
     0
  3

  4
"
  5
OPEN30
  6

  7

 40
0.5
 41
2.5
 42
1.0
 43
10.0
 44
1.0
 45
0.0
 46
0.0
 47
0.1
 48
0.1
140
3.2
141
0.0
142
0.0
143
0.0393701
144
1.0
145
0.0
146
0.71
147
1.5
 71
     0
 72
     0
 73
     0
 74
     0
 75
     1
 76
     1
 77
     3
 78
     8
170
     0
171
     2
172
     1
173
     0
174
     0
175
     0
176
   256
177
   256
178
     2
270
     2
271
     2
272
     2
273
     2
274
     2
340
6B
275
     0
280
     0
281
     0
282
     0
283
     0
284
     0
285
     0
286
     0
287
     3
288
     0
  0
DIMSTYLE
105
68
330
A
100
AcDbSymbolTableRecord
100
AcDbDimStyleTableRecord
  2
AM_JIS$SH
 70
     0
  3

  4
"
  5

  6
GENAXEH
  7
OPEN30
 40
0.5
 41
2.5
 42
1.0
 43
10.0
 44
1.0
 45
0.0
 46
0.0
 47
0.1
 48
0.1
140
3.2
141
0.0
142
0.0
143
0.0393701
144
2.0
145
0.0
146
0.71
147
1.5
 71
     0
 72
     0
 73
     0
 74
     0
 75
     1
 76
     1
 77
     3
 78
     8
170
     0
171
     2
172
     1
173
     1
174
     0
175
     0
176
   256
177
   256
178
     2
270
     2
271
     2
272
     2
273
     2
274
     2
340
6B
275
     0
280
     0
281
     0
282
     0
283
     0
284
     0
285
     0
286
     0
287
     3
288
     0
  0
DIMSTYLE
105
B34
330
A
100
AcDbSymbolTableRecord
100
AcDbDimStyleTableRecord
  2
AM_JIS$2
 70
     0
  3

  4
"
  5
OPEN30
  6

  7

 40
0.5
 41
2.5
 42
1.0
 43
12.0
 44
1.0
 45
0.0
 46
0.0
 47
0.1
 48
0.1
140
3.2
141
0.0
142
0.0
143
0.0393701
144
1.0
145
0.0
146
0.71
147
1.5
 71
     0
 72
     0
 73
     0
 74
     0
 75
     0
 76
     0
 77
     3
 78
     8
170
     0
171
     2
172
     1
173
     0
174
     0
175
     0
176
   256
177
   256
178
     2
270
     2
271
     3
272
     3
273
     2
274
     2
340
6B
275
     0
280
     0
281
     0
282
     0
283
     0
284
     0
285
     0
286
     0
287
     3
288
     0
  0
ENDTAB
  0
TABLE
  2
BLOCK_RECORD
  5
1
330
0
100
AcDbSymbolTable
 70
     9
  0
BLOCK_RECORD
  5
1F
102
{ACAD_XDICTIONARY
360
74
102
}
330
1
100
AcDbSymbolTableRecord
100
AcDbBlockTableRecord
  2
*MODEL_SPACE
  0
BLOCK_RECORD
  5
101
102
{ACAD_XDICTIONARY
360
2247
102
}
330
1
100
AcDbSymbolTableRecord
100
AcDbBlockTableRecord
  2
*PAPER_SPACE
  0
BLOCK_RECORD
  5
59
330
1
100
AcDbSymbolTableRecord
100
AcDbBlockTableRecord
  2
_OPEN30
  0
BLOCK_RECORD
  5
64
330
1
100
AcDbSymbolTableRecord
100
AcDbBlockTableRecord
  2
GENAXEH
  0
BLOCK_RECORD
  5
1969
330
1
100
AcDbSymbolTableRecord
100
AcDbBlockTableRecord
  2
*D5
  0
BLOCK_RECORD
  5
1FFB
330
1
100
AcDbSymbolTableRecord
100
AcDbBlockTableRecord
  2
*D6
  0
BLOCK_RECORD
  5
200A
330
1
100
AcDbSymbolTableRecord
100
AcDbBlockTableRecord
  2
*D7
  0
BLOCK_RECORD
  5
202A
330
1
100
AcDbSymbolTableRecord
100
AcDbBlockTableRecord
  2
*D8
  0
ENDTAB
  0
ENDSEC
  0
SECTION
  2
BLOCKS
  0
BLOCK
  5
20
330
1F
100
AcDbEntity
  8
0
100
AcDbBlockBegin
  2
*MODEL_SPACE
 70
     0
 10
0.0
 20
0.0
 30
0.0
  3
*MODEL_SPACE
  1

  0
ENDBLK
  5
21
330
1F
100
AcDbEntity
  8
0
100
AcDbBlockEnd
  0
BLOCK
  5
103
330
101
100
AcDbEntity
 67
     1
  8
0
100
AcDbBlockBegin
  2
*PAPER_SPACE
 70
     0
 10
0.0
 20
0.0
 30
0.0
  3
*PAPER_SPACE
  1

  0
ENDBLK
  5
104
330
101
100
AcDbEntity
 67
     1
  8
0
100
AcDbBlockEnd
  0
BLOCK
  5
5D
330
59
100
AcDbEntity
  8
0
100
AcDbBlockBegin
  2
_OPEN30
 70
     0
 10
0.0
 20
0.0
 30
0.0
  3
_OPEN30
  1

  0
LINE
  5
5A
330
59
100
AcDbEntity
  8
0
 62
     0
100
AcDbLine
 10
-1.0
 20
0.26794919
 30
0.0
 11
0.0
 21
0.0
 31
0.0
  0
LINE
  5
5B
330
59
100
AcDbEntity
  8
0
 62
     0
100
AcDbLine
 10
0.0
 20
0.0
 30
0.0
 11
-1.0
 21
-0.26794919
 31
0.0
  0
LINE
  5
5C
330
59
100
AcDbEntity
  8
0
 62
     0
100
AcDbLine
 10
0.0
 20
0.0
 30
0.0
 11
-1.0
 21
0.0
 31
0.0
  0
ENDBLK
  5
5E
330
59
100
AcDbEntity
  8
0
100
AcDbBlockEnd
  0
BLOCK
  5
66
330
64
100
AcDbEntity
  8
0
100
AcDbBlockBegin
  2
GENAXEH
 70
     0
 10
0.0
 20
0.0
 30
0.0
  3
GENAXEH
  1

  0
LINE
  5
65
330
64
100
AcDbEntity
  8
0
100
AcDbLine
 10
-1.0
 20
0.0
 30
0.0
 11
1.0
 21
0.0
 31
0.0
  0
ENDBLK
  5
67
330
64
100
AcDbEntity
  8
0
100
AcDbBlockEnd
  0
BLOCK
  5
1975
330
1969
100
AcDbEntity
  8
0
100
AcDbBlockBegin
  2
*D5
 70
     1
 10
0.0
 20
0.0
 30
0.0
  3
*D5
  1

  0
LINE
  5
21F8
330
1969
100
AcDbEntity
  8
AM_5
100
AcDbLine
 10
-38.29999999999999
 20
-1.499999999999994
 30
0.0
 11
-46.41668921878227
 21
-1.499999999999992
 31
0.0
  0
LINE
  5
21F9
330
1969
100
AcDbEntity
  8
AM_5
100
AcDbLine
 10
-38.3
 20
1.500000000000005
 30
0.0
 11
-46.41668921878227
 21
1.500000000000007
 31
0.0
  0
LINE
  5
21FA
330
1969
100
AcDbEntity
  8
AM_5
100
AcDbLine
 10
-45.91668921878226
 20
-2.749999999999992
 30
0.0
 11
-45.91668921878226
 21
-3.999999999999992
 31
0.0
  0
LINE
  5
21FB
330
1969
100
AcDbEntity
  8
AM_5
100
AcDbLine
 10
-45.91668921878226
 20
2.750000000000007
 30
0.0
 11
-45.91668921878226
 21
4.000000000000007
 31
0.0
  0
LINE
  5
21FC
330
1969
100
AcDbEntity
  8
AM_5
100
AcDbLine
 10
-45.91668921878226
 20
-1.499999999999992
 30
0.0
 11
-45.91668921878226
 21
1.500000000000007
 31
0.0
  0
INSERT
  5
21FD
330
1969
100
AcDbEntity
  8
AM_5
100
AcDbBlockReference
  2
_OPEN30
 10
-45.91668921878226
 20
-1.499999999999992
 30
0.0
 41
1.25
 42
1.25
 43
1.25
 50
90.0
  0
INSERT
  5
21FE
330
1969
100
AcDbEntity
  8
AM_5
100
AcDbBlockReference
  2
_OPEN30
 10
-45.91668921878226
 20
1.500000000000007
 30
0.0
 41
1.25
 42
1.25
 43
1.25
 50
270.0
  0
MTEXT
  5
21FF
330
1969
100
AcDbEntity
  8
AM_5
 62
     2
100
AcDbMText
 10
-47.46668921878226
 20
0.0000000000000006
 30
0.0
 40
1.6
 41
0.0
 71
     5
 72
     1
  1
%%c3
  7
ASAMI
 11
0.0000000000000001
 21
1.0
 31
0.0
1001
ACAD
1000
MTEXTBEGIN
1070
    73
1070
     1
1070
    44
1040
1.0
1070
    74
1070
     0
1000
MTEXTEND
  0
POINT
  5
2200
330
1969
100
AcDbEntity
  8
DEFPOINTS
 62
     0
100
AcDbPoint
 10
-37.79999999999999
 20
-1.499999999999994
 30
0.0
  0
POINT
  5
2201
330
1969
100
AcDbEntity
  8
DEFPOINTS
 62
     0
100
AcDbPoint
 10
-37.79999999999999
 20
1.500000000000005
 30
0.0
  0
POINT
  5
2202
330
1969
100
AcDbEntity
  8
DEFPOINTS
 62
     0
100
AcDbPoint
 10
-45.91668921878226
 20
1.500000000000007
 30
0.0
  0
ENDBLK
  5
1976
330
1969
100
AcDbEntity
  8
0
100
AcDbBlockEnd
  0
BLOCK
  5
2007
330
1FFB
100
AcDbEntity
  8
0
100
AcDbBlockBegin
  2
*D6
 70
     1
 10
0.0
 20
0.0
 30
0.0
  3
*D6
  1

  0
LINE
  5
21ED
330
1FFB
100
AcDbEntity
  8
AM_5
100
AcDbLine
 10
0.4999999999999512
 20
0.2506679004850214
 30
0.0
 11
7.793874998407332
 21
0.2506679004850193
 31
0.0
  0
LINE
  5
21EE
330
1FFB
100
AcDbEntity
  8
AM_5
100
AcDbLine
 10
0.4999999999999512
 20
-0.2493121266798508
 30
0.0
 11
7.793874998407332
 21
-0.2493121266798528
 31
0.0
  0
LINE
  5
21EF
330
1FFB
100
AcDbEntity
  8
AM_5
100
AcDbLine
 10
7.293874998407332
 20
-1.499312126679852
 30
0.0
 11
7.293874998407331
 21
-2.749312126679853
 31
0.0
  0
LINE
  5
21F0
330
1FFB
100
AcDbEntity
  8
AM_5
100
AcDbLine
 10
7.293874998407332
 20
1.500667900485019
 30
0.0
 11
7.293874998407334
 21
9.050667900485018
 31
0.0
  0
LINE
  5
21F1
330
1FFB
100
AcDbEntity
  8
AM_5
100
AcDbLine
 10
7.293874998407332
 20
-0.2493121266798527
 30
0.0
 11
7.293874998407332
 21
0.2506679004850195
 31
0.0
  0
INSERT
  5
21F2
330
1FFB
100
AcDbEntity
  8
AM_5
100
AcDbBlockReference
  2
_OPEN30
 10
7.293874998407332
 20
-0.2493121266798527
 30
0.0
 41
1.25
 42
1.25
 43
1.25
 50
90.0
  0
INSERT
  5
21F3
330
1FFB
100
AcDbEntity
  8
AM_5
100
AcDbBlockReference
  2
_OPEN30
 10
7.293874998407332
 20
0.2506679004850195
 30
0.0
 41
1.25
 42
1.25
 43
1.25
 50
270.0
  0
MTEXT
  5
21F4
330
1FFB
100
AcDbEntity
  8
AM_5
 62
     2
100
AcDbMText
 10
5.743874998407331
 20
5.90066790048502
 30
0.0
 40
1.6
 41
0.0
 71
     5
 72
     1
  1
%%c0.5
  7
ASAMI
 11
0.0000000000000001
 21
1.0
 31
0.0
1001
ACAD
1000
MTEXTBEGIN
1070
    73
1070
     1
1070
    44
1040
1.0
1070
    74
1070
     0
1000
MTEXTEND
  0
POINT
  5
21F5
330
1FFB
100
AcDbEntity
  8
DEFPOINTS
 62
     0
100
AcDbPoint
 10
-0.0000000000000489
 20
0.2506679004850215
 30
0.0
  0
POINT
  5
21F6
330
1FFB
100
AcDbEntity
  8
DEFPOINTS
 62
     0
100
AcDbPoint
 10
-0.0000000000000489
 20
-0.2493121266798506
 30
0.0
  0
POINT
  5
21F7
330
1FFB
100
AcDbEntity
  8
DEFPOINTS
 62
     0
100
AcDbPoint
 10
7.293874998407332
 20
-0.2493121266798527
 30
0.0
  0
ENDBLK
  5
2008
330
1FFB
100
AcDbEntity
  8
0
100
AcDbBlockEnd
  0
BLOCK
  5
2016
330
200A
100
AcDbEntity
  8
0
100
AcDbBlockBegin
  2
*D7
 70
     1
 10
0.0
 20
0.0
 30
0.0
  3
*D7
  1

  0
LINE
  5
21D7
330
200A
100
AcDbEntity
  8
AM_5
100
AcDbLine
 10
-0.0000000000000489
 20
-0.7493121538447341
 30
0.0
 11
-0.0000000000000494
 21
-9.000000999999988
 31
0.0
  0
LINE
  5
21D8
330
200A
100
AcDbEntity
  8
AM_5
100
AcDbLine
 10
-1.250000000000048
 20
-0.7493121266798508
 30
0.0
 11
-1.250000000000049
 21
-9.000000999999988
 31
0.0
  0
LINE
  5
21D9
330
200A
100
AcDbEntity
  8
AM_5
100
AcDbLine
 10
1.24999999999995
 20
-8.500000999999988
 30
0.0
 11
2.49999999999995
 21
-8.500000999999988
 31
0.0
  0
LINE
  5
21DA
330
200A
100
AcDbEntity
  8
AM_5
100
AcDbLine
 10
-2.500000000000049
 20
-8.500000999999988
 30
0.0
 11
-9.821428571428622
 21
-8.500000999999988
 31
0.0
  0
LINE
  5
21DB
330
200A
100
AcDbEntity
  8
AM_5
100
AcDbLine
 10
-0.0000000000000494
 20
-8.500000999999988
 30
0.0
 11
-1.250000000000049
 21
-8.500000999999988
 31
0.0
  0
INSERT
  5
21DC
330
200A
100
AcDbEntity
  8
AM_5
100
AcDbBlockReference
  2
_OPEN30
 10
-0.0000000000000494
 20
-8.500000999999988
 30
0.0
 41
1.25
 42
1.25
 43
1.25
 50
180.0
  0
INSERT
  5
21DD
330
200A
100
AcDbEntity
  8
AM_5
100
AcDbBlockReference
  2
_OPEN30
 10
-1.250000000000049
 20
-8.500000999999988
 30
0.0
 41
1.25
 42
1.25
 43
1.25
  0
MTEXT
  5
21DE
330
200A
100
AcDbEntity
  8
AM_5
 62
     2
100
AcDbMText
 10
-6.785714285714336
 20
-6.950000999999988
 30
0.0
 40
1.6
 41
0.0
 71
     5
 72
     1
  1
1.25
  7
ASAMI
1001
ACAD
1000
MTEXTBEGIN
1070
    73
1070
     1
1070
    44
1040
1.0
1070
    74
1070
     0
1000
MTEXTEND
  0
POINT
  5
21DF
330
200A
100
AcDbEntity
  8
DEFPOINTS
 62
     0
100
AcDbPoint
 10
-0.0000000000000489
 20
-0.249312153844734
 30
0.0
  0
POINT
  5
21E0
330
200A
100
AcDbEntity
  8
DEFPOINTS
 62
     0
100
AcDbPoint
 10
-1.250000000000048
 20
-0.2493121266798507
 30
0.0
  0
POINT
  5
21E1
330
200A
100
AcDbEntity
  8
DEFPOINTS
 62
     0
100
AcDbPoint
 10
-1.250000000000049
 20
-8.500000999999988
 30
0.0
  0
ENDBLK
  5
2017
330
200A
100
AcDbEntity
  8
0
100
AcDbBlockEnd
  0
BLOCK
  5
2034
330
202A
100
AcDbEntity
  8
0
100
AcDbBlockBegin
  2
*D8
 70
     1
 10
0.0
 20
0.0
 30
0.0
  3
*D8
  1

  0
LINE
  5
21C3
330
202A
100
AcDbEntity
  8
AM_5
100
AcDbLine
 10
-0.0000000000000245
 20
-0.9996411108908233
 30
0.0
 11
-0.0000000000000254
 21
-15.00000100000006
 31
0.0
  0
LINE
  5
21C4
330
202A
100
AcDbEntity
  8
AM_5
100
AcDbLine
 10
-37.99999999999999
 20
-1.799999999999994
 30
0.0
 11
-37.99999999999999
 21
-15.00000100000006
 31
0.0
  0
LINE
  5
21C5
330
202A
100
AcDbEntity
  8
AM_5
100
AcDbLine
 10
-1.250000000000025
 20
-14.50000100000006
 30
0.0
 11
-36.74999999999999
 21
-14.50000100000006
 31
0.0
  0
INSERT
  5
21C6
330
202A
100
AcDbEntity
  8
AM_5
100
AcDbBlockReference
  2
_OPEN30
 10
-0.0000000000000253
 20
-14.50000100000006
 30
0.0
 41
1.25
 42
1.25
 43
1.25
  0
INSERT
  5
21C7
330
202A
100
AcDbEntity
  8
AM_5
100
AcDbBlockReference
  2
_OPEN30
 10
-37.99999999999999
 20
-14.50000100000006
 30
0.0
 41
1.25
 42
1.25
 43
1.25
 50
180.0
  0
MTEXT
  5
21C8
330
202A
100
AcDbEntity
  8
AM_5
 62
     2
100
AcDbMText
 10
-19.00000000000004
 20
-12.95000100000006
 30
0.0
 40
1.6
 41
0.0
 71
     5
 72
     1
  1
38
  7
ASAMI
1001
ACAD
1000
MTEXTBEGIN
1070
    73
1070
     1
1070
    44
1040
1.0
1070
    74
1070
     0
1000
MTEXTEND
  0
POINT
  5
21C9
330
202A
100
AcDbEntity
  8
DEFPOINTS
 62
     0
100
AcDbPoint
 10
-0.0000000000000245
 20
-0.4996411108908234
 30
0.0
  0
POINT
  5
21CA
330
202A
100
AcDbEntity
  8
DEFPOINTS
 62
     0
100
AcDbPoint
 10
-37.99999999999999
 20
-1.299999999999994
 30
0.0
  0
POINT
  5
21CB
330
202A
100
AcDbEntity
  8
DEFPOINTS
 62
     0
100
AcDbPoint
 10
-37.99999999999999
 20
-14.50000100000006
 30
0.0
  0
ENDBLK
  5
2035
330
202A
100
AcDbEntity
  8
0
100
AcDbBlockEnd
  0
ENDSEC
  0
SECTION
  2
ENTITIES
  0
TEXT
  5
F06
330
1F
100
AcDbEntity
  8
AM_6
100
AcDbText
 10
-28.52380952380952
 20
-25.75000100000006
 30
0.0
 40
2.5
  1
SIT2005ZX
 72
     4
 11
-19.0
 21
-24.50000100000006
 31
0.0
100
AcDbText
  0
LINE
  5
15E3
330
1F
100
AcDbEntity
  8
AM_7
  6
AM_ISO08W050X2
100
AcDbLine
 10
0.2938739984073304
 20
0.0006778733201494
 30
0.0
 11
-38.91668821878226
 21
0.0006778733201542
 31
0.0
1001
GENIUS_GENODEF_13
1002
{
1000
HIER
1070
     0
1002
}
1002
{
1000
MANEDIT
1070
     0
1002
}
1002
{
1000
NOSEL
1070
     0
1002
}
1002
{
1000
BEHIND
1070
     0
1002
}
1002
{
1000
REACTOR
1002
}
1001
GENIUS_GENOBJ-N-CEN_13
1002
{
1000
OWNER
1000
GEN
1002
}
  0
LINE
  5
1615
330
1F
100
AcDbEntity
  8
AM_0
100
AcDbLine
 10
-37.99999999999999
 20
-1.299999999999994
 30
0.0
 11
-38.0
 21
1.300000000000005
 31
0.0
  0
LINE
  5
1616
330
1F
100
AcDbEntity
  8
AM_0
100
AcDbLine
 10
-37.79999999999999
 20
1.500000000000005
 30
0.0
 11
-6.362570972297354
 21
1.500000000000006
 31
0.0
  0
LINE
  5
1618
330
1F
100
AcDbEntity
  8
AM_0
100
AcDbLine
 10
-6.367630586260375
 20
-1.499999999999999
 30
0.0
 11
-37.79999999999999
 21
-1.499999999999994
 31
0.0
  0
LINE
  5
1619
330
1F
100
AcDbEntity
  8
AM_0
100
AcDbLine
 10
-6.362570972297354
 20
1.500000000000006
 30
0.0
 11
-1.700000000000048
 21
0.2506678733201496
 31
0.0
  0
LINE
  5
161B
330
1F
100
AcDbEntity
  8
AM_0
100
AcDbLine
 10
-1.700000000000048
 20
-0.2493121538447338
 30
0.0
 11
-6.367630586260375
 21
-1.499999999999999
 31
0.0
  0
LINE
  5
162C
330
1F
100
AcDbEntity
  8
AM_0
100
AcDbLine
 10
-37.79999999999999
 20
1.500000000000005
 30
0.0
 11
-38.0
 21
1.300000000000005
 31
0.0
1001
GENIUS_GENFIL_13
1070
     0
1040
0.2
1040
0.2
1040
20.0
1040
0.0
1002
{
1002
}
1001
GENIUS_GENODEF_13
1002
{
1000
HIER
1070
     0
1002
}
1002
{
1000
MANEDIT
1070
     0
1002
}
1002
{
1000
NOSEL
1070
     0
1002
}
1002
{
1000
BEHIND
1070
     0
1002
}
1002
{
1000
REACTOR
1002
}
1001
GENIUS_GENOBJ-N-CHA_13
1002
{
1000
OWNER
1000
GEN
1002
}
  0
LINE
  5
162E
330
1F
100
AcDbEntity
  8
AM_0
100
AcDbLine
 10
-37.79999999999999
 20
-1.499999999999994
 30
0.0
 11
-37.99999999999999
 21
-1.299999999999994
 31
0.0
1001
GENIUS_GENFIL_13
1070
     0
1040
0.2
1040
0.2
1040
20.0
1040
0.0
1002
{
1002
}
1001
GENIUS_GENODEF_13
1002
{
1000
HIER
1070
     0
1002
}
1002
{
1000
MANEDIT
1070
     0
1002
}
1002
{
1000
NOSEL
1070
     0
1002
}
1002
{
1000
BEHIND
1070
     0
1002
}
1002
{
1000
REACTOR
1002
}
1001
GENIUS_GENOBJ-N-CHA_13
1002
{
1000
OWNER
1000
GEN
1002
}
  0
LINE
  5
162F
330
1F
100
AcDbEntity
  8
AM_0
100
AcDbLine
 10
-37.79999999999999
 20
1.500000000000005
 30
0.0
 11
-37.79999999999999
 21
-1.499999999999994
 31
0.0
  0
DIMENSION
  5
1968
330
1F
100
AcDbEntity
  8
AM_5
100
AcDbDimension
  2
*D5
 10
-45.91668921878226
 20
1.500000000000007
 30
0.0
 11
-45.91668921878226
 21
0.0000000000000004
 31
0.0
 70
   160
  1
%%c<>
  3
AM_JIS
100
AcDbAlignedDimension
 13
-37.79999999999999
 23
-1.499999999999994
 33
0.0
 14
-37.79999999999999
 24
1.500000000000005
 34
0.0
 50
270.0
100
AcDbRotatedDimension
1001
GENIUS_GENDTOL_13
1000

1000
h7
1000

1040
0.0
  0
LINE
  5
1A94
330
1F
100
AcDbEntity
  8
AM_0
100
AcDbLine
 10
-6.362570972297357
 20
1.500000000000005
 30
0.0
 11
-6.362570972297358
 21
-1.499999999999998
 31
0.0
  0
LINE
  5
1FED
330
1F
100
AcDbEntity
  8
AM_0
100
AcDbLine
 10
-0.0000000000000489
 20
-0.0494829539995051
 30
0.0
 11
-0.0186985074627331
 21
-0.0572939562077149
 31
0.0
  0
LINE
  5
1FEE
330
1F
100
AcDbEntity
  8
AM_11
100
AcDbLine
 10
-0.0000000000000977
 20
0.2513457330825614
 30
0.0
 11
-0.0000000000000489
 21
-0.2493121266798506
 31
0.0
  0
LINE
  5
1FEF
330
1F
100
AcDbEntity
  8
AM_0
100
AcDbLine
 10
-0.0000000000000489
 20
-0.2493121538447227
 30
0.0
 11
-0.0000000000000488
 21
0.2506679004850216
 31
0.0
  0
LINE
  5
1FF0
330
1F
100
AcDbEntity
  8
AM_0
100
AcDbLine
 10
-0.1602699102545728
 20
0.1726809050828347
 30
0.0
 11
-0.9093880984884371
 21
0.2182396388859567
 31
0.0
  0
LINE
  5
1FF1
330
1F
100
AcDbEntity
  8
AM_0
100
AcDbLine
 10
-0.8116830946877481
 20
-0.1972108097148957
 30
0.0
 11
-0.3000570259003416
 21
-0.1708152666798423
 31
0.0
  0
LINE
  5
1FF2
330
1F
100
AcDbEntity
  8
AM_0
100
AcDbLine
 10
-1.43691451591327
 20
0.1671024188608212
 30
0.0
 11
-1.168921583278806
 21
0.2506263142598262
 31
0.0
  0
LINE
  5
1FF3
330
1F
100
AcDbEntity
  8
AM_0
100
AcDbLine
 10
-1.700000000000048
 20
0.2506678733201495
 30
0.0
 11
-1.143514057321121
 21
0.2506678733201495
 31
0.0
  0
LINE
  5
1FF4
330
1F
100
AcDbEntity
  8
AM_0
100
AcDbLine
 10
-1.436914515914267
 20
-0.0895903856640312
 30
0.0
 11
-1.27742079047661
 21
-0.0398818463039641
 31
0.0
  0
LINE
  5
1FF5
330
1F
100
AcDbEntity
  8
AM_0
100
AcDbLine
 10
-1.700000000000048
 20
-0.2493121266798506
 30
0.0
 11
-1.250000000000048
 21
-0.2493121266798506
 31
0.0
  0
LINE
  5
1FF6
330
1F
100
AcDbEntity
  8
AM_11
100
AcDbLine
 10
-1.250000000000048
 20
0.2513457330825615
 30
0.0
 11
-1.250000000000048
 21
-0.2493121266798506
 31
0.0
  0
LINE
  5
1FF7
330
1F
100
AcDbEntity
  8
AM_0
100
AcDbLine
 10
-0.0000000000000489
 20
-0.0494829539995051
 30
0.0
 11
-0.1602699102545728
 21
0.1726809050828347
 31
0.0
  0
LINE
  5
1FF8
330
1F
100
AcDbEntity
  8
AM_11
100
AcDbLine
 10
-0.0000000000000977
 20
0.2506679004850216
 30
0.0
 11
-1.250000000000048
 21
0.2506679004850217
 31
0.0
  0
LINE
  5
1FF9
330
1F
100
AcDbEntity
  8
AM_11
100
AcDbLine
 10
-1.250000000000048
 20
-0.2493121266798506
 30
0.0
 11
-0.0000000000000489
 21
-0.2493121266798506
 31
0.0
  0
DIMENSION
  5
1FFA
330
1F
100
AcDbEntity
  8
AM_5
100
AcDbDimension
  2
*D6
 10
7.293874998407332
 20
-0.2493121266798527
 30
0.0
 11
7.293874998407332
 21
5.900667900485019
 31
0.0
 70
   160
  1
%%c<>
  3
AM_JIS
100
AcDbAlignedDimension
 13
-0.0000000000000489
 23
0.2506679004850215
 33
0.0
 14
-0.0000000000000489
 24
-0.2493121266798506
 34
0.0
 50
90.00000000000003
100
AcDbRotatedDimension
1001
GENIUS_GENDTOL_13
1000

1000
h7
1000

1040
0.0
  0
DIMENSION
  5
2009
330
1F
100
AcDbEntity
  8
AM_5
100
AcDbDimension
  2
*D7
 10
-1.250000000000049
 20
-8.500000999999988
 30
0.0
 11
-6.785714285714336
 21
-6.950000999999988
 31
0.0
 70
    32
  1
<>
  3
AM_JIS
100
AcDbAlignedDimension
 13
-0.0000000000000489
 23
-0.249312153844734
 33
0.0
 14
-1.250000000000048
 24
-0.2493121266798507
 34
0.0
 50
0.0000000000001132
100
AcDbRotatedDimension
1001
GENIUS_GENDTOL_13
1000

1000
h7
1000

1040
0.0
  0
SPLINE
  5
2018
330
1F
100
AcDbEntity
  8
AM_0
100
AcDbSpline
210
0.0
220
0.0
230
1.0
 70
     8
 71
     3
 72
     8
 73
     4
 74
     0
 42
0.0000000001
 43
0.0000000001
 40
0.0
 40
0.0
 40
0.0
 40
0.0
 40
4.607356481513744
 40
4.607356481513744
 40
4.607356481513744
 40
4.607356481513744
 10
-1.005258315626136
 20
-0.2288873203302727
 30
0.0
 10
-0.9392424615626557
 20
-0.2288873203302727
 30
0.0
 10
-0.8748960039624327
 20
-0.2170633892370375
 30
0.0
 10
-0.8116830946877481
 20
-0.1972108097148958
 30
0.0
  0
SPLINE
  5
2019
330
1F
100
AcDbEntity
  8
AM_0
100
AcDbSpline
210
0.0
220
0.0
230
1.0
 70
     8
 71
     3
 72
     8
 73
     4
 74
     0
 42
0.0000000001
 43
0.0000000001
 40
1.53702008085691
 40
1.53702008085691
 40
1.53702008085691
 40
1.53702008085691
 40
1.900993527181806
 40
1.900993527181806
 40
1.900993527181806
 40
1.900993527181806
 10
-1.027853216344043
 20
-0.2308808807064725
 30
0.0
 10
-1.022728538797957
 20
-0.2302683450268995
 30
0.0
 10
-1.017613969768063
 20
-0.229587364425507
 30
0.0
 10
-1.012509223822331
 20
-0.2288398715668695
 30
0.0
  0
SPLINE
  5
201A
330
1F
100
AcDbEntity
  8
AM_0
100
AcDbSpline
210
0.0
220
0.0
230
1.0
 70
     8
 71
     3
 72
     8
 73
     4
 74
     0
 42
0.0000000001
 43
0.0000000001
 40
0.0
 40
0.0
 40
0.0
 40
0.0
 40
3.347564375695247
 40
3.347564375695247
 40
3.347564375695247
 40
3.347564375695247
 10
-1.168921583279588
 20
-0.2493536857403785
 30
0.0
 10
-1.120956481777103
 20
-0.2493536857403785
 30
0.0
 10
-1.074012313465562
 20
-0.2426823322671355
 30
0.0
 10
-1.027853216344023
 20
-0.230880880706643
 30
0.0
  0
SPLINE
  5
201B
330
1F
100
AcDbEntity
  8
AM_0
100
AcDbSpline
210
0.0
220
0.0
230
1.0
 70
     8
 71
     3
 72
     8
 73
     4
 74
     0
 42
0.0000000001
 43
0.0000000001
 40
0.0
 40
0.0
 40
0.0
 40
0.0
 40
10.49953388088627
 40
10.49953388088627
 40
10.49953388088627
 40
10.49953388088627
 10
-1.005258315626136
 20
-0.2288873203302727
 30
0.0
 10
-1.155699398098549
 20
-0.2288873203302727
 30
0.0
 10
-1.297470943740766
 20
-0.1674830893124114
 30
0.0
 10
-1.43691451591327
 20
-0.0895903856645769
 30
0.0
  0
SPLINE
  5
201C
330
1F
100
AcDbEntity
  8
AM_0
100
AcDbSpline
210
0.0
220
0.0
230
1.0
 70
     8
 71
     3
 72
     8
 73
     4
 74
     0
 42
0.0000000001
 43
0.0000000001
 40
0.0
 40
0.0
 40
0.0
 40
0.0
 40
14.49218571129455
 40
14.49218571129455
 40
14.49218571129455
 40
14.49218571129455
 10
-0.0000000000000489
 20
-0.249312153844734
 30
0.0
 10
-0.2076492281021799
 20
-0.2493121538447382
 30
0.0
 10
-0.396123121513799
 20
-0.1241586439683185
 30
0.0
 10
-0.5845970149254182
 20
0.0009948659081027
 30
0.0
  0
SPLINE
  5
201D
330
1F
100
AcDbEntity
  8
AM_0
100
AcDbSpline
210
0.0
220
0.0
230
1.0
 70
     8
 71
     3
 72
     8
 73
     4
 74
     0
 42
0.0000000001
 43
0.0000000001
 40
8.518178729170251
 40
8.518178729170251
 40
8.518178729170251
 40
8.518178729170251
 40
28.64502702023054
 40
28.64502702023054
 40
28.64502702023054
 40
28.64502702023054
 10
-0.0117184620912662
 20
-0.1967405441401858
 30
0.0
 10
-0.1503864994847619
 20
-0.1567951100592333
 30
0.0
 10
-0.2836679549205737
 20
-0.077900122075571
 30
0.0
 10
-0.4169494103563661
 20
0.0009948659081027
 30
0.0
  0
SPLINE
  5
201E
330
1F
100
AcDbEntity
  8
AM_0
100
AcDbSpline
210
0.0
220
0.0
230
1.0
 70
     8
 71
     3
 72
     8
 73
     4
 74
     0
 42
0.0000000001
 43
0.0000000001
 40
0.0
 40
0.0
 40
0.0
 40
0.0
 40
14.49218571129498
 40
14.49218571129498
 40
14.49218571129498
 40
14.49218571129498
 10
-1.169194029850807
 20
0.2513018856609281
 30
0.0
 10
-0.96154480174867
 20
0.2513018856609324
 30
0.0
 10
-0.7730709083370449
 20
0.1261483757845111
 30
0.0
 10
-0.5845970149254182
 20
0.0009948659080914
 30
0.0
  0
SPLINE
  5
201F
330
1F
100
AcDbEntity
  8
AM_0
100
AcDbSpline
210
0.0
220
0.0
230
1.0
 70
     8
 71
     3
 72
     8
 73
     4
 74
     0
 42
0.0000000001
 43
0.0000000001
 40
0.0
 40
0.0
 40
0.0
 40
0.0
 40
14.32251351011555
 40
14.32251351011555
 40
14.32251351011555
 40
14.32251351011555
 10
-1.001546425281754
 20
0.2255654524073819
 30
0.0
 10
-0.7963283212562182
 20
0.2255654524073819
 30
0.0
 10
-0.6066388658062923
 20
0.1132801591577423
 30
0.0
 10
-0.4169494103563661
 20
0.0009948659081027
 30
0.0
  0
SPLINE
  5
2020
330
1F
100
AcDbEntity
  8
AM_0
100
AcDbSpline
210
0.0
220
0.0
230
1.0
 70
     8
 71
     3
 72
     8
 73
     4
 74
     0
 42
0.0000000001
 43
0.0000000001
 40
0.0
 40
0.0
 40
0.0
 40
0.0
 40
3.809838349731673
 40
3.809838349731673
 40
3.809838349731673
 40
3.809838349731673
 10
-0.0000000000000488
 20
0.2118311486001424
 30
0.0
 10
-0.041139195789385
 20
0.1700954326807863
 30
0.0
 10
-0.1007045530219881
 20
0.1713881688818112
 30
0.0
 10
-0.1602699102545924
 20
0.1726809050828346
 30
0.0
  0
SPLINE
  5
2021
330
1F
100
AcDbEntity
  8
AM_0
100
AcDbSpline
210
0.0
220
0.0
230
1.0
 70
     8
 71
     3
 72
     8
 73
     4
 74
     0
 42
0.0000000001
 43
0.0000000001
 40
0.0
 40
0.0
 40
0.0
 40
0.0
 40
9.827178345168029
 40
9.827178345168029
 40
9.827178345168029
 40
9.827178345168029
 10
-0.0186985074627331
 20
-0.0572939562077262
 30
0.0
 10
-0.0743323081074278
 20
-0.0071090584268014
 30
0.0
 10
-0.1977170879891633
 20
0.1532870545276388
 30
0.0
 10
-0.1791702828655589
 20
0.1738303592785615
 30
0.0
  0
SPLINE
  5
2022
330
1F
100
AcDbEntity
  8
AM_0
100
AcDbSpline
210
0.0
220
0.0
230
1.0
 70
     8
 71
     3
 72
     8
 73
     4
 74
     0
 42
0.0000000001
 43
0.0000000001
 40
0.0
 40
0.0
 40
0.0
 40
0.0
 40
13.74270749910732
 40
13.74270749910732
 40
13.74270749910732
 40
13.74270749910732
 10
-0.0000000000000488
 20
0.2506678733201494
 30
0.0
 10
-0.0984552179041018
 20
0.2513018856609507
 30
0.0
 10
-0.1925996168284668
 20
0.2231660468630375
 30
0.0
 10
-0.2844771370558673
 20
0.1802347518204244
 30
0.0
  0
ELLIPSE
  5
2023
330
1F
100
AcDbEntity
  8
AM_0
100
AcDbEllipse
 10
-1.237268675193097
 20
-0.1477016972207534
 30
0.0
 11
-0.0000000000000005
 21
0.1175001122510914
 31
0.0
210
0.0
220
0.0
230
1.0
 40
0.8597358819725911
 41
-0.5173038785515212
 42
0.4087587856088737
  0
ELLIPSE
  5
2024
330
1F
100
AcDbEntity
  8
AM_0
100
AcDbEllipse
 10
-0.6879137069807633
 20
1.05187105958749
 30
0.0
 11
-0.000000000000006
 21
1.241693511146497
 31
0.0
210
0.0
220
0.0
230
1.0
 40
0.8597358819725934
 41
2.363922219269014
 42
2.856273467351989
  0
ELLIPSE
  5
2025
330
1F
100
AcDbEntity
  8
AM_0
100
AcDbEllipse
 10
0.7389986957610861
 20
-0.0759419520067678
 30
0.0
 11
0.0000000000000055
 21
0.8815111906920414
 31
0.0
210
0.0
220
0.0
230
1.0
 40
0.8597358819726146
 41
1.549640172277666
 42
1.694667587763694
  0
ELLIPSE
  5
2026
330
1F
100
AcDbEntity
  8
AM_0
100
AcDbEllipse
 10
-0.0261593812722277
 20
-0.1929034910781893
 30
0.0
 11
0.0000000000000001
 21
0.0172296160048673
 31
0.0
210
0.0
220
0.0
230
1.0
 40
0.8597358819725952
 41
4.487804783733063
 42
5.198312799330011
  0
ELLIPSE
  5
2027
330
1F
100
AcDbEntity
  8
AM_0
100
AcDbEllipse
 10
0.1468974658247327
 20
-0.1769593986100684
 30
0.0
 11
-0.000000000000001
 21
0.1855512081072834
 31
0.0
210
0.0
220
0.0
230
1.0
 40
0.8597358819725899
 41
1.677606775301446
 42
1.971356423164519
  0
ELLIPSE
  5
2028
330
1F
100
AcDbEntity
  8
AM_0
100
AcDbEllipse
 10
-0.5672042135293144
 20
0.8871473639349268
 30
0.0
 11
-0.0000000000000972
 21
1.241693511146515
 31
0.0
210
0.0
220
0.0
230
1.0
 40
0.8597358819725885
 41
2.189389294069586
 42
2.413709760007133
  0
DIMENSION
  5
2029
330
1F
100
AcDbEntity
  8
AM_5
100
AcDbDimension
  2
*D8
 10
-37.99999999999999
 20
-14.50000100000006
 30
0.0
 11
-19.00000000000004
 21
-14.50000100000006
 31
0.0
 70
   160
  1
<>
  3
AM_JIS
100
AcDbAlignedDimension
 13
-0.0000000000000245
 23
-0.4996411108908234
 33
0.0
 14
-37.99999999999999
 24
-1.299999999999994
 34
0.0
 50
0.0000000000001132
100
AcDbRotatedDimension
1001
GENIUS_GENDTOL_13
1000

1000
h7
1000

1040
0.0
  0
LINE
  5
20FC
330
1F
100
AcDbEntity
  8
AM_0
100
AcDbLine
 10
-1.700000000000048
 20
0.2506678733201494
 30
0.0
 11
-1.700000000000048
 21
-0.2493121266798506
 31
0.0
  0
VIEWPORT
  5
110
330
101
100
AcDbEntity
 67
     1
  8
0
100
AcDbViewport
 10
420.5
 20
297.0
 30
0.0
 40
948.9782706766916
 41
628.452
 68
     1
 69
     1
1001
ACAD
1000
MVIEW
1002
{
1070
    16
1010
0.0
1020
0.0
1030
0.0
1010
0.0
1020
0.0
1030
1.0
1040
0.0
1040
628.452
1040
420.5
1040
297.0
1040
50.0
1040
0.0
1040
0.0
1070
     0
1070
   100
1070
     1
1070
     1
1070
     0
1070
     0
1070
     0
1070
     0
1040
0.0
1040
0.0
1040
0.0
1040
10.0
1040
10.0
1040
10.0
1040
10.0
1070
     0
1002
{
1002
}
1002
}
  0
ENDSEC
  0
SECTION
  2
OBJECTS
  0
DICTIONARY
  5
C
330
0
100
AcDbDictionary
  3
ACAD_GROUP
350
D
  3
ACAD_LAYOUT
350
1A
  3
ACAD_MLINESTYLE
350
17
  3
ACAD_PLOTSETTINGS
350
19
  3
ACAD_PLOTSTYLENAME
350
E
  3
ACDBVARIABLEDICTIONARY
350
34
  3
ACMDICTIONARY
350
43
  3
AMG
350
2B
  3
AMGSNAPSETTINGS
350
6E
  3
DWGPROPS
350
2212
  3
ACDBHEADERROUNDTRIPXREC
350
221F
  0
DICTIONARY
  5
74
330
1F
100
AcDbDictionary
280
     1
  3
ACAD_INDEX
360
2214
  3
ACAD_LAYOUTSELFREF
360
2242
  0
DICTIONARY
  5
2247
330
101
100
AcDbDictionary
280
     1
  3
ACAD_LAYOUTSELFREF
360
2248
  0
DICTIONARY
  5
D
102
{ACAD_REACTORS
330
C
102
}
330
C
100
AcDbDictionary
  0
DICTIONARY
  5
1A
102
{ACAD_REACTORS
330
C
102
}
330
C
100
AcDbDictionary
  0
DICTIONARY
  5
17
102
{ACAD_REACTORS
330
C
102
}
330
C
100
AcDbDictionary
  3
STANDARD
350
18
  0
DICTIONARY
  5
19
102
{ACAD_REACTORS
330
C
102
}
330
C
100
AcDbDictionary
  0
ACDBDICTIONARYWDFLT
  5
E
102
{ACAD_REACTORS
330
C
102
}
330
C
100
AcDbDictionary
281
     1
  3
Normal
350
F
100
AcDbDictionaryWithDefault
340
F
  0
DICTIONARY
  5
34
102
{ACAD_REACTORS
330
C
102
}
330
C
100
AcDbDictionary
  3
INDEXCTL
350
35
  3
SORTENTS
350
B5E
  0
DICTIONARY
  5
43
102
{ACAD_REACTORS
330
C
102
}
330
C
100
AcDbDictionary
  3
ACMSTDDICTIONARY
350
260
  0
DICTIONARY
  5
2B
102
{ACAD_REACTORS
330
C
102
}
330
C
100
AcDbDictionary
  3
ACMGSETTINGS
350
2C
  0
DICTIONARY
  5
6E
102
{ACAD_REACTORS
330
C
102
}
330
C
100
AcDbDictionary
  0
XRECORD
  5
2212
102
{ACAD_REACTORS
330
C
102
}
330
C
100
AcDbXrecord
  1
DWGPROPS COOKIE
  2

  3

  4

  6

  7

  8

  9

300
AmdtFileType=82
301
=
302
=
303
=
304
=
305
=
306
=
307
=
308
=
309
=
 40
0.0452982175925926
 41
2452810.397252777
 42
2452839.653805694
  1

 90
        1
  0
DICTIONARY
  5
221F
102
{ACAD_REACTORS
330
C
102
}
330
C
100
AcDbDictionary
  3
TSTACKALIGN
350
2220
  3
TSTACKSIZE
350
2221
  3
HYPERLINKBASE
350
2222
  3
STYLESHEET
350
2223
  3
LAYOUTDICT
350
2224
  3
PLOTSETDICT
350
2225
  3
PLOTSTYLNAMDICT
350
2226
  3
LWETCUNION
350
2227
  3
INSUNITS
350
2228
  3
CEPSNTYPE
350
2229
  3
FINGERPRINTGUID
350
222A
  3
VERSIONGUID
350
222B
  3
PSVPSCALE
350
222C
  3
DIMSTYLEDATA
350
222D
  3
PUCSORTHOREF
350
222E
  3
PUCSORTHOVIEW
350
222F
  3
PUCSBASE
350
2230
  3
PUCSORGTOP
350
2231
  3
PUCSORGBOTTOM
350
2232
  3
PUCSORGLEFT
350
2233
  3
PUCSORGRIGHT
350
2234
  3
PUCSORGFRONT
350
2235
  3
PUCSORGBACK
350
2236
  3
UCSORTHOREF
350
2237
  3
UCSORTHOVIEW
350
2238
  3
UCSBASE
350
2239
  3
UCSORGTOP
350
223A
  3
UCSORGBOTTOM
350
223B
  3
UCSORGLEFT
350
223C
  3
UCSORGRIGHT
350
223D
  3
UCSORGFRONT
350
223E
  3
UCSORGBACK
350
223F
  0
DICTIONARY
  5
2214
102
{ACAD_REACTORS
330
74
102
}
330
74
100
AcDbDictionary
  3
*A1
350
2215
  0
XRECORD
  5
2242
102
{ACAD_REACTORS
330
74
102
}
330
74
100
AcDbXrecord
340
1F
  0
XRECORD
  5
2248
102
{ACAD_REACTORS
330
2247
102
}
330
2247
100
AcDbXrecord
340
101
  0
MLINESTYLE
  5
18
102
{ACAD_REACTORS
330
17
102
}
330
17
100
AcDbMlineStyle
  2
STANDARD
 70
     0
  3

 62
   256
 51
90.0
 52
90.0
 71
     2
 49
0.5
 62
   256
  6
BYLAYER
 49
-0.5
 62
   256
  6
BYLAYER
  0
ACDBPLACEHOLDER
  5
F
102
{ACAD_REACTORS
330
E
102
}
330
E
100
AcDbPlaceHolder
280
     0
  0
DICTIONARYVAR
  5
35
102
{ACAD_REACTORS
330
34
102
}
330
34
100
DictionaryVariables
280
     0
  1
1
  0
DICTIONARYVAR
  5
B5E
102
{ACAD_REACTORS
330
34
102
}
330
34
100
DictionaryVariables
280
     0
  1
96
  0
DICTIONARY
  5
260
102
{ACAD_REACTORS
330
43
102
}
330
43
100
AcDbDictionary
  0
DICTIONARY
  5
2C
102
{ACAD_REACTORS
330
2B
102
}
330
2B
100
AcDbDictionary
  3
DWGSETTINGS
350
2D
  0
XRECORD
  5
2220
102
{ACAD_REACTORS
330
221F
102
}
330
221F
100
AcDbXrecord
 90
        1
  0
XRECORD
  5
2221
102
{ACAD_REACTORS
330
221F
102
}
330
221F
100
AcDbXrecord
 90
       70
  0
XRECORD
  5
2222
102
{ACAD_REACTORS
330
221F
102
}
330
221F
100
AcDbXrecord
  1

  0
XRECORD
  5
2223
102
{ACAD_REACTORS
330
221F
102
}
330
221F
100
AcDbXrecord
  1
ASAMI.ctb
  0
XRECORD
  5
2224
102
{ACAD_REACTORS
330
221F
102
}
330
221F
100
AcDbXrecord
340
1A
  0
XRECORD
  5
2225
102
{ACAD_REACTORS
330
221F
102
}
330
221F
100
AcDbXrecord
340
19
  0
XRECORD
  5
2226
102
{ACAD_REACTORS
330
221F
102
}
330
221F
100
AcDbXrecord
340
E
  0
XRECORD
  5
2227
102
{ACAD_REACTORS
330
221F
102
}
330
221F
100
AcDbXrecord
 90
    10781
  0
XRECORD
  5
2228
102
{ACAD_REACTORS
330
221F
102
}
330
221F
100
AcDbXrecord
 90
        4
  0
XRECORD
  5
2229
102
{ACAD_REACTORS
330
221F
102
}
330
221F
100
AcDbXrecord
 90
        0
  0
XRECORD
  5
222A
102
{ACAD_REACTORS
330
221F
102
}
330
221F
100
AcDbXrecord
  1
{AFB28963-8C59-40AE-9337-C84526B81ACE}
  0
XRECORD
  5
222B
102
{ACAD_REACTORS
330
221F
102
}
330
221F
100
AcDbXrecord
  1
{B6492572-AE89-4B2F-A672-0BEDF027BEA7}
  0
XRECORD
  5
222C
102
{ACAD_REACTORS
330
221F
102
}
330
221F
100
AcDbXrecord
 40
0.0
  0
XRECORD
  5
222D
102
{ACAD_REACTORS
330
221F
102
}
330
221F
100
AcDbXrecord
1000
DSTYLE
1002
{
1070
    79
 70
     2
1070
   341
340
59
1070
   342
340
59
1070
   371
 70
    -1
1070
   372
 70
    -1
1002
}
  0
XRECORD
  5
222E
102
{ACAD_REACTORS
330
221F
102
}
330
221F
100
AcDbXrecord
340
0
  0
XRECORD
  5
222F
102
{ACAD_REACTORS
330
221F
102
}
330
221F
100
AcDbXrecord
 70
     0
  0
XRECORD
  5
2230
102
{ACAD_REACTORS
330
221F
102
}
330
221F
100
AcDbXrecord
340
0
  0
XRECORD
  5
2231
102
{ACAD_REACTORS
330
221F
102
}
330
221F
100
AcDbXrecord
 10
0.0
 20
0.0
 30
0.0
  0
XRECORD
  5
2232
102
{ACAD_REACTORS
330
221F
102
}
330
221F
100
AcDbXrecord
 10
0.0
 20
0.0
 30
0.0
  0
XRECORD
  5
2233
102
{ACAD_REACTORS
330
221F
102
}
330
221F
100
AcDbXrecord
 10
0.0
 20
0.0
 30
0.0
  0
XRECORD
  5
2234
102
{ACAD_REACTORS
330
221F
102
}
330
221F
100
AcDbXrecord
 10
0.0
 20
0.0
 30
0.0
  0
XRECORD
  5
2235
102
{ACAD_REACTORS
330
221F
102
}
330
221F
100
AcDbXrecord
 10
0.0
 20
0.0
 30
0.0
  0
XRECORD
  5
2236
102
{ACAD_REACTORS
330
221F
102
}
330
221F
100
AcDbXrecord
 10
0.0
 20
0.0
 30
0.0
  0
XRECORD
  5
2237
102
{ACAD_REACTORS
330
221F
102
}
330
221F
100
AcDbXrecord
340
0
  0
XRECORD
  5
2238
102
{ACAD_REACTORS
330
221F
102
}
330
221F
100
AcDbXrecord
 70
     0
  0
XRECORD
  5
2239
102
{ACAD_REACTORS
330
221F
102
}
330
221F
100
AcDbXrecord
340
0
  0
XRECORD
  5
223A
102
{ACAD_REACTORS
330
221F
102
}
330
221F
100
AcDbXrecord
 10
0.0
 20
0.0
 30
0.0
  0
XRECORD
  5
223B
102
{ACAD_REACTORS
330
221F
102
}
330
221F
100
AcDbXrecord
 10
0.0
 20
0.0
 30
0.0
  0
XRECORD
  5
223C
102
{ACAD_REACTORS
330
221F
102
}
330
221F
100
AcDbXrecord
 10
0.0
 20
0.0
 30
0.0
  0
XRECORD
  5
223D
102
{ACAD_REACTORS
330
221F
102
}
330
221F
100
AcDbXrecord
 10
0.0
 20
0.0
 30
0.0
  0
XRECORD
  5
223E
102
{ACAD_REACTORS
330
221F
102
}
330
221F
100
AcDbXrecord
 10
0.0
 20
0.0
 30
0.0
  0
XRECORD
  5
223F
102
{ACAD_REACTORS
330
221F
102
}
330
221F
100
AcDbXrecord
 10
0.0
 20
0.0
 30
0.0
  0
LAYER_INDEX
  5
2215
102
{ACAD_REACTORS
330
2214
102
}
330
2214
100
AcDbIndex
 40
2452839.679105717
100
AcDbLayerIndex
  8
0
360
2216
 90
        0
  8
AM_0
360
2217
 90
       36
  8
AM_11
360
2218
 90
        4
  8
AM_7
360
2219
 90
        1
  8
AM_5
360
221A
 90
        4
  8
AM_6
360
221B
 90
        1
  8
Defpoints
360
221C
 90
        0
  8
AM_CL
360
221D
 90
        0
  0
XRECORD
  5
2D
102
{ACAD_REACTORS
330
2C
102
}
330
2C
100
AcDbXrecord
  1
VERSION
140
15.0
  1
PRODUCT
  2
AutoCAD Mechanical 2000
  0
IDBUFFER
  5
2216
330
0
100
AcDbIdBuffer
  0
IDBUFFER
  5
2217
330
0
100
AcDbIdBuffer
330
1FF5
330
1FF7
330
2018
330
2019
330
201A
330
201B
330
201C
330
201D
330
201E
330
201F
330
2020
330
2021
330
2022
330
2023
330
2024
330
2025
330
2026
330
2027
330
2028
330
20FC
330
1615
330
1616
330
1618
330
1619
330
161B
330
162C
330
162E
330
162F
330
1A94
330
1FED
330
1FEF
330
1FF0
330
1FF1
330
1FF2
330
1FF3
330
1FF4
  0
IDBUFFER
  5
2218
330
0
100
AcDbIdBuffer
330
1FEE
330
1FF6
330
1FF8
330
1FF9
  0
IDBUFFER
  5
2219
330
0
100
AcDbIdBuffer
330
15E3
  0
IDBUFFER
  5
221A
330
0
100
AcDbIdBuffer
330
1968
330
1FFA
330
2009
330
2029
  0
IDBUFFER
  5
221B
330
0
100
AcDbIdBuffer
330
F06
  0
IDBUFFER
  5
221C
330
0
100
AcDbIdBuffer
  0
IDBUFFER
  5
221D
330
0
100
AcDbIdBuffer
  0
ENDSEC
  0
EOF
