  0
SECTION
  2
HEADER
  9
$ACADVER
  1
AC1014
  9
$ACADMAINTVER
 70
     9
  9
$DWGCODEPAGE
  3
ANSI_932
  9
$INSBASE
 10
0.0
 20
0.0
 30
0.0
  9
$EXTMIN
 10
-48.25777580884867
 20
-25.75000100000005
 30
-0.00000001
  9
$EXTMAX
 10
8.479580994691261
 20
10.05000013582978
 30
0.00000001
  9
$LIMMIN
 10
-56.19203688919146
 20
-36.91308621732051
  9
$LIMMAX
 10
18.28627382019004
 20
14.82384842322841
  9
$ORTHOMODE
 70
     0
  9
$REGENMODE
 70
     1
  9
$FILLMODE
 70
     1
  9
$QTEXTMODE
 70
     0
  9
$MIRRTEXT
 70
     0
  9
$DRAGMODE
 70
     2
  9
$LTSCALE
 40
1.0
  9
$OSMODE
 70
  2103
  9
$ATTMODE
 70
     1
  9
$TEXTSIZE
 40
2.5
  9
$TRACEWID
 40
1.0
  9
$TEXTSTYLE
  7
STANDARD
  9
$CLAYER
  8
AM_11
  9
$CELTYPE
  6
BYLAYER
  9
$CECOLOR
 62
   256
  9
$CELTSCALE
 40
1.0
  9
$DELOBJ
 70
     1
  9
$DISPSILH
 70
     0
  9
$DIMSCALE
 40
1.0
  9
$DIMASZ
 40
2.5
  9
$DIMEXO
 40
1.0
  9
$DIMDLI
 40
12.0
  9
$DIMRND
 40
0.0
  9
$DIMDLE
 40
0.0
  9
$DIMEXE
 40
1.0
  9
$DIMTP
 40
0.1
  9
$DIMTM
 40
0.1
  9
$DIMTXT
 40
3.2
  9
$DIMCEN
 40
0.0
  9
$DIMTSZ
 40
0.0
  9
$DIMTOL
 70
     0
  9
$DIMLIM
 70
     0
  9
$DIMTIH
 70
     0
  9
$DIMTOH
 70
     0
  9
$DIMSE1
 70
     0
  9
$DIMSE2
 70
     0
  9
$DIMTAD
 70
     3
  9
$DIMZIN
 70
     8
  9
$DIMBLK
  1
OPEN30
  9
$DIMASO
 70
     1
  9
$DIMSHO
 70
     1
  9
$DIMPOST
  1

  9
$DIMAPOST
  1
"
  9
$DIMALT
 70
     0
  9
$DIMALTD
 70
     2
  9
$DIMALTF
 40
0.0393701
  9
$DIMLFAC
 40
1.0
  9
$DIMTOFL
 70
     1
  9
$DIMTVP
 40
0.0
  9
$DIMTIX
 70
     0
  9
$DIMSOXD
 70
     0
  9
$DIMSAH
 70
     0
  9
$DIMBLK1
  1

  9
$DIMBLK2
  1

  9
$DIMSTYLE
  2
AM_JIS
  9
$DIMCLRD
 70
   256
  9
$DIMCLRE
 70
   256
  9
$DIMCLRT
 70
     2
  9
$DIMTFAC
 40
0.71
  9
$DIMGAP
 40
1.5
  9
$DIMJUST
 70
     0
  9
$DIMSD1
 70
     0
  9
$DIMSD2
 70
     0
  9
$DIMTOLJ
 70
     0
  9
$DIMTZIN
 70
     0
  9
$DIMALTZ
 70
     0
  9
$DIMALTTZ
 70
     0
  9
$DIMFIT
 70
     3
  9
$DIMUPT
 70
     0
  9
$DIMUNIT
 70
     2
  9
$DIMDEC
 70
     3
  9
$DIMTDEC
 70
     3
  9
$DIMALTU
 70
     2
  9
$DIMALTTD
 70
     2
  9
$DIMTXSTY
  7
ASAMI
  9
$DIMAUNIT
 70
     0
  9
$LUNITS
 70
     2
  9
$LUPREC
 70
     2
  9
$SKETCHINC
 40
1.0
  9
$FILLETRAD
 40
2.5
  9
$AUNITS
 70
     0
  9
$AUPREC
 70
     0
  9
$MENU
  1
.
  9
$ELEVATION
 40
0.0
  9
$PELEVATION
 40
0.0
  9
$THICKNESS
 40
0.0
  9
$LIMCHECK
 70
     0
  9
$BLIPMODE
 70
     0
  9
$CHAMFERA
 40
0.2
  9
$CHAMFERB
 40
0.2
  9
$CHAMFERC
 40
20.0
  9
$CHAMFERD
 40
0.0
  9
$SKPOLY
 70
     0
  9
$TDCREATE
 40
2452810.397252777
  9
$TDUPDATE
 40
2452839.679367581
  9
$TDINDWG
 40
0.0239268750
  9
$TDUSRTIMER
 40
0.0239268750
  9
$USRTIMER
 70
     1
  9
$ANGBASE
 50
0.0
  9
$ANGDIR
 70
     0
  9
$PDMODE
 70
     0
  9
$PDSIZE
 40
0.0
  9
$PLINEWID
 40
0.0
  9
$COORDS
 70
     2
  9
$SPLFRAME
 70
     0
  9
$SPLINETYPE
 70
     6
  9
$SPLINESEGS
 70
     8
  9
$ATTDIA
 70
     1
  9
$ATTREQ
 70
     1
  9
$HANDLING
 70
 12289
  9
$HANDSEED
  5
1B61
  9
$SURFTAB1
 70
     6
  9
$SURFTAB2
 70
     6
  9
$SURFTYPE
 70
     6
  9
$SURFU
 70
     6
  9
$SURFV
 70
     6
  9
$UCSNAME
  2

  9
$UCSORG
 10
0.0
 20
0.0
 30
0.0
  9
$UCSXDIR
 10
1.0
 20
0.0
 30
0.0
  9
$UCSYDIR
 10
0.0
 20
1.0
 30
0.0
  9
$PUCSNAME
  2

  9
$PUCSORG
 10
0.0
 20
0.0
 30
0.0
  9
$PUCSXDIR
 10
1.0
 20
0.0
 30
0.0
  9
$PUCSYDIR
 10
0.0
 20
1.0
 30
0.0
  9
$USERI1
 70
     0
  9
$USERI2
 70
     0
  9
$USERI3
 70
     0
  9
$USERI4
 70
     0
  9
$USERI5
 70
     0
  9
$USERR1
 40
0.0
  9
$USERR2
 40
0.0
  9
$USERR3
 40
0.0
  9
$USERR4
 40
0.0
  9
$USERR5
 40
0.0
  9
$WORLDVIEW
 70
     1
  9
$SHADEDGE
 70
     3
  9
$SHADEDIF
 70
    70
  9
$TILEMODE
 70
     1
  9
$MAXACTVP
 70
    64
  9
$PINSBASE
 10
0.0
 20
0.0
 30
0.0
  9
$PLIMCHECK
 70
     0
  9
$PEXTMIN
 10
1.000000000000000E+20
 20
1.000000000000000E+20
 30
1.000000000000000E+20
  9
$PEXTMAX
 10
-1.000000000000000E+20
 20
-1.000000000000000E+20
 30
-1.000000000000000E+20
  9
$PLIMMIN
 10
0.0
 20
0.0
  9
$PLIMMAX
 10
841.0
 20
594.0
  9
$UNITMODE
 70
     0
  9
$VISRETAIN
 70
     1
  9
$PLINEGEN
 70
     0
  9
$PSLTSCALE
 70
     0
  9
$TREEDEPTH
 70
  3020
  9
$PICKSTYLE
 70
     0
  9
$CMLSTYLE
  2
STANDARD
  9
$CMLJUST
 70
     0
  9
$CMLSCALE
 40
20.0
  9
$PROXYGRAPHICS
 70
     1
  9
$MEASUREMENT
 70
     1
  0
ENDSEC
  0
SECTION
  2
CLASSES
  0
CLASS
  1
ACDBDICTIONARYWDFLT
  2
AcDbDictionaryWithDefault
  3
AutoCAD 2000
 90
        0
280
     0
281
     0
  0
CLASS
  1
ACDBPLACEHOLDER
  2
AcDbPlaceHolder
  3
AutoCAD 2000
 90
        0
280
     0
281
     0
  0
CLASS
  1
LAYOUT
  2
AcDbLayout
  3
AutoCAD 2000
 90
        0
280
     0
281
     0
  0
CLASS
  1
AMGSETTINGSOBJ
  2
AmgSettingsObj
  3
"AcadM|Product Description: AutoCAD Mechanical 2000|Company: Autodesk"
 90
        0
280
     0
281
     0
  0
CLASS
  1
ACME_DOCUMENT
  2
AcMeDbDoc
  3
AcMeServices
 90
        0
280
     0
281
     0
  0
CLASS
  1
ACMESCOPE
  2
AcMeScope
  3
AcMeServices
 90
        0
280
     0
281
     0
  0
CLASS
  1
ACMECOMMANDHISTORY
  2
AcMeCommandHistory
  3
AcMeServices
 90
        0
280
     0
281
     0
  0
CLASS
  1
DICTIONARYVAR
  2
AcDbDictionaryVar
  3
AutoCAD 2000
 90
        0
280
     0
281
     0
  0
CLASS
  1
ACIMSYSVARMAN
  2
AcImSysVarManager
  3
AcMeServices
 90
        0
280
     0
281
     0
  0
CLASS
  1
ACIMREALSYSVAR
  2
AcImRealSysVar
  3
AcMeServices
 90
        0
280
     0
281
     0
  0
CLASS
  1
ACIMINTSYSVAR
  2
AcImIntSysVar
  3
AcMeServices
 90
        0
280
     0
281
     0
  0
CLASS
  1
ACMEDRAWINGMAN
  2
AcMeDrawingMan
  3
AcMeServices
 90
        0
280
     0
281
     0
  0
CLASS
  1
ACMEVIEW
  2
AcMeView
  3
AcMeServices
 90
        0
280
     0
281
     0
  0
CLASS
  1
ACDBENTITYCACHE
  2
AcMeEntityCache
  3
AcMeServices
 90
        0
280
     0
281
     0
  0
CLASS
  1
GSMANAGER
  2
AcMeGSManager
  3
AcMeServices
 90
        0
280
     0
281
     0
  0
CLASS
  1
AmdtInternalReactor
  2
AmdtInternalReactor
  3
AcMeServices
 90
        0
280
     0
281
     0
  0
CLASS
  1
ACMESTATEMGR
  2
AcMeStateMgr
  3
AcMeServices
 90
        0
280
     0
281
     0
  0
CLASS
  1
ACME_DATABASE
  2
AcMeDbDatabase
  3
AcMeServices
 90
        0
280
     0
281
     0
  0
CLASS
  1
ACRFINSADJUSTERMGR
  2
AcRfInsAdjusterMgr
  3
AcMeServices
 90
        0
280
     0
281
     0
  0
CLASS
  1
ACMDATADICTIONARY
  2
AcmDataDictionary
  3
"AcmSymBB|Product Description: AutoCAD Mechanical 2000|Company: Autodesk"
 90
        0
280
     0
281
     0
  0
CLASS
  1
ACMDATAENTRYBLOCK
  2
AcmDataEntryBlock
  3
"AcmSymBB|Product Description: AutoCAD Mechanical 2000|Company: Autodesk"
 90
        0
280
     0
281
     0
  0
CLASS
  1
AMGOBJPROPCFG
  2
AmgObjPropCfg
  3
"AmgLay|Product Description: AutoCAD Mechanical 2000|Company: Autodesk"
 90
        1
280
     0
281
     0
  0
CLASS
  1
ACAMGFILTERDAT
  2
AcAmgFilterDat
  3
"AcadM|Product Description: AutoCAD Mechanical 2000|Company: Autodesk"
 90
        0
280
     0
281
     0
  0
CLASS
  1
LAYER_INDEX
  2
AcDbLayerIndex
  3
AutoCAD 2000
 90
        0
280
     0
281
     0
  0
CLASS
  1
IDBUFFER
  2
AcDbIdBuffer
  3
AutoCAD 2000
 90
        0
280
     0
281
     0
  0
CLASS
  1
ACIMSTRSYSVAR
  2
AcImStrSysVar
  3
AcMeServices
 90
        0
280
     0
281
     0
  0
CLASS
  1
ACMSTANDARDJIS
  2
AcmStandardJIS
  3
"AcmSymBB|Product Description: AutoCAD Mechanical 2000|Company: Autodesk"
 90
        0
280
     0
281
     0
  0
CLASS
  1
ACMSURFSTANDARDJIS
  2
AcmSurfTextStdJIS
  3
"AcmSymBB|Product Description: AutoCAD Mechanical 2000|Company: Autodesk"
 90
        0
280
     0
281
     0
  0
CLASS
  1
ACMFCFSTANDARDJIS
  2
AcmFCFStdJIS
  3
"AcmSymBB|Product Description: AutoCAD Mechanical 2000|Company: Autodesk"
 90
        0
280
     0
281
     0
  0
CLASS
  1
ACMWELDSTANDARDJIS
  2
AcmWeldingStdJIS
  3
"AcmSymBB|Product Description: AutoCAD Mechanical 2000|Company: Autodesk"
 90
        0
280
     0
281
     0
  0
CLASS
  1
ACMIDSTANDARDJIS
  2
AcmIdStdJIS
  3
"AcmSymBB|Product Description: AutoCAD Mechanical 2000|Company: Autodesk"
 90
        0
280
     0
281
     0
  0
CLASS
  1
ACMDATUMSTANDARDJIS
  2
AcmDatumStdJIS
  3
"AcmSymBB|Product Description: AutoCAD Mechanical 2000|Company: Autodesk"
 90
        0
280
     0
281
     0
  0
CLASS
  1
ACMBOMSTANDARDJIS
  2
AcmBOMStdJIS
  3
"AcmSymBB|Product Description: AutoCAD Mechanical 2000|Company: Autodesk"
 90
        0
280
     0
281
     0
  0
CLASS
  1
ACMSTANDARDANSI
  2
AcmStandardANSI
  3
"AcmSymBB|Product Description: AutoCAD Mechanical 2000|Company: Autodesk"
 90
        0
280
     0
281
     0
  0
CLASS
  1
ACMSURFSTANDARDANSI
  2
AcmSurfTextStdANSI
  3
"AcmSymBB|Product Description: AutoCAD Mechanical 2000|Company: Autodesk"
 90
        0
280
     0
281
     0
  0
CLASS
  1
ACMFCFSTANDARDANSI
  2
AcmFCFStdANSI
  3
"AcmSymBB|Product Description: AutoCAD Mechanical 2000|Company: Autodesk"
 90
        0
280
     0
281
     0
  0
CLASS
  1
ACMWELDSTANDARDANSI
  2
AcmWeldingStdANSI
  3
"AcmSymBB|Product Description: AutoCAD Mechanical 2000|Company: Autodesk"
 90
        0
280
     0
281
     0
  0
CLASS
  1
ACMIDSTANDARDANSI
  2
AcmIdStdANSI
  3
"AcmSymBB|Product Description: AutoCAD Mechanical 2000|Company: Autodesk"
 90
        0
280
     0
281
     0
  0
CLASS
  1
ACMDATUMSTANDARDANSI
  2
AcmDatumStdANSI
  3
"AcmSymBB|Product Description: AutoCAD Mechanical 2000|Company: Autodesk"
 90
        0
280
     0
281
     0
  0
CLASS
  1
ACMBOMSTANDARDANSI
  2
AcmBOMStdANSI
  3
"AcmSymBB|Product Description: AutoCAD Mechanical 2000|Company: Autodesk"
 90
        0
280
     0
281
     0
  0
CLASS
  1
ACMSTANDARDBSI
  2
AcmStandardBSI
  3
"AcmSymBB|Product Description: AutoCAD Mechanical 2000|Company: Autodesk"
 90
        0
280
     0
281
     0
  0
CLASS
  1
ACMSURFSTANDARDBSI
  2
AcmSurfTextStdBSI
  3
"AcmSymBB|Product Description: AutoCAD Mechanical 2000|Company: Autodesk"
 90
        0
280
     0
281
     0
  0
CLASS
  1
ACMFCFSTANDARDBSI
  2
AcmFCFStdBSI
  3
"AcmSymBB|Product Description: AutoCAD Mechanical 2000|Company: Autodesk"
 90
        0
280
     0
281
     0
  0
CLASS
  1
ACMWELDSTANDARDBSI
  2
AcmWeldingStdBSI
  3
"AcmSymBB|Product Description: AutoCAD Mechanical 2000|Company: Autodesk"
 90
        0
280
     0
281
     0
  0
CLASS
  1
ACMIDSTANDARDBSI
  2
AcmIdStdBSI
  3
"AcmSymBB|Product Description: AutoCAD Mechanical 2000|Company: Autodesk"
 90
        0
280
     0
281
     0
  0
CLASS
  1
ACMDATUMSTANDARDBSI
  2
AcmDatumStdBSI
  3
"AcmSymBB|Product Description: AutoCAD Mechanical 2000|Company: Autodesk"
 90
        0
280
     0
281
     0
  0
CLASS
  1
ACMBOMSTANDARDBSI
  2
AcmBOMStdBSI
  3
"AcmSymBB|Product Description: AutoCAD Mechanical 2000|Company: Autodesk"
 90
        0
280
     0
281
     0
  0
CLASS
  1
LONG_TRANSACTION
  2
AcDbLongTransaction
  3
AutoCAD 2000
 90
        0
280
     0
281
     0
  0
CLASS
  1
LWPOLYLINE
  2
AcDbPolyline
  3
AutoCAD 2000
 90
        0
280
     0
281
     1
  0
CLASS
  1
HATCH
  2
AcDbHatch
  3
AutoCAD 2000
 90
        0
280
     0
281
     1
  0
CLASS
  1
XRECORD
  2
AcDbXrecord
  3
AutoCAD 2000
 90
        0
280
     0
281
     0
  0
ENDSEC
  0
SECTION
  2
TABLES
  0
TABLE
  2
VPORT
  5
8
330
0
100
AcDbSymbolTable
 70
     3
  0
VPORT
  5
1B36
330
8
100
AcDbSymbolTableRecord
100
AcDbViewportTableRecord
  2
*ACTIVE
 70
     0
 10
0.0
 20
0.0
 11
1.0
 21
1.0
 12
-19.89031502766968
 22
-7.850437652576559
 13
0.0
 23
0.0
 14
2.5
 24
2.5
 15
10.0
 25
10.0
 16
0.0
 26
0.0
 36
1.0
 17
0.0
 27
0.0
 37
0.0
 40
36.38211292949581
 41
1.56570841889117
 42
50.0
 43
0.0
 44
0.0
 50
0.0
 51
0.0
 71
     0
 72
   100
 73
     1
 74
     3
 75
     0
 76
     0
 77
     0
 78
     0
  0
ENDTAB
  0
TABLE
  2
LTYPE
  5
5
330
0
100
AcDbSymbolTable
 70
    10
  0
LTYPE
  5
14
330
5
100
AcDbSymbolTableRecord
100
AcDbLinetypeTableRecord
  2
BYBLOCK
 70
     0
  3

 72
    65
 73
     0
 40
0.0
  0
LTYPE
  5
15
330
5
100
AcDbSymbolTableRecord
100
AcDbLinetypeTableRecord
  2
BYLAYER
 70
     0
  3

 72
    65
 73
     0
 40
0.0
  0
LTYPE
  5
16
330
5
100
AcDbSymbolTableRecord
100
AcDbLinetypeTableRecord
  2
CONTINUOUS
 70
     0
  3
Solid line
 72
    65
 73
     0
 40
0.0
  0
LTYPE
  5
4B
330
5
100
AcDbSymbolTableRecord
100
AcDbLinetypeTableRecord
  2
AM_ISO02W050
 70
     0
  3
__ __ __ __ __ __ __ __ __ __ __ __ __ __ __
 72
    65
 73
     2
 40
7.5
 49
6.0
 74
     0
 49
-1.5
 74
     0
  0
LTYPE
  5
4C
330
5
100
AcDbSymbolTableRecord
100
AcDbLinetypeTableRecord
  2
AM_ISO08W050
 70
     0
  3
____ . ____ . ____ . ____ . ____ . ____ . ____
 72
    65
 73
     4
 40
18.0
 49
12.0
 74
     0
 49
-1.5
 74
     0
 49
3.0
 74
     0
 49
-1.5
 74
     0
  0
LTYPE
  5
4D
330
5
100
AcDbSymbolTableRecord
100
AcDbLinetypeTableRecord
  2
AM_ISO09W050
 70
     0
  3
_____ . . _____ . . _____ . . ____ .. ____
 72
    65
 73
     6
 40
22.5
 49
12.0
 74
     0
 49
-1.5
 74
     0
 49
3.0
 74
     0
 49
-1.5
 74
     0
 49
3.0
 74
     0
 49
-1.5
 74
     0
  0
LTYPE
  5
4E
330
5
100
AcDbSymbolTableRecord
100
AcDbLinetypeTableRecord
  2
AMCONSTR
 70
     0
  3
_______________________
 72
    65
 73
     2
 40
9999.0
 49
9999.0
 74
     0
 49
0.0
 74
     0
  0
LTYPE
  5
4F
330
5
100
AcDbSymbolTableRecord
100
AcDbLinetypeTableRecord
  2
AM_ISO02W050X2
 70
     0
  3
 _ _ _ _ _ _ _ _ _ _ _ _
 72
    65
 73
     2
 40
3.75
 49
3.0
 74
     0
 49
-0.75
 74
     0
  0
LTYPE
  5
50
330
5
100
AcDbSymbolTableRecord
100
AcDbLinetypeTableRecord
  2
AM_ISO08W050X2
 70
     0
  3
__ . __ . __ . __ . __ . __
 72
    65
 73
     4
 40
9.0
 49
6.0
 74
     0
 49
-0.75
 74
     0
 49
1.5
 74
     0
 49
-0.75
 74
     0
  0
LTYPE
  5
53
330
5
100
AcDbSymbolTableRecord
100
AcDbLinetypeTableRecord
  2
AMZIGZAG
 70
     0
  3
/\/-/\/-/\/-/\/-/\/-/\/
 72
    65
 73
     2
 40
11.00009999999999
 49
0.0001
 74
     4
 75
   135
340
52
 46
0.04
 50
0.0
 44
0.0
 45
0.0
 49
-11.0
 74
     0
  0
LTYPE
  5
166
330
5
100
AcDbSymbolTableRecord
100
AcDbLinetypeTableRecord
  2
ACJISTGL
 70
     0
  3
_ _ _ _ _
 72
    65
 73
     2
 40
3.0
 49
2.0
 74
     0
 49
-1.0
 74
     0
  0
LTYPE
  5
26A
330
5
100
AcDbSymbolTableRecord
100
AcDbLinetypeTableRecord
  2
ACJISTGB
 70
     0
  3
__ . . __ . .
 72
    65
 73
     6
 40
9.0
 49
4.0
 74
     0
 49
-1.0
 74
     0
 49
1.0
 74
     0
 49
-1.0
 74
     0
 49
1.0
 74
     0
 49
-1.0
 74
     0
  0
ENDTAB
  0
TABLE
  2
LAYER
  5
2
330
0
100
AcDbSymbolTable
 70
     7
  0
LAYER
  5
10
330
2
100
AcDbSymbolTableRecord
100
AcDbLayerTableRecord
  2
0
 70
     0
 62
     7
  6
CONTINUOUS
  0
LAYER
  5
3F9
330
2
100
AcDbSymbolTableRecord
100
AcDbLayerTableRecord
  2
AM_0
 70
     0
 62
     7
  6
CONTINUOUS
  0
LAYER
  5
BA4
330
2
100
AcDbSymbolTableRecord
100
AcDbLayerTableRecord
  2
AM_11
 70
     0
 62
     3
  6
AM_ISO09W050
  0
LAYER
  5
BA5
330
2
100
AcDbSymbolTableRecord
100
AcDbLayerTableRecord
  2
AM_7
 70
     0
 62
     4
  6
AM_ISO08W050
  0
LAYER
  5
C84
330
2
100
AcDbSymbolTableRecord
100
AcDbLayerTableRecord
  2
AM_5
 70
     0
 62
     3
  6
CONTINUOUS
  0
LAYER
  5
F05
330
2
100
AcDbSymbolTableRecord
100
AcDbLayerTableRecord
  2
AM_6
 70
     0
 62
     2
  6
CONTINUOUS
  0
LAYER
  5
F0F
330
2
100
AcDbSymbolTableRecord
100
AcDbLayerTableRecord
  2
DEFPOINTS
 70
     0
 62
     7
  6
CONTINUOUS
  0
ENDTAB
  0
TABLE
  2
STYLE
  5
3
330
0
100
AcDbSymbolTable
 70
     5
  0
STYLE
  5
11
330
3
100
AcDbSymbolTableRecord
100
AcDbTextStyleTableRecord
  2
STANDARD
 70
     0
 40
0.0
 41
1.0
 50
0.0
 71
     0
 42
2.5
  3
simplex.shx
  4
EXTFONT.SHX
  0
STYLE
  5
52
330
3
100
AcDbSymbolTableRecord
100
AcDbTextStyleTableRecord
  2

 70
     1
 40
0.0
 41
1.0
 50
0.0
 71
     0
 42
2.5
  3
ltypeshp.shx
  4

  0
STYLE
  5
6B
330
3
100
AcDbSymbolTableRecord
100
AcDbTextStyleTableRecord
  2
ASAMI
 70
     0
 40
0.0
 41
1.0
 50
0.0
 71
     0
 42
2.5
  3
simplex.shx
  4
EXTFONT.SHX
  0
STYLE
  5
262
330
3
100
AcDbSymbolTableRecord
100
AcDbTextStyleTableRecord
  2
ACJISTS
 70
     0
 40
1.0
 41
1.0
 50
0.0
 71
     0
 42
2.5
  3
simplex.shx
  4
bigfont.shx
  0
STYLE
  5
269
330
3
100
AcDbSymbolTableRecord
100
AcDbTextStyleTableRecord
  2
ACJISGDT
 70
     0
 40
0.0
 41
1.0
 50
0.0
 71
     0
 42
2.5
  3
amgdtans.shx
  4

  0
ENDTAB
  0
TABLE
  2
VIEW
  5
6
330
0
100
AcDbSymbolTable
 70
     0
  0
ENDTAB
  0
TABLE
  2
UCS
  5
7
330
0
100
AcDbSymbolTable
 70
     0
  0
ENDTAB
  0
TABLE
  2
APPID
  5
9
330
0
100
AcDbSymbolTable
 70
    13
  0
APPID
  5
12
330
9
100
AcDbSymbolTableRecord
100
AcDbRegAppTableRecord
  2
ACAD
 70
     0
  0
APPID
  5
30
330
9
100
AcDbSymbolTableRecord
100
AcDbRegAppTableRecord
  2
MCAD_NO_VIS
 70
     0
  0
APPID
  5
31
330
9
100
AcDbSymbolTableRecord
100
AcDbRegAppTableRecord
  2
ACAD_TEMP_GRAPHIC
 70
     0
  0
APPID
  5
2C2
330
9
100
AcDbSymbolTableRecord
100
AcDbRegAppTableRecord
  2
GENIUS_GENDTOL_13
 70
     0
  0
APPID
  5
339
330
9
100
AcDbSymbolTableRecord
100
AcDbRegAppTableRecord
  2
GENIUS_GENODEF_13
 70
     0
  0
APPID
  5
33A
330
9
100
AcDbSymbolTableRecord
100
AcDbRegAppTableRecord
  2
GENIUS_GENOBJ-N-RSBK_13
 70
     0
  0
APPID
  5
33B
330
9
100
AcDbSymbolTableRecord
100
AcDbRegAppTableRecord
  2
GENIUS_GENOBJ-N-LIB_13
 70
     0
  0
APPID
  5
33C
330
9
100
AcDbSymbolTableRecord
100
AcDbRegAppTableRecord
  2
GENIUS_GENSCALE_13
 70
     0
  0
APPID
  5
378
330
9
100
AcDbSymbolTableRecord
100
AcDbRegAppTableRecord
  2
GENIUS_GENDIMSH_14
 70
     0
  0
APPID
  5
BA6
330
9
100
AcDbSymbolTableRecord
100
AcDbRegAppTableRecord
  2
GENIUS_GENOBJ-N-CEN_13
 70
     0
  0
APPID
  5
BEC
330
9
100
AcDbSymbolTableRecord
100
AcDbRegAppTableRecord
  2
GENIUS_GENOREF_13
 70
     0
  0
APPID
  5
EEE
330
9
100
AcDbSymbolTableRecord
100
AcDbRegAppTableRecord
  2
GENIUS_GENFIL_13
 70
     0
  0
APPID
  5
EEF
330
9
100
AcDbSymbolTableRecord
100
AcDbRegAppTableRecord
  2
GENIUS_GENOBJ-N-CHA_13
 70
     0
  0
ENDTAB
  0
TABLE
  2
DIMSTYLE
  5
A
330
0
100
AcDbSymbolTable
 70
     8
  0
DIMSTYLE
105
58
102
{ACAD_REACTORS
330
16AB
330
17B1
330
18B4
330
1968
102
}
330
A
100
AcDbSymbolTableRecord
100
AcDbDimStyleTableRecord
  2
AM_JIS
 70
     0
  3

  4
"
  5
OPEN30
  6

  7

 40
0.5
 41
2.5
 42
1.0
 43
12.0
 44
1.0
 45
0.0
 46
0.0
 47
0.1
 48
0.1
140
3.2
141
0.0
142
0.0
143
0.0393701
144
1.0
145
0.0
146
0.71
147
1.5
 71
     0
 72
     0
 73
     0
 74
     0
 75
     0
 76
     0
 77
     3
 78
     8
170
     0
171
     2
172
     1
173
     0
174
     0
175
     0
176
   256
177
   256
178
     2
270
     2
271
     3
272
     3
273
     2
274
     2
340
6B
275
     0
280
     0
281
     0
282
     0
283
     0
284
     0
285
     0
286
     0
287
     3
288
     0
  0
DIMSTYLE
105
5F
330
A
100
AcDbSymbolTableRecord
100
AcDbDimStyleTableRecord
  2
AM_JIS$3
 70
     0
  3

  4
"
  5
OPEN30
  6

  7

 40
0.5
 41
2.5
 42
1.0
 43
10.0
 44
1.0
 45
0.0
 46
0.0
 47
0.1
 48
0.1
140
3.2
141
0.0
142
0.0
143
0.0393701
144
1.0
145
0.0
146
0.71
147
1.5
 71
     0
 72
     0
 73
     0
 74
     1
 75
     0
 76
     0
 77
     3
 78
     8
170
     0
171
     2
172
     0
173
     0
174
     0
175
     0
176
   256
177
   256
178
     2
270
     2
271
     2
272
     3
273
     2
274
     2
340
6B
275
     0
280
     0
281
     0
282
     0
283
     0
284
     0
285
     0
286
     0
287
     0
288
     1
  0
DIMSTYLE
105
60
330
A
100
AcDbSymbolTableRecord
100
AcDbDimStyleTableRecord
  2
AM_JIS$4
 70
     0
  3

  4
"
  5
OPEN30
  6

  7

 40
0.5
 41
2.5
 42
1.0
 43
10.0
 44
1.0
 45
0.0
 46
0.0
 47
0.1
 48
0.1
140
3.2
141
0.0
142
0.0
143
0.0393701
144
1.0
145
0.0
146
0.71
147
1.5
 71
     0
 72
     0
 73
     0
 74
     1
 75
     0
 76
     0
 77
     3
 78
     8
170
     0
171
     2
172
     0
173
     0
174
     0
175
     0
176
   256
177
   256
178
     2
270
     2
271
     2
272
     3
273
     2
274
     2
340
6B
275
     0
280
     0
281
     0
282
     0
283
     0
284
     0
285
     0
286
     0
287
     0
288
     1
  0
DIMSTYLE
105
61
330
A
100
AcDbSymbolTableRecord
100
AcDbDimStyleTableRecord
  2
AM_JIS$6
 70
     0
  3

  4
"
  5
OPEN30
  6

  7

 40
0.5
 41
2.5
 42
1.0
 43
10.0
 44
1.0
 45
0.0
 46
0.0
 47
0.1
 48
0.1
140
3.2
141
0.0
142
0.0
143
0.0393701
144
1.0
145
0.0
146
0.71
147
1.5
 71
     0
 72
     0
 73
     0
 74
     0
 75
     0
 76
     0
 77
     0
 78
     8
170
     0
171
     2
172
     1
173
     0
174
     0
175
     0
176
   256
177
   256
178
     2
270
     2
271
     2
272
     2
273
     2
274
     2
340
6B
275
     0
280
     0
281
     0
282
     0
283
     0
284
     0
285
     0
286
     0
287
     3
288
     0
  0
DIMSTYLE
105
62
330
A
100
AcDbSymbolTableRecord
100
AcDbDimStyleTableRecord
  2
AM_JIS$7
 70
     0
  3

  4
"
  5
OPEN30
  6

  7

 40
0.5
 41
2.5
 42
1.0
 43
10.0
 44
1.0
 45
0.0
 46
0.0
 47
0.1
 48
0.1
140
3.2
141
0.0
142
0.0
143
0.0393701
144
1.0
145
0.0
146
0.71
147
1.5
 71
     0
 72
     0
 73
     0
 74
     0
 75
     0
 76
     0
 77
     3
 78
     8
170
     0
171
     2
172
     1
173
     0
174
     0
175
     0
176
   256
177
   256
178
     2
270
     2
271
     2
272
     3
273
     2
274
     2
340
6B
275
     0
280
     0
281
     0
282
     0
283
     0
284
     0
285
     0
286
     0
287
     3
288
     0
  0
DIMSTYLE
105
63
330
A
100
AcDbSymbolTableRecord
100
AcDbDimStyleTableRecord
  2
AM_JIS$SF
 70
     0
  3

  4
"
  5
OPEN30
  6

  7

 40
0.5
 41
2.5
 42
1.0
 43
10.0
 44
1.0
 45
0.0
 46
0.0
 47
0.1
 48
0.1
140
3.2
141
0.0
142
0.0
143
0.0393701
144
1.0
145
0.0
146
0.71
147
1.5
 71
     0
 72
     0
 73
     0
 74
     0
 75
     1
 76
     1
 77
     3
 78
     8
170
     0
171
     2
172
     1
173
     0
174
     0
175
     0
176
   256
177
   256
178
     2
270
     2
271
     2
272
     2
273
     2
274
     2
340
6B
275
     0
280
     0
281
     0
282
     0
283
     0
284
     0
285
     0
286
     0
287
     3
288
     0
  0
DIMSTYLE
105
68
330
A
100
AcDbSymbolTableRecord
100
AcDbDimStyleTableRecord
  2
AM_JIS$SH
 70
     0
  3

  4
"
  5

  6
GENAXEH
  7
OPEN30
 40
0.5
 41
2.5
 42
1.0
 43
10.0
 44
1.0
 45
0.0
 46
0.0
 47
0.1
 48
0.1
140
3.2
141
0.0
142
0.0
143
0.0393701
144
2.0
145
0.0
146
0.71
147
1.5
 71
     0
 72
     0
 73
     0
 74
     0
 75
     1
 76
     1
 77
     3
 78
     8
170
     0
171
     2
172
     1
173
     1
174
     0
175
     0
176
   256
177
   256
178
     2
270
     2
271
     2
272
     2
273
     2
274
     2
340
6B
275
     0
280
     0
281
     0
282
     0
283
     0
284
     0
285
     0
286
     0
287
     3
288
     0
  0
DIMSTYLE
105
B34
330
A
100
AcDbSymbolTableRecord
100
AcDbDimStyleTableRecord
  2
AM_JIS$2
 70
     0
  3

  4
"
  5
OPEN30
  6

  7

 40
0.5
 41
2.5
 42
1.0
 43
12.0
 44
1.0
 45
0.0
 46
0.0
 47
0.1
 48
0.1
140
3.2
141
0.0
142
0.0
143
0.0393701
144
1.0
145
0.0
146
0.71
147
1.5
 71
     0
 72
     0
 73
     0
 74
     0
 75
     0
 76
     0
 77
     3
 78
     8
170
     0
171
     2
172
     1
173
     0
174
     0
175
     0
176
   256
177
   256
178
     2
270
     2
271
     3
272
     3
273
     2
274
     2
340
6B
275
     0
280
     0
281
     0
282
     0
283
     0
284
     0
285
     0
286
     0
287
     3
288
     0
  0
ENDTAB
  0
TABLE
  2
BLOCK_RECORD
  5
1
330
0
100
AcDbSymbolTable
 70
     9
  0
BLOCK_RECORD
  5
1F
102
{ACAD_XDICTIONARY
360
74
102
}
330
1
100
AcDbSymbolTableRecord
100
AcDbBlockTableRecord
  2
*MODEL_SPACE
  0
BLOCK_RECORD
  5
101
102
{ACAD_XDICTIONARY
360
1B5F
102
}
330
1
100
AcDbSymbolTableRecord
100
AcDbBlockTableRecord
  2
*PAPER_SPACE
  0
BLOCK_RECORD
  5
59
330
1
100
AcDbSymbolTableRecord
100
AcDbBlockTableRecord
  2
_OPEN30
  0
BLOCK_RECORD
  5
64
330
1
100
AcDbSymbolTableRecord
100
AcDbBlockTableRecord
  2
GENAXEH
  0
BLOCK_RECORD
  5
16AC
330
1
100
AcDbSymbolTableRecord
100
AcDbBlockTableRecord
  2
*D5
  0
BLOCK_RECORD
  5
17B2
330
1
100
AcDbSymbolTableRecord
100
AcDbBlockTableRecord
  2
*D6
  0
BLOCK_RECORD
  5
18B5
330
1
100
AcDbSymbolTableRecord
100
AcDbBlockTableRecord
  2
*D7
  0
BLOCK_RECORD
  5
1969
330
1
100
AcDbSymbolTableRecord
100
AcDbBlockTableRecord
  2
*D8
  0
ENDTAB
  0
ENDSEC
  0
SECTION
  2
BLOCKS
  0
BLOCK
  5
20
330
1F
100
AcDbEntity
  8
0
100
AcDbBlockBegin
  2
*MODEL_SPACE
 70
     0
 10
0.0
 20
0.0
 30
0.0
  3
*MODEL_SPACE
  1

  0
ENDBLK
  5
21
330
1F
100
AcDbEntity
  8
0
100
AcDbBlockEnd
  0
BLOCK
  5
103
330
101
100
AcDbEntity
 67
     1
  8
0
100
AcDbBlockBegin
  2
*PAPER_SPACE
 70
     0
 10
0.0
 20
0.0
 30
0.0
  3
*PAPER_SPACE
  1

  0
ENDBLK
  5
104
330
101
100
AcDbEntity
 67
     1
  8
0
100
AcDbBlockEnd
  0
BLOCK
  5
5D
330
59
100
AcDbEntity
  8
0
100
AcDbBlockBegin
  2
_OPEN30
 70
     0
 10
0.0
 20
0.0
 30
0.0
  3
_OPEN30
  1

  0
LINE
  5
5A
330
59
100
AcDbEntity
  8
0
 62
     0
100
AcDbLine
 10
-1.0
 20
0.26794919
 30
0.0
 11
0.0
 21
0.0
 31
0.0
  0
LINE
  5
5B
330
59
100
AcDbEntity
  8
0
 62
     0
100
AcDbLine
 10
0.0
 20
0.0
 30
0.0
 11
-1.0
 21
-0.26794919
 31
0.0
  0
LINE
  5
5C
330
59
100
AcDbEntity
  8
0
 62
     0
100
AcDbLine
 10
0.0
 20
0.0
 30
0.0
 11
-1.0
 21
0.0
 31
0.0
  0
ENDBLK
  5
5E
330
59
100
AcDbEntity
  8
0
100
AcDbBlockEnd
  0
BLOCK
  5
66
330
64
100
AcDbEntity
  8
0
100
AcDbBlockBegin
  2
GENAXEH
 70
     0
 10
0.0
 20
0.0
 30
0.0
  3
GENAXEH
  1

  0
LINE
  5
65
330
64
100
AcDbEntity
  8
0
100
AcDbLine
 10
-1.0
 20
0.0
 30
0.0
 11
1.0
 21
0.0
 31
0.0
  0
ENDBLK
  5
67
330
64
100
AcDbEntity
  8
0
100
AcDbBlockEnd
  0
BLOCK
  5
16B8
330
16AC
100
AcDbEntity
  8
0
100
AcDbBlockBegin
  2
*D5
 70
     1
 10
0.0
 20
0.0
 30
0.0
  3
*D5
  1

  0
LINE
  5
1AFC
330
16AC
100
AcDbEntity
  8
AM_5
100
AcDbLine
 10
0.5
 20
1.250000135829793
 30
0.0
 11
8.479580994691261
 21
1.250000135829791
 31
0.0
  0
LINE
  5
1AFD
330
16AC
100
AcDbEntity
  8
AM_5
100
AcDbLine
 10
0.5
 20
-1.25
 30
0.0
 11
8.479580994691261
 21
-1.250000000000002
 31
0.0
  0
LINE
  5
1AFE
330
16AC
100
AcDbEntity
  8
AM_5
100
AcDbLine
 10
7.979580994691261
 20
-2.500000000000002
 30
0.0
 11
7.979580994691261
 21
-3.750000000000002
 31
0.0
  0
LINE
  5
1AFF
330
16AC
100
AcDbEntity
  8
AM_5
100
AcDbLine
 10
7.979580994691263
 20
2.500000135829791
 30
0.0
 11
7.979580994691264
 21
10.05000013582978
 31
0.0
  0
LINE
  5
1B00
330
16AC
100
AcDbEntity
  8
AM_5
100
AcDbLine
 10
7.979580994691262
 20
-1.250000000000002
 30
0.0
 11
7.979580994691262
 21
1.250000135829791
 31
0.0
  0
INSERT
  5
1B01
330
16AC
100
AcDbEntity
  8
AM_5
100
AcDbBlockReference
  2
_OPEN30
 10
7.979580994691262
 20
-1.250000000000002
 30
0.0
 41
1.25
 42
1.25
 43
1.25
 50
90.0
  0
INSERT
  5
1B02
330
16AC
100
AcDbEntity
  8
AM_5
100
AcDbBlockReference
  2
_OPEN30
 10
7.979580994691262
 20
1.250000135829791
 30
0.0
 41
1.25
 42
1.25
 43
1.25
 50
270.0
  0
MTEXT
  5
1B03
330
16AC
100
AcDbEntity
  8
AM_5
 62
     2
100
AcDbMText
 10
6.429580994691262
 20
6.900000135829792
 30
0.0
 40
1.6
 41
0.0
 71
     5
 72
     1
  1
%%c2.5
  7
ASAMI
 11
0.0000000000000001
 21
1.0
 31
0.0
1001
ACAD
1000
MTEXTBEGIN
1070
    73
1070
     1
1070
    44
1040
1.0
1070
    74
1070
     0
1000
MTEXTEND
  0
POINT
  5
1B04
330
16AC
100
AcDbEntity
  8
DEFPOINTS
 62
     0
100
AcDbPoint
 10
0.0
 20
1.250000135829793
 30
0.0
  0
POINT
  5
1B05
330
16AC
100
AcDbEntity
  8
DEFPOINTS
 62
     0
100
AcDbPoint
 10
0.0
 20
-1.25
 30
0.0
  0
POINT
  5
1B06
330
16AC
100
AcDbEntity
  8
DEFPOINTS
 62
     0
100
AcDbPoint
 10
7.979580994691262
 20
-1.250000000000002
 30
0.0
  0
ENDBLK
  5
16B9
330
16AC
100
AcDbEntity
  8
0
100
AcDbBlockEnd
  0
BLOCK
  5
17BE
330
17B2
100
AcDbEntity
  8
0
100
AcDbBlockBegin
  2
*D6
 70
     1
 10
0.0
 20
0.0
 30
0.0
  3
*D6
  1

  0
LINE
  5
1AF3
330
17B2
100
AcDbEntity
  8
AM_5
100
AcDbLine
 10
-6.25
 20
-1.749999999999999
 30
0.0
 11
-6.25
 21
-9.000000999999983
 31
0.0
  0
LINE
  5
1AF4
330
17B2
100
AcDbEntity
  8
AM_5
100
AcDbLine
 10
-0.0000000000000002
 20
-1.75000013582985
 30
0.0
 11
-0.0000000000000006
 21
-9.000000999999983
 31
0.0
  0
LINE
  5
1AF5
330
17B2
100
AcDbEntity
  8
AM_5
100
AcDbLine
 10
-5.0
 20
-8.500000999999983
 30
0.0
 11
-1.25
 21
-8.500000999999983
 31
0.0
  0
INSERT
  5
1AF6
330
17B2
100
AcDbEntity
  8
AM_5
100
AcDbBlockReference
  2
_OPEN30
 10
-6.25
 20
-8.500000999999983
 30
0.0
 41
1.25
 42
1.25
 43
1.25
 50
180.0
  0
INSERT
  5
1AF7
330
17B2
100
AcDbEntity
  8
AM_5
100
AcDbBlockReference
  2
_OPEN30
 10
-0.0000000000000006
 20
-8.500000999999983
 30
0.0
 41
1.25
 42
1.25
 43
1.25
  0
MTEXT
  5
1AF8
330
17B2
100
AcDbEntity
  8
AM_5
 62
     2
100
AcDbMText
 10
-3.125
 20
-6.950000999999983
 30
0.0
 40
1.6
 41
0.0
 71
     5
 72
     1
  1
6.25
  7
ASAMI
1001
ACAD
1000
MTEXTBEGIN
1070
    73
1070
     1
1070
    44
1040
1.0
1070
    74
1070
     0
1000
MTEXTEND
  0
POINT
  5
1AF9
330
17B2
100
AcDbEntity
  8
DEFPOINTS
 62
     0
100
AcDbPoint
 10
-6.25
 20
-1.249999999999999
 30
0.0
  0
POINT
  5
1AFA
330
17B2
100
AcDbEntity
  8
DEFPOINTS
 62
     0
100
AcDbPoint
 10
-0.0000000000000002
 20
-1.25000013582985
 30
0.0
  0
POINT
  5
1AFB
330
17B2
100
AcDbEntity
  8
DEFPOINTS
 62
     0
100
AcDbPoint
 10
-0.0000000000000006
 20
-8.500000999999983
 30
0.0
  0
ENDBLK
  5
17BF
330
17B2
100
AcDbEntity
  8
0
100
AcDbBlockEnd
  0
BLOCK
  5
18BF
330
18B5
100
AcDbEntity
  8
0
100
AcDbBlockBegin
  2
*D7
 70
     1
 10
0.0
 20
0.0
 30
0.0
  3
*D7
  1

  0
LINE
  5
1ACA
330
18B5
100
AcDbEntity
  8
AM_5
100
AcDbLine
 10
-0.0000000000000002
 20
-1.75000013582985
 30
0.0
 11
-0.000000000000001
 21
-15.00000100000005
 31
0.0
  0
LINE
  5
1ACB
330
18B5
100
AcDbEntity
  8
AM_5
100
AcDbLine
 10
-37.99999999999999
 20
-1.799999999999994
 30
0.0
 11
-37.99999999999999
 21
-15.00000100000005
 31
0.0
  0
LINE
  5
1ACC
330
18B5
100
AcDbEntity
  8
AM_5
100
AcDbLine
 10
-1.25
 20
-14.50000100000005
 30
0.0
 11
-36.74999999999999
 21
-14.50000100000005
 31
0.0
  0
INSERT
  5
1ACD
330
18B5
100
AcDbEntity
  8
AM_5
100
AcDbBlockReference
  2
_OPEN30
 10
-0.000000000000001
 20
-14.50000100000005
 30
0.0
 41
1.25
 42
1.25
 43
1.25
  0
INSERT
  5
1ACE
330
18B5
100
AcDbEntity
  8
AM_5
100
AcDbBlockReference
  2
_OPEN30
 10
-37.99999999999999
 20
-14.50000100000005
 30
0.0
 41
1.25
 42
1.25
 43
1.25
 50
180.0
  0
MTEXT
  5
1ACF
330
18B5
100
AcDbEntity
  8
AM_5
 62
     2
100
AcDbMText
 10
-18.99999999999999
 20
-12.95000100000005
 30
0.0
 40
1.6
 41
0.0
 71
     5
 72
     1
  1
38
  7
ASAMI
1001
ACAD
1000
MTEXTBEGIN
1070
    73
1070
     1
1070
    44
1040
1.0
1070
    74
1070
     0
1000
MTEXTEND
  0
POINT
  5
1AD0
330
18B5
100
AcDbEntity
  8
DEFPOINTS
 62
     0
100
AcDbPoint
 10
-0.0000000000000002
 20
-1.25000013582985
 30
0.0
  0
POINT
  5
1AD1
330
18B5
100
AcDbEntity
  8
DEFPOINTS
 62
     0
100
AcDbPoint
 10
-37.99999999999999
 20
-1.299999999999994
 30
0.0
  0
POINT
  5
1AD2
330
18B5
100
AcDbEntity
  8
DEFPOINTS
 62
     0
100
AcDbPoint
 10
-37.99999999999999
 20
-14.50000100000005
 30
0.0
  0
ENDBLK
  5
18C0
330
18B5
100
AcDbEntity
  8
0
100
AcDbBlockEnd
  0
BLOCK
  5
1975
330
1969
100
AcDbEntity
  8
0
100
AcDbBlockBegin
  2
*D8
 70
     1
 10
0.0
 20
0.0
 30
0.0
  3
*D8
  1

  0
LINE
  5
1B07
330
1969
100
AcDbEntity
  8
AM_5
100
AcDbLine
 10
-38.29999999999999
 20
-1.499999999999994
 30
0.0
 11
-46.40777580884867
 21
-1.499999999999992
 31
0.0
  0
LINE
  5
1B08
330
1969
100
AcDbEntity
  8
AM_5
100
AcDbLine
 10
-38.3
 20
1.500000000000005
 30
0.0
 11
-46.40777580884867
 21
1.500000000000007
 31
0.0
  0
LINE
  5
1B09
330
1969
100
AcDbEntity
  8
AM_5
100
AcDbLine
 10
-45.90777580884867
 20
-2.749999999999992
 30
0.0
 11
-45.90777580884867
 21
-3.999999999999992
 31
0.0
  0
LINE
  5
1B0A
330
1969
100
AcDbEntity
  8
AM_5
100
AcDbLine
 10
-45.90777580884867
 20
2.750000000000007
 30
0.0
 11
-45.90777580884867
 21
4.000000000000007
 31
0.0
  0
LINE
  5
1B0B
330
1969
100
AcDbEntity
  8
AM_5
100
AcDbLine
 10
-45.90777580884867
 20
-1.499999999999992
 30
0.0
 11
-45.90777580884867
 21
1.500000000000007
 31
0.0
  0
INSERT
  5
1B0C
330
1969
100
AcDbEntity
  8
AM_5
100
AcDbBlockReference
  2
_OPEN30
 10
-45.90777580884867
 20
-1.499999999999992
 30
0.0
 41
1.25
 42
1.25
 43
1.25
 50
90.0
  0
INSERT
  5
1B0D
330
1969
100
AcDbEntity
  8
AM_5
100
AcDbBlockReference
  2
_OPEN30
 10
-45.90777580884867
 20
1.500000000000007
 30
0.0
 41
1.25
 42
1.25
 43
1.25
 50
270.0
  0
MTEXT
  5
1B0E
330
1969
100
AcDbEntity
  8
AM_5
 62
     2
100
AcDbMText
 10
-47.45777580884866
 20
0.0000000000000006
 30
0.0
 40
1.6
 41
0.0
 71
     5
 72
     1
  1
%%c3
  7
ASAMI
 11
0.0000000000000001
 21
1.0
 31
0.0
1001
ACAD
1000
MTEXTBEGIN
1070
    73
1070
     1
1070
    44
1040
1.0
1070
    74
1070
     0
1000
MTEXTEND
  0
POINT
  5
1B0F
330
1969
100
AcDbEntity
  8
DEFPOINTS
 62
     0
100
AcDbPoint
 10
-37.79999999999999
 20
-1.499999999999994
 30
0.0
  0
POINT
  5
1B10
330
1969
100
AcDbEntity
  8
DEFPOINTS
 62
     0
100
AcDbPoint
 10
-37.79999999999999
 20
1.500000000000005
 30
0.0
  0
POINT
  5
1B11
330
1969
100
AcDbEntity
  8
DEFPOINTS
 62
     0
100
AcDbPoint
 10
-45.90777580884867
 20
1.500000000000007
 30
0.0
  0
ENDBLK
  5
1976
330
1969
100
AcDbEntity
  8
0
100
AcDbBlockEnd
  0
ENDSEC
  0
SECTION
  2
ENTITIES
  0
TEXT
  5
F06
330
1F
100
AcDbEntity
  8
AM_6
100
AcDbText
 10
-28.52380952380949
 20
-25.75000100000005
 30
0.0
 40
2.5
  1
SIT2025ZX
 72
     4
 11
-18.99999999999997
 21
-24.50000100000005
 31
0.0
100
AcDbText
  0
LINE
  5
15CF
330
1F
100
AcDbEntity
  8
AM_11
100
AcDbLine
 10
-6.25
 20
1.25
 30
0.0
 11
-6.25
 21
-1.249999999999999
 31
0.0
  0
SPLINE
  5
15D1
330
1F
100
AcDbEntity
  8
AM_0
100
AcDbSpline
210
0.0
220
0.0
230
1.0
 70
     8
 71
     3
 72
     8
 73
     4
 74
     0
 42
0.0000000001
 43
0.0000000001
 40
0.0
 40
0.0
 40
0.0
 40
0.0
 40
4.607356481513744
 40
4.607356481513744
 40
4.607356481513744
 40
4.607356481513744
 10
-5.026291578130438
 20
-1.147871883127435
 30
0.0
 10
-4.696212307813034
 20
-1.147871883127435
 30
0.0
 10
-4.374480019811919
 20
-1.088749862780445
 30
0.0
 10
-4.058415473438496
 20
-0.9894829944950057
 30
0.0
  0
SPLINE
  5
15D2
330
1F
100
AcDbEntity
  8
AM_0
100
AcDbSpline
210
0.0
220
0.0
230
1.0
 70
     8
 71
     3
 72
     8
 73
     4
 74
     0
 42
0.0000000001
 43
0.0000000001
 40
1.53702008085691
 40
1.53702008085691
 40
1.53702008085691
 40
1.53702008085691
 40
1.900993527181806
 40
1.900993527181806
 40
1.900993527181806
 40
1.900993527181806
 10
-5.139266081719972
 20
-1.157840083736459
 30
0.0
 10
-5.113642693989541
 20
-1.154777282826557
 30
0.0
 10
-5.088069848840071
 20
-1.151372243618026
 30
0.0
 10
-5.062546119111412
 20
-1.147634629820287
 30
0.0
  0
SPLINE
  5
15D3
330
1F
100
AcDbEntity
  8
AM_0
100
AcDbSpline
210
0.0
220
0.0
230
1.0
 70
     8
 71
     3
 72
     8
 73
     4
 74
     0
 42
0.0000000001
 43
0.0000000001
 40
0.0
 40
0.0
 40
0.0
 40
0.0
 40
3.347564375695247
 40
3.347564375695247
 40
3.347564375695247
 40
3.347564375695247
 10
-5.844607916397696
 20
-1.250207803614784
 30
0.0
 10
-5.604782408885275
 20
-1.250207803614784
 30
0.0
 10
-5.370061567327568
 20
-1.216849701924501
 30
0.0
 10
-5.139266081719874
 20
-1.157840083737311
 30
0.0
  0
SPLINE
  5
15D4
330
1F
100
AcDbEntity
  8
AM_0
100
AcDbSpline
210
0.0
220
0.0
230
1.0
 70
     8
 71
     3
 72
     8
 73
     4
 74
     0
 42
0.0000000001
 43
0.0000000001
 40
0.0
 40
0.0
 40
0.0
 40
0.0
 40
10.49953388088627
 40
10.49953388088627
 40
10.49953388088627
 40
10.49953388088627
 10
-5.026291578130438
 20
-1.147871883127435
 30
0.0
 10
-5.778496990492503
 20
-1.147871883127435
 30
0.0
 10
-6.487354718703588
 20
-0.8408384467006719
 30
0.0
 10
-7.184572579566109
 20
-0.4513593492976034
 30
0.0
  0
SPLINE
  5
15D5
330
1F
100
AcDbEntity
  8
AM_0
100
AcDbSpline
210
0.0
220
0.0
230
1.0
 70
     8
 71
     3
 72
     8
 73
     4
 74
     0
 42
0.0000000001
 43
0.0000000001
 40
0.0
 40
0.0
 40
0.0
 40
0.0
 40
14.49218571129455
 40
14.49218571129455
 40
14.49218571129455
 40
14.49218571129455
 10
-0.0000000000000002
 20
-1.25000013582985
 30
0.0
 10
-1.038246140510655
 20
-1.250000135829871
 30
0.0
 10
-1.98061560756875
 20
-0.6242075547445295
 30
0.0
 10
-2.922985074626846
 20
0.0015850263408201
 30
0.0
  0
SPLINE
  5
15D6
330
1F
100
AcDbEntity
  8
AM_0
100
AcDbSpline
210
0.0
220
0.0
230
1.0
 70
     8
 71
     3
 72
     8
 73
     4
 74
     0
 42
0.0000000001
 43
0.0000000001
 40
8.518178729170251
 40
8.518178729170251
 40
8.518178729170251
 40
8.518178729170251
 40
28.64502702023054
 40
28.64502702023054
 40
28.64502702023054
 40
28.64502702023054
 10
-0.0585923104560866
 20
-0.9871315725645786
 30
0.0
 10
-0.7519324974235652
 20
-0.7873964127534236
 30
0.0
 10
-1.418339774602624
 20
-0.3929056932063302
 30
0.0
 10
-2.084747051781586
 20
0.00158502634082
 30
0.0
  0
SPLINE
  5
15D7
330
1F
100
AcDbEntity
  8
AM_0
100
AcDbSpline
210
0.0
220
0.0
230
1.0
 70
     8
 71
     3
 72
     8
 73
     4
 74
     0
 42
0.0000000001
 43
0.0000000001
 40
0.0
 40
0.0
 40
0.0
 40
0.0
 40
13.74270749910732
 40
13.74270749910732
 40
13.74270749910732
 40
13.74270749910732
 10
0.0000000000000002
 20
1.25
 30
0.0
 10
-0.4922760895202644
 20
1.253170188511546
 30
0.0
 10
-0.96299808414209
 20
1.112485367129125
 30
0.0
 10
-1.422385685279092
 20
0.8978203053135873
 30
0.0
  0
SPLINE
  5
15D8
330
1F
100
AcDbEntity
  8
AM_0
100
AcDbSpline
210
0.0
220
0.0
230
1.0
 70
     8
 71
     3
 72
     8
 73
     4
 74
     0
 42
0.0000000001
 43
0.0000000001
 40
0.0
 40
0.0
 40
0.0
 40
0.0
 40
14.49218571129498
 40
14.49218571129498
 40
14.49218571129498
 40
14.49218571129498
 10
-5.845970149253791
 20
1.253170188511433
 30
0.0
 10
-4.807724008743106
 20
1.253170188511455
 30
0.0
 10
-3.865354541684979
 20
0.6273776074261055
 30
0.0
 10
-2.922985074626846
 20
0.0015850263407632
 30
0.0
  0
SPLINE
  5
15D9
330
1F
100
AcDbEntity
  8
AM_0
100
AcDbSpline
210
0.0
220
0.0
230
1.0
 70
     8
 71
     3
 72
     8
 73
     4
 74
     0
 42
0.0000000001
 43
0.0000000001
 40
0.0
 40
0.0
 40
0.0
 40
0.0
 40
14.32251351011555
 40
14.32251351011555
 40
14.32251351011555
 40
14.32251351011555
 10
-5.00773212640853
 20
1.124482874751152
 30
0.0
 10
-3.981641606280846
 20
1.124482874751152
 30
0.0
 10
-3.033194329031216
 20
0.5630339505459862
 30
0.0
 10
-2.084747051781586
 20
0.00158502634082
 30
0.0
  0
SPLINE
  5
15DA
330
1F
100
AcDbEntity
  8
AM_0
100
AcDbSpline
210
0.0
220
0.0
230
1.0
 70
     8
 71
     3
 72
     8
 73
     4
 74
     0
 42
0.0000000001
 43
0.0000000001
 40
0.0
 40
0.0
 40
0.0
 40
0.0
 40
3.809838349731673
 40
3.809838349731673
 40
3.809838349731673
 40
3.809838349731673
 10
0.0000000000000001
 20
1.055808608744314
 30
0.0
 10
-0.2056959789466805
 20
0.8471216816704512
 30
0.0
 10
-0.503522765109696
 20
0.8535856212331582
 30
0.0
 10
-0.8013495512727176
 20
0.8600495607958579
 30
0.0
  0
SPLINE
  5
15DB
330
1F
100
AcDbEntity
  8
AM_0
100
AcDbSpline
210
0.0
220
0.0
230
1.0
 70
     8
 71
     3
 72
     8
 73
     4
 74
     0
 42
0.0000000001
 43
0.0000000001
 40
0.0
 40
0.0
 40
0.0
 40
0.0
 40
9.827178345168029
 40
9.827178345168029
 40
9.827178345168029
 40
9.827178345168029
 10
-0.0934925373134212
 20
-0.2898707424690769
 30
0.0
 10
-0.3716615405368946
 20
-0.0389362161834014
 30
0.0
 10
-0.9885854399455721
 20
0.7630764290946105
 30
0.0
 10
-0.8958514143275502
 20
0.8657970616745275
 30
0.0
  0
LINE
  5
15DC
330
1F
100
AcDbEntity
  8
AM_0
100
AcDbLine
 10
-7.184572579566109
 20
0.8321560139439165
 30
0.0
 11
-5.844607916393787
 21
1.249792196386238
 31
0.0
  0
ELLIPSE
  5
15DD
330
1F
100
AcDbEntity
  8
AM_0
100
AcDbEllipse
 10
-6.186343375965242
 20
-0.7419275298057065
 30
0.0
 11
0.0000000000000012
 21
0.5875240622179457
 31
0.0
210
0.0
220
0.0
230
1.0
 40
0.8597014925373136
 41
-0.5173038785515163
 42
0.4087587856088789
  0
ELLIPSE
  5
15DE
330
1F
100
AcDbEntity
  8
AM_0
100
AcDbEllipse
 10
-3.439568534903572
 20
5.256176178383839
 30
0.0
 11
-0.0000000000000239
 21
6.208715904368663
 31
0.0
210
0.0
220
0.0
230
1.0
 40
0.8597014925373141
 41
2.363922219269015
 42
2.856273467351989
  0
LINE
  5
15DF
330
1F
100
AcDbEntity
  8
AM_0
100
AcDbLine
 10
-7.200000000000001
 20
-1.256644373558089
 30
0.0
 11
-5.846972097314695
 21
-1.246829539828922
 31
0.0
  0
LINE
  5
15E0
330
1F
100
AcDbEntity
  8
AM_0
100
AcDbLine
 10
-7.200000000000001
 20
1.253904058261963
 30
0.0
 11
-5.844570331933417
 21
1.253169809351732
 31
0.0
  0
LINE
  5
15E1
330
1F
100
AcDbEntity
  8
AM_11
100
AcDbLine
 10
-0.0000000000001953
 20
1.25
 30
0.0
 11
-6.25
 21
1.25
 31
0.0
  0
LINE
  5
15E2
330
1F
100
AcDbEntity
  8
AM_11
100
AcDbLine
 10
-6.25
 20
-1.249999999999999
 30
0.0
 11
-0.0000000000000002
 21
-1.25
 31
0.0
  0
LINE
  5
15E3
330
1F
100
AcDbEntity
  8
AM_7
  6
AM_ISO08W050X2
100
AcDbLine
 10
0.9795799946912641
 20
-0.0000000000000001
 30
0.0
 11
-38.90777480884867
 21
0.0000000000000048
 31
0.0
1001
GENIUS_GENODEF_13
1002
{
1000
HIER
1070
     0
1002
}
1002
{
1000
MANEDIT
1070
     0
1002
}
1002
{
1000
NOSEL
1070
     0
1002
}
1002
{
1000
BEHIND
1070
     0
1002
}
1002
{
1000
REACTOR
1002
}
1001
GENIUS_GENOBJ-N-CEN_13
1002
{
1000
OWNER
1000
GEN
1002
}
  0
LINE
  5
15E4
330
1F
100
AcDbEntity
  8
AM_0
100
AcDbLine
 10
-0.0000000000000002
 20
-1.250000135829793
 30
0.0
 11
0.0000000000000002
 21
1.250000135829793
 31
0.0
  0
LINE
  5
15E5
330
1F
100
AcDbEntity
  8
AM_0
100
AcDbLine
 10
0.0
 20
-0.2508141691650394
 30
0.0
 11
-0.8013495512726198
 21
0.8600495607958579
 31
0.0
  0
LINE
  5
15E6
330
1F
100
AcDbEntity
  8
AM_0
100
AcDbLine
 10
-0.8013495512726198
 20
0.8600495607958579
 30
0.0
 11
-4.546940492441941
 21
1.087852341922712
 31
0.0
  0
LINE
  5
15E7
330
1F
100
AcDbEntity
  8
AM_0
100
AcDbLine
 10
-4.058415473438496
 20
-0.9894829944950057
 30
0.0
 11
-1.500285129501463
 21
-0.8574999999999588
 31
0.0
  0
ELLIPSE
  5
15E8
330
1F
100
AcDbEntity
  8
AM_0
100
AcDbEllipse
 10
3.694993478805674
 20
-0.3831144512126348
 30
0.0
 11
0.0000000000000304
 21
4.407732262750716
 31
0.0
210
0.0
220
0.0
230
1.0
 40
0.8597014925373359
 41
1.549640172277667
 42
1.694667587763695
  0
LINE
  5
15E9
330
1F
100
AcDbEntity
  8
AM_0
100
AcDbLine
 10
0.0
 20
-0.2508141691650394
 30
0.0
 11
-0.0934925373134212
 21
-0.2898707424690201
 31
0.0
  0
ELLIPSE
  5
15EA
330
1F
100
AcDbEntity
  8
AM_0
100
AcDbEllipse
 10
-0.1307969063608939
 20
-0.9679455398132859
 30
0.0
 11
0.0000000000000002
 21
0.0861515260853797
 31
0.0
210
0.0
220
0.0
230
1.0
 40
0.8597014925373155
 41
4.487804783733062
 42
5.19831279933001
  0
ELLIPSE
  5
15EB
330
1F
100
AcDbEntity
  8
AM_0
100
AcDbEllipse
 10
0.7344873291239081
 20
-0.8882218885266299
 30
0.0
 11
0.0000000000000021
 21
0.9277931522625038
 31
0.0
210
0.0
220
0.0
230
1.0
 40
0.8597014925373143
 41
1.677606775301454
 42
1.971356423164528
  0
ELLIPSE
  5
15EC
330
1F
100
AcDbEntity
  8
AM_0
100
AcDbEllipse
 10
-2.836021067646326
 20
4.432524754064047
 30
0.0
 11
-0.000000000000135
 21
6.208715904368686
 31
0.0
210
0.0
220
0.0
230
1.0
 40
0.8597014925373123
 41
2.189389294069642
 42
2.413709760007193
  0
LINE
  5
15ED
330
1F
100
AcDbEntity
  8
AM_0
100
AcDbLine
 10
-7.184572579571093
 20
-0.4513593492948749
 30
0.0
 11
-6.387103952382807
 21
-0.2028067103889831
 31
0.0
  0
LINE
  5
1615
330
1F
100
AcDbEntity
  8
AM_0
100
AcDbLine
 10
-37.99999999999999
 20
-1.299999999999994
 30
0.0
 11
-38.0
 21
1.300000000000005
 31
0.0
  0
LINE
  5
1616
330
1F
100
AcDbEntity
  8
AM_0
100
AcDbLine
 10
-37.79999999999999
 20
1.500000000000005
 30
0.0
 11
-8.118442558102884
 21
1.500000000000005
 31
0.0
  0
LINE
  5
1617
330
1F
100
AcDbEntity
  8
AM_0
100
AcDbLine
 10
-8.118442558102884
 20
1.500000000000005
 30
0.0
 11
-8.108215562188956
 21
-1.499999999999998
 31
0.0
  0
LINE
  5
1618
330
1F
100
AcDbEntity
  8
AM_0
100
AcDbLine
 10
-8.108215562188956
 20
-1.499999999999998
 30
0.0
 11
-37.79999999999999
 21
-1.499999999999994
 31
0.0
  0
LINE
  5
1619
330
1F
100
AcDbEntity
  8
AM_0
100
AcDbLine
 10
-8.118442558102868
 20
1.500000000000001
 30
0.0
 11
-7.200000000000001
 21
1.253904058261963
 31
0.0
  0
LINE
  5
161A
330
1F
100
AcDbEntity
  8
AM_0
100
AcDbLine
 10
-7.200000000000001
 20
1.253904058261963
 30
0.0
 11
-7.200000000000001
 21
-1.256644373558089
 31
0.0
  0
LINE
  5
161B
330
1F
100
AcDbEntity
  8
AM_0
100
AcDbLine
 10
-7.200000000000001
 20
-1.256644373558089
 30
0.0
 11
-8.108215562188956
 21
-1.499999999999998
 31
0.0
  0
LINE
  5
162C
330
1F
100
AcDbEntity
  8
AM_0
100
AcDbLine
 10
-37.79999999999999
 20
1.500000000000005
 30
0.0
 11
-38.0
 21
1.300000000000005
 31
0.0
1001
GENIUS_GENFIL_13
1070
     0
1040
0.2
1040
0.2
1040
20.0
1040
0.0
1002
{
1002
}
1001
GENIUS_GENODEF_13
1002
{
1000
HIER
1070
     0
1002
}
1002
{
1000
MANEDIT
1070
     0
1002
}
1002
{
1000
NOSEL
1070
     0
1002
}
1002
{
1000
BEHIND
1070
     0
1002
}
1002
{
1000
REACTOR
1002
}
1001
GENIUS_GENOBJ-N-CHA_13
1002
{
1000
OWNER
1000
GEN
1002
}
  0
LINE
  5
162E
330
1F
100
AcDbEntity
  8
AM_0
100
AcDbLine
 10
-37.79999999999999
 20
-1.499999999999994
 30
0.0
 11
-37.99999999999999
 21
-1.299999999999994
 31
0.0
1001
GENIUS_GENFIL_13
1070
     0
1040
0.2
1040
0.2
1040
20.0
1040
0.0
1002
{
1002
}
1001
GENIUS_GENODEF_13
1002
{
1000
HIER
1070
     0
1002
}
1002
{
1000
MANEDIT
1070
     0
1002
}
1002
{
1000
NOSEL
1070
     0
1002
}
1002
{
1000
BEHIND
1070
     0
1002
}
1002
{
1000
REACTOR
1002
}
1001
GENIUS_GENOBJ-N-CHA_13
1002
{
1000
OWNER
1000
GEN
1002
}
  0
LINE
  5
162F
330
1F
100
AcDbEntity
  8
AM_0
100
AcDbLine
 10
-37.79999999999999
 20
1.500000000000005
 30
0.0
 11
-37.79999999999999
 21
-1.499999999999994
 31
0.0
  0
LINE
  5
1630
330
1F
100
AcDbEntity
  8
AM_11
100
AcDbLine
 10
-0.0000000000001953
 20
1.25
 30
0.0
 11
-0.0000000000000002
 21
-1.25
 31
0.0
  0
DIMENSION
  5
16AB
330
1F
100
AcDbEntity
  8
AM_5
100
AcDbDimension
  2
*D5
 10
7.979580994691262
 20
-1.250000000000002
 30
0.0
 11
7.979580994691262
 21
6.900000135829791
 31
0.0
 70
   160
  1
%%c<>
  3
AM_JIS
100
AcDbAlignedDimension
 13
0.0
 23
1.250000135829793
 33
0.0
 14
0.0
 24
-1.25
 34
0.0
 50
90.00000000000003
100
AcDbRotatedDimension
1001
GENIUS_GENDTOL_13
1000

1000
h7
1000

1040
0.0
  0
DIMENSION
  5
17B1
330
1F
100
AcDbEntity
  8
AM_5
100
AcDbDimension
  2
*D6
 10
-0.0000000000000006
 20
-8.500000999999983
 30
0.0
 11
-3.125
 21
-8.500000999999983
 31
0.0
 70
   160
  1
<>
  3
AM_JIS
100
AcDbAlignedDimension
 13
-6.25
 23
-1.249999999999999
 33
0.0
 14
-0.0000000000000002
 24
-1.25000013582985
 34
0.0
 50
0.0000000000001132
100
AcDbRotatedDimension
1001
GENIUS_GENDTOL_13
1000

1000
h7
1000

1040
0.0
  0
DIMENSION
  5
18B4
330
1F
100
AcDbEntity
  8
AM_5
100
AcDbDimension
  2
*D7
 10
-37.99999999999999
 20
-14.50000100000005
 30
0.0
 11
-18.99999999999999
 21
-12.95000100000005
 31
0.0
 70
    32
  1
<>
  3
AM_JIS
100
AcDbAlignedDimension
 13
-0.0000000000000002
 23
-1.25000013582985
 33
0.0
 14
-37.99999999999999
 24
-1.299999999999994
 34
0.0
 50
0.0000000000001132
100
AcDbRotatedDimension
1001
GENIUS_GENDTOL_13
1000

1000
h7
1000

1040
0.0
  0
DIMENSION
  5
1968
330
1F
100
AcDbEntity
  8
AM_5
100
AcDbDimension
  2
*D8
 10
-45.90777580884867
 20
1.500000000000007
 30
0.0
 11
-45.90777580884867
 21
0.0000000000000004
 31
0.0
 70
   160
  1
%%c<>
  3
AM_JIS
100
AcDbAlignedDimension
 13
-37.79999999999999
 23
-1.499999999999994
 33
0.0
 14
-37.79999999999999
 24
1.500000000000005
 34
0.0
 50
270.0
100
AcDbRotatedDimension
1001
GENIUS_GENDTOL_13
1000

1000
h7
1000

1040
0.0
  0
VIEWPORT
  5
110
330
101
100
AcDbEntity
 67
     1
  8
0
100
AcDbViewport
 10
420.5
 20
297.0
 30
0.0
 40
948.9782706766916
 41
628.452
 68
     1
 69
     1
1001
ACAD
1000
MVIEW
1002
{
1070
    16
1010
0.0
1020
0.0
1030
0.0
1010
0.0
1020
0.0
1030
1.0
1040
0.0
1040
628.452
1040
420.5
1040
297.0
1040
50.0
1040
0.0
1040
0.0
1070
     0
1070
   100
1070
     1
1070
     1
1070
     0
1070
     0
1070
     0
1070
     0
1040
0.0
1040
0.0
1040
0.0
1040
10.0
1040
10.0
1040
10.0
1040
10.0
1070
     0
1002
{
1002
}
1002
}
  0
ENDSEC
  0
SECTION
  2
OBJECTS
  0
DICTIONARY
  5
C
330
0
100
AcDbDictionary
  3
ACAD_GROUP
350
D
  3
ACAD_LAYOUT
350
1A
  3
ACAD_MLINESTYLE
350
17
  3
ACAD_PLOTSETTINGS
350
19
  3
ACAD_PLOTSTYLENAME
350
E
  3
ACDBVARIABLEDICTIONARY
350
34
  3
ACMDICTIONARY
350
43
  3
AMG
350
2B
  3
AMGSNAPSETTINGS
350
6E
  3
DWGPROPS
350
1B2B
  3
ACDBHEADERROUNDTRIPXREC
350
1B37
  0
DICTIONARY
  5
74
330
1F
100
AcDbDictionary
280
     1
  3
ACAD_INDEX
360
1B2D
  3
ACAD_LAYOUTSELFREF
360
1B5A
  0
DICTIONARY
  5
1B5F
330
101
100
AcDbDictionary
280
     1
  3
ACAD_LAYOUTSELFREF
360
1B60
  0
DICTIONARY
  5
D
102
{ACAD_REACTORS
330
C
102
}
330
C
100
AcDbDictionary
  0
DICTIONARY
  5
1A
102
{ACAD_REACTORS
330
C
102
}
330
C
100
AcDbDictionary
  0
DICTIONARY
  5
17
102
{ACAD_REACTORS
330
C
102
}
330
C
100
AcDbDictionary
  3
STANDARD
350
18
  0
DICTIONARY
  5
19
102
{ACAD_REACTORS
330
C
102
}
330
C
100
AcDbDictionary
  0
ACDBDICTIONARYWDFLT
  5
E
102
{ACAD_REACTORS
330
C
102
}
330
C
100
AcDbDictionary
281
     1
  3
Normal
350
F
100
AcDbDictionaryWithDefault
340
F
  0
DICTIONARY
  5
34
102
{ACAD_REACTORS
330
C
102
}
330
C
100
AcDbDictionary
  3
INDEXCTL
350
35
  3
SORTENTS
350
B5E
  0
DICTIONARY
  5
43
102
{ACAD_REACTORS
330
C
102
}
330
C
100
AcDbDictionary
  3
ACMSTDDICTIONARY
350
260
  0
DICTIONARY
  5
2B
102
{ACAD_REACTORS
330
C
102
}
330
C
100
AcDbDictionary
  3
ACMGSETTINGS
350
2C
  0
DICTIONARY
  5
6E
102
{ACAD_REACTORS
330
C
102
}
330
C
100
AcDbDictionary
  0
XRECORD
  5
1B2B
102
{ACAD_REACTORS
330
C
102
}
330
C
100
AcDbXrecord
  1
DWGPROPS COOKIE
  2

  3

  4

  6

  7

  8

  9

300
AmdtFileType=82
301
=
302
=
303
=
304
=
305
=
306
=
307
=
308
=
309
=
 40
0.0238773263888889
 41
2452810.397252777
 42
2452839.651663587
  1

 90
        1
  0
DICTIONARY
  5
1B37
102
{ACAD_REACTORS
330
C
102
}
330
C
100
AcDbDictionary
  3
TSTACKALIGN
350
1B38
  3
TSTACKSIZE
350
1B39
  3
HYPERLINKBASE
350
1B3A
  3
STYLESHEET
350
1B3B
  3
LAYOUTDICT
350
1B3C
  3
PLOTSETDICT
350
1B3D
  3
PLOTSTYLNAMDICT
350
1B3E
  3
LWETCUNION
350
1B3F
  3
INSUNITS
350
1B40
  3
CEPSNTYPE
350
1B41
  3
FINGERPRINTGUID
350
1B42
  3
VERSIONGUID
350
1B43
  3
PSVPSCALE
350
1B44
  3
DIMSTYLEDATA
350
1B45
  3
PUCSORTHOREF
350
1B46
  3
PUCSORTHOVIEW
350
1B47
  3
PUCSBASE
350
1B48
  3
PUCSORGTOP
350
1B49
  3
PUCSORGBOTTOM
350
1B4A
  3
PUCSORGLEFT
350
1B4B
  3
PUCSORGRIGHT
350
1B4C
  3
PUCSORGFRONT
350
1B4D
  3
PUCSORGBACK
350
1B4E
  3
UCSORTHOREF
350
1B4F
  3
UCSORTHOVIEW
350
1B50
  3
UCSBASE
350
1B51
  3
UCSORGTOP
350
1B52
  3
UCSORGBOTTOM
350
1B53
  3
UCSORGLEFT
350
1B54
  3
UCSORGRIGHT
350
1B55
  3
UCSORGFRONT
350
1B56
  3
UCSORGBACK
350
1B57
  0
DICTIONARY
  5
1B2D
102
{ACAD_REACTORS
330
74
102
}
330
74
100
AcDbDictionary
  3
*A1
350
1B2E
  0
XRECORD
  5
1B5A
102
{ACAD_REACTORS
330
74
102
}
330
74
100
AcDbXrecord
340
1F
  0
XRECORD
  5
1B60
102
{ACAD_REACTORS
330
1B5F
102
}
330
1B5F
100
AcDbXrecord
340
101
  0
MLINESTYLE
  5
18
102
{ACAD_REACTORS
330
17
102
}
330
17
100
AcDbMlineStyle
  2
STANDARD
 70
     0
  3

 62
   256
 51
90.0
 52
90.0
 71
     2
 49
0.5
 62
   256
  6
BYLAYER
 49
-0.5
 62
   256
  6
BYLAYER
  0
ACDBPLACEHOLDER
  5
F
102
{ACAD_REACTORS
330
E
102
}
330
E
100
AcDbPlaceHolder
280
     0
  0
DICTIONARYVAR
  5
35
102
{ACAD_REACTORS
330
34
102
}
330
34
100
DictionaryVariables
280
     0
  1
1
  0
DICTIONARYVAR
  5
B5E
102
{ACAD_REACTORS
330
34
102
}
330
34
100
DictionaryVariables
280
     0
  1
96
  0
DICTIONARY
  5
260
102
{ACAD_REACTORS
330
43
102
}
330
43
100
AcDbDictionary
  0
DICTIONARY
  5
2C
102
{ACAD_REACTORS
330
2B
102
}
330
2B
100
AcDbDictionary
  3
DWGSETTINGS
350
2D
  0
XRECORD
  5
1B38
102
{ACAD_REACTORS
330
1B37
102
}
330
1B37
100
AcDbXrecord
 90
        1
  0
XRECORD
  5
1B39
102
{ACAD_REACTORS
330
1B37
102
}
330
1B37
100
AcDbXrecord
 90
       70
  0
XRECORD
  5
1B3A
102
{ACAD_REACTORS
330
1B37
102
}
330
1B37
100
AcDbXrecord
  1

  0
XRECORD
  5
1B3B
102
{ACAD_REACTORS
330
1B37
102
}
330
1B37
100
AcDbXrecord
  1
ASAMI.ctb
  0
XRECORD
  5
1B3C
102
{ACAD_REACTORS
330
1B37
102
}
330
1B37
100
AcDbXrecord
340
1A
  0
XRECORD
  5
1B3D
102
{ACAD_REACTORS
330
1B37
102
}
330
1B37
100
AcDbXrecord
340
19
  0
XRECORD
  5
1B3E
102
{ACAD_REACTORS
330
1B37
102
}
330
1B37
100
AcDbXrecord
340
E
  0
XRECORD
  5
1B3F
102
{ACAD_REACTORS
330
1B37
102
}
330
1B37
100
AcDbXrecord
 90
    10781
  0
XRECORD
  5
1B40
102
{ACAD_REACTORS
330
1B37
102
}
330
1B37
100
AcDbXrecord
 90
        4
  0
XRECORD
  5
1B41
102
{ACAD_REACTORS
330
1B37
102
}
330
1B37
100
AcDbXrecord
 90
        0
  0
XRECORD
  5
1B42
102
{ACAD_REACTORS
330
1B37
102
}
330
1B37
100
AcDbXrecord
  1
{AFB28963-8C59-40AE-9337-C84526B81ACE}
  0
XRECORD
  5
1B43
102
{ACAD_REACTORS
330
1B37
102
}
330
1B37
100
AcDbXrecord
  1
{C9B72070-5E39-465D-BC1A-73FF127FC91D}
  0
XRECORD
  5
1B44
102
{ACAD_REACTORS
330
1B37
102
}
330
1B37
100
AcDbXrecord
 40
0.0
  0
XRECORD
  5
1B45
102
{ACAD_REACTORS
330
1B37
102
}
330
1B37
100
AcDbXrecord
1000
DSTYLE
1002
{
1070
    79
 70
     2
1070
   341
340
59
1070
   342
340
59
1070
   371
 70
    -1
1070
   372
 70
    -1
1002
}
  0
XRECORD
  5
1B46
102
{ACAD_REACTORS
330
1B37
102
}
330
1B37
100
AcDbXrecord
340
0
  0
XRECORD
  5
1B47
102
{ACAD_REACTORS
330
1B37
102
}
330
1B37
100
AcDbXrecord
 70
     0
  0
XRECORD
  5
1B48
102
{ACAD_REACTORS
330
1B37
102
}
330
1B37
100
AcDbXrecord
340
0
  0
XRECORD
  5
1B49
102
{ACAD_REACTORS
330
1B37
102
}
330
1B37
100
AcDbXrecord
 10
0.0
 20
0.0
 30
0.0
  0
XRECORD
  5
1B4A
102
{ACAD_REACTORS
330
1B37
102
}
330
1B37
100
AcDbXrecord
 10
0.0
 20
0.0
 30
0.0
  0
XRECORD
  5
1B4B
102
{ACAD_REACTORS
330
1B37
102
}
330
1B37
100
AcDbXrecord
 10
0.0
 20
0.0
 30
0.0
  0
XRECORD
  5
1B4C
102
{ACAD_REACTORS
330
1B37
102
}
330
1B37
100
AcDbXrecord
 10
0.0
 20
0.0
 30
0.0
  0
XRECORD
  5
1B4D
102
{ACAD_REACTORS
330
1B37
102
}
330
1B37
100
AcDbXrecord
 10
0.0
 20
0.0
 30
0.0
  0
XRECORD
  5
1B4E
102
{ACAD_REACTORS
330
1B37
102
}
330
1B37
100
AcDbXrecord
 10
0.0
 20
0.0
 30
0.0
  0
XRECORD
  5
1B4F
102
{ACAD_REACTORS
330
1B37
102
}
330
1B37
100
AcDbXrecord
340
0
  0
XRECORD
  5
1B50
102
{ACAD_REACTORS
330
1B37
102
}
330
1B37
100
AcDbXrecord
 70
     0
  0
XRECORD
  5
1B51
102
{ACAD_REACTORS
330
1B37
102
}
330
1B37
100
AcDbXrecord
340
0
  0
XRECORD
  5
1B52
102
{ACAD_REACTORS
330
1B37
102
}
330
1B37
100
AcDbXrecord
 10
0.0
 20
0.0
 30
0.0
  0
XRECORD
  5
1B53
102
{ACAD_REACTORS
330
1B37
102
}
330
1B37
100
AcDbXrecord
 10
0.0
 20
0.0
 30
0.0
  0
XRECORD
  5
1B54
102
{ACAD_REACTORS
330
1B37
102
}
330
1B37
100
AcDbXrecord
 10
0.0
 20
0.0
 30
0.0
  0
XRECORD
  5
1B55
102
{ACAD_REACTORS
330
1B37
102
}
330
1B37
100
AcDbXrecord
 10
0.0
 20
0.0
 30
0.0
  0
XRECORD
  5
1B56
102
{ACAD_REACTORS
330
1B37
102
}
330
1B37
100
AcDbXrecord
 10
0.0
 20
0.0
 30
0.0
  0
XRECORD
  5
1B57
102
{ACAD_REACTORS
330
1B37
102
}
330
1B37
100
AcDbXrecord
 10
0.0
 20
0.0
 30
0.0
  0
LAYER_INDEX
  5
1B2E
102
{ACAD_REACTORS
330
1B2D
102
}
330
1B2D
100
AcDbIndex
 40
2452839.679367581
100
AcDbLayerIndex
  8
0
360
1B2F
 90
        0
  8
AM_0
360
1B30
 90
       36
  8
AM_11
360
1B31
 90
        4
  8
AM_7
360
1B32
 90
        1
  8
AM_5
360
1B33
 90
        4
  8
AM_6
360
1B34
 90
        1
  8
Defpoints
360
1B35
 90
        0
  0
XRECORD
  5
2D
102
{ACAD_REACTORS
330
2C
102
}
330
2C
100
AcDbXrecord
  1
VERSION
140
15.0
  1
PRODUCT
  2
AutoCAD Mechanical 2000
  0
IDBUFFER
  5
1B2F
330
0
100
AcDbIdBuffer
  0
IDBUFFER
  5
1B30
330
0
100
AcDbIdBuffer
330
15E4
330
15E5
330
15E6
330
15E7
330
15E8
330
15E9
330
15EA
330
15EB
330
15EC
330
15ED
330
1615
330
1616
330
1617
330
1618
330
1619
330
161A
330
161B
330
162C
330
162E
330
162F
330
15D1
330
15D2
330
15D3
330
15D4
330
15D5
330
15D6
330
15D7
330
15D8
330
15D9
330
15DA
330
15DB
330
15DC
330
15DD
330
15DE
330
15DF
330
15E0
  0
IDBUFFER
  5
1B31
330
0
100
AcDbIdBuffer
330
15CF
330
15E1
330
15E2
330
1630
  0
IDBUFFER
  5
1B32
330
0
100
AcDbIdBuffer
330
15E3
  0
IDBUFFER
  5
1B33
330
0
100
AcDbIdBuffer
330
16AB
330
17B1
330
18B4
330
1968
  0
IDBUFFER
  5
1B34
330
0
100
AcDbIdBuffer
330
F06
  0
IDBUFFER
  5
1B35
330
0
100
AcDbIdBuffer
  0
ENDSEC
  0
EOF
