  0
SECTION
  2
HEADER
  9
$ACADVER
  1
AC1014
  9
$ACADMAINTVER
 70
     9
  9
$DWGCODEPAGE
  3
ANSI_932
  9
$INSBASE
 10
0.0
 20
0.0
 30
0.0
  9
$EXTMIN
 10
-71.73487421524639
 20
-33.24999999999991
 30
-0.00000001
  9
$EXTMAX
 10
8.829530889074508
 20
7.509544467613104
 30
0.00000001
  9
$LIMMIN
 10
-93.66484924871775
 20
-55.63469518885099
  9
$LIMMAX
 10
29.22464269811019
 20
29.33354410084416
  9
$ORTHOMODE
 70
     0
  9
$REGENMODE
 70
     1
  9
$FILLMODE
 70
     1
  9
$QTEXTMODE
 70
     0
  9
$MIRRTEXT
 70
     0
  9
$DRAGMODE
 70
     2
  9
$LTSCALE
 40
0.3
  9
$OSMODE
 70
    55
  9
$ATTMODE
 70
     1
  9
$TEXTSIZE
 40
2.5
  9
$TRACEWID
 40
1.0
  9
$TEXTSTYLE
  7
STANDARD
  9
$CLAYER
  8
AM_0
  9
$CELTYPE
  6
BYLAYER
  9
$CECOLOR
 62
   256
  9
$CELTSCALE
 40
1.0
  9
$DELOBJ
 70
     1
  9
$DISPSILH
 70
     0
  9
$DIMSCALE
 40
0.5
  9
$DIMASZ
 40
2.5
  9
$DIMEXO
 40
1.0
  9
$DIMDLI
 40
12.0
  9
$DIMRND
 40
0.0
  9
$DIMDLE
 40
0.0
  9
$DIMEXE
 40
1.0
  9
$DIMTP
 40
0.1
  9
$DIMTM
 40
0.1
  9
$DIMTXT
 40
3.2
  9
$DIMCEN
 40
0.0
  9
$DIMTSZ
 40
0.0
  9
$DIMTOL
 70
     0
  9
$DIMLIM
 70
     0
  9
$DIMTIH
 70
     0
  9
$DIMTOH
 70
     0
  9
$DIMSE1
 70
     0
  9
$DIMSE2
 70
     0
  9
$DIMTAD
 70
     3
  9
$DIMZIN
 70
     8
  9
$DIMBLK
  1
OPEN30
  9
$DIMASO
 70
     1
  9
$DIMSHO
 70
     1
  9
$DIMPOST
  1

  9
$DIMAPOST
  1
"
  9
$DIMALT
 70
     0
  9
$DIMALTD
 70
     2
  9
$DIMALTF
 40
0.0393701
  9
$DIMLFAC
 40
1.0
  9
$DIMTOFL
 70
     1
  9
$DIMTVP
 40
0.0
  9
$DIMTIX
 70
     0
  9
$DIMSOXD
 70
     0
  9
$DIMSAH
 70
     0
  9
$DIMBLK1
  1

  9
$DIMBLK2
  1

  9
$DIMSTYLE
  2
AM_JIS
  9
$DIMCLRD
 70
   256
  9
$DIMCLRE
 70
   256
  9
$DIMCLRT
 70
     2
  9
$DIMTFAC
 40
0.71
  9
$DIMGAP
 40
1.5
  9
$DIMJUST
 70
     0
  9
$DIMSD1
 70
     0
  9
$DIMSD2
 70
     0
  9
$DIMTOLJ
 70
     0
  9
$DIMTZIN
 70
     0
  9
$DIMALTZ
 70
     0
  9
$DIMALTTZ
 70
     0
  9
$DIMFIT
 70
     3
  9
$DIMUPT
 70
     0
  9
$DIMUNIT
 70
     2
  9
$DIMDEC
 70
     3
  9
$DIMTDEC
 70
     3
  9
$DIMALTU
 70
     2
  9
$DIMALTTD
 70
     2
  9
$DIMTXSTY
  7
ASAMI
  9
$DIMAUNIT
 70
     0
  9
$LUNITS
 70
     2
  9
$LUPREC
 70
     2
  9
$SKETCHINC
 40
1.0
  9
$FILLETRAD
 40
0.5
  9
$AUNITS
 70
     0
  9
$AUPREC
 70
     0
  9
$MENU
  1
.
  9
$ELEVATION
 40
0.0
  9
$PELEVATION
 40
0.0
  9
$THICKNESS
 40
0.0
  9
$LIMCHECK
 70
     0
  9
$BLIPMODE
 70
     0
  9
$CHAMFERA
 40
2.5
  9
$CHAMFERB
 40
2.5
  9
$CHAMFERC
 40
20.0
  9
$CHAMFERD
 40
0.0
  9
$SKPOLY
 70
     0
  9
$TDCREATE
 40
2452838.620506898
  9
$TDUPDATE
 40
2453151.866653900
  9
$TDINDWG
 40
0.2536213426
  9
$TDUSRTIMER
 40
0.2536213426
  9
$USRTIMER
 70
     1
  9
$ANGBASE
 50
0.0
  9
$ANGDIR
 70
     0
  9
$PDMODE
 70
     0
  9
$PDSIZE
 40
0.0
  9
$PLINEWID
 40
0.0
  9
$COORDS
 70
     1
  9
$SPLFRAME
 70
     0
  9
$SPLINETYPE
 70
     6
  9
$SPLINESEGS
 70
     8
  9
$ATTDIA
 70
     1
  9
$ATTREQ
 70
     1
  9
$HANDLING
 70
 12289
  9
$HANDSEED
  5
2599
  9
$SURFTAB1
 70
     6
  9
$SURFTAB2
 70
     6
  9
$SURFTYPE
 70
     6
  9
$SURFU
 70
     6
  9
$SURFV
 70
     6
  9
$UCSNAME
  2

  9
$UCSORG
 10
-0.0000000000000568
 20
-0.0000000000000036
 30
0.0
  9
$UCSXDIR
 10
1.0
 20
0.0
 30
0.0
  9
$UCSYDIR
 10
0.0
 20
1.0
 30
0.0
  9
$PUCSNAME
  2

  9
$PUCSORG
 10
0.0
 20
0.0
 30
0.0
  9
$PUCSXDIR
 10
1.0
 20
0.0
 30
0.0
  9
$PUCSYDIR
 10
0.0
 20
1.0
 30
0.0
  9
$USERI1
 70
     0
  9
$USERI2
 70
     0
  9
$USERI3
 70
     0
  9
$USERI4
 70
     0
  9
$USERI5
 70
     0
  9
$USERR1
 40
0.0
  9
$USERR2
 40
0.0
  9
$USERR3
 40
0.0
  9
$USERR4
 40
0.0
  9
$USERR5
 40
0.0
  9
$WORLDVIEW
 70
     1
  9
$SHADEDGE
 70
     3
  9
$SHADEDIF
 70
    70
  9
$TILEMODE
 70
     1
  9
$MAXACTVP
 70
    64
  9
$PINSBASE
 10
0.0
 20
0.0
 30
0.0
  9
$PLIMCHECK
 70
     0
  9
$PEXTMIN
 10
1.000000000000000E+20
 20
1.000000000000000E+20
 30
1.000000000000000E+20
  9
$PEXTMAX
 10
-1.000000000000000E+20
 20
-1.000000000000000E+20
 30
-1.000000000000000E+20
  9
$PLIMMIN
 10
0.0
 20
0.0
  9
$PLIMMAX
 10
841.0
 20
594.0
  9
$UNITMODE
 70
     0
  9
$VISRETAIN
 70
     1
  9
$PLINEGEN
 70
     0
  9
$PSLTSCALE
 70
     0
  9
$TREEDEPTH
 70
  3020
  9
$PICKSTYLE
 70
     0
  9
$CMLSTYLE
  2
STANDARD
  9
$CMLJUST
 70
     0
  9
$CMLSCALE
 40
20.0
  9
$PROXYGRAPHICS
 70
     1
  9
$MEASUREMENT
 70
     1
  0
ENDSEC
  0
SECTION
  2
CLASSES
  0
CLASS
  1
ACDBDICTIONARYWDFLT
  2
AcDbDictionaryWithDefault
  3
AutoCAD 2000
 90
        0
280
     0
281
     0
  0
CLASS
  1
ACDBPLACEHOLDER
  2
AcDbPlaceHolder
  3
AutoCAD 2000
 90
        0
280
     0
281
     0
  0
CLASS
  1
LAYOUT
  2
AcDbLayout
  3
AutoCAD 2000
 90
        0
280
     0
281
     0
  0
CLASS
  1
AMGSETTINGSOBJ
  2
AmgSettingsObj
  3
"AcadM|Product Description: AutoCAD Mechanical 2000|Company: Autodesk"
 90
        0
280
     0
281
     0
  0
CLASS
  1
ACME_DOCUMENT
  2
AcMeDbDoc
  3
AcMeServices
 90
        0
280
     0
281
     0
  0
CLASS
  1
ACMESCOPE
  2
AcMeScope
  3
AcMeServices
 90
        0
280
     0
281
     0
  0
CLASS
  1
ACMECOMMANDHISTORY
  2
AcMeCommandHistory
  3
AcMeServices
 90
        0
280
     0
281
     0
  0
CLASS
  1
DICTIONARYVAR
  2
AcDbDictionaryVar
  3
AutoCAD 2000
 90
        0
280
     0
281
     0
  0
CLASS
  1
ACIMSYSVARMAN
  2
AcImSysVarManager
  3
AcMeServices
 90
        0
280
     0
281
     0
  0
CLASS
  1
ACIMREALSYSVAR
  2
AcImRealSysVar
  3
AcMeServices
 90
        0
280
     0
281
     0
  0
CLASS
  1
ACIMINTSYSVAR
  2
AcImIntSysVar
  3
AcMeServices
 90
        0
280
     0
281
     0
  0
CLASS
  1
ACMEDRAWINGMAN
  2
AcMeDrawingMan
  3
AcMeServices
 90
        0
280
     0
281
     0
  0
CLASS
  1
ACMEVIEW
  2
AcMeView
  3
AcMeServices
 90
        0
280
     0
281
     0
  0
CLASS
  1
ACDBENTITYCACHE
  2
AcMeEntityCache
  3
AcMeServices
 90
        0
280
     0
281
     0
  0
CLASS
  1
GSMANAGER
  2
AcMeGSManager
  3
AcMeServices
 90
        0
280
     0
281
     0
  0
CLASS
  1
AmdtInternalReactor
  2
AmdtInternalReactor
  3
AcMeServices
 90
        0
280
     0
281
     0
  0
CLASS
  1
ACMESTATEMGR
  2
AcMeStateMgr
  3
AcMeServices
 90
        0
280
     0
281
     0
  0
CLASS
  1
ACME_DATABASE
  2
AcMeDbDatabase
  3
AcMeServices
 90
        0
280
     0
281
     0
  0
CLASS
  1
ACRFINSADJUSTERMGR
  2
AcRfInsAdjusterMgr
  3
AcMeServices
 90
        0
280
     0
281
     0
  0
CLASS
  1
ACMDATADICTIONARY
  2
AcmDataDictionary
  3
"AcmSymBB|Product Description: AutoCAD Mechanical 2000|Company: Autodesk"
 90
        0
280
     0
281
     0
  0
CLASS
  1
ACMDATAENTRYBLOCK
  2
AcmDataEntryBlock
  3
"AcmSymBB|Product Description: AutoCAD Mechanical 2000|Company: Autodesk"
 90
        0
280
     0
281
     0
  0
CLASS
  1
AMGOBJPROPCFG
  2
AmgObjPropCfg
  3
"AmgLay|Product Description: AutoCAD Mechanical 2000|Company: Autodesk"
 90
        1
280
     0
281
     0
  0
CLASS
  1
ACAMGFILTERDAT
  2
AcAmgFilterDat
  3
"AcadM|Product Description: AutoCAD Mechanical 2000|Company: Autodesk"
 90
        0
280
     0
281
     0
  0
CLASS
  1
LAYER_INDEX
  2
AcDbLayerIndex
  3
AutoCAD 2000
 90
        0
280
     0
281
     0
  0
CLASS
  1
IDBUFFER
  2
AcDbIdBuffer
  3
AutoCAD 2000
 90
        0
280
     0
281
     0
  0
CLASS
  1
ACIMSTRSYSVAR
  2
AcImStrSysVar
  3
AcMeServices
 90
        0
280
     0
281
     0
  0
CLASS
  1
ACMSTANDARDJIS
  2
AcmStandardJIS
  3
"AcmSymBB|Product Description: AutoCAD Mechanical 2000|Company: Autodesk"
 90
        0
280
     0
281
     0
  0
CLASS
  1
ACMSURFSTANDARDJIS
  2
AcmSurfTextStdJIS
  3
"AcmSymBB|Product Description: AutoCAD Mechanical 2000|Company: Autodesk"
 90
        0
280
     0
281
     0
  0
CLASS
  1
ACMFCFSTANDARDJIS
  2
AcmFCFStdJIS
  3
"AcmSymBB|Product Description: AutoCAD Mechanical 2000|Company: Autodesk"
 90
        0
280
     0
281
     0
  0
CLASS
  1
ACMWELDSTANDARDJIS
  2
AcmWeldingStdJIS
  3
"AcmSymBB|Product Description: AutoCAD Mechanical 2000|Company: Autodesk"
 90
        0
280
     0
281
     0
  0
CLASS
  1
ACMIDSTANDARDJIS
  2
AcmIdStdJIS
  3
"AcmSymBB|Product Description: AutoCAD Mechanical 2000|Company: Autodesk"
 90
        0
280
     0
281
     0
  0
CLASS
  1
ACMDATUMSTANDARDJIS
  2
AcmDatumStdJIS
  3
"AcmSymBB|Product Description: AutoCAD Mechanical 2000|Company: Autodesk"
 90
        0
280
     0
281
     0
  0
CLASS
  1
ACMBOMSTANDARDJIS
  2
AcmBOMStdJIS
  3
"AcmSymBB|Product Description: AutoCAD Mechanical 2000|Company: Autodesk"
 90
        0
280
     0
281
     0
  0
CLASS
  1
ACMSTANDARDANSI
  2
AcmStandardANSI
  3
"AcmSymBB|Product Description: AutoCAD Mechanical 2000|Company: Autodesk"
 90
        0
280
     0
281
     0
  0
CLASS
  1
ACMSURFSTANDARDANSI
  2
AcmSurfTextStdANSI
  3
"AcmSymBB|Product Description: AutoCAD Mechanical 2000|Company: Autodesk"
 90
        0
280
     0
281
     0
  0
CLASS
  1
ACMFCFSTANDARDANSI
  2
AcmFCFStdANSI
  3
"AcmSymBB|Product Description: AutoCAD Mechanical 2000|Company: Autodesk"
 90
        0
280
     0
281
     0
  0
CLASS
  1
ACMWELDSTANDARDANSI
  2
AcmWeldingStdANSI
  3
"AcmSymBB|Product Description: AutoCAD Mechanical 2000|Company: Autodesk"
 90
        0
280
     0
281
     0
  0
CLASS
  1
ACMIDSTANDARDANSI
  2
AcmIdStdANSI
  3
"AcmSymBB|Product Description: AutoCAD Mechanical 2000|Company: Autodesk"
 90
        0
280
     0
281
     0
  0
CLASS
  1
ACMDATUMSTANDARDANSI
  2
AcmDatumStdANSI
  3
"AcmSymBB|Product Description: AutoCAD Mechanical 2000|Company: Autodesk"
 90
        0
280
     0
281
     0
  0
CLASS
  1
ACMBOMSTANDARDANSI
  2
AcmBOMStdANSI
  3
"AcmSymBB|Product Description: AutoCAD Mechanical 2000|Company: Autodesk"
 90
        0
280
     0
281
     0
  0
CLASS
  1
ACMSTANDARDBSI
  2
AcmStandardBSI
  3
"AcmSymBB|Product Description: AutoCAD Mechanical 2000|Company: Autodesk"
 90
        0
280
     0
281
     0
  0
CLASS
  1
ACMSURFSTANDARDBSI
  2
AcmSurfTextStdBSI
  3
"AcmSymBB|Product Description: AutoCAD Mechanical 2000|Company: Autodesk"
 90
        0
280
     0
281
     0
  0
CLASS
  1
ACMFCFSTANDARDBSI
  2
AcmFCFStdBSI
  3
"AcmSymBB|Product Description: AutoCAD Mechanical 2000|Company: Autodesk"
 90
        0
280
     0
281
     0
  0
CLASS
  1
ACMWELDSTANDARDBSI
  2
AcmWeldingStdBSI
  3
"AcmSymBB|Product Description: AutoCAD Mechanical 2000|Company: Autodesk"
 90
        0
280
     0
281
     0
  0
CLASS
  1
ACMIDSTANDARDBSI
  2
AcmIdStdBSI
  3
"AcmSymBB|Product Description: AutoCAD Mechanical 2000|Company: Autodesk"
 90
        0
280
     0
281
     0
  0
CLASS
  1
ACMDATUMSTANDARDBSI
  2
AcmDatumStdBSI
  3
"AcmSymBB|Product Description: AutoCAD Mechanical 2000|Company: Autodesk"
 90
        0
280
     0
281
     0
  0
CLASS
  1
ACMBOMSTANDARDBSI
  2
AcmBOMStdBSI
  3
"AcmSymBB|Product Description: AutoCAD Mechanical 2000|Company: Autodesk"
 90
        0
280
     0
281
     0
  0
CLASS
  1
LONG_TRANSACTION
  2
AcDbLongTransaction
  3
AutoCAD 2000
 90
        0
280
     0
281
     0
  0
CLASS
  1
LWPOLYLINE
  2
AcDbPolyline
  3
AutoCAD 2000
 90
        0
280
     0
281
     1
  0
CLASS
  1
HATCH
  2
AcDbHatch
  3
AutoCAD 2000
 90
        0
280
     0
281
     1
  0
CLASS
  1
XRECORD
  2
AcDbXrecord
  3
AutoCAD 2000
 90
        0
280
     0
281
     0
  0
ENDSEC
  0
SECTION
  2
TABLES
  0
TABLE
  2
VPORT
  5
8
330
0
100
AcDbSymbolTable
 70
     3
  0
VPORT
  5
256E
330
8
100
AcDbSymbolTableRecord
100
AcDbViewportTableRecord
  2
*ACTIVE
 70
     0
 10
0.0
 20
0.0
 11
1.0
 21
1.0
 12
-3.05747561910752
 22
1.234946146532408
 13
0.0
 23
0.0
 14
2.5
 24
2.5
 15
10.0
 25
10.0
 16
0.0
 26
0.0
 36
1.0
 17
0.0
 27
0.0
 37
0.0
 40
166.5033426852886
 41
1.56570841889117
 42
50.0
 43
0.0
 44
0.0
 50
0.0
 51
0.0
 71
     0
 72
   100
 73
     1
 74
     3
 75
     0
 76
     0
 77
     0
 78
     0
  0
ENDTAB
  0
TABLE
  2
LTYPE
  5
5
330
0
100
AcDbSymbolTable
 70
    10
  0
LTYPE
  5
14
330
5
100
AcDbSymbolTableRecord
100
AcDbLinetypeTableRecord
  2
BYBLOCK
 70
     0
  3

 72
    65
 73
     0
 40
0.0
  0
LTYPE
  5
15
330
5
100
AcDbSymbolTableRecord
100
AcDbLinetypeTableRecord
  2
BYLAYER
 70
     0
  3

 72
    65
 73
     0
 40
0.0
  0
LTYPE
  5
16
330
5
100
AcDbSymbolTableRecord
100
AcDbLinetypeTableRecord
  2
CONTINUOUS
 70
     0
  3
Solid line
 72
    65
 73
     0
 40
0.0
  0
LTYPE
  5
4B
330
5
100
AcDbSymbolTableRecord
100
AcDbLinetypeTableRecord
  2
AM_ISO02W050
 70
     0
  3
__ __ __ __ __ __ __ __ __ __ __ __ __ __ __
 72
    65
 73
     2
 40
7.5
 49
6.0
 74
     0
 49
-1.5
 74
     0
  0
LTYPE
  5
4C
330
5
100
AcDbSymbolTableRecord
100
AcDbLinetypeTableRecord
  2
AM_ISO08W050
 70
     0
  3
____ . ____ . ____ . ____ . ____ . ____ . ____
 72
    65
 73
     4
 40
18.0
 49
12.0
 74
     0
 49
-1.5
 74
     0
 49
3.0
 74
     0
 49
-1.5
 74
     0
  0
LTYPE
  5
4D
330
5
100
AcDbSymbolTableRecord
100
AcDbLinetypeTableRecord
  2
AM_ISO09W050
 70
     0
  3
_____ . . _____ . . _____ . . ____ .. ____
 72
    65
 73
     6
 40
22.5
 49
12.0
 74
     0
 49
-1.5
 74
     0
 49
3.0
 74
     0
 49
-1.5
 74
     0
 49
3.0
 74
     0
 49
-1.5
 74
     0
  0
LTYPE
  5
4E
330
5
100
AcDbSymbolTableRecord
100
AcDbLinetypeTableRecord
  2
AMCONSTR
 70
     0
  3
_______________________
 72
    65
 73
     2
 40
9999.0
 49
9999.0
 74
     0
 49
0.0
 74
     0
  0
LTYPE
  5
4F
330
5
100
AcDbSymbolTableRecord
100
AcDbLinetypeTableRecord
  2
AM_ISO02W050X2
 70
     0
  3
 _ _ _ _ _ _ _ _ _ _ _ _
 72
    65
 73
     2
 40
3.75
 49
3.0
 74
     0
 49
-0.75
 74
     0
  0
LTYPE
  5
50
330
5
100
AcDbSymbolTableRecord
100
AcDbLinetypeTableRecord
  2
AM_ISO08W050X2
 70
     0
  3
__ . __ . __ . __ . __ . __
 72
    65
 73
     4
 40
9.0
 49
6.0
 74
     0
 49
-0.75
 74
     0
 49
1.5
 74
     0
 49
-0.75
 74
     0
  0
LTYPE
  5
53
330
5
100
AcDbSymbolTableRecord
100
AcDbLinetypeTableRecord
  2
AMZIGZAG
 70
     0
  3
/\/-/\/-/\/-/\/-/\/-/\/
 72
    65
 73
     2
 40
11.00009999999999
 49
0.0001
 74
     4
 75
   135
340
52
 46
0.04
 50
0.0
 44
0.0
 45
0.0
 49
-11.0
 74
     0
  0
LTYPE
  5
166
330
5
100
AcDbSymbolTableRecord
100
AcDbLinetypeTableRecord
  2
ACJISTGL
 70
     0
  3
_ _ _ _ _
 72
    65
 73
     2
 40
3.0
 49
2.0
 74
     0
 49
-1.0
 74
     0
  0
LTYPE
  5
26A
330
5
100
AcDbSymbolTableRecord
100
AcDbLinetypeTableRecord
  2
ACJISTGB
 70
     0
  3
__ . . __ . .
 72
    65
 73
     6
 40
9.0
 49
4.0
 74
     0
 49
-1.0
 74
     0
 49
1.0
 74
     0
 49
-1.0
 74
     0
 49
1.0
 74
     0
 49
-1.0
 74
     0
  0
ENDTAB
  0
TABLE
  2
LAYER
  5
2
330
0
100
AcDbSymbolTable
 70
     7
  0
LAYER
  5
10
330
2
100
AcDbSymbolTableRecord
100
AcDbLayerTableRecord
  2
0
 70
     0
 62
     7
  6
CONTINUOUS
  0
LAYER
  5
3F9
330
2
100
AcDbSymbolTableRecord
100
AcDbLayerTableRecord
  2
AM_0
 70
     0
 62
     7
  6
CONTINUOUS
  0
LAYER
  5
BD6
330
2
100
AcDbSymbolTableRecord
100
AcDbLayerTableRecord
  2
AM_11
 70
     0
 62
     3
  6
AM_ISO09W050
  0
LAYER
  5
BD7
330
2
100
AcDbSymbolTableRecord
100
AcDbLayerTableRecord
  2
AM_7
 70
     0
 62
     4
  6
AM_ISO08W050
  0
LAYER
  5
BD8
330
2
100
AcDbSymbolTableRecord
100
AcDbLayerTableRecord
  2
AM_5
 70
     0
 62
     3
  6
CONTINUOUS
  0
LAYER
  5
BD9
330
2
100
AcDbSymbolTableRecord
100
AcDbLayerTableRecord
  2
DEFPOINTS
 70
     0
 62
     7
  6
CONTINUOUS
  0
LAYER
  5
BDA
330
2
100
AcDbSymbolTableRecord
100
AcDbLayerTableRecord
  2
AM_6
 70
     0
 62
     2
  6
CONTINUOUS
  0
ENDTAB
  0
TABLE
  2
STYLE
  5
3
330
0
100
AcDbSymbolTable
 70
     5
  0
STYLE
  5
11
330
3
100
AcDbSymbolTableRecord
100
AcDbTextStyleTableRecord
  2
STANDARD
 70
     0
 40
0.0
 41
1.0
 50
0.0
 71
     0
 42
2.5
  3
simplex.shx
  4
EXTFONT.SHX
  0
STYLE
  5
52
330
3
100
AcDbSymbolTableRecord
100
AcDbTextStyleTableRecord
  2

 70
     1
 40
0.0
 41
1.0
 50
0.0
 71
     0
 42
2.5
  3
ltypeshp.shx
  4

  0
STYLE
  5
6B
330
3
100
AcDbSymbolTableRecord
100
AcDbTextStyleTableRecord
  2
ASAMI
 70
     0
 40
0.0
 41
1.0
 50
0.0
 71
     0
 42
2.5
  3
simplex.shx
  4
EXTFONT.SHX
  0
STYLE
  5
262
330
3
100
AcDbSymbolTableRecord
100
AcDbTextStyleTableRecord
  2
ACJISTS
 70
     0
 40
1.0
 41
1.0
 50
0.0
 71
     0
 42
2.5
  3
simplex.shx
  4
bigfont.shx
  0
STYLE
  5
269
330
3
100
AcDbSymbolTableRecord
100
AcDbTextStyleTableRecord
  2
ACJISGDT
 70
     0
 40
0.0
 41
1.0
 50
0.0
 71
     0
 42
2.5
  3
amgdtans.shx
  4

  0
ENDTAB
  0
TABLE
  2
VIEW
  5
6
330
0
100
AcDbSymbolTable
 70
     0
  0
ENDTAB
  0
TABLE
  2
UCS
  5
7
330
0
100
AcDbSymbolTable
 70
     0
  0
ENDTAB
  0
TABLE
  2
APPID
  5
9
330
0
100
AcDbSymbolTable
 70
    13
  0
APPID
  5
12
330
9
100
AcDbSymbolTableRecord
100
AcDbRegAppTableRecord
  2
ACAD
 70
     0
  0
APPID
  5
30
330
9
100
AcDbSymbolTableRecord
100
AcDbRegAppTableRecord
  2
MCAD_NO_VIS
 70
     0
  0
APPID
  5
31
330
9
100
AcDbSymbolTableRecord
100
AcDbRegAppTableRecord
  2
ACAD_TEMP_GRAPHIC
 70
     0
  0
APPID
  5
2C2
330
9
100
AcDbSymbolTableRecord
100
AcDbRegAppTableRecord
  2
GENIUS_GENDTOL_13
 70
     0
  0
APPID
  5
339
330
9
100
AcDbSymbolTableRecord
100
AcDbRegAppTableRecord
  2
GENIUS_GENODEF_13
 70
     0
  0
APPID
  5
33A
330
9
100
AcDbSymbolTableRecord
100
AcDbRegAppTableRecord
  2
GENIUS_GENOBJ-N-RSBK_13
 70
     0
  0
APPID
  5
33B
330
9
100
AcDbSymbolTableRecord
100
AcDbRegAppTableRecord
  2
GENIUS_GENOBJ-N-LIB_13
 70
     0
  0
APPID
  5
33C
330
9
100
AcDbSymbolTableRecord
100
AcDbRegAppTableRecord
  2
GENIUS_GENSCALE_13
 70
     0
  0
APPID
  5
378
330
9
100
AcDbSymbolTableRecord
100
AcDbRegAppTableRecord
  2
GENIUS_GENDIMSH_14
 70
     0
  0
APPID
  5
BDB
330
9
100
AcDbSymbolTableRecord
100
AcDbRegAppTableRecord
  2
GENIUS_GENOBJ-N-CEN_13
 70
     0
  0
APPID
  5
BDC
330
9
100
AcDbSymbolTableRecord
100
AcDbRegAppTableRecord
  2
GENIUS_GENFIL_13
 70
     0
  0
APPID
  5
BDD
330
9
100
AcDbSymbolTableRecord
100
AcDbRegAppTableRecord
  2
GENIUS_GENOBJ-N-FIL_13
 70
     0
  0
APPID
  5
12AD
330
9
100
AcDbSymbolTableRecord
100
AcDbRegAppTableRecord
  2
GENIUS_GENOREF_13
 70
     0
  0
ENDTAB
  0
TABLE
  2
DIMSTYLE
  5
A
330
0
100
AcDbSymbolTable
 70
     8
  0
DIMSTYLE
105
58
102
{ACAD_REACTORS
330
C4F
330
194C
330
195B
330
1E6A
330
23FA
102
}
330
A
100
AcDbSymbolTableRecord
100
AcDbDimStyleTableRecord
  2
AM_JIS
 70
     0
  3

  4
"
  5
OPEN30
  6

  7

 40
0.5
 41
2.5
 42
1.0
 43
12.0
 44
1.0
 45
0.0
 46
0.0
 47
0.1
 48
0.1
140
3.2
141
0.0
142
0.0
143
0.0393701
144
1.0
145
0.0
146
0.71
147
1.5
 71
     0
 72
     0
 73
     0
 74
     0
 75
     0
 76
     0
 77
     3
 78
     8
170
     0
171
     2
172
     1
173
     0
174
     0
175
     0
176
   256
177
   256
178
     2
270
     2
271
     3
272
     3
273
     2
274
     2
340
6B
275
     0
280
     0
281
     0
282
     0
283
     0
284
     0
285
     0
286
     0
287
     3
288
     0
  0
DIMSTYLE
105
5F
330
A
100
AcDbSymbolTableRecord
100
AcDbDimStyleTableRecord
  2
AM_JIS$3
 70
     0
  3

  4
"
  5
OPEN30
  6

  7

 40
0.5
 41
2.5
 42
1.0
 43
10.0
 44
1.0
 45
0.0
 46
0.0
 47
0.1
 48
0.1
140
3.2
141
0.0
142
0.0
143
0.0393701
144
1.0
145
0.0
146
0.71
147
1.5
 71
     0
 72
     0
 73
     0
 74
     1
 75
     0
 76
     0
 77
     3
 78
     8
170
     0
171
     2
172
     0
173
     0
174
     0
175
     0
176
   256
177
   256
178
     2
270
     2
271
     2
272
     3
273
     2
274
     2
340
6B
275
     0
280
     0
281
     0
282
     0
283
     0
284
     0
285
     0
286
     0
287
     0
288
     1
  0
DIMSTYLE
105
60
102
{ACAD_REACTORS
330
200C
102
}
330
A
100
AcDbSymbolTableRecord
100
AcDbDimStyleTableRecord
  2
AM_JIS$4
 70
     0
  3

  4
"
  5
OPEN30
  6

  7

 40
0.5
 41
2.5
 42
1.0
 43
10.0
 44
1.0
 45
0.0
 46
0.0
 47
0.1
 48
0.1
140
3.2
141
0.0
142
0.0
143
0.0393701
144
1.0
145
0.0
146
0.71
147
1.5
 71
     0
 72
     0
 73
     0
 74
     1
 75
     0
 76
     0
 77
     3
 78
     8
170
     0
171
     2
172
     0
173
     0
174
     0
175
     0
176
   256
177
   256
178
     2
270
     2
271
     2
272
     3
273
     2
274
     2
340
6B
275
     0
280
     0
281
     0
282
     0
283
     0
284
     0
285
     0
286
     0
287
     0
288
     1
  0
DIMSTYLE
105
61
330
A
100
AcDbSymbolTableRecord
100
AcDbDimStyleTableRecord
  2
AM_JIS$6
 70
     0
  3

  4
"
  5
OPEN30
  6

  7

 40
0.5
 41
2.5
 42
1.0
 43
10.0
 44
1.0
 45
0.0
 46
0.0
 47
0.1
 48
0.1
140
3.2
141
0.0
142
0.0
143
0.0393701
144
1.0
145
0.0
146
0.71
147
1.5
 71
     0
 72
     0
 73
     0
 74
     0
 75
     0
 76
     0
 77
     0
 78
     8
170
     0
171
     2
172
     1
173
     0
174
     0
175
     0
176
   256
177
   256
178
     2
270
     2
271
     2
272
     2
273
     2
274
     2
340
6B
275
     0
280
     0
281
     0
282
     0
283
     0
284
     0
285
     0
286
     0
287
     3
288
     0
  0
DIMSTYLE
105
62
330
A
100
AcDbSymbolTableRecord
100
AcDbDimStyleTableRecord
  2
AM_JIS$7
 70
     0
  3

  4
"
  5
OPEN30
  6

  7

 40
0.5
 41
2.5
 42
1.0
 43
10.0
 44
1.0
 45
0.0
 46
0.0
 47
0.1
 48
0.1
140
3.2
141
0.0
142
0.0
143
0.0393701
144
1.0
145
0.0
146
0.71
147
1.5
 71
     0
 72
     0
 73
     0
 74
     0
 75
     0
 76
     0
 77
     3
 78
     8
170
     0
171
     2
172
     1
173
     0
174
     0
175
     0
176
   256
177
   256
178
     2
270
     2
271
     2
272
     3
273
     2
274
     2
340
6B
275
     0
280
     0
281
     0
282
     0
283
     0
284
     0
285
     0
286
     0
287
     3
288
     0
  0
DIMSTYLE
105
63
330
A
100
AcDbSymbolTableRecord
100
AcDbDimStyleTableRecord
  2
AM_JIS$SF
 70
     0
  3

  4
"
  5
OPEN30
  6

  7

 40
0.5
 41
2.5
 42
1.0
 43
10.0
 44
1.0
 45
0.0
 46
0.0
 47
0.1
 48
0.1
140
3.2
141
0.0
142
0.0
143
0.0393701
144
1.0
145
0.0
146
0.71
147
1.5
 71
     0
 72
     0
 73
     0
 74
     0
 75
     1
 76
     1
 77
     3
 78
     8
170
     0
171
     2
172
     1
173
     0
174
     0
175
     0
176
   256
177
   256
178
     2
270
     2
271
     2
272
     2
273
     2
274
     2
340
6B
275
     0
280
     0
281
     0
282
     0
283
     0
284
     0
285
     0
286
     0
287
     3
288
     0
  0
DIMSTYLE
105
68
330
A
100
AcDbSymbolTableRecord
100
AcDbDimStyleTableRecord
  2
AM_JIS$SH
 70
     0
  3

  4
"
  5

  6
GENAXEH
  7
OPEN30
 40
0.5
 41
2.5
 42
1.0
 43
10.0
 44
1.0
 45
0.0
 46
0.0
 47
0.1
 48
0.1
140
3.2
141
0.0
142
0.0
143
0.0393701
144
2.0
145
0.0
146
0.71
147
1.5
 71
     0
 72
     0
 73
     0
 74
     0
 75
     1
 76
     1
 77
     3
 78
     8
170
     0
171
     2
172
     1
173
     1
174
     0
175
     0
176
   256
177
   256
178
     2
270
     2
271
     2
272
     2
273
     2
274
     2
340
6B
275
     0
280
     0
281
     0
282
     0
283
     0
284
     0
285
     0
286
     0
287
     3
288
     0
  0
DIMSTYLE
105
B34
330
A
100
AcDbSymbolTableRecord
100
AcDbDimStyleTableRecord
  2
AM_JIS$2
 70
     0
  3

  4
"
  5
OPEN30
  6

  7

 40
0.5
 41
2.5
 42
1.0
 43
12.0
 44
1.0
 45
0.0
 46
0.0
 47
0.1
 48
0.1
140
3.2
141
0.0
142
0.0
143
0.0393701
144
1.0
145
0.0
146
0.71
147
1.5
 71
     0
 72
     0
 73
     0
 74
     0
 75
     0
 76
     0
 77
     3
 78
     8
170
     0
171
     2
172
     1
173
     0
174
     0
175
     0
176
   256
177
   256
178
     2
270
     2
271
     3
272
     3
273
     2
274
     2
340
6B
275
     0
280
     0
281
     0
282
     0
283
     0
284
     0
285
     0
286
     0
287
     3
288
     0
  0
ENDTAB
  0
TABLE
  2
BLOCK_RECORD
  5
1
330
0
100
AcDbSymbolTable
 70
    11
  0
BLOCK_RECORD
  5
1F
102
{ACAD_XDICTIONARY
360
74
102
}
330
1
100
AcDbSymbolTableRecord
100
AcDbBlockTableRecord
  2
*MODEL_SPACE
  0
BLOCK_RECORD
  5
101
102
{ACAD_XDICTIONARY
360
2597
102
}
330
1
100
AcDbSymbolTableRecord
100
AcDbBlockTableRecord
  2
*PAPER_SPACE
  0
BLOCK_RECORD
  5
59
330
1
100
AcDbSymbolTableRecord
100
AcDbBlockTableRecord
  2
_OPEN30
  0
BLOCK_RECORD
  5
64
330
1
100
AcDbSymbolTableRecord
100
AcDbBlockTableRecord
  2
GENAXEH
  0
BLOCK_RECORD
  5
C75
330
1
100
AcDbSymbolTableRecord
100
AcDbBlockTableRecord
  2
*D5
  0
BLOCK_RECORD
  5
194D
330
1
100
AcDbSymbolTableRecord
100
AcDbBlockTableRecord
  2
*D6
  0
BLOCK_RECORD
  5
195C
330
1
100
AcDbSymbolTableRecord
100
AcDbBlockTableRecord
  2
*D7
  0
BLOCK_RECORD
  5
1E6B
330
1
100
AcDbSymbolTableRecord
100
AcDbBlockTableRecord
  2
*D8
  0
BLOCK_RECORD
  5
200D
330
1
100
AcDbSymbolTableRecord
100
AcDbBlockTableRecord
  2
*D9
  0
BLOCK_RECORD
  5
23FB
330
1
100
AcDbSymbolTableRecord
100
AcDbBlockTableRecord
  2
*D10
  0
ENDTAB
  0
ENDSEC
  0
SECTION
  2
BLOCKS
  0
BLOCK
  5
20
330
1F
100
AcDbEntity
  8
0
100
AcDbBlockBegin
  2
*MODEL_SPACE
 70
     0
 10
0.0
 20
0.0
 30
0.0
  3
*MODEL_SPACE
  1

  0
ENDBLK
  5
21
330
1F
100
AcDbEntity
  8
0
100
AcDbBlockEnd
  0
BLOCK
  5
103
330
101
100
AcDbEntity
 67
     1
  8
0
100
AcDbBlockBegin
  2
*PAPER_SPACE
 70
     0
 10
0.0
 20
0.0
 30
0.0
  3
*PAPER_SPACE
  1

  0
ENDBLK
  5
104
330
101
100
AcDbEntity
 67
     1
  8
0
100
AcDbBlockEnd
  0
BLOCK
  5
5D
330
59
100
AcDbEntity
  8
0
100
AcDbBlockBegin
  2
_OPEN30
 70
     0
 10
0.0
 20
0.0
 30
0.0
  3
_OPEN30
  1

  0
LINE
  5
5A
330
59
100
AcDbEntity
  8
0
 62
     0
100
AcDbLine
 10
-1.0
 20
0.26794919
 30
0.0
 11
0.0
 21
0.0
 31
0.0
  0
LINE
  5
5B
330
59
100
AcDbEntity
  8
0
 62
     0
100
AcDbLine
 10
0.0
 20
0.0
 30
0.0
 11
-1.0
 21
-0.26794919
 31
0.0
  0
LINE
  5
5C
330
59
100
AcDbEntity
  8
0
 62
     0
100
AcDbLine
 10
0.0
 20
0.0
 30
0.0
 11
-1.0
 21
0.0
 31
0.0
  0
ENDBLK
  5
5E
330
59
100
AcDbEntity
  8
0
100
AcDbBlockEnd
  0
BLOCK
  5
66
330
64
100
AcDbEntity
  8
0
100
AcDbBlockBegin
  2
GENAXEH
 70
     0
 10
0.0
 20
0.0
 30
0.0
  3
GENAXEH
  1

  0
LINE
  5
65
330
64
100
AcDbEntity
  8
0
100
AcDbLine
 10
-1.0
 20
0.0
 30
0.0
 11
1.0
 21
0.0
 31
0.0
  0
ENDBLK
  5
67
330
64
100
AcDbEntity
  8
0
100
AcDbBlockEnd
  0
BLOCK
  5
C7F
330
C75
100
AcDbEntity
  8
0
100
AcDbBlockBegin
  2
*D5
 70
     1
 10
0.0
 20
0.0
 30
0.0
  3
*D5
  1

  0
LINE
  5
24E9
330
C75
100
AcDbEntity
  8
AM_5
100
AcDbLine
 10
-60.00000000000007
 20
-2.750000000000006
 30
0.0
 11
-60.00000000000007
 21
-22.49999999999988
 31
0.0
  0
LINE
  5
24EA
330
C75
100
AcDbEntity
  8
AM_5
100
AcDbLine
 10
-0.00000000000006
 20
-0.5000000000000036
 30
0.0
 11
-0.0000000000000613
 21
-22.49999999999988
 31
0.0
  0
LINE
  5
24EB
330
C75
100
AcDbEntity
  8
AM_5
100
AcDbLine
 10
-58.75000000000007
 20
-21.99999999999988
 30
0.0
 11
-1.250000000000061
 21
-21.99999999999988
 31
0.0
  0
INSERT
  5
24EC
330
C75
100
AcDbEntity
  8
AM_5
100
AcDbBlockReference
  2
_OPEN30
 10
-60.00000000000007
 20
-21.99999999999988
 30
0.0
 41
1.25
 42
1.25
 43
1.25
 50
180.0
  0
INSERT
  5
24ED
330
C75
100
AcDbEntity
  8
AM_5
100
AcDbBlockReference
  2
_OPEN30
 10
-0.0000000000000613
 20
-21.99999999999988
 30
0.0
 41
1.25
 42
1.25
 43
1.25
  0
MTEXT
  5
24EE
330
C75
100
AcDbEntity
  8
AM_5
 62
     2
100
AcDbMText
 10
-30.00000000000007
 20
-20.44999999999987
 30
0.0
 40
1.6
 41
0.0
 71
     5
 72
     1
  1
60
  7
ASAMI
1001
ACAD
1000
MTEXTBEGIN
1070
    73
1070
     1
1070
    44
1040
1.0
1070
    74
1070
     0
1000
MTEXTEND
  0
POINT
  5
24EF
330
C75
100
AcDbEntity
  8
DEFPOINTS
 62
     0
100
AcDbPoint
 10
-60.00000000000007
 20
-2.250000000000006
 30
0.0
  0
POINT
  5
24F0
330
C75
100
AcDbEntity
  8
DEFPOINTS
 62
     0
100
AcDbPoint
 10
-0.00000000000006
 20
-0.0000000000000036
 30
0.0
  0
POINT
  5
24F1
330
C75
100
AcDbEntity
  8
DEFPOINTS
 62
     0
100
AcDbPoint
 10
-0.0000000000000613
 20
-21.99999999999988
 30
0.0
  0
ENDBLK
  5
C80
330
C75
100
AcDbEntity
  8
0
100
AcDbBlockEnd
  0
BLOCK
  5
1959
330
194D
100
AcDbEntity
  8
0
100
AcDbBlockBegin
  2
*D6
 70
     1
 10
0.0
 20
0.0
 30
0.0
  3
*D6
  1

  0
LINE
  5
1FD9
330
194D
100
AcDbEntity
  8
AM_5
100
AcDbLine
 10
-0.49906213081541
 20
-1.004741246669551
 30
0.0
 11
8.829530889074508
 21
-1.004741246669554
 31
0.0
  0
LINE
  5
1FDA
330
194D
100
AcDbEntity
  8
AM_5
100
AcDbLine
 10
-0.4990621308154099
 20
0.9952587533273929
 30
0.0
 11
8.829530889074508
 21
0.9952587533273902
 31
0.0
  0
LINE
  5
1FDB
330
194D
100
AcDbEntity
  8
AM_5
100
AcDbLine
 10
8.329530889074508
 20
-2.254741246669553
 30
0.0
 11
8.329530889074508
 21
-3.504741246669553
 31
0.0
  0
LINE
  5
1FDC
330
194D
100
AcDbEntity
  8
AM_5
100
AcDbLine
 10
8.329530889074508
 20
2.24525875332739
 30
0.0
 11
8.32953088907451
 21
7.509544467613104
 31
0.0
  0
LINE
  5
1FDD
330
194D
100
AcDbEntity
  8
AM_5
100
AcDbLine
 10
8.329530889074508
 20
-1.004741246669553
 30
0.0
 11
8.329530889074508
 21
0.9952587533273902
 31
0.0
  0
INSERT
  5
1FDE
330
194D
100
AcDbEntity
  8
AM_5
100
AcDbBlockReference
  2
_OPEN30
 10
8.329530889074508
 20
-1.004741246669553
 30
0.0
 41
1.25
 42
1.25
 43
1.25
 50
90.0
  0
INSERT
  5
1FDF
330
194D
100
AcDbEntity
  8
AM_5
100
AcDbBlockReference
  2
_OPEN30
 10
8.329530889074508
 20
0.9952587533273902
 30
0.0
 41
1.25
 42
1.25
 43
1.25
 50
270.0
  0
MTEXT
  5
1FE0
330
194D
100
AcDbEntity
  8
AM_5
 62
     2
100
AcDbMText
 10
6.779530889074507
 20
5.502401610470249
 30
0.0
 40
1.6
 41
0.0
 71
     5
 72
     1
  1
%%c2
  7
ASAMI
 11
0.0000000000000001
 21
1.0
 31
0.0
1001
ACAD
1000
MTEXTBEGIN
1070
    73
1070
     1
1070
    44
1040
1.0
1070
    74
1070
     0
1000
MTEXTEND
  0
POINT
  5
1FE1
330
194D
100
AcDbEntity
  8
DEFPOINTS
 62
     0
100
AcDbPoint
 10
-0.99906213081541
 20
-1.004741246669551
 30
0.0
  0
POINT
  5
1FE2
330
194D
100
AcDbEntity
  8
DEFPOINTS
 62
     0
100
AcDbPoint
 10
-0.9990621308154098
 20
0.9952587533273929
 30
0.0
  0
POINT
  5
1FE3
330
194D
100
AcDbEntity
  8
DEFPOINTS
 62
     0
100
AcDbPoint
 10
8.329530889074508
 20
0.9952587533273902
 30
0.0
  0
ENDBLK
  5
195A
330
194D
100
AcDbEntity
  8
0
100
AcDbBlockEnd
  0
BLOCK
  5
1968
330
195C
100
AcDbEntity
  8
0
100
AcDbBlockBegin
  2
*D7
 70
     1
 10
0.0
 20
0.0
 30
0.0
  3
*D7
  1

  0
LINE
  5
24FB
330
195C
100
AcDbEntity
  8
AM_5
100
AcDbLine
 10
-3.000000000000058
 20
-1.504741246669551
 30
0.0
 11
-3.000000000000059
 21
-10.49999999999994
 31
0.0
  0
LINE
  5
24FC
330
195C
100
AcDbEntity
  8
AM_5
100
AcDbLine
 10
-0.0000000000000574
 20
-1.504741246669551
 30
0.0
 11
-0.0000000000000579
 21
-10.49999999999994
 31
0.0
  0
LINE
  5
24FD
330
195C
100
AcDbEntity
  8
AM_5
100
AcDbLine
 10
-4.250000000000058
 20
-9.999999999999948
 30
0.0
 11
-5.500000000000058
 21
-9.999999999999948
 31
0.0
  0
LINE
  5
24FE
330
195C
100
AcDbEntity
  8
AM_5
100
AcDbLine
 10
1.249999999999942
 20
-9.999999999999948
 30
0.0
 11
2.499999999999942
 21
-9.999999999999948
 31
0.0
  0
LINE
  5
24FF
330
195C
100
AcDbEntity
  8
AM_5
100
AcDbLine
 10
-3.000000000000059
 20
-9.999999999999948
 30
0.0
 11
-0.0000000000000579
 21
-9.999999999999948
 31
0.0
  0
INSERT
  5
2500
330
195C
100
AcDbEntity
  8
AM_5
100
AcDbBlockReference
  2
_OPEN30
 10
-3.000000000000059
 20
-9.999999999999948
 30
0.0
 41
1.25
 42
1.25
 43
1.25
  0
INSERT
  5
2501
330
195C
100
AcDbEntity
  8
AM_5
100
AcDbBlockReference
  2
_OPEN30
 10
-0.0000000000000579
 20
-9.999999999999948
 30
0.0
 41
1.25
 42
1.25
 43
1.25
 50
180.0
  0
MTEXT
  5
2502
330
195C
100
AcDbEntity
  8
AM_5
 62
     2
100
AcDbMText
 10
-1.500000000000058
 20
-8.449999999999947
 30
0.0
 40
1.6
 41
0.0
 71
     5
 72
     1
  1
3
  7
ASAMI
1001
ACAD
1000
MTEXTBEGIN
1070
    73
1070
     1
1070
    44
1040
1.0
1070
    74
1070
     0
1000
MTEXTEND
  0
POINT
  5
2503
330
195C
100
AcDbEntity
  8
DEFPOINTS
 62
     0
100
AcDbPoint
 10
-3.000000000000058
 20
-1.004741246669551
 30
0.0
  0
POINT
  5
2504
330
195C
100
AcDbEntity
  8
DEFPOINTS
 62
     0
100
AcDbPoint
 10
-0.0000000000000573
 20
-1.004741246669551
 30
0.0
  0
POINT
  5
2505
330
195C
100
AcDbEntity
  8
DEFPOINTS
 62
     0
100
AcDbPoint
 10
-0.0000000000000579
 20
-9.999999999999948
 30
0.0
  0
ENDBLK
  5
1969
330
195C
100
AcDbEntity
  8
0
100
AcDbBlockEnd
  0
BLOCK
  5
1E77
330
1E6B
100
AcDbEntity
  8
0
100
AcDbBlockBegin
  2
*D8
 70
     1
 10
0.0
 20
0.0
 30
0.0
  3
*D8
  1

  0
LINE
  5
1E79
330
1E6B
100
AcDbEntity
  8
AM_5
100
AcDbLine
 10
-60.00000000000007
 20
-3.000000000000007
 30
0.0
 11
-69.8848742152464
 21
-3.000000000000004
 31
0.0
  0
LINE
  5
1E7A
330
1E6B
100
AcDbEntity
  8
AM_5
100
AcDbLine
 10
-60.00000000000007
 20
2.999999999999997
 30
0.0
 11
-69.8848742152464
 21
3.0
 31
0.0
  0
LINE
  5
1E7B
330
1E6B
100
AcDbEntity
  8
AM_5
100
AcDbLine
 10
-69.3848742152464
 20
-4.250000000000005
 30
0.0
 11
-69.3848742152464
 21
-5.500000000000005
 31
0.0
  0
LINE
  5
1E7C
330
1E6B
100
AcDbEntity
  8
AM_5
100
AcDbLine
 10
-69.3848742152464
 20
4.249999999999999
 30
0.0
 11
-69.3848742152464
 21
5.499999999999999
 31
0.0
  0
LINE
  5
1E7D
330
1E6B
100
AcDbEntity
  8
AM_5
100
AcDbLine
 10
-69.3848742152464
 20
-3.000000000000004
 30
0.0
 11
-69.3848742152464
 21
3.0
 31
0.0
  0
INSERT
  5
1E7E
330
1E6B
100
AcDbEntity
  8
AM_5
100
AcDbBlockReference
  2
_OPEN30
 10
-69.3848742152464
 20
-3.000000000000004
 30
0.0
 41
1.25
 42
1.25
 43
1.25
 50
90.0
  0
INSERT
  5
1E7F
330
1E6B
100
AcDbEntity
  8
AM_5
100
AcDbBlockReference
  2
_OPEN30
 10
-69.3848742152464
 20
3.0
 30
0.0
 41
1.25
 42
1.25
 43
1.25
 50
270.0
  0
MTEXT
  5
1E80
330
1E6B
100
AcDbEntity
  8
AM_5
 62
     2
100
AcDbMText
 10
-70.93487421524639
 20
-0.0000000000000178
 30
0.0
 40
1.6
 41
0.0
 71
     5
 72
     1
  1
%%c6
  7
ASAMI
 11
0.0000000000000001
 21
1.0
 31
0.0
1001
ACAD
1000
MTEXTBEGIN
1070
    73
1070
     1
1070
    44
1040
1.0
1070
    74
1070
     0
1000
MTEXTEND
  0
POINT
  5
1E81
330
1E6B
100
AcDbEntity
  8
DEFPOINTS
 62
     0
100
AcDbPoint
 10
-59.50000000000007
 20
-3.000000000000007
 30
0.0
  0
POINT
  5
1E82
330
1E6B
100
AcDbEntity
  8
DEFPOINTS
 62
     0
100
AcDbPoint
 10
-59.50000000000007
 20
2.999999999999997
 30
0.0
  0
POINT
  5
1E83
330
1E6B
100
AcDbEntity
  8
DEFPOINTS
 62
     0
100
AcDbPoint
 10
-69.3848742152464
 20
3.0
 30
0.0
  0
ENDBLK
  5
1E78
330
1E6B
100
AcDbEntity
  8
0
100
AcDbBlockEnd
  0
BLOCK
  5
2013
330
200D
100
AcDbEntity
  8
0
100
AcDbBlockBegin
  2
*D9
 70
     1
 10
0.0
 20
0.0
 30
0.0
  3
*D9
  1

  0
LINE
  5
2070
330
200D
100
AcDbEntity
  8
AM_5
100
AcDbLine
 10
0.4678815456907187
 20
-1.710782351080994
 30
0.0
 11
6.284429647147878
 21
-8.475370730172301
 31
0.0
  0
INSERT
  5
2071
330
200D
100
AcDbEntity
  8
AM_5
100
AcDbBlockReference
  2
_OPEN30
 10
-0.3470871634806209
 20
-0.7629817375173602
 30
0.0
 41
1.25
 42
1.25
 43
1.25
 50
130.6906719763961
  0
MTEXT
  5
2072
330
200D
100
AcDbEntity
  8
AM_5
 62
     2
100
AcDbMText
 10
5.455655544080692
 20
-5.134122688684311
 30
0.0
 40
1.6
 41
0.0
 71
     5
 72
     1
  1
R1.0
  7
ASAMI
 11
0.6519749673370717
 21
-0.7582404908509071
 31
0.0
1001
ACAD
1000
MTEXTBEGIN
1070
    73
1070
     1
1070
    44
1040
1.0
1070
    74
1070
     0
1000
MTEXTEND
  0
POINT
  5
2073
330
200D
100
AcDbEntity
  8
DEFPOINTS
 62
     0
100
AcDbPoint
 10
-0.3470871634806209
 20
-0.7629817375173602
 30
0.0
  0
POINT
  5
2074
330
200D
100
AcDbEntity
  8
DEFPOINTS
 62
     0
100
AcDbPoint
 10
-0.9990621308154102
 20
-0.0047412466691072
 30
0.0
  0
ENDBLK
  5
2014
330
200D
100
AcDbEntity
  8
0
100
AcDbBlockEnd
  0
BLOCK
  5
2406
330
23FB
100
AcDbEntity
  8
0
100
AcDbBlockBegin
  2
*D10
 70
     1
 10
0.0
 20
0.0
 30
0.0
  3
*D10
  1

  0
LINE
  5
2510
330
23FB
100
AcDbEntity
  8
AM_5
100
AcDbLine
 10
0.0009378691810901
 20
-0.5047412466691072
 30
0.0
 11
0.0009378691810892
 21
-16.49999999999989
 31
0.0
  0
LINE
  5
2511
330
23FB
100
AcDbEntity
  8
AM_5
100
AcDbLine
 10
-5.000000000000055
 20
-1.493628663681192
 30
0.0
 11
-5.000000000000055
 21
-16.49999999999989
 31
0.0
  0
LINE
  5
2512
330
23FB
100
AcDbEntity
  8
AM_5
100
AcDbLine
 10
-1.24906213081891
 20
-15.99999999999989
 30
0.0
 11
-3.750000000000055
 21
-15.99999999999989
 31
0.0
  0
INSERT
  5
2513
330
23FB
100
AcDbEntity
  8
AM_5
100
AcDbBlockReference
  2
_OPEN30
 10
0.0009378691810892
 20
-15.99999999999989
 30
0.0
 41
1.25
 42
1.25
 43
1.25
  0
INSERT
  5
2514
330
23FB
100
AcDbEntity
  8
AM_5
100
AcDbBlockReference
  2
_OPEN30
 10
-5.000000000000055
 20
-15.99999999999989
 30
0.0
 41
1.25
 42
1.25
 43
1.25
 50
180.0
  0
MTEXT
  5
2515
330
23FB
100
AcDbEntity
  8
AM_5
 62
     2
100
AcDbMText
 10
-2.499531065409483
 20
-14.44999999999989
 30
0.0
 40
1.6
 41
0.0
 71
     5
 72
     1
  1
5
  7
ASAMI
1001
ACAD
1000
MTEXTBEGIN
1070
    73
1070
     1
1070
    44
1040
1.0
1070
    74
1070
     0
1000
MTEXTEND
  0
POINT
  5
2516
330
23FB
100
AcDbEntity
  8
DEFPOINTS
 62
     0
100
AcDbPoint
 10
0.0009378691810902
 20
-0.0047412466691071
 30
0.0
  0
POINT
  5
2517
330
23FB
100
AcDbEntity
  8
DEFPOINTS
 62
     0
100
AcDbPoint
 10
-5.000000000000055
 20
-0.9936286636811928
 30
0.0
  0
POINT
  5
2518
330
23FB
100
AcDbEntity
  8
DEFPOINTS
 62
     0
100
AcDbPoint
 10
-5.000000000000055
 20
-15.99999999999989
 30
0.0
  0
ENDBLK
  5
2407
330
23FB
100
AcDbEntity
  8
0
100
AcDbBlockEnd
  0
ENDSEC
  0
SECTION
  2
ENTITIES
  0
DIMENSION
  5
C4F
330
1F
100
AcDbEntity
  8
AM_5
100
AcDbDimension
  2
*D5
 10
-0.0000000000000613
 20
-21.99999999999988
 30
0.0
 11
-30.00000000000007
 21
-20.44999999999987
 31
0.0
 70
    32
  1
<>
  3
AM_JIS
100
AcDbAlignedDimension
 13
-60.00000000000007
 23
-2.250000000000006
 33
0.0
 14
-0.00000000000006
 24
-0.0000000000000036
 34
0.0
 50
0.0000000000002036
100
AcDbRotatedDimension
1001
GENIUS_GENDTOL_13
1000

1000
H7
1000

1040
0.0
  0
LINE
  5
C50
330
1F
100
AcDbEntity
  8
AM_7
100
AcDbLine
 10
-62.38487321524641
 20
-0.0000000000000036
 30
0.0
 11
1.32952988907452
 21
-0.0000000000000036
 31
0.0
1001
GENIUS_GENODEF_13
1002
{
1000
HIER
1070
     0
1002
}
1002
{
1000
MANEDIT
1070
     0
1002
}
1002
{
1000
NOSEL
1070
     0
1002
}
1002
{
1000
BEHIND
1070
     0
1002
}
1002
{
1000
REACTOR
1002
}
1001
GENIUS_GENOBJ-N-CEN_13
1002
{
1000
OWNER
1000
GEN
1002
}
  0
TEXT
  5
C58
330
1F
100
AcDbEntity
  8
AM_6
100
AcDbText
 10
-40.47619047619053
 20
-33.24999999999991
 30
0.0
 40
2.5
  1
SNB2020DL
 50
0.0000000000002036
 72
     4
 11
-30.00000000000007
 21
-31.99999999999988
 31
0.0
100
AcDbText
  0
DIMENSION
  5
194C
330
1F
100
AcDbEntity
  8
AM_5
100
AcDbDimension
  2
*D6
 10
8.329530889074508
 20
0.9952587533273902
 30
0.0
 11
6.779530889074507
 21
5.502401610470249
 31
0.0
 70
    32
  1
%%c<>
  3
AM_JIS
100
AcDbAlignedDimension
 13
-0.99906213081541
 23
-1.004741246669551
 33
0.0
 14
-0.9990621308154098
 24
0.9952587533273929
 34
0.0
 50
90.00000000000003
100
AcDbRotatedDimension
1001
ACAD
1000
DSTYLE
1002
{
1070
    48
1040
0.05
1070
    47
1040
0.0
1070
   274
1070
     1
1070
   272
1070
     2
1002
}
1001
GENIUS_GENDTOL_13
1000

1000
H7
1000

1040
0.0
  0
DIMENSION
  5
195B
330
1F
100
AcDbEntity
  8
AM_5
100
AcDbDimension
  2
*D7
 10
-0.0000000000000579
 20
-9.999999999999948
 30
0.0
 11
-1.500000000000058
 21
-8.449999999999947
 31
0.0
 70
    32
  1
<>
  3
AM_JIS
100
AcDbAlignedDimension
 13
-3.000000000000058
 23
-1.004741246669551
 33
0.0
 14
-0.0000000000000573
 24
-1.004741246669551
 34
0.0
 50
359.9999999999988
100
AcDbRotatedDimension
1001
GENIUS_GENDTOL_13
1000

1000
H7
1000

1040
0.0
  0
LINE
  5
1C97
330
1F
100
AcDbEntity
  8
AM_11
 48
0.4
100
AcDbLine
 10
-3.000937869181208
 20
1.009482493338648
 30
0.0
 11
-3.000937869181208
 21
-0.9905175066613516
 31
0.0
  0
ARC
  5
1C9A
330
1F
100
AcDbEntity
  8
AM_11
100
AcDbCircle
 10
-0.99999999999656
 20
-0.0000000000000036
 30
0.0
 40
0.9999999999965002
100
AcDbArc
 50
270.0
 51
90.0
  0
LINE
  5
1CA1
330
1F
100
AcDbEntity
  8
AM_11
100
AcDbLine
 10
-3.000937869181208
 20
-0.9999999999965039
 30
0.0
 11
-0.99999999999656
 21
-0.9999999999965039
 31
0.0
1001
GENIUS_GENODEF_13
1002
{
1000
HIER
1070
     0
1002
}
1002
{
1000
MANEDIT
1070
     0
1002
}
1002
{
1000
NOSEL
1070
     0
1002
}
1002
{
1000
BEHIND
1070
     0
1002
}
1002
{
1000
REACTOR
1002
}
1001
GENIUS_GENOBJ-N-CEN_13
1002
{
1000
OWNER
1000
GEN
1002
}
  0
LINE
  5
1CB1
330
1F
100
AcDbEntity
  8
AM_11
100
AcDbLine
 10
-3.000937869181208
 20
1.000000000003495
 30
0.0
 11
-0.99999999999656
 21
1.000000000003495
 31
0.0
1001
GENIUS_GENODEF_13
1002
{
1000
HIER
1070
     0
1002
}
1002
{
1000
MANEDIT
1070
     0
1002
}
1002
{
1000
NOSEL
1070
     0
1002
}
1002
{
1000
BEHIND
1070
     0
1002
}
1002
{
1000
REACTOR
1002
}
1001
GENIUS_GENOBJ-N-CEN_13
1002
{
1000
OWNER
1000
GEN
1002
}
  0
LINE
  5
1E64
330
1F
100
AcDbEntity
  8
AM_0
100
AcDbLine
 10
-59.50000000000007
 20
2.999999999999992
 30
0.0
 11
-12.50000000000007
 21
2.999999999999992
 31
0.0
1001
GENIUS_GENODEF_13
1002
{
1000
HIER
1070
     0
1002
}
1002
{
1000
MANEDIT
1070
     0
1002
}
1002
{
1000
NOSEL
1070
     0
1002
}
1002
{
1000
BEHIND
1070
     0
1002
}
1002
{
1000
REACTOR
1002
}
1001
GENIUS_GENOBJ-N-CEN_13
1002
{
1000
OWNER
1000
GEN
1002
}
  0
LINE
  5
1E65
330
1F
100
AcDbEntity
  8
AM_0
100
AcDbLine
 10
-59.50000000000007
 20
-3.000000000000007
 30
0.0
 11
-12.50000000000007
 21
-3.000000000000007
 31
0.0
1001
GENIUS_GENODEF_13
1002
{
1000
HIER
1070
     0
1002
}
1002
{
1000
MANEDIT
1070
     0
1002
}
1002
{
1000
NOSEL
1070
     0
1002
}
1002
{
1000
BEHIND
1070
     0
1002
}
1002
{
1000
REACTOR
1002
}
1001
GENIUS_GENOBJ-N-CEN_13
1002
{
1000
OWNER
1000
GEN
1002
}
  0
LINE
  5
1E66
330
1F
100
AcDbEntity
  8
AM_0
100
AcDbLine
 10
-60.00000000000007
 20
2.249999999999992
 30
0.0
 11
-59.50000000000007
 21
2.999999999999992
 31
0.0
1001
GENIUS_GENFIL_13
1070
     0
1040
0.5
1040
0.5
1040
0.4999999999999716
1040
45.0
1002
{
1002
}
  0
LINE
  5
1E67
330
1F
100
AcDbEntity
  8
AM_0
100
AcDbLine
 10
-60.00000000000007
 20
-2.250000000000007
 30
0.0
 11
-59.50000000000007
 21
-3.000000000000007
 31
0.0
1001
GENIUS_GENFIL_13
1070
     0
1040
0.5
1040
0.5
1040
0.4999999999999716
1040
45.00000000000036
1002
{
1002
}
  0
LINE
  5
1E68
330
1F
100
AcDbEntity
  8
0
100
AcDbLine
 10
-59.50000000000007
 20
-3.000000000000007
 30
0.0
 11
-59.50000000000007
 21
2.999999999999992
 31
0.0
  0
LINE
  5
1E69
330
1F
100
AcDbEntity
  8
AM_0
100
AcDbLine
 10
-60.00000000000007
 20
-2.250000000000007
 30
0.0
 11
-60.00000000000007
 21
2.249999999999992
 31
0.0
  0
DIMENSION
  5
1E6A
330
1F
100
AcDbEntity
  8
AM_5
100
AcDbDimension
  2
*D8
 10
-69.3848742152464
 20
3.0
 30
0.0
 11
-69.3848742152464
 21
-0.000000000000018
 31
0.0
 70
   160
  1
%%c<>
  3
AM_JIS
100
AcDbAlignedDimension
 13
-59.50000000000007
 23
-3.000000000000007
 33
0.0
 14
-59.50000000000007
 24
2.999999999999997
 34
0.0
 50
270.0
100
AcDbRotatedDimension
1001
ACAD
1000
DSTYLE
1002
{
1070
    48
1040
0.1
1070
    47
1040
0.1
1070
   274
1070
     2
1070
   272
1070
     3
1002
}
1001
GENIUS_GENDTOL_13
1000

1000
h6
1000

1040
0.0
  0
LINE
  5
1E8B
330
1F
100
AcDbEntity
  8
AM_0
100
AcDbLine
 10
-12.50000000000007
 20
-3.000000000000007
 30
0.0
 11
-12.50000000000007
 21
2.999999999999992
 31
0.0
  0
LINE
  5
1E8C
330
1F
100
AcDbEntity
  8
AM_0
100
AcDbLine
 10
-12.50000000000007
 20
2.999999999999992
 30
0.0
 11
-5.000000000000056
 21
0.9903810567665605
 31
0.0
  0
LINE
  5
1E97
330
1F
100
AcDbEntity
  8
AM_0
100
AcDbLine
 10
-12.50000000000007
 20
-3.0
 30
0.0
 11
-5.000000000000056
 21
-0.9903810567665676
 31
0.0
  0
DIMENSION
  5
200C
330
1F
100
AcDbEntity
  8
AM_5
100
AcDbDimension
  2
*D9
 10
-0.9990621308154102
 20
-0.0047412466691072
 30
0.0
 11
4.280382783261786
 21
-6.144683888056772
 31
0.0
 70
   164
  1
<>
  3
AM_JIS$4
100
AcDbRadialDimension
 15
-0.3470871634806209
 25
-0.7629817375173602
 35
0.0
 40
0.0
1001
GENIUS_GENDTOL_13
1000

1000
h7
1000

1040
0.0
1001
ACAD
1000
DSTYLE
1002
{
1070
    78
1070
     0
1070
   271
1070
     1
1070
   288
1070
     1
1070
   289
1070
     0
1070
    74
1070
     0
1002
}
  0
ARC
  5
21FD
330
1F
100
AcDbEntity
  8
AM_0
100
AcDbCircle
 10
-3.615816717347506
 20
-1.382627167867892
 30
0.0
 40
0.5490480911029553
100
AcDbArc
 50
91.63169042899628
 51
134.4050335548249
  0
LINE
  5
21FF
330
1F
100
AcDbEntity
  8
AM_0
100
AcDbLine
 10
-4.000000000000054
 20
0.533832909089143
 30
0.0
 11
-4.000000000000054
 21
0.6867265342414412
 31
0.0
  0
LINE
  5
2200
330
1F
100
AcDbEntity
  8
AM_0
100
AcDbLine
 10
-4.000000000000054
 20
0.533832909089143
 30
0.0
 11
-4.000000000000054
 21
0.8427183454380379
 31
0.0
  0
LINE
  5
2203
330
1F
100
AcDbEntity
  8
AM_0
100
AcDbLine
 10
-5.000000000000056
 20
-0.9903810567665676
 30
0.0
 11
-4.000000000000055
 21
-0.9903810567665694
 31
0.0
  0
LINE
  5
2205
330
1F
100
AcDbEntity
  8
AM_0
100
AcDbLine
 10
-5.000000000000053
 20
0.9903810567665596
 30
0.0
 11
-5.000000000000056
 21
-0.9903810567665676
 31
0.0
  0
LINE
  5
2228
330
1F
100
AcDbEntity
  8
AM_0
100
AcDbLine
 10
-5.023362346219044
 20
-0.004741246668778
 30
0.0
 11
-4.000000000000054
 21
0.5505878012662814
 31
0.0
  0
SPLINE
  5
2229
330
1F
100
AcDbEntity
  8
AM_0
100
AcDbSpline
210
0.0
220
0.0
230
1.0
 70
     8
 71
     3
 72
     8
 73
     4
 74
     0
 42
0.0000000001
 43
0.0000000001
 40
4.071346735624547
 40
4.071346735624547
 40
4.071346735624547
 40
4.071346735624547
 40
6.91280490763674
 40
6.91280490763674
 40
6.91280490763674
 40
6.91280490763674
 10
-3.983601708576589
 20
-0.9749655354195805
 30
0.0
 10
-4.37996984603405
 20
-0.915764655272711
 30
0.0
 10
-4.704269278670375
 20
-0.8128409165544789
 30
0.0
 10
-5.023362346244432
 20
-0.5935272810709007
 30
0.0
  0
LINE
  5
222B
330
1F
100
AcDbEntity
  8
AM_0
100
AcDbLine
 10
-5.023362346244436
 20
-0.5935272810708581
 30
0.0
 11
-4.547498421898263
 21
-0.3614831111023186
 31
0.0
  0
SPLINE
  5
22EF
330
1F
100
AcDbEntity
  8
AM_0
100
AcDbSpline
210
0.0
220
0.0
230
1.0
 70
     8
 71
     3
 72
     8
 73
     4
 74
     2
 42
0.0000000001
 43
0.0000000001
 44
0.0000000001
 12
-0.9396926207859113
 22
0.3420201433256611
 32
0.0
 13
0.9955394717441446
 23
0.094345960164651
 33
0.0
 40
0.0
 40
0.0
 40
0.0
 40
0.0
 40
1.182250309391451
 40
1.182250309391451
 40
1.182250309391451
 40
1.182250309391451
 10
-0.8768825338308616
 20
0.1734451677126785
 30
0.0
 10
-1.247199831049864
 20
0.3082296411343023
 30
0.0
 10
-2.263495386223669
 20
0.7758810332179628
 30
0.0
 10
-1.871169770063363
 20
0.8130612134161268
 30
0.0
 11
-0.8768825338308616
 21
0.1734451677126785
 31
0.0
 11
-1.871169770063363
 21
0.8130612134161268
 31
0.0
  0
ARC
  5
22F0
330
1F
100
AcDbEntity
  8
AM_0
100
AcDbCircle
 10
-2.059917363949636
 20
-2.180995290025688
 30
0.0
 40
3.0
100
AcDbArc
 50
46.63534851283898
 51
88.85558655531113
  0
LINE
  5
22F1
330
1F
100
AcDbEntity
  8
AM_0
100
AcDbLine
 10
-0.1614000003091072
 20
-0.0710864322854192
 30
0.0
 11
-0.8652616731919017
 21
0.1692155203435703
 31
0.0
  0
ARC
  5
22F2
330
1F
100
AcDbEntity
  8
AM_0
100
AcDbCircle
 10
-0.114825681606191
 20
-0.0265354379494554
 30
0.0
 40
0.7755466556822844
100
AcDbArc
 50
165.3801949031469
 51
216.448763497641
  0
ARC
  5
22F3
330
1F
100
AcDbEntity
  8
AM_0
100
AcDbCircle
 10
-0.8563213701462821
 20
0.2843246608131444
 30
0.0
 40
0.7805336349920849
100
AcDbArc
 50
278.6696104128123
 51
332.9129476995664
  0
SPLINE
  5
22F4
330
1F
100
AcDbEntity
  8
AM_0
100
AcDbSpline
210
0.0
220
0.0
230
1.0
 70
     8
 71
     3
 72
     8
 73
     4
 74
     2
 42
0.0000000001
 43
0.0000000001
 44
0.0000000001
 12
-0.0000000000000001
 22
-1.0
 32
0.0
 13
-1.0
 23
0.0000000000000001
 33
0.0
 40
0.0
 40
0.0
 40
0.0
 40
0.0
 40
0.1750953291139571
 40
0.1750953291139571
 40
0.1750953291139571
 40
0.1750953291139571
 10
-0.7386664591713405
 20
-0.4872905783296844
 30
0.0
 10
-0.7386664591713405
 20
-0.5456556880343367
 30
0.0
 10
-0.8245085984895258
 20
-0.5866014216791911
 30
0.0
 10
-0.8828737081941781
 20
-0.5866014216791911
 30
0.0
 11
-0.7386664591713405
 21
-0.4872905783296844
 31
0.0
 11
-0.8828737081941781
 21
-0.5866014216791911
 31
0.0
  0
SPLINE
  5
22F6
330
1F
100
AcDbEntity
  8
AM_0
100
AcDbSpline
210
0.0
220
0.0
230
1.0
 70
     8
 71
     3
 72
     8
 73
     4
 74
     2
 42
0.0000000001
 43
0.0000000001
 44
0.0000000001
 12
0.0000000000000001
 22
1.0
 32
0.0
 40
0.0
 40
0.0
 40
0.0
 40
0.0
 40
0.3390072462501052
 40
0.3390072462501052
 40
0.3390072462501052
 40
0.3390072462501052
 10
-0.9956021023487796
 20
-0.9063172676446423
 30
0.0
 10
-0.9956021023487796
 20
-0.7933148522279408
 30
0.0
 10
-0.9392379052714789
 20
-0.6899581369535659
 30
0.0
 10
-0.8828737081941781
 20
-0.5866014216791911
 30
0.0
 11
-0.9956021023487796
 21
-0.9063172676446423
 31
0.0
 11
-0.8828737081941781
 21
-0.5866014216791911
 31
0.0
  0
SPLINE
  5
22F7
330
1F
100
AcDbEntity
  8
AM_0
100
AcDbSpline
210
0.0
220
0.0
230
1.0
 70
     8
 71
     3
 72
     8
 73
     4
 74
     0
 42
0.0000000001
 43
0.0000000001
 40
3.790408995970492
 40
3.790408995970492
 40
3.790408995970492
 40
3.790408995970492
 40
5.485524909568358
 40
5.485524909568358
 40
5.485524909568358
 40
5.485524909568358
 10
-1.000000000303422
 20
0.9063075961248578
 30
0.0
 10
-1.108273055323038
 20
0.8797082089885819
 30
0.0
 10
-1.215646717731046
 20
0.8480560347810488
 30
0.0
 10
-1.322263476639377
 20
0.8121515772347684
 30
0.0
  0
SPLINE
  5
22F8
330
1F
100
AcDbEntity
  8
AM_0
100
AcDbSpline
210
0.0
220
0.0
230
1.0
 70
     8
 71
     3
 72
     8
 73
     4
 74
     2
 42
0.0000000001
 43
0.0000000001
 44
0.0000000001
 12
0.6039933128154179
 22
-0.7969893839156561
 32
0.0
 40
0.0
 40
0.0
 40
0.0
 40
0.0
 40
0.4000713093579961
 40
0.4000713093579961
 40
0.4000713093579961
 40
0.4000713093579961
 10
-1.000000000303422
 20
0.9063075961248578
 30
0.0
 10
-0.9194532018029097
 20
0.8000234006690048
 30
0.0
 10
-1.154235421247852
 20
0.806468796058045
 30
0.0
 10
-1.389017640692794
 20
0.8129141914470849
 30
0.0
 11
-1.000000000303422
 21
0.9063075961248578
 31
0.0
 11
-1.389017640692794
 21
0.8129141914470849
 31
0.0
  0
LINE
  5
22F9
330
1F
100
AcDbEntity
  8
AM_0
100
AcDbLine
 10
-3.843675720761469
 20
0.840956743770786
 30
0.0
 11
-1.389017640692791
 21
0.8129141914470849
 31
0.0
  0
ARC
  5
22FA
330
1F
100
AcDbEntity
  8
AM_0
100
AcDbCircle
 10
-0.9956021023487792
 20
-0.0936827330716632
 30
0.0
 40
0.9999999999965009
100
AcDbArc
 50
5.375507822156846
 51
90.25198180382437
  0
ARC
  5
22FC
330
1F
100
AcDbEntity
  8
AM_0
100
AcDbCircle
 10
-0.9956021023487792
 20
0.0936827323518586
 30
0.0
 40
0.9999999999965009
100
AcDbArc
 50
269.7480181961756
 51
354.6244921778447
  0
SPLINE
  5
22FD
330
1F
100
AcDbEntity
  8
AM_0
100
AcDbSpline
210
0.0
220
0.0
230
1.0
 70
     8
 71
     3
 72
     8
 73
     4
 74
     0
 42
0.0000000001
 43
0.0000000001
 40
3.7904089959839
 40
3.7904089959839
 40
3.7904089959839
 40
3.7904089959839
 40
14.48999654934396
 40
14.48999654934396
 40
14.48999654934396
 40
14.48999654934396
 10
-1.000000000306058
 20
-0.9063075968440017
 30
0.0
 10
-1.683420539608881
 20
-0.7384120156344594
 30
0.0
 10
-2.331007961938225
 20
-0.3692060079971746
 30
0.0
 10
-2.978595384267477
 20
-0.0000000003598899
 30
0.0
  0
SPLINE
  5
22FE
330
1F
100
AcDbEntity
  8
AM_0
100
AcDbSpline
210
0.0
220
0.0
230
1.0
 70
     8
 71
     3
 72
     8
 73
     4
 74
     0
 42
0.0000000001
 43
0.0000000001
 40
5.336187364352841
 40
5.336187364352841
 40
5.336187364352841
 40
5.336187364352841
 40
14.43905044399483
 40
14.43905044399483
 40
14.43905044399483
 40
14.43905044399483
 10
-0.8828737081955424
 20
-0.5866014216802143
 30
0.0
 10
-1.457858241812764
 20
-0.4023500938292273
 30
0.0
 10
-2.01181921818853
 20
-0.0965658783496117
 30
0.0
 10
-2.565780194564296
 20
0.2092183371300038
 30
0.0
  0
LINE
  5
22FF
330
1F
100
AcDbEntity
  8
AM_0
100
AcDbLine
 10
-3.631531934953203
 20
-0.8338040285238912
 30
0.0
 11
-1.222787206802308
 21
-0.8121515779545269
 31
0.0
  0
SPLINE
  5
2300
330
1F
100
AcDbEntity
  8
AM_0
100
AcDbSpline
210
0.0
220
0.0
230
1.0
 70
     8
 71
     3
 72
     8
 73
     4
 74
     0
 42
0.0000000001
 43
0.0000000001
 40
1.778590444965923
 40
1.778590444965923
 40
1.778590444965923
 40
1.778590444965923
 40
2.897999309858686
 40
2.897999309858686
 40
2.897999309858686
 40
2.897999309858686
 10
-4.000000000496828
 20
0.5505878009953845
 30
0.0
 10
-3.656112249039887
 20
0.3862695412099551
 30
0.0
 10
-3.317353816653682
 20
0.1931347704250326
 30
0.0
 10
-2.978595384267477
 20
-0.0000000003598899
 30
0.0
  0
SPLINE
  5
2301
330
1F
100
AcDbEntity
  8
AM_0
100
AcDbSpline
210
0.0
220
0.0
230
1.0
 70
     8
 71
     3
 72
     8
 73
     4
 74
     0
 42
0.0000000001
 43
0.0000000001
 40
0.3452954108917051
 40
0.3452954108917051
 40
0.3452954108917051
 40
0.3452954108917051
 40
2.887810088788897
 40
2.887810088788897
 40
2.887810088788897
 40
2.887810088788897
 10
-5.000000000000056
 20
0.9903810567665605
 30
0.0
 10
-4.169104825511252
 20
0.9374083527085872
 30
0.0
 10
-3.52461714715514
 20
0.7294397683024272
 30
0.0
 10
-2.565780194564296
 20
0.2092183371300038
 30
0.0
  0
ARC
  5
2302
330
1F
100
AcDbEntity
  8
AM_0
100
AcDbCircle
 10
-2.984767158027879
 20
2.10794372346078
 30
0.0
 40
2.935865821921619
100
AcDbArc
 50
226.0224752386597
 51
269.7027175204949
  0
DIMENSION
  5
23FA
330
1F
100
AcDbEntity
  8
AM_5
100
AcDbDimension
  2
*D10
 10
-5.000000000000055
 20
-15.99999999999989
 30
0.0
 11
-2.499531065409483
 21
-14.44999999999989
 31
0.0
 70
    32
  1
<>
  3
AM_JIS
100
AcDbAlignedDimension
 13
0.0009378691810902
 23
-0.0047412466691071
 33
0.0
 14
-5.000000000000055
 24
-0.9936286636811928
 34
0.0
 50
0.0000000000001132
100
AcDbRotatedDimension
1001
GENIUS_GENDTOL_13
1000

1000
h7
1000

1040
0.0
1001
ACAD
1000
DSTYLE
1002
{
1070
   271
1070
     1
1002
}
  0
LINE
  5
253C
330
1F
100
AcDbEntity
  8
AM_0
100
AcDbLine
 10
-0.1614000003091072
 20
-0.0710864322854192
 30
0.0
 11
-0.000000000343567
 21
-0.0000000000000036
 31
0.0
  0
VIEWPORT
  5
110
330
101
100
AcDbEntity
 67
     1
  8
0
100
AcDbViewport
 10
420.5
 20
297.0
 30
0.0
 40
948.9782706766916
 41
628.452
 68
     1
 69
     1
1001
ACAD
1000
MVIEW
1002
{
1070
    16
1010
0.0
1020
0.0
1030
0.0
1010
0.0
1020
0.0
1030
1.0
1040
0.0
1040
628.452
1040
420.5
1040
297.0
1040
50.0
1040
0.0
1040
0.0
1070
     0
1070
   100
1070
     1
1070
     1
1070
     0
1070
     0
1070
     0
1070
     0
1040
0.0
1040
0.0
1040
0.0
1040
10.0
1040
10.0
1040
10.0
1040
10.0
1070
     0
1002
{
1002
}
1002
}
  0
ENDSEC
  0
SECTION
  2
OBJECTS
  0
DICTIONARY
  5
C
330
0
100
AcDbDictionary
  3
ACAD_GROUP
350
D
  3
ACAD_LAYOUT
350
1A
  3
ACAD_MLINESTYLE
350
17
  3
ACAD_PLOTSETTINGS
350
19
  3
ACAD_PLOTSTYLENAME
350
E
  3
ACDBVARIABLEDICTIONARY
350
34
  3
ACMDICTIONARY
350
43
  3
AMG
350
2B
  3
AMGSNAPSETTINGS
350
6E
  3
DWGPROPS
350
2563
  3
ACDBHEADERROUNDTRIPXREC
350
256F
  0
DICTIONARY
  5
74
330
1F
100
AcDbDictionary
280
     1
  3
ACAD_INDEX
360
2565
  3
ACAD_LAYOUTSELFREF
360
2592
  0
DICTIONARY
  5
2597
330
101
100
AcDbDictionary
280
     1
  3
ACAD_LAYOUTSELFREF
360
2598
  0
DICTIONARY
  5
D
102
{ACAD_REACTORS
330
C
102
}
330
C
100
AcDbDictionary
  0
DICTIONARY
  5
1A
102
{ACAD_REACTORS
330
C
102
}
330
C
100
AcDbDictionary
  0
DICTIONARY
  5
17
102
{ACAD_REACTORS
330
C
102
}
330
C
100
AcDbDictionary
  3
STANDARD
350
18
  0
DICTIONARY
  5
19
102
{ACAD_REACTORS
330
C
102
}
330
C
100
AcDbDictionary
  0
ACDBDICTIONARYWDFLT
  5
E
102
{ACAD_REACTORS
330
C
102
}
330
C
100
AcDbDictionary
281
     1
  3
Normal
350
F
100
AcDbDictionaryWithDefault
340
F
  0
DICTIONARY
  5
34
102
{ACAD_REACTORS
330
C
102
}
330
C
100
AcDbDictionary
  3
INDEXCTL
350
35
  3
SORTENTS
350
B5E
  0
DICTIONARY
  5
43
102
{ACAD_REACTORS
330
C
102
}
330
C
100
AcDbDictionary
  3
ACMSTDDICTIONARY
350
260
  0
DICTIONARY
  5
2B
102
{ACAD_REACTORS
330
C
102
}
330
C
100
AcDbDictionary
  3
ACMGSETTINGS
350
2C
  0
DICTIONARY
  5
6E
102
{ACAD_REACTORS
330
C
102
}
330
C
100
AcDbDictionary
  0
XRECORD
  5
2563
102
{ACAD_REACTORS
330
C
102
}
330
C
100
AcDbXrecord
  1
DWGPROPS COOKIE
  2

  3

  4

  6

  7

  8

  9

300
AmdtFileType=82
301
=
302
=
303
=
304
=
305
=
306
=
307
=
308
=
309
=
 40
0.2533811689814815
 41
2452838.620506898
 42
2453045.749738171
  1

 90
        1
  0
DICTIONARY
  5
256F
102
{ACAD_REACTORS
330
C
102
}
330
C
100
AcDbDictionary
  3
TSTACKALIGN
350
2570
  3
TSTACKSIZE
350
2571
  3
HYPERLINKBASE
350
2572
  3
STYLESHEET
350
2573
  3
LAYOUTDICT
350
2574
  3
PLOTSETDICT
350
2575
  3
PLOTSTYLNAMDICT
350
2576
  3
LWETCUNION
350
2577
  3
INSUNITS
350
2578
  3
CEPSNTYPE
350
2579
  3
FINGERPRINTGUID
350
257A
  3
VERSIONGUID
350
257B
  3
PSVPSCALE
350
257C
  3
DIMSTYLEDATA
350
257D
  3
PUCSORTHOREF
350
257E
  3
PUCSORTHOVIEW
350
257F
  3
PUCSBASE
350
2580
  3
PUCSORGTOP
350
2581
  3
PUCSORGBOTTOM
350
2582
  3
PUCSORGLEFT
350
2583
  3
PUCSORGRIGHT
350
2584
  3
PUCSORGFRONT
350
2585
  3
PUCSORGBACK
350
2586
  3
UCSORTHOREF
350
2587
  3
UCSORTHOVIEW
350
2588
  3
UCSBASE
350
2589
  3
UCSORGTOP
350
258A
  3
UCSORGBOTTOM
350
258B
  3
UCSORGLEFT
350
258C
  3
UCSORGRIGHT
350
258D
  3
UCSORGFRONT
350
258E
  3
UCSORGBACK
350
258F
  0
DICTIONARY
  5
2565
102
{ACAD_REACTORS
330
74
102
}
330
74
100
AcDbDictionary
  3
*A1
350
2566
  0
XRECORD
  5
2592
102
{ACAD_REACTORS
330
74
102
}
330
74
100
AcDbXrecord
340
1F
  0
XRECORD
  5
2598
102
{ACAD_REACTORS
330
2597
102
}
330
2597
100
AcDbXrecord
340
101
  0
MLINESTYLE
  5
18
102
{ACAD_REACTORS
330
17
102
}
330
17
100
AcDbMlineStyle
  2
STANDARD
 70
     0
  3

 62
   256
 51
90.0
 52
90.0
 71
     2
 49
0.5
 62
   256
  6
BYLAYER
 49
-0.5
 62
   256
  6
BYLAYER
  0
ACDBPLACEHOLDER
  5
F
102
{ACAD_REACTORS
330
E
102
}
330
E
100
AcDbPlaceHolder
280
     0
  0
DICTIONARYVAR
  5
35
102
{ACAD_REACTORS
330
34
102
}
330
34
100
DictionaryVariables
280
     0
  1
1
  0
DICTIONARYVAR
  5
B5E
102
{ACAD_REACTORS
330
34
102
}
330
34
100
DictionaryVariables
280
     0
  1
96
  0
DICTIONARY
  5
260
102
{ACAD_REACTORS
330
43
102
}
330
43
100
AcDbDictionary
  0
DICTIONARY
  5
2C
102
{ACAD_REACTORS
330
2B
102
}
330
2B
100
AcDbDictionary
  3
DWGSETTINGS
350
2D
  0
XRECORD
  5
2570
102
{ACAD_REACTORS
330
256F
102
}
330
256F
100
AcDbXrecord
 90
        1
  0
XRECORD
  5
2571
102
{ACAD_REACTORS
330
256F
102
}
330
256F
100
AcDbXrecord
 90
       70
  0
XRECORD
  5
2572
102
{ACAD_REACTORS
330
256F
102
}
330
256F
100
AcDbXrecord
  1

  0
XRECORD
  5
2573
102
{ACAD_REACTORS
330
256F
102
}
330
256F
100
AcDbXrecord
  1
ASAMI.ctb
  0
XRECORD
  5
2574
102
{ACAD_REACTORS
330
256F
102
}
330
256F
100
AcDbXrecord
340
1A
  0
XRECORD
  5
2575
102
{ACAD_REACTORS
330
256F
102
}
330
256F
100
AcDbXrecord
340
19
  0
XRECORD
  5
2576
102
{ACAD_REACTORS
330
256F
102
}
330
256F
100
AcDbXrecord
340
E
  0
XRECORD
  5
2577
102
{ACAD_REACTORS
330
256F
102
}
330
256F
100
AcDbXrecord
 90
    10781
  0
XRECORD
  5
2578
102
{ACAD_REACTORS
330
256F
102
}
330
256F
100
AcDbXrecord
 90
        4
  0
XRECORD
  5
2579
102
{ACAD_REACTORS
330
256F
102
}
330
256F
100
AcDbXrecord
 90
        0
  0
XRECORD
  5
257A
102
{ACAD_REACTORS
330
256F
102
}
330
256F
100
AcDbXrecord
  1
{AFB28963-8C59-40AE-9337-C84526B81ACE}
  0
XRECORD
  5
257B
102
{ACAD_REACTORS
330
256F
102
}
330
256F
100
AcDbXrecord
  1
{E2296601-50A8-4434-BB52-F5C0D0992C19}
  0
XRECORD
  5
257C
102
{ACAD_REACTORS
330
256F
102
}
330
256F
100
AcDbXrecord
 40
0.0
  0
XRECORD
  5
257D
102
{ACAD_REACTORS
330
256F
102
}
330
256F
100
AcDbXrecord
1000
DSTYLE
1002
{
1070
    79
 70
     2
1070
   341
340
59
1070
   342
340
59
1070
   371
 70
    -1
1070
   372
 70
    -1
1002
}
  0
XRECORD
  5
257E
102
{ACAD_REACTORS
330
256F
102
}
330
256F
100
AcDbXrecord
340
0
  0
XRECORD
  5
257F
102
{ACAD_REACTORS
330
256F
102
}
330
256F
100
AcDbXrecord
 70
     0
  0
XRECORD
  5
2580
102
{ACAD_REACTORS
330
256F
102
}
330
256F
100
AcDbXrecord
340
0
  0
XRECORD
  5
2581
102
{ACAD_REACTORS
330
256F
102
}
330
256F
100
AcDbXrecord
 10
0.0
 20
0.0
 30
0.0
  0
XRECORD
  5
2582
102
{ACAD_REACTORS
330
256F
102
}
330
256F
100
AcDbXrecord
 10
0.0
 20
0.0
 30
0.0
  0
XRECORD
  5
2583
102
{ACAD_REACTORS
330
256F
102
}
330
256F
100
AcDbXrecord
 10
0.0
 20
0.0
 30
0.0
  0
XRECORD
  5
2584
102
{ACAD_REACTORS
330
256F
102
}
330
256F
100
AcDbXrecord
 10
0.0
 20
0.0
 30
0.0
  0
XRECORD
  5
2585
102
{ACAD_REACTORS
330
256F
102
}
330
256F
100
AcDbXrecord
 10
0.0
 20
0.0
 30
0.0
  0
XRECORD
  5
2586
102
{ACAD_REACTORS
330
256F
102
}
330
256F
100
AcDbXrecord
 10
0.0
 20
0.0
 30
0.0
  0
XRECORD
  5
2587
102
{ACAD_REACTORS
330
256F
102
}
330
256F
100
AcDbXrecord
340
0
  0
XRECORD
  5
2588
102
{ACAD_REACTORS
330
256F
102
}
330
256F
100
AcDbXrecord
 70
     0
  0
XRECORD
  5
2589
102
{ACAD_REACTORS
330
256F
102
}
330
256F
100
AcDbXrecord
340
0
  0
XRECORD
  5
258A
102
{ACAD_REACTORS
330
256F
102
}
330
256F
100
AcDbXrecord
 10
0.0
 20
0.0
 30
0.0
  0
XRECORD
  5
258B
102
{ACAD_REACTORS
330
256F
102
}
330
256F
100
AcDbXrecord
 10
0.0
 20
0.0
 30
0.0
  0
XRECORD
  5
258C
102
{ACAD_REACTORS
330
256F
102
}
330
256F
100
AcDbXrecord
 10
0.0
 20
0.0
 30
0.0
  0
XRECORD
  5
258D
102
{ACAD_REACTORS
330
256F
102
}
330
256F
100
AcDbXrecord
 10
0.0
 20
0.0
 30
0.0
  0
XRECORD
  5
258E
102
{ACAD_REACTORS
330
256F
102
}
330
256F
100
AcDbXrecord
 10
0.0
 20
0.0
 30
0.0
  0
XRECORD
  5
258F
102
{ACAD_REACTORS
330
256F
102
}
330
256F
100
AcDbXrecord
 10
0.0
 20
0.0
 30
0.0
  0
LAYER_INDEX
  5
2566
102
{ACAD_REACTORS
330
2565
102
}
330
2565
100
AcDbIndex
 40
2453151.8666539
100
AcDbLayerIndex
  8
0
360
2567
 90
        1
  8
AM_0
360
2568
 90
       35
  8
AM_11
360
2569
 90
        4
  8
AM_7
360
256A
 90
        1
  8
AM_5
360
256B
 90
        6
  8
Defpoints
360
256C
 90
        0
  8
AM_6
360
256D
 90
        1
  0
XRECORD
  5
2D
102
{ACAD_REACTORS
330
2C
102
}
330
2C
100
AcDbXrecord
  1
VERSION
140
15.0
  1
PRODUCT
  2
AutoCAD Mechanical 2000
  0
IDBUFFER
  5
2567
330
0
100
AcDbIdBuffer
330
1E68
  0
IDBUFFER
  5
2568
330
0
100
AcDbIdBuffer
330
22EF
330
22F0
330
22F1
330
22F2
330
22F3
330
22F4
330
22F6
330
22F7
330
22F8
330
22F9
330
22FA
330
22FC
330
22FD
330
22FE
330
22FF
330
2300
330
2301
330
2302
330
253C
330
1E64
330
1E65
330
1E66
330
1E67
330
1E69
330
1E8B
330
1E8C
330
1E97
330
21FD
330
21FF
330
2200
330
2203
330
2205
330
2228
330
2229
330
222B
  0
IDBUFFER
  5
2569
330
0
100
AcDbIdBuffer
330
1C97
330
1C9A
330
1CA1
330
1CB1
  0
IDBUFFER
  5
256A
330
0
100
AcDbIdBuffer
330
C50
  0
IDBUFFER
  5
256B
330
0
100
AcDbIdBuffer
330
C4F
330
194C
330
195B
330
1E6A
330
200C
330
23FA
  0
IDBUFFER
  5
256C
330
0
100
AcDbIdBuffer
  0
IDBUFFER
  5
256D
330
0
100
AcDbIdBuffer
330
C58
  0
ENDSEC
  0
EOF
