  0
SECTION
  2
HEADER
  9
$ACADVER
  1
AC1014
  9
$ACADMAINTVER
 70
     9
  9
$DWGCODEPAGE
  3
ANSI_932
  9
$INSBASE
 10
0.0
 20
0.0
 30
0.0
  9
$EXTMIN
 10
-133.3244096783938
 20
-29.25000100000005
 30
-0.00000001
  9
$EXTMAX
 10
9.715264162140973
 20
5.503568786128013
 30
0.00000001
  9
$LIMMIN
 10
-160.3317308027167
 20
-72.54659892481419
  9
$LIMMAX
 10
41.35761701223344
 20
32.17894487977583
  9
$ORTHOMODE
 70
     0
  9
$REGENMODE
 70
     1
  9
$FILLMODE
 70
     1
  9
$QTEXTMODE
 70
     0
  9
$MIRRTEXT
 70
     0
  9
$DRAGMODE
 70
     2
  9
$LTSCALE
 40
0.3
  9
$OSMODE
 70
    55
  9
$ATTMODE
 70
     1
  9
$TEXTSIZE
 40
2.5
  9
$TRACEWID
 40
1.0
  9
$TEXTSTYLE
  7
STANDARD
  9
$CLAYER
  8
AM_0
  9
$CELTYPE
  6
BYLAYER
  9
$CECOLOR
 62
   256
  9
$CELTSCALE
 40
1.0
  9
$DELOBJ
 70
     1
  9
$DISPSILH
 70
     0
  9
$DIMSCALE
 40
0.5
  9
$DIMASZ
 40
2.5
  9
$DIMEXO
 40
1.0
  9
$DIMDLI
 40
12.0
  9
$DIMRND
 40
0.0
  9
$DIMDLE
 40
0.0
  9
$DIMEXE
 40
1.0
  9
$DIMTP
 40
0.1
  9
$DIMTM
 40
0.1
  9
$DIMTXT
 40
3.2
  9
$DIMCEN
 40
0.0
  9
$DIMTSZ
 40
0.0
  9
$DIMTOL
 70
     0
  9
$DIMLIM
 70
     0
  9
$DIMTIH
 70
     0
  9
$DIMTOH
 70
     0
  9
$DIMSE1
 70
     0
  9
$DIMSE2
 70
     0
  9
$DIMTAD
 70
     3
  9
$DIMZIN
 70
     8
  9
$DIMBLK
  1
OPEN30
  9
$DIMASO
 70
     1
  9
$DIMSHO
 70
     1
  9
$DIMPOST
  1

  9
$DIMAPOST
  1
"
  9
$DIMALT
 70
     0
  9
$DIMALTD
 70
     2
  9
$DIMALTF
 40
0.0393701
  9
$DIMLFAC
 40
1.0
  9
$DIMTOFL
 70
     1
  9
$DIMTVP
 40
0.0
  9
$DIMTIX
 70
     0
  9
$DIMSOXD
 70
     0
  9
$DIMSAH
 70
     0
  9
$DIMBLK1
  1

  9
$DIMBLK2
  1

  9
$DIMSTYLE
  2
AM_JIS
  9
$DIMCLRD
 70
   256
  9
$DIMCLRE
 70
   256
  9
$DIMCLRT
 70
     2
  9
$DIMTFAC
 40
0.71
  9
$DIMGAP
 40
1.5
  9
$DIMJUST
 70
     0
  9
$DIMSD1
 70
     0
  9
$DIMSD2
 70
     0
  9
$DIMTOLJ
 70
     0
  9
$DIMTZIN
 70
     0
  9
$DIMALTZ
 70
     0
  9
$DIMALTTZ
 70
     0
  9
$DIMFIT
 70
     3
  9
$DIMUPT
 70
     0
  9
$DIMUNIT
 70
     2
  9
$DIMDEC
 70
     3
  9
$DIMTDEC
 70
     3
  9
$DIMALTU
 70
     2
  9
$DIMALTTD
 70
     2
  9
$DIMTXSTY
  7
ASAMI
  9
$DIMAUNIT
 70
     0
  9
$LUNITS
 70
     2
  9
$LUPREC
 70
     2
  9
$SKETCHINC
 40
1.0
  9
$FILLETRAD
 40
0.5
  9
$AUNITS
 70
     0
  9
$AUPREC
 70
     0
  9
$MENU
  1
.
  9
$ELEVATION
 40
0.0
  9
$PELEVATION
 40
0.0
  9
$THICKNESS
 40
0.0
  9
$LIMCHECK
 70
     0
  9
$BLIPMODE
 70
     0
  9
$CHAMFERA
 40
2.5
  9
$CHAMFERB
 40
2.5
  9
$CHAMFERC
 40
20.0
  9
$CHAMFERD
 40
0.0
  9
$SKPOLY
 70
     0
  9
$TDCREATE
 40
2452838.620506898
  9
$TDUPDATE
 40
2453151.868304155
  9
$TDINDWG
 40
0.3100231481
  9
$TDUSRTIMER
 40
0.3100231481
  9
$USRTIMER
 70
     1
  9
$ANGBASE
 50
0.0
  9
$ANGDIR
 70
     0
  9
$PDMODE
 70
     0
  9
$PDSIZE
 40
0.0
  9
$PLINEWID
 40
0.0
  9
$COORDS
 70
     1
  9
$SPLFRAME
 70
     0
  9
$SPLINETYPE
 70
     6
  9
$SPLINESEGS
 70
     8
  9
$ATTDIA
 70
     1
  9
$ATTREQ
 70
     1
  9
$HANDLING
 70
 12289
  9
$HANDSEED
  5
2C8E
  9
$SURFTAB1
 70
     6
  9
$SURFTAB2
 70
     6
  9
$SURFTYPE
 70
     6
  9
$SURFU
 70
     6
  9
$SURFV
 70
     6
  9
$UCSNAME
  2

  9
$UCSORG
 10
-0.0000000000000568
 20
-0.0000000000000036
 30
0.0
  9
$UCSXDIR
 10
1.0
 20
0.0
 30
0.0
  9
$UCSYDIR
 10
0.0
 20
1.0
 30
0.0
  9
$PUCSNAME
  2

  9
$PUCSORG
 10
0.0
 20
0.0
 30
0.0
  9
$PUCSXDIR
 10
1.0
 20
0.0
 30
0.0
  9
$PUCSYDIR
 10
0.0
 20
1.0
 30
0.0
  9
$USERI1
 70
     0
  9
$USERI2
 70
     0
  9
$USERI3
 70
     0
  9
$USERI4
 70
     0
  9
$USERI5
 70
     0
  9
$USERR1
 40
0.0
  9
$USERR2
 40
0.0
  9
$USERR3
 40
0.0
  9
$USERR4
 40
0.0
  9
$USERR5
 40
0.0
  9
$WORLDVIEW
 70
     1
  9
$SHADEDGE
 70
     3
  9
$SHADEDIF
 70
    70
  9
$TILEMODE
 70
     1
  9
$MAXACTVP
 70
    64
  9
$PINSBASE
 10
0.0
 20
0.0
 30
0.0
  9
$PLIMCHECK
 70
     0
  9
$PEXTMIN
 10
1.000000000000000E+20
 20
1.000000000000000E+20
 30
1.000000000000000E+20
  9
$PEXTMAX
 10
-1.000000000000000E+20
 20
-1.000000000000000E+20
 30
-1.000000000000000E+20
  9
$PLIMMIN
 10
0.0
 20
0.0
  9
$PLIMMAX
 10
841.0
 20
594.0
  9
$UNITMODE
 70
     0
  9
$VISRETAIN
 70
     1
  9
$PLINEGEN
 70
     0
  9
$PSLTSCALE
 70
     0
  9
$TREEDEPTH
 70
  3020
  9
$PICKSTYLE
 70
     0
  9
$CMLSTYLE
  2
STANDARD
  9
$CMLJUST
 70
     0
  9
$CMLSCALE
 40
20.0
  9
$PROXYGRAPHICS
 70
     1
  9
$MEASUREMENT
 70
     1
  0
ENDSEC
  0
SECTION
  2
CLASSES
  0
CLASS
  1
ACDBDICTIONARYWDFLT
  2
AcDbDictionaryWithDefault
  3
AutoCAD 2000
 90
        0
280
     0
281
     0
  0
CLASS
  1
ACDBPLACEHOLDER
  2
AcDbPlaceHolder
  3
AutoCAD 2000
 90
        0
280
     0
281
     0
  0
CLASS
  1
LAYOUT
  2
AcDbLayout
  3
AutoCAD 2000
 90
        0
280
     0
281
     0
  0
CLASS
  1
AMGSETTINGSOBJ
  2
AmgSettingsObj
  3
"AcadM|Product Description: AutoCAD Mechanical 2000|Company: Autodesk"
 90
        0
280
     0
281
     0
  0
CLASS
  1
ACME_DOCUMENT
  2
AcMeDbDoc
  3
AcMeServices
 90
        0
280
     0
281
     0
  0
CLASS
  1
ACMESCOPE
  2
AcMeScope
  3
AcMeServices
 90
        0
280
     0
281
     0
  0
CLASS
  1
ACMECOMMANDHISTORY
  2
AcMeCommandHistory
  3
AcMeServices
 90
        0
280
     0
281
     0
  0
CLASS
  1
DICTIONARYVAR
  2
AcDbDictionaryVar
  3
AutoCAD 2000
 90
        0
280
     0
281
     0
  0
CLASS
  1
ACIMSYSVARMAN
  2
AcImSysVarManager
  3
AcMeServices
 90
        0
280
     0
281
     0
  0
CLASS
  1
ACIMREALSYSVAR
  2
AcImRealSysVar
  3
AcMeServices
 90
        0
280
     0
281
     0
  0
CLASS
  1
ACIMINTSYSVAR
  2
AcImIntSysVar
  3
AcMeServices
 90
        0
280
     0
281
     0
  0
CLASS
  1
ACMEDRAWINGMAN
  2
AcMeDrawingMan
  3
AcMeServices
 90
        0
280
     0
281
     0
  0
CLASS
  1
ACMEVIEW
  2
AcMeView
  3
AcMeServices
 90
        0
280
     0
281
     0
  0
CLASS
  1
ACDBENTITYCACHE
  2
AcMeEntityCache
  3
AcMeServices
 90
        0
280
     0
281
     0
  0
CLASS
  1
GSMANAGER
  2
AcMeGSManager
  3
AcMeServices
 90
        0
280
     0
281
     0
  0
CLASS
  1
AmdtInternalReactor
  2
AmdtInternalReactor
  3
AcMeServices
 90
        0
280
     0
281
     0
  0
CLASS
  1
ACMESTATEMGR
  2
AcMeStateMgr
  3
AcMeServices
 90
        0
280
     0
281
     0
  0
CLASS
  1
ACME_DATABASE
  2
AcMeDbDatabase
  3
AcMeServices
 90
        0
280
     0
281
     0
  0
CLASS
  1
ACRFINSADJUSTERMGR
  2
AcRfInsAdjusterMgr
  3
AcMeServices
 90
        0
280
     0
281
     0
  0
CLASS
  1
ACMDATADICTIONARY
  2
AcmDataDictionary
  3
"AcmSymBB|Product Description: AutoCAD Mechanical 2000|Company: Autodesk"
 90
        0
280
     0
281
     0
  0
CLASS
  1
ACMDATAENTRYBLOCK
  2
AcmDataEntryBlock
  3
"AcmSymBB|Product Description: AutoCAD Mechanical 2000|Company: Autodesk"
 90
        0
280
     0
281
     0
  0
CLASS
  1
AMGOBJPROPCFG
  2
AmgObjPropCfg
  3
"AmgLay|Product Description: AutoCAD Mechanical 2000|Company: Autodesk"
 90
        1
280
     0
281
     0
  0
CLASS
  1
ACAMGFILTERDAT
  2
AcAmgFilterDat
  3
"AcadM|Product Description: AutoCAD Mechanical 2000|Company: Autodesk"
 90
        0
280
     0
281
     0
  0
CLASS
  1
LAYER_INDEX
  2
AcDbLayerIndex
  3
AutoCAD 2000
 90
        0
280
     0
281
     0
  0
CLASS
  1
IDBUFFER
  2
AcDbIdBuffer
  3
AutoCAD 2000
 90
        0
280
     0
281
     0
  0
CLASS
  1
ACIMSTRSYSVAR
  2
AcImStrSysVar
  3
AcMeServices
 90
        0
280
     0
281
     0
  0
CLASS
  1
ACMSTANDARDJIS
  2
AcmStandardJIS
  3
"AcmSymBB|Product Description: AutoCAD Mechanical 2000|Company: Autodesk"
 90
        0
280
     0
281
     0
  0
CLASS
  1
ACMSURFSTANDARDJIS
  2
AcmSurfTextStdJIS
  3
"AcmSymBB|Product Description: AutoCAD Mechanical 2000|Company: Autodesk"
 90
        0
280
     0
281
     0
  0
CLASS
  1
ACMFCFSTANDARDJIS
  2
AcmFCFStdJIS
  3
"AcmSymBB|Product Description: AutoCAD Mechanical 2000|Company: Autodesk"
 90
        0
280
     0
281
     0
  0
CLASS
  1
ACMWELDSTANDARDJIS
  2
AcmWeldingStdJIS
  3
"AcmSymBB|Product Description: AutoCAD Mechanical 2000|Company: Autodesk"
 90
        0
280
     0
281
     0
  0
CLASS
  1
ACMIDSTANDARDJIS
  2
AcmIdStdJIS
  3
"AcmSymBB|Product Description: AutoCAD Mechanical 2000|Company: Autodesk"
 90
        0
280
     0
281
     0
  0
CLASS
  1
ACMDATUMSTANDARDJIS
  2
AcmDatumStdJIS
  3
"AcmSymBB|Product Description: AutoCAD Mechanical 2000|Company: Autodesk"
 90
        0
280
     0
281
     0
  0
CLASS
  1
ACMBOMSTANDARDJIS
  2
AcmBOMStdJIS
  3
"AcmSymBB|Product Description: AutoCAD Mechanical 2000|Company: Autodesk"
 90
        0
280
     0
281
     0
  0
CLASS
  1
ACMSTANDARDANSI
  2
AcmStandardANSI
  3
"AcmSymBB|Product Description: AutoCAD Mechanical 2000|Company: Autodesk"
 90
        0
280
     0
281
     0
  0
CLASS
  1
ACMSURFSTANDARDANSI
  2
AcmSurfTextStdANSI
  3
"AcmSymBB|Product Description: AutoCAD Mechanical 2000|Company: Autodesk"
 90
        0
280
     0
281
     0
  0
CLASS
  1
ACMFCFSTANDARDANSI
  2
AcmFCFStdANSI
  3
"AcmSymBB|Product Description: AutoCAD Mechanical 2000|Company: Autodesk"
 90
        0
280
     0
281
     0
  0
CLASS
  1
ACMWELDSTANDARDANSI
  2
AcmWeldingStdANSI
  3
"AcmSymBB|Product Description: AutoCAD Mechanical 2000|Company: Autodesk"
 90
        0
280
     0
281
     0
  0
CLASS
  1
ACMIDSTANDARDANSI
  2
AcmIdStdANSI
  3
"AcmSymBB|Product Description: AutoCAD Mechanical 2000|Company: Autodesk"
 90
        0
280
     0
281
     0
  0
CLASS
  1
ACMDATUMSTANDARDANSI
  2
AcmDatumStdANSI
  3
"AcmSymBB|Product Description: AutoCAD Mechanical 2000|Company: Autodesk"
 90
        0
280
     0
281
     0
  0
CLASS
  1
ACMBOMSTANDARDANSI
  2
AcmBOMStdANSI
  3
"AcmSymBB|Product Description: AutoCAD Mechanical 2000|Company: Autodesk"
 90
        0
280
     0
281
     0
  0
CLASS
  1
ACMSTANDARDBSI
  2
AcmStandardBSI
  3
"AcmSymBB|Product Description: AutoCAD Mechanical 2000|Company: Autodesk"
 90
        0
280
     0
281
     0
  0
CLASS
  1
ACMSURFSTANDARDBSI
  2
AcmSurfTextStdBSI
  3
"AcmSymBB|Product Description: AutoCAD Mechanical 2000|Company: Autodesk"
 90
        0
280
     0
281
     0
  0
CLASS
  1
ACMFCFSTANDARDBSI
  2
AcmFCFStdBSI
  3
"AcmSymBB|Product Description: AutoCAD Mechanical 2000|Company: Autodesk"
 90
        0
280
     0
281
     0
  0
CLASS
  1
ACMWELDSTANDARDBSI
  2
AcmWeldingStdBSI
  3
"AcmSymBB|Product Description: AutoCAD Mechanical 2000|Company: Autodesk"
 90
        0
280
     0
281
     0
  0
CLASS
  1
ACMIDSTANDARDBSI
  2
AcmIdStdBSI
  3
"AcmSymBB|Product Description: AutoCAD Mechanical 2000|Company: Autodesk"
 90
        0
280
     0
281
     0
  0
CLASS
  1
ACMDATUMSTANDARDBSI
  2
AcmDatumStdBSI
  3
"AcmSymBB|Product Description: AutoCAD Mechanical 2000|Company: Autodesk"
 90
        0
280
     0
281
     0
  0
CLASS
  1
ACMBOMSTANDARDBSI
  2
AcmBOMStdBSI
  3
"AcmSymBB|Product Description: AutoCAD Mechanical 2000|Company: Autodesk"
 90
        0
280
     0
281
     0
  0
CLASS
  1
LONG_TRANSACTION
  2
AcDbLongTransaction
  3
AutoCAD 2000
 90
        0
280
     0
281
     0
  0
CLASS
  1
LWPOLYLINE
  2
AcDbPolyline
  3
AutoCAD 2000
 90
        0
280
     0
281
     1
  0
CLASS
  1
HATCH
  2
AcDbHatch
  3
AutoCAD 2000
 90
        0
280
     0
281
     1
  0
CLASS
  1
XRECORD
  2
AcDbXrecord
  3
AutoCAD 2000
 90
        0
280
     0
281
     0
  0
ENDSEC
  0
SECTION
  2
TABLES
  0
TABLE
  2
VPORT
  5
8
330
0
100
AcDbSymbolTable
 70
     3
  0
VPORT
  5
2C63
330
8
100
AcDbSymbolTableRecord
100
AcDbViewportTableRecord
  2
*ACTIVE
 70
     0
 10
0.0
 20
0.0
 11
1.0
 21
1.0
 12
-49.17396198213385
 22
0.8670973068493381
 13
0.0
 23
0.0
 14
2.5
 24
2.5
 15
10.0
 25
10.0
 16
0.0
 26
0.0
 36
1.0
 17
0.0
 27
0.0
 37
0.0
 40
126.550976261587
 41
1.56570841889117
 42
50.0
 43
0.0
 44
0.0
 50
0.0
 51
0.0
 71
     0
 72
   100
 73
     1
 74
     3
 75
     0
 76
     0
 77
     0
 78
     0
  0
ENDTAB
  0
TABLE
  2
LTYPE
  5
5
330
0
100
AcDbSymbolTable
 70
    10
  0
LTYPE
  5
14
330
5
100
AcDbSymbolTableRecord
100
AcDbLinetypeTableRecord
  2
BYBLOCK
 70
     0
  3

 72
    65
 73
     0
 40
0.0
  0
LTYPE
  5
15
330
5
100
AcDbSymbolTableRecord
100
AcDbLinetypeTableRecord
  2
BYLAYER
 70
     0
  3

 72
    65
 73
     0
 40
0.0
  0
LTYPE
  5
16
330
5
100
AcDbSymbolTableRecord
100
AcDbLinetypeTableRecord
  2
CONTINUOUS
 70
     0
  3
Solid line
 72
    65
 73
     0
 40
0.0
  0
LTYPE
  5
4B
330
5
100
AcDbSymbolTableRecord
100
AcDbLinetypeTableRecord
  2
AM_ISO02W050
 70
     0
  3
__ __ __ __ __ __ __ __ __ __ __ __ __ __ __
 72
    65
 73
     2
 40
7.5
 49
6.0
 74
     0
 49
-1.5
 74
     0
  0
LTYPE
  5
4C
330
5
100
AcDbSymbolTableRecord
100
AcDbLinetypeTableRecord
  2
AM_ISO08W050
 70
     0
  3
____ . ____ . ____ . ____ . ____ . ____ . ____
 72
    65
 73
     4
 40
18.0
 49
12.0
 74
     0
 49
-1.5
 74
     0
 49
3.0
 74
     0
 49
-1.5
 74
     0
  0
LTYPE
  5
4D
330
5
100
AcDbSymbolTableRecord
100
AcDbLinetypeTableRecord
  2
AM_ISO09W050
 70
     0
  3
_____ . . _____ . . _____ . . ____ .. ____
 72
    65
 73
     6
 40
22.5
 49
12.0
 74
     0
 49
-1.5
 74
     0
 49
3.0
 74
     0
 49
-1.5
 74
     0
 49
3.0
 74
     0
 49
-1.5
 74
     0
  0
LTYPE
  5
4E
330
5
100
AcDbSymbolTableRecord
100
AcDbLinetypeTableRecord
  2
AMCONSTR
 70
     0
  3
_______________________
 72
    65
 73
     2
 40
9999.0
 49
9999.0
 74
     0
 49
0.0
 74
     0
  0
LTYPE
  5
4F
330
5
100
AcDbSymbolTableRecord
100
AcDbLinetypeTableRecord
  2
AM_ISO02W050X2
 70
     0
  3
 _ _ _ _ _ _ _ _ _ _ _ _
 72
    65
 73
     2
 40
3.75
 49
3.0
 74
     0
 49
-0.75
 74
     0
  0
LTYPE
  5
50
330
5
100
AcDbSymbolTableRecord
100
AcDbLinetypeTableRecord
  2
AM_ISO08W050X2
 70
     0
  3
__ . __ . __ . __ . __ . __
 72
    65
 73
     4
 40
9.0
 49
6.0
 74
     0
 49
-0.75
 74
     0
 49
1.5
 74
     0
 49
-0.75
 74
     0
  0
LTYPE
  5
53
330
5
100
AcDbSymbolTableRecord
100
AcDbLinetypeTableRecord
  2
AMZIGZAG
 70
     0
  3
/\/-/\/-/\/-/\/-/\/-/\/
 72
    65
 73
     2
 40
11.00009999999999
 49
0.0001
 74
     4
 75
   135
340
52
 46
0.04
 50
0.0
 44
0.0
 45
0.0
 49
-11.0
 74
     0
  0
LTYPE
  5
166
330
5
100
AcDbSymbolTableRecord
100
AcDbLinetypeTableRecord
  2
ACJISTGL
 70
     0
  3
_ _ _ _ _
 72
    65
 73
     2
 40
3.0
 49
2.0
 74
     0
 49
-1.0
 74
     0
  0
LTYPE
  5
26A
330
5
100
AcDbSymbolTableRecord
100
AcDbLinetypeTableRecord
  2
ACJISTGB
 70
     0
  3
__ . . __ . .
 72
    65
 73
     6
 40
9.0
 49
4.0
 74
     0
 49
-1.0
 74
     0
 49
1.0
 74
     0
 49
-1.0
 74
     0
 49
1.0
 74
     0
 49
-1.0
 74
     0
  0
ENDTAB
  0
TABLE
  2
LAYER
  5
2
330
0
100
AcDbSymbolTable
 70
     8
  0
LAYER
  5
10
330
2
100
AcDbSymbolTableRecord
100
AcDbLayerTableRecord
  2
0
 70
     0
 62
     7
  6
CONTINUOUS
  0
LAYER
  5
3F9
330
2
100
AcDbSymbolTableRecord
100
AcDbLayerTableRecord
  2
AM_0
 70
     0
 62
     7
  6
CONTINUOUS
  0
LAYER
  5
BD6
330
2
100
AcDbSymbolTableRecord
100
AcDbLayerTableRecord
  2
AM_11
 70
     0
 62
     3
  6
AM_ISO09W050
  0
LAYER
  5
BD7
330
2
100
AcDbSymbolTableRecord
100
AcDbLayerTableRecord
  2
AM_7
 70
     0
 62
     4
  6
AM_ISO08W050
  0
LAYER
  5
BD8
330
2
100
AcDbSymbolTableRecord
100
AcDbLayerTableRecord
  2
AM_5
 70
     0
 62
     3
  6
CONTINUOUS
  0
LAYER
  5
BD9
330
2
100
AcDbSymbolTableRecord
100
AcDbLayerTableRecord
  2
DEFPOINTS
 70
     0
 62
     7
  6
CONTINUOUS
  0
LAYER
  5
BDA
330
2
100
AcDbSymbolTableRecord
100
AcDbLayerTableRecord
  2
AM_6
 70
     0
 62
     2
  6
CONTINUOUS
  0
LAYER
  5
22A6
330
2
100
AcDbSymbolTableRecord
100
AcDbLayerTableRecord
  2
AM_CL
 70
     0
 62
     1
  6
AMCONSTR
  0
ENDTAB
  0
TABLE
  2
STYLE
  5
3
330
0
100
AcDbSymbolTable
 70
     5
  0
STYLE
  5
11
330
3
100
AcDbSymbolTableRecord
100
AcDbTextStyleTableRecord
  2
STANDARD
 70
     0
 40
0.0
 41
1.0
 50
0.0
 71
     0
 42
2.5
  3
simplex.shx
  4
EXTFONT.SHX
  0
STYLE
  5
52
330
3
100
AcDbSymbolTableRecord
100
AcDbTextStyleTableRecord
  2

 70
     1
 40
0.0
 41
1.0
 50
0.0
 71
     0
 42
2.5
  3
ltypeshp.shx
  4

  0
STYLE
  5
6B
330
3
100
AcDbSymbolTableRecord
100
AcDbTextStyleTableRecord
  2
ASAMI
 70
     0
 40
0.0
 41
1.0
 50
0.0
 71
     0
 42
2.5
  3
simplex.shx
  4
EXTFONT.SHX
  0
STYLE
  5
262
330
3
100
AcDbSymbolTableRecord
100
AcDbTextStyleTableRecord
  2
ACJISTS
 70
     0
 40
1.0
 41
1.0
 50
0.0
 71
     0
 42
2.5
  3
simplex.shx
  4
bigfont.shx
  0
STYLE
  5
269
330
3
100
AcDbSymbolTableRecord
100
AcDbTextStyleTableRecord
  2
ACJISGDT
 70
     0
 40
0.0
 41
1.0
 50
0.0
 71
     0
 42
2.5
  3
amgdtans.shx
  4

  0
ENDTAB
  0
TABLE
  2
VIEW
  5
6
330
0
100
AcDbSymbolTable
 70
     0
  0
ENDTAB
  0
TABLE
  2
UCS
  5
7
330
0
100
AcDbSymbolTable
 70
     0
  0
ENDTAB
  0
TABLE
  2
APPID
  5
9
330
0
100
AcDbSymbolTable
 70
    13
  0
APPID
  5
12
330
9
100
AcDbSymbolTableRecord
100
AcDbRegAppTableRecord
  2
ACAD
 70
     0
  0
APPID
  5
30
330
9
100
AcDbSymbolTableRecord
100
AcDbRegAppTableRecord
  2
MCAD_NO_VIS
 70
     0
  0
APPID
  5
31
330
9
100
AcDbSymbolTableRecord
100
AcDbRegAppTableRecord
  2
ACAD_TEMP_GRAPHIC
 70
     0
  0
APPID
  5
2C2
330
9
100
AcDbSymbolTableRecord
100
AcDbRegAppTableRecord
  2
GENIUS_GENDTOL_13
 70
     0
  0
APPID
  5
339
330
9
100
AcDbSymbolTableRecord
100
AcDbRegAppTableRecord
  2
GENIUS_GENODEF_13
 70
     0
  0
APPID
  5
33A
330
9
100
AcDbSymbolTableRecord
100
AcDbRegAppTableRecord
  2
GENIUS_GENOBJ-N-RSBK_13
 70
     0
  0
APPID
  5
33B
330
9
100
AcDbSymbolTableRecord
100
AcDbRegAppTableRecord
  2
GENIUS_GENOBJ-N-LIB_13
 70
     0
  0
APPID
  5
33C
330
9
100
AcDbSymbolTableRecord
100
AcDbRegAppTableRecord
  2
GENIUS_GENSCALE_13
 70
     0
  0
APPID
  5
378
330
9
100
AcDbSymbolTableRecord
100
AcDbRegAppTableRecord
  2
GENIUS_GENDIMSH_14
 70
     0
  0
APPID
  5
BDB
330
9
100
AcDbSymbolTableRecord
100
AcDbRegAppTableRecord
  2
GENIUS_GENOBJ-N-CEN_13
 70
     0
  0
APPID
  5
BDC
330
9
100
AcDbSymbolTableRecord
100
AcDbRegAppTableRecord
  2
GENIUS_GENFIL_13
 70
     0
  0
APPID
  5
BDD
330
9
100
AcDbSymbolTableRecord
100
AcDbRegAppTableRecord
  2
GENIUS_GENOBJ-N-FIL_13
 70
     0
  0
APPID
  5
12AD
330
9
100
AcDbSymbolTableRecord
100
AcDbRegAppTableRecord
  2
GENIUS_GENOREF_13
 70
     0
  0
ENDTAB
  0
TABLE
  2
DIMSTYLE
  5
A
330
0
100
AcDbSymbolTable
 70
     8
  0
DIMSTYLE
105
58
102
{ACAD_REACTORS
330
195B
330
1E6A
330
C4F
330
194C
102
}
330
A
100
AcDbSymbolTableRecord
100
AcDbDimStyleTableRecord
  2
AM_JIS
 70
     0
  3

  4
"
  5
OPEN30
  6

  7

 40
0.5
 41
2.5
 42
1.0
 43
12.0
 44
1.0
 45
0.0
 46
0.0
 47
0.1
 48
0.1
140
3.2
141
0.0
142
0.0
143
0.0393701
144
1.0
145
0.0
146
0.71
147
1.5
 71
     0
 72
     0
 73
     0
 74
     0
 75
     0
 76
     0
 77
     3
 78
     8
170
     0
171
     2
172
     1
173
     0
174
     0
175
     0
176
   256
177
   256
178
     2
270
     2
271
     3
272
     3
273
     2
274
     2
340
6B
275
     0
280
     0
281
     0
282
     0
283
     0
284
     0
285
     0
286
     0
287
     3
288
     0
  0
DIMSTYLE
105
5F
330
A
100
AcDbSymbolTableRecord
100
AcDbDimStyleTableRecord
  2
AM_JIS$3
 70
     0
  3

  4
"
  5
OPEN30
  6

  7

 40
0.5
 41
2.5
 42
1.0
 43
10.0
 44
1.0
 45
0.0
 46
0.0
 47
0.1
 48
0.1
140
3.2
141
0.0
142
0.0
143
0.0393701
144
1.0
145
0.0
146
0.71
147
1.5
 71
     0
 72
     0
 73
     0
 74
     1
 75
     0
 76
     0
 77
     3
 78
     8
170
     0
171
     2
172
     0
173
     0
174
     0
175
     0
176
   256
177
   256
178
     2
270
     2
271
     2
272
     3
273
     2
274
     2
340
6B
275
     0
280
     0
281
     0
282
     0
283
     0
284
     0
285
     0
286
     0
287
     0
288
     1
  0
DIMSTYLE
105
60
102
{ACAD_REACTORS
330
2BB0
102
}
330
A
100
AcDbSymbolTableRecord
100
AcDbDimStyleTableRecord
  2
AM_JIS$4
 70
     0
  3

  4
"
  5
OPEN30
  6

  7

 40
0.5
 41
2.5
 42
1.0
 43
10.0
 44
1.0
 45
0.0
 46
0.0
 47
0.1
 48
0.1
140
3.2
141
0.0
142
0.0
143
0.0393701
144
1.0
145
0.0
146
0.71
147
1.5
 71
     0
 72
     0
 73
     0
 74
     1
 75
     0
 76
     0
 77
     3
 78
     8
170
     0
171
     2
172
     0
173
     0
174
     0
175
     0
176
   256
177
   256
178
     2
270
     2
271
     2
272
     3
273
     2
274
     2
340
6B
275
     0
280
     0
281
     0
282
     0
283
     0
284
     0
285
     0
286
     0
287
     0
288
     1
  0
DIMSTYLE
105
61
330
A
100
AcDbSymbolTableRecord
100
AcDbDimStyleTableRecord
  2
AM_JIS$6
 70
     0
  3

  4
"
  5
OPEN30
  6

  7

 40
0.5
 41
2.5
 42
1.0
 43
10.0
 44
1.0
 45
0.0
 46
0.0
 47
0.1
 48
0.1
140
3.2
141
0.0
142
0.0
143
0.0393701
144
1.0
145
0.0
146
0.71
147
1.5
 71
     0
 72
     0
 73
     0
 74
     0
 75
     0
 76
     0
 77
     0
 78
     8
170
     0
171
     2
172
     1
173
     0
174
     0
175
     0
176
   256
177
   256
178
     2
270
     2
271
     2
272
     2
273
     2
274
     2
340
6B
275
     0
280
     0
281
     0
282
     0
283
     0
284
     0
285
     0
286
     0
287
     3
288
     0
  0
DIMSTYLE
105
62
330
A
100
AcDbSymbolTableRecord
100
AcDbDimStyleTableRecord
  2
AM_JIS$7
 70
     0
  3

  4
"
  5
OPEN30
  6

  7

 40
0.5
 41
2.5
 42
1.0
 43
10.0
 44
1.0
 45
0.0
 46
0.0
 47
0.1
 48
0.1
140
3.2
141
0.0
142
0.0
143
0.0393701
144
1.0
145
0.0
146
0.71
147
1.5
 71
     0
 72
     0
 73
     0
 74
     0
 75
     0
 76
     0
 77
     3
 78
     8
170
     0
171
     2
172
     1
173
     0
174
     0
175
     0
176
   256
177
   256
178
     2
270
     2
271
     2
272
     3
273
     2
274
     2
340
6B
275
     0
280
     0
281
     0
282
     0
283
     0
284
     0
285
     0
286
     0
287
     3
288
     0
  0
DIMSTYLE
105
63
330
A
100
AcDbSymbolTableRecord
100
AcDbDimStyleTableRecord
  2
AM_JIS$SF
 70
     0
  3

  4
"
  5
OPEN30
  6

  7

 40
0.5
 41
2.5
 42
1.0
 43
10.0
 44
1.0
 45
0.0
 46
0.0
 47
0.1
 48
0.1
140
3.2
141
0.0
142
0.0
143
0.0393701
144
1.0
145
0.0
146
0.71
147
1.5
 71
     0
 72
     0
 73
     0
 74
     0
 75
     1
 76
     1
 77
     3
 78
     8
170
     0
171
     2
172
     1
173
     0
174
     0
175
     0
176
   256
177
   256
178
     2
270
     2
271
     2
272
     2
273
     2
274
     2
340
6B
275
     0
280
     0
281
     0
282
     0
283
     0
284
     0
285
     0
286
     0
287
     3
288
     0
  0
DIMSTYLE
105
68
330
A
100
AcDbSymbolTableRecord
100
AcDbDimStyleTableRecord
  2
AM_JIS$SH
 70
     0
  3

  4
"
  5

  6
GENAXEH
  7
OPEN30
 40
0.5
 41
2.5
 42
1.0
 43
10.0
 44
1.0
 45
0.0
 46
0.0
 47
0.1
 48
0.1
140
3.2
141
0.0
142
0.0
143
0.0393701
144
2.0
145
0.0
146
0.71
147
1.5
 71
     0
 72
     0
 73
     0
 74
     0
 75
     1
 76
     1
 77
     3
 78
     8
170
     0
171
     2
172
     1
173
     1
174
     0
175
     0
176
   256
177
   256
178
     2
270
     2
271
     2
272
     2
273
     2
274
     2
340
6B
275
     0
280
     0
281
     0
282
     0
283
     0
284
     0
285
     0
286
     0
287
     3
288
     0
  0
DIMSTYLE
105
B34
330
A
100
AcDbSymbolTableRecord
100
AcDbDimStyleTableRecord
  2
AM_JIS$2
 70
     0
  3

  4
"
  5
OPEN30
  6

  7

 40
0.5
 41
2.5
 42
1.0
 43
12.0
 44
1.0
 45
0.0
 46
0.0
 47
0.1
 48
0.1
140
3.2
141
0.0
142
0.0
143
0.0393701
144
1.0
145
0.0
146
0.71
147
1.5
 71
     0
 72
     0
 73
     0
 74
     0
 75
     0
 76
     0
 77
     3
 78
     8
170
     0
171
     2
172
     1
173
     0
174
     0
175
     0
176
   256
177
   256
178
     2
270
     2
271
     3
272
     3
273
     2
274
     2
340
6B
275
     0
280
     0
281
     0
282
     0
283
     0
284
     0
285
     0
286
     0
287
     3
288
     0
  0
ENDTAB
  0
TABLE
  2
BLOCK_RECORD
  5
1
330
0
100
AcDbSymbolTable
 70
    11
  0
BLOCK_RECORD
  5
1F
102
{ACAD_XDICTIONARY
360
74
102
}
330
1
100
AcDbSymbolTableRecord
100
AcDbBlockTableRecord
  2
*MODEL_SPACE
  0
BLOCK_RECORD
  5
101
102
{ACAD_XDICTIONARY
360
2C8C
102
}
330
1
100
AcDbSymbolTableRecord
100
AcDbBlockTableRecord
  2
*PAPER_SPACE
  0
BLOCK_RECORD
  5
59
330
1
100
AcDbSymbolTableRecord
100
AcDbBlockTableRecord
  2
_OPEN30
  0
BLOCK_RECORD
  5
64
330
1
100
AcDbSymbolTableRecord
100
AcDbBlockTableRecord
  2
GENAXEH
  0
BLOCK_RECORD
  5
C75
330
1
100
AcDbSymbolTableRecord
100
AcDbBlockTableRecord
  2
*D5
  0
BLOCK_RECORD
  5
194D
330
1
100
AcDbSymbolTableRecord
100
AcDbBlockTableRecord
  2
*D6
  0
BLOCK_RECORD
  5
195C
330
1
100
AcDbSymbolTableRecord
100
AcDbBlockTableRecord
  2
*D7
  0
BLOCK_RECORD
  5
1E6B
330
1
100
AcDbSymbolTableRecord
100
AcDbBlockTableRecord
  2
*D8
  0
BLOCK_RECORD
  5
2BB1
330
1
100
AcDbSymbolTableRecord
100
AcDbBlockTableRecord
  2
*D10
  0
ENDTAB
  0
ENDSEC
  0
SECTION
  2
BLOCKS
  0
BLOCK
  5
20
330
1F
100
AcDbEntity
  8
0
100
AcDbBlockBegin
  2
*MODEL_SPACE
 70
     0
 10
0.0
 20
0.0
 30
0.0
  3
*MODEL_SPACE
  1

  0
ENDBLK
  5
21
330
1F
100
AcDbEntity
  8
0
100
AcDbBlockEnd
  0
BLOCK
  5
103
330
101
100
AcDbEntity
 67
     1
  8
0
100
AcDbBlockBegin
  2
*PAPER_SPACE
 70
     0
 10
0.0
 20
0.0
 30
0.0
  3
*PAPER_SPACE
  1

  0
ENDBLK
  5
104
330
101
100
AcDbEntity
 67
     1
  8
0
100
AcDbBlockEnd
  0
BLOCK
  5
5D
330
59
100
AcDbEntity
  8
0
100
AcDbBlockBegin
  2
_OPEN30
 70
     0
 10
0.0
 20
0.0
 30
0.0
  3
_OPEN30
  1

  0
LINE
  5
5A
330
59
100
AcDbEntity
  8
0
 62
     0
100
AcDbLine
 10
-1.0
 20
0.26794919
 30
0.0
 11
0.0
 21
0.0
 31
0.0
  0
LINE
  5
5B
330
59
100
AcDbEntity
  8
0
 62
     0
100
AcDbLine
 10
0.0
 20
0.0
 30
0.0
 11
-1.0
 21
-0.26794919
 31
0.0
  0
LINE
  5
5C
330
59
100
AcDbEntity
  8
0
 62
     0
100
AcDbLine
 10
0.0
 20
0.0
 30
0.0
 11
-1.0
 21
0.0
 31
0.0
  0
ENDBLK
  5
5E
330
59
100
AcDbEntity
  8
0
100
AcDbBlockEnd
  0
BLOCK
  5
66
330
64
100
AcDbEntity
  8
0
100
AcDbBlockBegin
  2
GENAXEH
 70
     0
 10
0.0
 20
0.0
 30
0.0
  3
GENAXEH
  1

  0
LINE
  5
65
330
64
100
AcDbEntity
  8
0
100
AcDbLine
 10
-1.0
 20
0.0
 30
0.0
 11
1.0
 21
0.0
 31
0.0
  0
ENDBLK
  5
67
330
64
100
AcDbEntity
  8
0
100
AcDbBlockEnd
  0
BLOCK
  5
C7F
330
C75
100
AcDbEntity
  8
0
100
AcDbBlockBegin
  2
*D5
 70
     1
 10
0.0
 20
0.0
 30
0.0
  3
*D5
  1

  0
LINE
  5
2C23
330
C75
100
AcDbEntity
  8
AM_5
100
AcDbLine
 10
-119.9996199863166
 20
-4.250000000000008
 30
0.0
 11
-119.9996199863166
 21
-18.50000100000002
 31
0.0
  0
LINE
  5
2C24
330
C75
100
AcDbEntity
  8
AM_5
100
AcDbLine
 10
-0.0000000000000587
 20
-0.5000000000000036
 30
0.0
 11
-0.0000000000000598
 21
-18.50000100000002
 31
0.0
  0
LINE
  5
2C25
330
C75
100
AcDbEntity
  8
AM_5
100
AcDbLine
 10
-118.7496199863166
 20
-18.00000100000002
 30
0.0
 11
-1.250000000000059
 21
-18.00000100000002
 31
0.0
  0
INSERT
  5
2C26
330
C75
100
AcDbEntity
  8
AM_5
100
AcDbBlockReference
  2
_OPEN30
 10
-119.9996199863166
 20
-18.00000100000002
 30
0.0
 41
1.25
 42
1.25
 43
1.25
 50
180.0
  0
INSERT
  5
2C27
330
C75
100
AcDbEntity
  8
AM_5
100
AcDbBlockReference
  2
_OPEN30
 10
-0.0000000000000597
 20
-18.00000100000002
 30
0.0
 41
1.25
 42
1.25
 43
1.25
  0
MTEXT
  5
2C28
330
C75
100
AcDbEntity
  8
AM_5
 62
     2
100
AcDbMText
 10
-59.99980999315834
 20
-16.45000100000002
 30
0.0
 40
1.6
 41
0.0
 71
     5
 72
     1
  1
120
  7
ASAMI
1001
ACAD
1000
MTEXTBEGIN
1070
    73
1070
     1
1070
    44
1040
1.0
1070
    74
1070
     0
1000
MTEXTEND
  0
POINT
  5
2C29
330
C75
100
AcDbEntity
  8
DEFPOINTS
 62
     0
100
AcDbPoint
 10
-119.9996199863166
 20
-3.750000000000008
 30
0.0
  0
POINT
  5
2C2A
330
C75
100
AcDbEntity
  8
DEFPOINTS
 62
     0
100
AcDbPoint
 10
-0.0000000000000586
 20
-0.0000000000000036
 30
0.0
  0
POINT
  5
2C2B
330
C75
100
AcDbEntity
  8
DEFPOINTS
 62
     0
100
AcDbPoint
 10
-0.0000000000000597
 20
-18.00000100000002
 30
0.0
  0
ENDBLK
  5
C80
330
C75
100
AcDbEntity
  8
0
100
AcDbBlockEnd
  0
BLOCK
  5
1959
330
194D
100
AcDbEntity
  8
0
100
AcDbBlockBegin
  2
*D6
 70
     1
 10
0.0
 20
0.0
 30
0.0
  3
*D6
  1

  0
LINE
  5
2C1A
330
194D
100
AcDbEntity
  8
AM_5
100
AcDbLine
 10
-4.497493755695327
 20
-4.992097922199079
 30
0.0
 11
9.715264162140966
 21
-4.992097922199083
 31
0.0
  0
LINE
  5
2C1B
330
194D
100
AcDbEntity
  8
AM_5
100
AcDbLine
 10
-4.497493755695327
 20
5.007902077765922
 30
0.0
 11
9.715264162140973
 21
5.007902077765918
 31
0.0
  0
LINE
  5
2C1C
330
194D
100
AcDbEntity
  8
AM_5
100
AcDbLine
 10
9.21526416214097
 20
-3.742097922199083
 30
0.0
 11
9.21526416214097
 21
3.757902077765918
 31
0.0
  0
INSERT
  5
2C1D
330
194D
100
AcDbEntity
  8
AM_5
100
AcDbBlockReference
  2
_OPEN30
 10
9.215264162140968
 20
-4.992097922199083
 30
0.0
 41
1.25
 42
1.25
 43
1.25
 50
270.0
  0
INSERT
  5
2C1E
330
194D
100
AcDbEntity
  8
AM_5
100
AcDbBlockReference
  2
_OPEN30
 10
9.215264162140972
 20
5.007902077765918
 30
0.0
 41
1.25
 42
1.25
 43
1.25
 50
90.0
  0
MTEXT
  5
2C1F
330
194D
100
AcDbEntity
  8
AM_5
 62
     2
100
AcDbMText
 10
7.665264162140969
 20
0.007902077783419
 30
0.0
 40
1.6
 41
0.0
 71
     5
 72
     1
  1
%%c10
  7
ASAMI
 11
0.0000000000000001
 21
1.0
 31
0.0
1001
ACAD
1000
MTEXTBEGIN
1070
    73
1070
     1
1070
    44
1040
1.0
1070
    74
1070
     0
1000
MTEXTEND
  0
POINT
  5
2C20
330
194D
100
AcDbEntity
  8
DEFPOINTS
 62
     0
100
AcDbPoint
 10
-4.997493755695327
 20
-4.992097922199079
 30
0.0
  0
POINT
  5
2C21
330
194D
100
AcDbEntity
  8
DEFPOINTS
 62
     0
100
AcDbPoint
 10
-4.997493755695327
 20
5.007902077765922
 30
0.0
  0
POINT
  5
2C22
330
194D
100
AcDbEntity
  8
DEFPOINTS
 62
     0
100
AcDbPoint
 10
9.215264162140972
 20
5.007902077765918
 30
0.0
  0
ENDBLK
  5
195A
330
194D
100
AcDbEntity
  8
0
100
AcDbBlockEnd
  0
BLOCK
  5
1968
330
195C
100
AcDbEntity
  8
0
100
AcDbBlockBegin
  2
*D7
 70
     1
 10
0.0
 20
0.0
 30
0.0
  3
*D7
  1

  0
LINE
  5
2C2C
330
195C
100
AcDbEntity
  8
AM_5
100
AcDbLine
 10
-14.99968310161857
 20
-5.492097922199078
 30
0.0
 11
-14.99968310161857
 21
-12.50000100000037
 31
0.0
  0
LINE
  5
2C2D
330
195C
100
AcDbEntity
  8
AM_5
100
AcDbLine
 10
-0.0000000000000587
 20
-0.5000000000000036
 30
0.0
 11
-0.0000000000000594
 21
-12.50000100000037
 31
0.0
  0
LINE
  5
2C2E
330
195C
100
AcDbEntity
  8
AM_5
100
AcDbLine
 10
-13.74968310161857
 20
-12.00000100000037
 30
0.0
 11
-1.250000000000059
 21
-12.00000100000037
 31
0.0
  0
INSERT
  5
2C2F
330
195C
100
AcDbEntity
  8
AM_5
100
AcDbBlockReference
  2
_OPEN30
 10
-14.99968310161857
 20
-12.00000100000037
 30
0.0
 41
1.25
 42
1.25
 43
1.25
 50
180.0
  0
INSERT
  5
2C30
330
195C
100
AcDbEntity
  8
AM_5
100
AcDbBlockReference
  2
_OPEN30
 10
-0.0000000000000594
 20
-12.00000100000037
 30
0.0
 41
1.25
 42
1.25
 43
1.25
  0
MTEXT
  5
2C31
330
195C
100
AcDbEntity
  8
AM_5
 62
     2
100
AcDbMText
 10
-7.499841550809313
 20
-10.45000100000037
 30
0.0
 40
1.6
 41
0.0
 71
     5
 72
     1
  1
15
  7
ASAMI
1001
ACAD
1000
MTEXTBEGIN
1070
    73
1070
     1
1070
    44
1040
1.0
1070
    74
1070
     0
1000
MTEXTEND
  0
POINT
  5
2C32
330
195C
100
AcDbEntity
  8
DEFPOINTS
 62
     0
100
AcDbPoint
 10
-14.99968310161857
 20
-4.992097922199078
 30
0.0
  0
POINT
  5
2C33
330
195C
100
AcDbEntity
  8
DEFPOINTS
 62
     0
100
AcDbPoint
 10
-0.0000000000000586
 20
-0.0000000000000036
 30
0.0
  0
POINT
  5
2C34
330
195C
100
AcDbEntity
  8
DEFPOINTS
 62
     0
100
AcDbPoint
 10
-0.0000000000000594
 20
-12.00000100000037
 30
0.0
  0
ENDBLK
  5
1969
330
195C
100
AcDbEntity
  8
0
100
AcDbBlockEnd
  0
BLOCK
  5
1E77
330
1E6B
100
AcDbEntity
  8
0
100
AcDbBlockBegin
  2
*D8
 70
     1
 10
0.0
 20
0.0
 30
0.0
  3
*D8
  1

  0
LINE
  5
2C35
330
1E6B
100
AcDbEntity
  8
AM_5
100
AcDbLine
 10
-119.6662866529833
 20
-5.000000000000008
 30
0.0
 11
-131.4744096783938
 21
-5.000000000000005
 31
0.0
  0
LINE
  5
2C36
330
1E6B
100
AcDbEntity
  8
AM_5
100
AcDbLine
 10
-119.6662866529833
 20
4.999999999999997
 30
0.0
 11
-131.4744096783938
 21
5.0
 31
0.0
  0
LINE
  5
2C37
330
1E6B
100
AcDbEntity
  8
AM_5
100
AcDbLine
 10
-130.9744096783938
 20
-3.750000000000005
 30
0.0
 11
-130.9744096783938
 21
3.75
 31
0.0
  0
INSERT
  5
2C38
330
1E6B
100
AcDbEntity
  8
AM_5
100
AcDbBlockReference
  2
_OPEN30
 10
-130.9744096783938
 20
-5.000000000000005
 30
0.0
 41
1.25
 42
1.25
 43
1.25
 50
270.0
  0
INSERT
  5
2C39
330
1E6B
100
AcDbEntity
  8
AM_5
100
AcDbBlockReference
  2
_OPEN30
 10
-130.9744096783938
 20
5.0
 30
0.0
 41
1.25
 42
1.25
 43
1.25
 50
90.0
  0
MTEXT
  5
2C3A
330
1E6B
100
AcDbEntity
  8
AM_5
 62
     2
100
AcDbMText
 10
-132.5244096783938
 20
-0.0000000000000265
 30
0.0
 40
1.6
 41
0.0
 71
     5
 72
     1
  1
%%c10
  7
ASAMI
 11
0.0000000000000001
 21
1.0
 31
0.0
1001
ACAD
1000
MTEXTBEGIN
1070
    73
1070
     1
1070
    44
1040
1.0
1070
    74
1070
     0
1000
MTEXTEND
  0
POINT
  5
2C3B
330
1E6B
100
AcDbEntity
  8
DEFPOINTS
 62
     0
100
AcDbPoint
 10
-119.1662866529833
 20
-5.000000000000008
 30
0.0
  0
POINT
  5
2C3C
330
1E6B
100
AcDbEntity
  8
DEFPOINTS
 62
     0
100
AcDbPoint
 10
-119.1662866529833
 20
4.999999999999997
 30
0.0
  0
POINT
  5
2C3D
330
1E6B
100
AcDbEntity
  8
DEFPOINTS
 62
     0
100
AcDbPoint
 10
-130.9744096783938
 20
5.0
 30
0.0
  0
ENDBLK
  5
1E78
330
1E6B
100
AcDbEntity
  8
0
100
AcDbBlockEnd
  0
BLOCK
  5
2BB7
330
2BB1
100
AcDbEntity
  8
0
100
AcDbBlockBegin
  2
*D10
 70
     1
 10
0.0
 20
0.0
 30
0.0
  3
*D10
  1

  0
LINE
  5
2C0C
330
2BB1
100
AcDbEntity
  8
AM_5
100
AcDbLine
 10
-0.6796930426409123
 20
-4.508457268920814
 30
0.0
 11
7.544600412812338
 21
-13.10597560956297
 31
0.0
  0
INSERT
  5
2C0D
330
2BB1
100
AcDbEntity
  8
AM_5
100
AcDbBlockReference
  2
_OPEN30
 10
-1.543753185254216
 20
-3.605185399577438
 30
0.0
 41
1.25
 42
1.25
 43
1.25
 50
133.7289892936023
  0
MTEXT
  5
2C0E
330
2BB1
100
AcDbEntity
  8
AM_5
 62
     2
100
AcDbMText
 10
6.434559448434264
 20
-9.70323935089339
 30
0.0
 40
1.6
 41
0.0
 71
     5
 72
     1
  1
R5.0
  7
ASAMI
 11
0.6912481140906425
 21
-0.7226174954747015
 31
0.0
1001
ACAD
1000
MTEXTBEGIN
1070
    73
1070
     1
1070
    44
1040
1.0
1070
    74
1070
     0
1000
MTEXTEND
  0
POINT
  5
2C0F
330
2BB1
100
AcDbEntity
  8
DEFPOINTS
 62
     0
100
AcDbPoint
 10
-1.543753185254216
 20
-3.605185399577438
 30
0.0
  0
POINT
  5
2C10
330
2BB1
100
AcDbEntity
  8
DEFPOINTS
 62
     0
100
AcDbPoint
 10
-4.99999375569533
 20
0.0079020777834242
 30
0.0
  0
ENDBLK
  5
2BB8
330
2BB1
100
AcDbEntity
  8
0
100
AcDbBlockEnd
  0
ENDSEC
  0
SECTION
  2
ENTITIES
  0
DIMENSION
  5
C4F
330
1F
100
AcDbEntity
  8
AM_5
100
AcDbDimension
  2
*D5
 10
-0.0000000000000597
 20
-18.00000100000002
 30
0.0
 11
-59.99980999315834
 21
-16.45000100000002
 31
0.0
 70
    32
  1
<>
  3
AM_JIS
100
AcDbAlignedDimension
 13
-119.9996199863166
 23
-3.750000000000008
 33
0.0
 14
-0.0000000000000586
 24
-0.0000000000000036
 34
0.0
 50
0.0000000000002036
100
AcDbRotatedDimension
1001
GENIUS_GENDTOL_13
1000

1000
H7
1000

1040
0.0
  0
LINE
  5
C50
330
1F
100
AcDbEntity
  8
AM_7
100
AcDbLine
 10
-123.9744086783938
 20
-0.0000000000000036
 30
0.0
 11
2.215263162140971
 21
-0.0000000000000036
 31
0.0
1001
GENIUS_GENODEF_13
1002
{
1000
HIER
1070
     0
1002
}
1002
{
1000
MANEDIT
1070
     0
1002
}
1002
{
1000
NOSEL
1070
     0
1002
}
1002
{
1000
BEHIND
1070
     0
1002
}
1002
{
1000
REACTOR
1002
}
1001
GENIUS_GENOBJ-N-CEN_13
1002
{
1000
OWNER
1000
GEN
1002
}
  0
TEXT
  5
C58
330
1F
100
AcDbEntity
  8
AM_6
100
AcDbText
 10
-70.23790523125356
 20
-29.25000100000006
 30
0.0
 40
2.5
  1
SNB2100DL
 50
0.0000000000002036
 72
     4
 11
-59.99980999315834
 21
-28.00000100000002
 31
0.0
100
AcDbText
  0
DIMENSION
  5
194C
330
1F
100
AcDbEntity
  8
AM_5
100
AcDbDimension
  2
*D6
 10
9.215264162140972
 20
5.007902077765918
 30
0.0
 11
7.665264162140969
 21
0.007902077783419
 31
0.0
 70
    32
  1
%%c<>
  3
AM_JIS
100
AcDbAlignedDimension
 13
-4.997493755695327
 23
-4.992097922199079
 33
0.0
 14
-4.997493755695327
 24
5.007902077765922
 34
0.0
 50
90.0
100
AcDbRotatedDimension
1001
GENIUS_GENDTOL_13
1000

1000
H7
1000

1040
0.0
  0
DIMENSION
  5
195B
330
1F
100
AcDbEntity
  8
AM_5
100
AcDbDimension
  2
*D7
 10
-0.0000000000000594
 20
-12.00000100000037
 30
0.0
 11
-7.499841550809313
 21
-10.45000100000037
 31
0.0
 70
    32
  1
<>
  3
AM_JIS
100
AcDbAlignedDimension
 13
-14.99968310161857
 23
-4.992097922199078
 33
0.0
 14
-0.0000000000000586
 24
-0.0000000000000036
 34
0.0
 50
359.9999999999988
100
AcDbRotatedDimension
1001
GENIUS_GENDTOL_13
1000

1000
H7
1000

1040
0.0
  0
LINE
  5
1C97
330
1F
100
AcDbEntity
  8
AM_11
 48
0.5
100
AcDbLine
 10
-14.99968310161857
 20
5.007902077800921
 30
0.0
 11
-14.99968310161857
 21
-4.992097922199078
 31
0.0
  0
ARC
  5
1C9A
330
1F
100
AcDbEntity
  8
AM_5
100
AcDbCircle
 10
-4.99999375569533
 20
0.0079020777834247
 30
0.0
 40
4.999999999982499
100
AcDbArc
 50
270.0
 51
90.0
  0
LINE
  5
1CA1
330
1F
100
AcDbEntity
  8
AM_11
 48
0.5
100
AcDbLine
 10
-14.99968310161857
 20
-4.992097922199078
 30
0.0
 11
-4.999993938196549
 21
-4.992097922199078
 31
0.0
1001
GENIUS_GENODEF_13
1002
{
1000
HIER
1070
     0
1002
}
1002
{
1000
MANEDIT
1070
     0
1002
}
1002
{
1000
NOSEL
1070
     0
1002
}
1002
{
1000
BEHIND
1070
     0
1002
}
1002
{
1000
REACTOR
1002
}
1001
GENIUS_GENOBJ-N-CEN_13
1002
{
1000
OWNER
1000
GEN
1002
}
  0
SPLINE
  5
1CA2
330
1F
100
AcDbEntity
  8
AM_0
100
AcDbSpline
210
0.0
220
0.0
230
1.0
 70
     8
 71
     3
 72
     8
 73
     4
 74
     0
 42
0.0000000001
 43
0.0000000001
 40
4.071346735624547
 40
4.071346735624547
 40
4.071346735624547
 40
4.071346735624547
 40
6.91280490763674
 40
6.91280490763674
 40
6.91280490763674
 40
6.91280490763674
 10
-23.0515355029239
 20
-5.000000000000008
 30
0.0
 10
-25.77442040974187
 20
-5.000000000000008
 30
0.0
 10
-27.46000231392383
 20
-4.599149899180944
 30
0.0
 10
-27.75938353128195
 20
-2.936028094225543
 30
0.0
  0
SPLINE
  5
1CA4
330
1F
100
AcDbEntity
  8
AM_0
100
AcDbSpline
210
0.0
220
0.0
230
1.0
 70
     8
 71
     3
 72
     8
 73
     4
 74
     2
 42
0.0000000001
 43
0.0000000001
 44
0.0000000001
 12
-0.9993908270190958
 22
0.034899496702501
 32
0.0
 40
0.0
 40
0.0
 40
0.0
 40
0.0
 40
14.7069679174313
 40
14.7069679174313
 40
14.7069679174313
 40
14.7069679174313
 10
-14.06258974367613
 20
-4.022209667590313
 30
0.0
 10
-18.96192602032446
 20
-3.85112107481092
 30
0.0
 10
-23.22811862629046
 20
-0.9415124878921911
 30
0.0
 10
-27.49431123225646
 20
1.968096099026537
 30
0.0
 11
-14.06258974367613
 21
-4.022209667590313
 31
0.0
 11
-27.49431123225646
 21
1.968096099026537
 31
0.0
  0
LINE
  5
1CB1
330
1F
100
AcDbEntity
  8
AM_11
 48
0.5
100
AcDbLine
 10
-14.99968310161857
 20
5.007902077800921
 30
0.0
 11
-4.99999375569533
 21
5.007902077800921
 31
0.0
1001
GENIUS_GENODEF_13
1002
{
1000
HIER
1070
     0
1002
}
1002
{
1000
MANEDIT
1070
     0
1002
}
1002
{
1000
NOSEL
1070
     0
1002
}
1002
{
1000
BEHIND
1070
     0
1002
}
1002
{
1000
REACTOR
1002
}
1001
GENIUS_GENOBJ-N-CEN_13
1002
{
1000
OWNER
1000
GEN
1002
}
  0
LINE
  5
1E64
330
1F
100
AcDbEntity
  8
AM_0
100
AcDbLine
 10
-119.1662866529833
 20
4.999999999999987
 30
0.0
 11
-23.04903550292389
 21
4.999999999999987
 31
0.0
1001
GENIUS_GENODEF_13
1002
{
1000
HIER
1070
     0
1002
}
1002
{
1000
MANEDIT
1070
     0
1002
}
1002
{
1000
NOSEL
1070
     0
1002
}
1002
{
1000
BEHIND
1070
     0
1002
}
1002
{
1000
REACTOR
1002
}
1001
GENIUS_GENOBJ-N-CEN_13
1002
{
1000
OWNER
1000
GEN
1002
}
  0
LINE
  5
1E65
330
1F
100
AcDbEntity
  8
AM_0
100
AcDbLine
 10
-119.1662866529833
 20
-5.000000000000008
 30
0.0
 11
-23.04903550292389
 21
-5.000000000000008
 31
0.0
1001
GENIUS_GENODEF_13
1002
{
1000
HIER
1070
     0
1002
}
1002
{
1000
MANEDIT
1070
     0
1002
}
1002
{
1000
NOSEL
1070
     0
1002
}
1002
{
1000
BEHIND
1070
     0
1002
}
1002
{
1000
REACTOR
1002
}
1001
GENIUS_GENOBJ-N-CEN_13
1002
{
1000
OWNER
1000
GEN
1002
}
  0
LINE
  5
1E66
330
1F
100
AcDbEntity
  8
AM_0
100
AcDbLine
 10
-119.9996199863166
 20
3.749999999999989
 30
0.0
 11
-119.1662866529833
 21
4.999999999999987
 31
0.0
1001
GENIUS_GENFIL_13
1070
     0
1040
0.5
1040
0.5
1040
0.4999999999999716
1040
45.0
1002
{
1002
}
  0
LINE
  5
1E67
330
1F
100
AcDbEntity
  8
AM_0
100
AcDbLine
 10
-119.9996199863166
 20
-3.750000000000008
 30
0.0
 11
-119.1662866529833
 21
-5.000000000000008
 31
0.0
1001
GENIUS_GENFIL_13
1070
     0
1040
0.5
1040
0.5
1040
0.4999999999999716
1040
45.00000000000036
1002
{
1002
}
  0
LINE
  5
1E68
330
1F
100
AcDbEntity
  8
0
100
AcDbLine
 10
-119.1662866529833
 20
-5.000000000000008
 30
0.0
 11
-119.1662866529833
 21
4.999999999999987
 31
0.0
  0
LINE
  5
1E69
330
1F
100
AcDbEntity
  8
AM_0
100
AcDbLine
 10
-119.9996199863166
 20
-3.750000000000008
 30
0.0
 11
-119.9996199863166
 21
3.749999999999989
 31
0.0
  0
DIMENSION
  5
1E6A
330
1F
100
AcDbEntity
  8
AM_5
100
AcDbDimension
  2
*D8
 10
-130.9744096783938
 20
5.0
 30
0.0
 11
-130.9744096783938
 21
-0.0000000000000267
 31
0.0
 70
   160
  1
%%c<>
  3
AM_JIS
100
AcDbAlignedDimension
 13
-119.1662866529833
 23
-5.000000000000008
 33
0.0
 14
-119.1662866529833
 24
4.999999999999997
 34
0.0
 50
270.0
100
AcDbRotatedDimension
1001
ACAD
1000
DSTYLE
1002
{
1070
    48
1040
0.1
1070
    47
1040
0.1
1070
   274
1070
     2
1070
   272
1070
     3
1002
}
1001
GENIUS_GENDTOL_13
1000

1000
h6
1000

1040
0.0
  0
ARC
  5
23B7
330
1F
100
AcDbEntity
  8
AM_0
100
AcDbCircle
 10
-22.98819476691603
 20
0.1361395713032518
 30
0.0
 40
4.864272845830096
100
AcDbArc
 50
89.25389476927501
 51
157.875855297743
  0
ARC
  5
23BB
330
1F
100
AcDbEntity
  8
AM_0
100
AcDbCircle
 10
-22.81921381670032
 20
-8.008365059559132
 30
0.0
 40
7.080528165240158
100
AcDbArc
 50
91.88028934700403
 51
134.243727258968
  0
SPLINE
  5
2B75
330
1F
100
AcDbEntity
  8
AM_0
100
AcDbSpline
210
0.0
220
0.0
230
1.0
 70
     8
 71
     3
 72
     8
 73
     4
 74
     0
 42
0.0000000001
 43
0.0000000001
 40
0.0
 40
0.0
 40
0.0
 40
0.0
 40
0.8639912309977356
 40
0.8639912309977356
 40
0.8639912309977356
 40
0.8639912309977356
 10
-23.0515355029239
 20
-5.000000000000014
 30
0.0
 10
-21.50240831515341
 20
-5.000000084414203
 30
0.0
 10
-20.61679335615711
 20
-4.965842686806773
 30
0.0
 10
-19.95492363806428
 20
-4.901520462208132
 30
0.0
  0
SPLINE
  5
2B76
330
1F
100
AcDbEntity
  8
AM_0
100
AcDbSpline
210
0.0
220
0.0
230
1.0
 70
     8
 71
     3
 72
     8
 73
     4
 74
     0
 42
0.0000000001
 43
0.0000000001
 40
2.937533895496969
 40
2.937533895496969
 40
2.937533895496969
 40
2.937533895496969
 40
8.663430266366688
 40
8.663430266366688
 40
8.663430266366688
 40
8.663430266366688
 10
-22.69374220475678
 20
4.999999999999982
 30
0.0
 10
-18.52899271084354
 20
3.940227316071045
 30
0.0
 10
-15.71308223762296
 20
2.187578349412213
 30
0.0
 10
-12.89717176440238
 20
0.4349293827533885
 30
0.0
  0
SPLINE
  5
2B77
330
1F
100
AcDbEntity
  8
AM_0
100
AcDbSpline
210
0.0
220
0.0
230
1.0
 70
     8
 71
     3
 72
     8
 73
     4
 74
     0
 42
0.0000000001
 43
0.0000000001
 40
3.3189047336695
 40
3.3189047336695
 40
3.3189047336695
 40
3.3189047336695
 40
8.693997929576068
 40
8.693997929576068
 40
8.693997929576068
 40
8.693997929576068
 10
-22.69374220477475
 20
4.999999999999982
 30
0.0
 10
-19.93137095427052
 20
3.899085093092658
 30
0.0
 10
-17.30493732030215
 20
2.213685063020228
 30
0.0
 10
-14.67850368633377
 20
0.5282850329478066
 30
0.0
  0
ARC
  5
2B7B
330
1F
100
AcDbEntity
  8
AM_0
100
AcDbCircle
 10
-18.08683672009117
 20
-6.913135839351721
 30
0.0
 40
2.745240455527122
100
AcDbArc
 50
91.63169042904483
 51
132.8813254768922
  0
SPLINE
  5
2B7C
330
1F
100
AcDbEntity
  8
AM_0
100
AcDbSpline
210
0.0
220
0.0
230
1.0
 70
     8
 71
     3
 72
     8
 73
     4
 74
     0
 42
0.0000000001
 43
0.0000000001
 40
5.336187364352841
 40
5.336187364352841
 40
5.336187364352841
 40
5.336187364352841
 40
14.43905044399483
 40
14.43905044399483
 40
14.43905044399483
 40
14.43905044399483
 10
-4.702421097184777
 20
-3.97909879585017
 30
0.0
 10
-7.525188936510416
 20
-2.908642879842645
 30
0.0
 10
-10.2111803504564
 20
-1.236856748544624
 30
0.0
 10
-12.89717176440238
 20
0.4349293827533743
 30
0.0
  0
SPLINE
  5
2B7D
330
1F
100
AcDbEntity
  8
AM_0
100
AcDbSpline
210
0.0
220
0.0
230
1.0
 70
     8
 71
     3
 72
     8
 73
     4
 74
     0
 42
0.0000000001
 43
0.0000000001
 40
3.7904089959839
 40
3.7904089959839
 40
3.7904089959839
 40
3.7904089959839
 40
14.48999654934396
 40
14.48999654934396
 40
14.48999654934396
 40
14.48999654934396
 10
-5.036247121130279
 20
-4.514801041347013
 30
0.0
 10
-8.404731918200941
 20
-3.497636273391435
 30
0.0
 10
-11.54161780226758
 20
-1.484675620221807
 30
0.0
 10
-14.67850368633377
 20
0.5282850329477924
 30
0.0
  0
LINE
  5
2B7E
330
1F
100
AcDbEntity
  8
AM_0
100
AcDbLine
 10
-18.16541280812234
 20
-4.169020142619444
 30
0.0
 11
-6.619070516553196
 21
-4.060757889772624
 31
0.0
  0
ARC
  5
2B7F
330
1F
100
AcDbEntity
  8
AM_0
100
AcDbCircle
 10
-10.30733995310451
 20
-10.90497645012842
 30
0.0
 40
15.0
100
AcDbArc
 50
46.63534851283901
 51
88.85558655531111
  0
SPLINE
  5
2B80
330
1F
100
AcDbEntity
  8
AM_0
100
AcDbSpline
210
0.0
220
0.0
230
1.0
 70
     8
 71
     3
 72
     8
 73
     4
 74
     2
 42
0.0000000001
 43
0.0000000001
 44
0.0000000001
 12
-0.939692620785911
 22
0.3420201433256611
 32
0.0
 13
0.9955394717441444
 23
0.094345960164651
 33
0.0
 40
0.0
 40
0.0
 40
0.0
 40
0.0
 40
5.911251546957258
 40
5.911251546957258
 40
5.911251546957258
 40
5.911251546957258
 10
-4.392165802510631
 20
0.8672258385634066
 30
0.0
 10
-6.243752288605644
 20
1.541148205671525
 30
0.0
 10
-11.32523006447467
 20
3.879405166089827
 30
0.0
 10
-9.363601983673142
 20
4.065306067080648
 30
0.0
 11
-4.392165802510631
 21
0.8672258385634066
 31
0.0
 11
-9.363601983673142
 21
4.065306067080648
 31
0.0
  0
LINE
  5
2B81
330
1F
100
AcDbEntity
  8
AM_0
100
AcDbLine
 10
-20.14837602400009
 20
4.215319639876444
 30
0.0
 11
-6.952841336820283
 21
4.064570957235435
 31
0.0
  0
ARC
  5
2B82
330
1F
100
AcDbEntity
  8
AM_0
100
AcDbCircle
 10
-4.985763645100223
 20
-0.4684136653583053
 30
0.0
 40
4.999999999982505
100
AcDbArc
 50
5.375507822156816
 51
90.25198180382437
  0
LINE
  5
2B83
330
1F
100
AcDbEntity
  8
AM_0
100
AcDbLine
 10
-0.8147531349018626
 20
-0.3554321614270854
 30
0.0
 11
-4.334061499315835
 21
0.8460776017178623
 31
0.0
  0
SPLINE
  5
2B84
330
1F
100
AcDbEntity
  8
AM_0
100
AcDbSpline
210
0.0
220
0.0
230
1.0
 70
     8
 71
     3
 72
     8
 73
     4
 74
     2
 42
0.0000000001
 43
0.0000000001
 44
0.0000000001
 12
0.6039933128154179
 22
-0.7969893839156561
 32
0.0
 40
0.0
 40
0.0
 40
0.0
 40
0.0
 40
2.000356546789978
 40
2.000356546789978
 40
2.000356546789978
 40
2.000356546789978
 10
-5.007753134873435
 20
4.531537980624293
 30
0.0
 10
-4.605019142370872
 20
4.000117003345028
 30
0.0
 10
-5.778930239595585
 20
4.032343980290233
 30
0.0
 10
-6.952841336820298
 20
4.064570957235439
 30
0.0
 11
-5.007753134873435
 21
4.531537980624293
 31
0.0
 11
-6.952841336820298
 21
4.064570957235439
 31
0.0
  0
SPLINE
  5
2B85
330
1F
100
AcDbEntity
  8
AM_0
100
AcDbSpline
210
0.0
220
0.0
230
1.0
 70
     8
 71
     3
 72
     8
 73
     4
 74
     0
 42
0.0000000001
 43
0.0000000001
 40
3.790408995970492
 40
3.790408995970492
 40
3.790408995970492
 40
3.790408995970492
 40
5.485524909568358
 40
5.485524909568358
 40
5.485524909568358
 40
5.485524909568358
 10
-5.007753134873435
 20
4.531537980624293
 30
0.0
 10
-5.549118409971515
 20
4.398541044942923
 30
0.0
 10
-6.085986722011557
 20
4.240280173905247
 30
0.0
 10
-6.61907051655321
 20
4.060757886173846
 30
0.0
  0
ARC
  5
2B86
330
1F
100
AcDbEntity
  8
AM_0
100
AcDbCircle
 10
-4.247188309337651
 20
-4.591302848199816
 30
0.0
 40
0.7629093608312548
100
AcDbArc
 50
126.6343629894024
 51
175.5069543864136
  0
ARC
  5
2B87
330
1F
100
AcDbEntity
  8
AM_0
100
AcDbCircle
 10
-4.985763645100223
 20
0.4684136617593034
 30
0.0
 40
4.999999999982505
100
AcDbArc
 50
269.7480181961756
 51
354.6244921778448
  0
ARC
  5
2B88
330
1F
100
AcDbEntity
  8
AM_0
100
AcDbCircle
 10
-0.5818815413872818
 20
-0.132677189747266
 30
0.0
 40
3.877733278411422
100
AcDbArc
 50
165.3801949031469
 51
216.448763497641
  0
ARC
  5
2B89
330
1F
100
AcDbEntity
  8
AM_0
100
AcDbCircle
 10
-4.289359984087737
 20
1.421623304065732
 30
0.0
 40
3.902668174960424
100
AcDbArc
 50
278.6696104128123
 51
332.9129476995664
  0
ARC
  5
2B8A
330
1F
100
AcDbEntity
  8
AM_0
100
AcDbCircle
 10
-4.932369352630792
 20
0.8385186968633746
 30
0.0
 40
4.823102166265893
100
AcDbArc
 50
272.7326936991946
 51
346.7452639699482
  0
SPLINE
  5
2B8B
330
1F
100
AcDbEntity
  8
AM_0
100
AcDbSpline
210
0.0
220
0.0
230
1.0
 70
     8
 71
     3
 72
     8
 73
     4
 74
     2
 42
0.0000000001
 43
0.0000000001
 44
0.0000000001
 12
-0.0000000000000001
 22
-1.0
 32
0.0
 13
-1.0
 23
0.0000000000000001
 33
0.0
 40
0.0
 40
0.0
 40
0.0
 40
0.0
 40
0.8754766455697856
 40
0.8754766455697856
 40
0.8754766455697856
 40
0.8754766455697856
 10
-3.701085429213025
 20
-2.436452891648407
 30
0.0
 10
-3.701085429213025
 20
-2.728278440171669
 30
0.0
 10
-4.130296125803952
 20
-2.933007108395941
 30
0.0
 10
-4.422121674327214
 20
-2.933007108395941
 30
0.0
 11
-3.701085429213025
 21
-2.436452891648407
 31
0.0
 11
-4.422121674327214
 21
-2.933007108395941
 31
0.0
  0
SPLINE
  5
2B8C
330
1F
100
AcDbEntity
  8
AM_0
100
AcDbSpline
210
0.0
220
0.0
230
1.0
 70
     8
 71
     3
 72
     8
 73
     4
 74
     2
 42
0.0000000001
 43
0.0000000001
 44
0.0000000001
 12
0.0000000000000001
 22
1.0
 32
0.0
 40
0.0
 40
0.0
 40
0.0
 40
0.0
 40
1.082993806538703
 40
1.082993806538703
 40
1.082993806538703
 40
1.082993806538703
 10
-4.702421097177697
 20
-3.979098795845409
 30
0.0
 10
-4.702421097177697
 20
-3.618100860332508
 30
0.0
 10
-4.562271385752455
 20
-3.275553984364224
 30
0.0
 10
-4.422121674327214
 20
-2.933007108395941
 30
0.0
 11
-4.702421097177697
 21
-3.979098795845409
 31
0.0
 11
-4.422121674327214
 21
-2.933007108395941
 31
0.0
  0
DIMENSION
  5
2BB0
330
1F
100
AcDbEntity
  8
AM_5
100
AcDbDimension
  2
*D10
 10
-4.99999375569533
 20
0.0079020777834242
 30
0.0
 11
5.314502330448476
 21
-10.77467392773388
 31
0.0
 70
   164
  1
<>
  3
AM_JIS$4
100
AcDbRadialDimension
 15
-1.543753185254216
 25
-3.605185399577438
 35
0.0
 40
0.0
1001
GENIUS_GENDTOL_13
1000

1000
h7
1000

1040
0.0
1001
ACAD
1000
DSTYLE
1002
{
1070
    78
1070
     0
1070
   271
1070
     1
1070
   288
1070
     1
1070
   289
1070
     0
1070
    74
1070
     0
1002
}
  0
VIEWPORT
  5
110
330
101
100
AcDbEntity
 67
     1
  8
0
100
AcDbViewport
 10
420.5
 20
297.0
 30
0.0
 40
948.9782706766916
 41
628.452
 68
     1
 69
     1
1001
ACAD
1000
MVIEW
1002
{
1070
    16
1010
0.0
1020
0.0
1030
0.0
1010
0.0
1020
0.0
1030
1.0
1040
0.0
1040
628.452
1040
420.5
1040
297.0
1040
50.0
1040
0.0
1040
0.0
1070
     0
1070
   100
1070
     1
1070
     1
1070
     0
1070
     0
1070
     0
1070
     0
1040
0.0
1040
0.0
1040
0.0
1040
10.0
1040
10.0
1040
10.0
1040
10.0
1070
     0
1002
{
1002
}
1002
}
  0
ENDSEC
  0
SECTION
  2
OBJECTS
  0
DICTIONARY
  5
C
330
0
100
AcDbDictionary
  3
ACAD_GROUP
350
D
  3
ACAD_LAYOUT
350
1A
  3
ACAD_MLINESTYLE
350
17
  3
ACAD_PLOTSETTINGS
350
19
  3
ACAD_PLOTSTYLENAME
350
E
  3
ACDBVARIABLEDICTIONARY
350
34
  3
ACMDICTIONARY
350
43
  3
AMG
350
2B
  3
AMGSNAPSETTINGS
350
6E
  3
DWGPROPS
350
2C57
  3
ACDBHEADERROUNDTRIPXREC
350
2C64
  0
DICTIONARY
  5
74
330
1F
100
AcDbDictionary
280
     1
  3
ACAD_INDEX
360
2C59
  3
ACAD_LAYOUTSELFREF
360
2C87
  0
DICTIONARY
  5
2C8C
330
101
100
AcDbDictionary
280
     1
  3
ACAD_LAYOUTSELFREF
360
2C8D
  0
DICTIONARY
  5
D
102
{ACAD_REACTORS
330
C
102
}
330
C
100
AcDbDictionary
  0
DICTIONARY
  5
1A
102
{ACAD_REACTORS
330
C
102
}
330
C
100
AcDbDictionary
  0
DICTIONARY
  5
17
102
{ACAD_REACTORS
330
C
102
}
330
C
100
AcDbDictionary
  3
STANDARD
350
18
  0
DICTIONARY
  5
19
102
{ACAD_REACTORS
330
C
102
}
330
C
100
AcDbDictionary
  0
ACDBDICTIONARYWDFLT
  5
E
102
{ACAD_REACTORS
330
C
102
}
330
C
100
AcDbDictionary
281
     1
  3
Normal
350
F
100
AcDbDictionaryWithDefault
340
F
  0
DICTIONARY
  5
34
102
{ACAD_REACTORS
330
C
102
}
330
C
100
AcDbDictionary
  3
INDEXCTL
350
35
  3
SORTENTS
350
B5E
  0
DICTIONARY
  5
43
102
{ACAD_REACTORS
330
C
102
}
330
C
100
AcDbDictionary
  3
ACMSTDDICTIONARY
350
260
  0
DICTIONARY
  5
2B
102
{ACAD_REACTORS
330
C
102
}
330
C
100
AcDbDictionary
  3
ACMGSETTINGS
350
2C
  0
DICTIONARY
  5
6E
102
{ACAD_REACTORS
330
C
102
}
330
C
100
AcDbDictionary
  0
XRECORD
  5
2C57
102
{ACAD_REACTORS
330
C
102
}
330
C
100
AcDbXrecord
  1
DWGPROPS COOKIE
  2

  3

  4

  6

  7

  8

  9

300
AmdtFileType=82
301
=
302
=
303
=
304
=
305
=
306
=
307
=
308
=
309
=
 40
0.3097846180555556
 41
2452838.620506898
 42
2452850.591658391
  1

 90
        1
  0
DICTIONARY
  5
2C64
102
{ACAD_REACTORS
330
C
102
}
330
C
100
AcDbDictionary
  3
TSTACKALIGN
350
2C65
  3
TSTACKSIZE
350
2C66
  3
HYPERLINKBASE
350
2C67
  3
STYLESHEET
350
2C68
  3
LAYOUTDICT
350
2C69
  3
PLOTSETDICT
350
2C6A
  3
PLOTSTYLNAMDICT
350
2C6B
  3
LWETCUNION
350
2C6C
  3
INSUNITS
350
2C6D
  3
CEPSNTYPE
350
2C6E
  3
FINGERPRINTGUID
350
2C6F
  3
VERSIONGUID
350
2C70
  3
PSVPSCALE
350
2C71
  3
DIMSTYLEDATA
350
2C72
  3
PUCSORTHOREF
350
2C73
  3
PUCSORTHOVIEW
350
2C74
  3
PUCSBASE
350
2C75
  3
PUCSORGTOP
350
2C76
  3
PUCSORGBOTTOM
350
2C77
  3
PUCSORGLEFT
350
2C78
  3
PUCSORGRIGHT
350
2C79
  3
PUCSORGFRONT
350
2C7A
  3
PUCSORGBACK
350
2C7B
  3
UCSORTHOREF
350
2C7C
  3
UCSORTHOVIEW
350
2C7D
  3
UCSBASE
350
2C7E
  3
UCSORGTOP
350
2C7F
  3
UCSORGBOTTOM
350
2C80
  3
UCSORGLEFT
350
2C81
  3
UCSORGRIGHT
350
2C82
  3
UCSORGFRONT
350
2C83
  3
UCSORGBACK
350
2C84
  0
DICTIONARY
  5
2C59
102
{ACAD_REACTORS
330
74
102
}
330
74
100
AcDbDictionary
  3
*A1
350
2C5A
  0
XRECORD
  5
2C87
102
{ACAD_REACTORS
330
74
102
}
330
74
100
AcDbXrecord
340
1F
  0
XRECORD
  5
2C8D
102
{ACAD_REACTORS
330
2C8C
102
}
330
2C8C
100
AcDbXrecord
340
101
  0
MLINESTYLE
  5
18
102
{ACAD_REACTORS
330
17
102
}
330
17
100
AcDbMlineStyle
  2
STANDARD
 70
     0
  3

 62
   256
 51
90.0
 52
90.0
 71
     2
 49
0.5
 62
   256
  6
BYLAYER
 49
-0.5
 62
   256
  6
BYLAYER
  0
ACDBPLACEHOLDER
  5
F
102
{ACAD_REACTORS
330
E
102
}
330
E
100
AcDbPlaceHolder
280
     0
  0
DICTIONARYVAR
  5
35
102
{ACAD_REACTORS
330
34
102
}
330
34
100
DictionaryVariables
280
     0
  1
1
  0
DICTIONARYVAR
  5
B5E
102
{ACAD_REACTORS
330
34
102
}
330
34
100
DictionaryVariables
280
     0
  1
96
  0
DICTIONARY
  5
260
102
{ACAD_REACTORS
330
43
102
}
330
43
100
AcDbDictionary
  0
DICTIONARY
  5
2C
102
{ACAD_REACTORS
330
2B
102
}
330
2B
100
AcDbDictionary
  3
DWGSETTINGS
350
2D
  0
XRECORD
  5
2C65
102
{ACAD_REACTORS
330
2C64
102
}
330
2C64
100
AcDbXrecord
 90
        1
  0
XRECORD
  5
2C66
102
{ACAD_REACTORS
330
2C64
102
}
330
2C64
100
AcDbXrecord
 90
       70
  0
XRECORD
  5
2C67
102
{ACAD_REACTORS
330
2C64
102
}
330
2C64
100
AcDbXrecord
  1

  0
XRECORD
  5
2C68
102
{ACAD_REACTORS
330
2C64
102
}
330
2C64
100
AcDbXrecord
  1
ASAMI.ctb
  0
XRECORD
  5
2C69
102
{ACAD_REACTORS
330
2C64
102
}
330
2C64
100
AcDbXrecord
340
1A
  0
XRECORD
  5
2C6A
102
{ACAD_REACTORS
330
2C64
102
}
330
2C64
100
AcDbXrecord
340
19
  0
XRECORD
  5
2C6B
102
{ACAD_REACTORS
330
2C64
102
}
330
2C64
100
AcDbXrecord
340
E
  0
XRECORD
  5
2C6C
102
{ACAD_REACTORS
330
2C64
102
}
330
2C64
100
AcDbXrecord
 90
    10781
  0
XRECORD
  5
2C6D
102
{ACAD_REACTORS
330
2C64
102
}
330
2C64
100
AcDbXrecord
 90
        4
  0
XRECORD
  5
2C6E
102
{ACAD_REACTORS
330
2C64
102
}
330
2C64
100
AcDbXrecord
 90
        0
  0
XRECORD
  5
2C6F
102
{ACAD_REACTORS
330
2C64
102
}
330
2C64
100
AcDbXrecord
  1
{AFB28963-8C59-40AE-9337-C84526B81ACE}
  0
XRECORD
  5
2C70
102
{ACAD_REACTORS
330
2C64
102
}
330
2C64
100
AcDbXrecord
  1
{19133329-5D9C-400C-B884-D6CCEDD0C9B2}
  0
XRECORD
  5
2C71
102
{ACAD_REACTORS
330
2C64
102
}
330
2C64
100
AcDbXrecord
 40
0.0
  0
XRECORD
  5
2C72
102
{ACAD_REACTORS
330
2C64
102
}
330
2C64
100
AcDbXrecord
1000
DSTYLE
1002
{
1070
    79
 70
     2
1070
   341
340
59
1070
   342
340
59
1070
   371
 70
    -1
1070
   372
 70
    -1
1002
}
  0
XRECORD
  5
2C73
102
{ACAD_REACTORS
330
2C64
102
}
330
2C64
100
AcDbXrecord
340
0
  0
XRECORD
  5
2C74
102
{ACAD_REACTORS
330
2C64
102
}
330
2C64
100
AcDbXrecord
 70
     0
  0
XRECORD
  5
2C75
102
{ACAD_REACTORS
330
2C64
102
}
330
2C64
100
AcDbXrecord
340
0
  0
XRECORD
  5
2C76
102
{ACAD_REACTORS
330
2C64
102
}
330
2C64
100
AcDbXrecord
 10
0.0
 20
0.0
 30
0.0
  0
XRECORD
  5
2C77
102
{ACAD_REACTORS
330
2C64
102
}
330
2C64
100
AcDbXrecord
 10
0.0
 20
0.0
 30
0.0
  0
XRECORD
  5
2C78
102
{ACAD_REACTORS
330
2C64
102
}
330
2C64
100
AcDbXrecord
 10
0.0
 20
0.0
 30
0.0
  0
XRECORD
  5
2C79
102
{ACAD_REACTORS
330
2C64
102
}
330
2C64
100
AcDbXrecord
 10
0.0
 20
0.0
 30
0.0
  0
XRECORD
  5
2C7A
102
{ACAD_REACTORS
330
2C64
102
}
330
2C64
100
AcDbXrecord
 10
0.0
 20
0.0
 30
0.0
  0
XRECORD
  5
2C7B
102
{ACAD_REACTORS
330
2C64
102
}
330
2C64
100
AcDbXrecord
 10
0.0
 20
0.0
 30
0.0
  0
XRECORD
  5
2C7C
102
{ACAD_REACTORS
330
2C64
102
}
330
2C64
100
AcDbXrecord
340
0
  0
XRECORD
  5
2C7D
102
{ACAD_REACTORS
330
2C64
102
}
330
2C64
100
AcDbXrecord
 70
     0
  0
XRECORD
  5
2C7E
102
{ACAD_REACTORS
330
2C64
102
}
330
2C64
100
AcDbXrecord
340
0
  0
XRECORD
  5
2C7F
102
{ACAD_REACTORS
330
2C64
102
}
330
2C64
100
AcDbXrecord
 10
0.0
 20
0.0
 30
0.0
  0
XRECORD
  5
2C80
102
{ACAD_REACTORS
330
2C64
102
}
330
2C64
100
AcDbXrecord
 10
0.0
 20
0.0
 30
0.0
  0
XRECORD
  5
2C81
102
{ACAD_REACTORS
330
2C64
102
}
330
2C64
100
AcDbXrecord
 10
0.0
 20
0.0
 30
0.0
  0
XRECORD
  5
2C82
102
{ACAD_REACTORS
330
2C64
102
}
330
2C64
100
AcDbXrecord
 10
0.0
 20
0.0
 30
0.0
  0
XRECORD
  5
2C83
102
{ACAD_REACTORS
330
2C64
102
}
330
2C64
100
AcDbXrecord
 10
0.0
 20
0.0
 30
0.0
  0
XRECORD
  5
2C84
102
{ACAD_REACTORS
330
2C64
102
}
330
2C64
100
AcDbXrecord
 10
0.0
 20
0.0
 30
0.0
  0
LAYER_INDEX
  5
2C5A
102
{ACAD_REACTORS
330
2C59
102
}
330
2C59
100
AcDbIndex
 40
2453151.868304155
100
AcDbLayerIndex
  8
0
360
2C5B
 90
        1
  8
AM_0
360
2C5C
 90
       30
  8
AM_11
360
2C5D
 90
        3
  8
AM_7
360
2C5E
 90
        1
  8
AM_5
360
2C5F
 90
        6
  8
Defpoints
360
2C60
 90
        0
  8
AM_6
360
2C61
 90
        1
  8
AM_CL
360
2C62
 90
        0
  0
XRECORD
  5
2D
102
{ACAD_REACTORS
330
2C
102
}
330
2C
100
AcDbXrecord
  1
VERSION
140
15.0
  1
PRODUCT
  2
AutoCAD Mechanical 2000
  0
IDBUFFER
  5
2C5B
330
0
100
AcDbIdBuffer
330
1E68
  0
IDBUFFER
  5
2C5C
330
0
100
AcDbIdBuffer
330
2B7F
330
2B80
330
2B81
330
2B82
330
2B83
330
2B84
330
2B85
330
2B86
330
2B87
330
2B88
330
2B89
330
2B8A
330
2B8B
330
2B8C
330
1CA2
330
1CA4
330
1E64
330
1E65
330
1E66
330
1E67
330
1E69
330
23B7
330
23BB
330
2B75
330
2B76
330
2B77
330
2B7B
330
2B7C
330
2B7D
330
2B7E
  0
IDBUFFER
  5
2C5D
330
0
100
AcDbIdBuffer
330
1C97
330
1CA1
330
1CB1
  0
IDBUFFER
  5
2C5E
330
0
100
AcDbIdBuffer
330
C50
  0
IDBUFFER
  5
2C5F
330
0
100
AcDbIdBuffer
330
C4F
330
194C
330
195B
330
1C9A
330
1E6A
330
2BB0
  0
IDBUFFER
  5
2C60
330
0
100
AcDbIdBuffer
  0
IDBUFFER
  5
2C61
330
0
100
AcDbIdBuffer
330
C58
  0
IDBUFFER
  5
2C62
330
0
100
AcDbIdBuffer
  0
ENDSEC
  0
EOF
