  0
SECTION
  2
HEADER
  9
$ACADVER
  1
AC1014
  9
$ACADMAINTVER
 70
     9
  9
$DWGCODEPAGE
  3
ANSI_932
  9
$INSBASE
 10
0.0
 20
0.0
 30
0.0
  9
$EXTMIN
 10
-91.40619512995952
 20
-27.25000099999997
 30
-0.00000001
  9
$EXTMAX
 10
8.841627940564759
 20
2.999999999999919
 30
0.00000001
  9
$LIMMIN
 10
-95.54876169398488
 20
-44.5369468842743
  9
$LIMMAX
 10
16.21652387696826
 20
15.26415281330349
  9
$ORTHOMODE
 70
     0
  9
$REGENMODE
 70
     1
  9
$FILLMODE
 70
     1
  9
$QTEXTMODE
 70
     0
  9
$MIRRTEXT
 70
     0
  9
$DRAGMODE
 70
     2
  9
$LTSCALE
 40
1.0
  9
$OSMODE
 70
    55
  9
$ATTMODE
 70
     1
  9
$TEXTSIZE
 40
2.5
  9
$TRACEWID
 40
1.0
  9
$TEXTSTYLE
  7
STANDARD
  9
$CLAYER
  8
AM_0
  9
$CELTYPE
  6
BYLAYER
  9
$CECOLOR
 62
   256
  9
$CELTSCALE
 40
1.0
  9
$DELOBJ
 70
     1
  9
$DISPSILH
 70
     0
  9
$DIMSCALE
 40
0.5
  9
$DIMASZ
 40
2.5
  9
$DIMEXO
 40
1.0
  9
$DIMDLI
 40
12.0
  9
$DIMRND
 40
0.0
  9
$DIMDLE
 40
0.0
  9
$DIMEXE
 40
1.0
  9
$DIMTP
 40
0.1
  9
$DIMTM
 40
0.1
  9
$DIMTXT
 40
3.2
  9
$DIMCEN
 40
0.0
  9
$DIMTSZ
 40
0.0
  9
$DIMTOL
 70
     0
  9
$DIMLIM
 70
     0
  9
$DIMTIH
 70
     0
  9
$DIMTOH
 70
     0
  9
$DIMSE1
 70
     0
  9
$DIMSE2
 70
     0
  9
$DIMTAD
 70
     3
  9
$DIMZIN
 70
     8
  9
$DIMBLK
  1
OPEN30
  9
$DIMASO
 70
     1
  9
$DIMSHO
 70
     1
  9
$DIMPOST
  1

  9
$DIMAPOST
  1
"
  9
$DIMALT
 70
     0
  9
$DIMALTD
 70
     2
  9
$DIMALTF
 40
0.0393701
  9
$DIMLFAC
 40
1.0
  9
$DIMTOFL
 70
     1
  9
$DIMTVP
 40
0.0
  9
$DIMTIX
 70
     0
  9
$DIMSOXD
 70
     0
  9
$DIMSAH
 70
     0
  9
$DIMBLK1
  1

  9
$DIMBLK2
  1

  9
$DIMSTYLE
  2
AM_JIS
  9
$DIMCLRD
 70
   256
  9
$DIMCLRE
 70
   256
  9
$DIMCLRT
 70
     2
  9
$DIMTFAC
 40
0.71
  9
$DIMGAP
 40
1.5
  9
$DIMJUST
 70
     0
  9
$DIMSD1
 70
     0
  9
$DIMSD2
 70
     0
  9
$DIMTOLJ
 70
     0
  9
$DIMTZIN
 70
     0
  9
$DIMALTZ
 70
     0
  9
$DIMALTTZ
 70
     0
  9
$DIMFIT
 70
     3
  9
$DIMUPT
 70
     0
  9
$DIMUNIT
 70
     2
  9
$DIMDEC
 70
     3
  9
$DIMTDEC
 70
     3
  9
$DIMALTU
 70
     2
  9
$DIMALTTD
 70
     2
  9
$DIMTXSTY
  7
ASAMI
  9
$DIMAUNIT
 70
     0
  9
$LUNITS
 70
     2
  9
$LUPREC
 70
     2
  9
$SKETCHINC
 40
1.0
  9
$FILLETRAD
 40
2.5
  9
$AUNITS
 70
     0
  9
$AUPREC
 70
     0
  9
$MENU
  1
.
  9
$ELEVATION
 40
0.0
  9
$PELEVATION
 40
0.0
  9
$THICKNESS
 40
0.0
  9
$LIMCHECK
 70
     0
  9
$BLIPMODE
 70
     0
  9
$CHAMFERA
 40
0.5
  9
$CHAMFERB
 40
0.5
  9
$CHAMFERC
 40
20.0
  9
$CHAMFERD
 40
0.0
  9
$SKPOLY
 70
     0
  9
$TDCREATE
 40
2452838.430434386
  9
$TDUPDATE
 40
2453151.859486470
  9
$TDINDWG
 40
0.1784839815
  9
$TDUSRTIMER
 40
0.1784839815
  9
$USRTIMER
 70
     1
  9
$ANGBASE
 50
0.0
  9
$ANGDIR
 70
     0
  9
$PDMODE
 70
     0
  9
$PDSIZE
 40
0.0
  9
$PLINEWID
 40
0.0
  9
$COORDS
 70
     1
  9
$SPLFRAME
 70
     0
  9
$SPLINETYPE
 70
     6
  9
$SPLINESEGS
 70
     8
  9
$ATTDIA
 70
     1
  9
$ATTREQ
 70
     1
  9
$HANDLING
 70
 12289
  9
$HANDSEED
  5
4F37
  9
$SURFTAB1
 70
     6
  9
$SURFTAB2
 70
     6
  9
$SURFTYPE
 70
     6
  9
$SURFU
 70
     6
  9
$SURFV
 70
     6
  9
$UCSNAME
  2

  9
$UCSORG
 10
0.0
 20
0.0
 30
0.0
  9
$UCSXDIR
 10
1.0
 20
0.0
 30
0.0
  9
$UCSYDIR
 10
0.0
 20
1.0
 30
0.0
  9
$PUCSNAME
  2

  9
$PUCSORG
 10
0.0
 20
0.0
 30
0.0
  9
$PUCSXDIR
 10
1.0
 20
0.0
 30
0.0
  9
$PUCSYDIR
 10
0.0
 20
1.0
 30
0.0
  9
$USERI1
 70
     0
  9
$USERI2
 70
     0
  9
$USERI3
 70
     0
  9
$USERI4
 70
     0
  9
$USERI5
 70
     0
  9
$USERR1
 40
0.0
  9
$USERR2
 40
0.0
  9
$USERR3
 40
0.0
  9
$USERR4
 40
0.0
  9
$USERR5
 40
0.0
  9
$WORLDVIEW
 70
     1
  9
$SHADEDGE
 70
     3
  9
$SHADEDIF
 70
    70
  9
$TILEMODE
 70
     1
  9
$MAXACTVP
 70
    64
  9
$PINSBASE
 10
0.0
 20
0.0
 30
0.0
  9
$PLIMCHECK
 70
     0
  9
$PEXTMIN
 10
1.000000000000000E+20
 20
1.000000000000000E+20
 30
1.000000000000000E+20
  9
$PEXTMAX
 10
-1.000000000000000E+20
 20
-1.000000000000000E+20
 30
-1.000000000000000E+20
  9
$PLIMMIN
 10
0.0
 20
0.0
  9
$PLIMMAX
 10
841.0
 20
594.0
  9
$UNITMODE
 70
     0
  9
$VISRETAIN
 70
     1
  9
$PLINEGEN
 70
     0
  9
$PSLTSCALE
 70
     0
  9
$TREEDEPTH
 70
  3020
  9
$PICKSTYLE
 70
     0
  9
$CMLSTYLE
  2
STANDARD
  9
$CMLJUST
 70
     0
  9
$CMLSCALE
 40
20.0
  9
$PROXYGRAPHICS
 70
     1
  9
$MEASUREMENT
 70
     1
  0
ENDSEC
  0
SECTION
  2
CLASSES
  0
CLASS
  1
ACDBDICTIONARYWDFLT
  2
AcDbDictionaryWithDefault
  3
AutoCAD 2000
 90
        0
280
     0
281
     0
  0
CLASS
  1
ACDBPLACEHOLDER
  2
AcDbPlaceHolder
  3
AutoCAD 2000
 90
        0
280
     0
281
     0
  0
CLASS
  1
LAYOUT
  2
AcDbLayout
  3
AutoCAD 2000
 90
        0
280
     0
281
     0
  0
CLASS
  1
AMGSETTINGSOBJ
  2
AmgSettingsObj
  3
"AcadM|Product Description: AutoCAD Mechanical 2000|Company: Autodesk"
 90
        0
280
     0
281
     0
  0
CLASS
  1
ACME_DOCUMENT
  2
AcMeDbDoc
  3
AcMeServices
 90
        0
280
     0
281
     0
  0
CLASS
  1
ACMESCOPE
  2
AcMeScope
  3
AcMeServices
 90
        0
280
     0
281
     0
  0
CLASS
  1
ACMECOMMANDHISTORY
  2
AcMeCommandHistory
  3
AcMeServices
 90
        0
280
     0
281
     0
  0
CLASS
  1
DICTIONARYVAR
  2
AcDbDictionaryVar
  3
AutoCAD 2000
 90
        0
280
     0
281
     0
  0
CLASS
  1
ACIMSYSVARMAN
  2
AcImSysVarManager
  3
AcMeServices
 90
        0
280
     0
281
     0
  0
CLASS
  1
ACIMREALSYSVAR
  2
AcImRealSysVar
  3
AcMeServices
 90
        0
280
     0
281
     0
  0
CLASS
  1
ACIMINTSYSVAR
  2
AcImIntSysVar
  3
AcMeServices
 90
        0
280
     0
281
     0
  0
CLASS
  1
ACMEDRAWINGMAN
  2
AcMeDrawingMan
  3
AcMeServices
 90
        0
280
     0
281
     0
  0
CLASS
  1
ACMEVIEW
  2
AcMeView
  3
AcMeServices
 90
        0
280
     0
281
     0
  0
CLASS
  1
ACDBENTITYCACHE
  2
AcMeEntityCache
  3
AcMeServices
 90
        0
280
     0
281
     0
  0
CLASS
  1
GSMANAGER
  2
AcMeGSManager
  3
AcMeServices
 90
        0
280
     0
281
     0
  0
CLASS
  1
AmdtInternalReactor
  2
AmdtInternalReactor
  3
AcMeServices
 90
        0
280
     0
281
     0
  0
CLASS
  1
ACMESTATEMGR
  2
AcMeStateMgr
  3
AcMeServices
 90
        0
280
     0
281
     0
  0
CLASS
  1
ACME_DATABASE
  2
AcMeDbDatabase
  3
AcMeServices
 90
        0
280
     0
281
     0
  0
CLASS
  1
ACRFINSADJUSTERMGR
  2
AcRfInsAdjusterMgr
  3
AcMeServices
 90
        0
280
     0
281
     0
  0
CLASS
  1
ACMDATADICTIONARY
  2
AcmDataDictionary
  3
"AcmSymBB|Product Description: AutoCAD Mechanical 2000|Company: Autodesk"
 90
        0
280
     0
281
     0
  0
CLASS
  1
ACMDATAENTRYBLOCK
  2
AcmDataEntryBlock
  3
"AcmSymBB|Product Description: AutoCAD Mechanical 2000|Company: Autodesk"
 90
        0
280
     0
281
     0
  0
CLASS
  1
AMGOBJPROPCFG
  2
AmgObjPropCfg
  3
"AmgLay|Product Description: AutoCAD Mechanical 2000|Company: Autodesk"
 90
        1
280
     0
281
     0
  0
CLASS
  1
ACAMGFILTERDAT
  2
AcAmgFilterDat
  3
"AcadM|Product Description: AutoCAD Mechanical 2000|Company: Autodesk"
 90
        0
280
     0
281
     0
  0
CLASS
  1
LAYER_INDEX
  2
AcDbLayerIndex
  3
AutoCAD 2000
 90
        0
280
     0
281
     0
  0
CLASS
  1
IDBUFFER
  2
AcDbIdBuffer
  3
AutoCAD 2000
 90
        0
280
     0
281
     0
  0
CLASS
  1
ACIMSTRSYSVAR
  2
AcImStrSysVar
  3
AcMeServices
 90
        0
280
     0
281
     0
  0
CLASS
  1
ACMSTANDARDJIS
  2
AcmStandardJIS
  3
"AcmSymBB|Product Description: AutoCAD Mechanical 2000|Company: Autodesk"
 90
        0
280
     0
281
     0
  0
CLASS
  1
ACMSURFSTANDARDJIS
  2
AcmSurfTextStdJIS
  3
"AcmSymBB|Product Description: AutoCAD Mechanical 2000|Company: Autodesk"
 90
        0
280
     0
281
     0
  0
CLASS
  1
ACMFCFSTANDARDJIS
  2
AcmFCFStdJIS
  3
"AcmSymBB|Product Description: AutoCAD Mechanical 2000|Company: Autodesk"
 90
        0
280
     0
281
     0
  0
CLASS
  1
ACMWELDSTANDARDJIS
  2
AcmWeldingStdJIS
  3
"AcmSymBB|Product Description: AutoCAD Mechanical 2000|Company: Autodesk"
 90
        0
280
     0
281
     0
  0
CLASS
  1
ACMIDSTANDARDJIS
  2
AcmIdStdJIS
  3
"AcmSymBB|Product Description: AutoCAD Mechanical 2000|Company: Autodesk"
 90
        0
280
     0
281
     0
  0
CLASS
  1
ACMDATUMSTANDARDJIS
  2
AcmDatumStdJIS
  3
"AcmSymBB|Product Description: AutoCAD Mechanical 2000|Company: Autodesk"
 90
        0
280
     0
281
     0
  0
CLASS
  1
ACMBOMSTANDARDJIS
  2
AcmBOMStdJIS
  3
"AcmSymBB|Product Description: AutoCAD Mechanical 2000|Company: Autodesk"
 90
        0
280
     0
281
     0
  0
CLASS
  1
ACMSTANDARDANSI
  2
AcmStandardANSI
  3
"AcmSymBB|Product Description: AutoCAD Mechanical 2000|Company: Autodesk"
 90
        0
280
     0
281
     0
  0
CLASS
  1
ACMSURFSTANDARDANSI
  2
AcmSurfTextStdANSI
  3
"AcmSymBB|Product Description: AutoCAD Mechanical 2000|Company: Autodesk"
 90
        0
280
     0
281
     0
  0
CLASS
  1
ACMFCFSTANDARDANSI
  2
AcmFCFStdANSI
  3
"AcmSymBB|Product Description: AutoCAD Mechanical 2000|Company: Autodesk"
 90
        0
280
     0
281
     0
  0
CLASS
  1
ACMWELDSTANDARDANSI
  2
AcmWeldingStdANSI
  3
"AcmSymBB|Product Description: AutoCAD Mechanical 2000|Company: Autodesk"
 90
        0
280
     0
281
     0
  0
CLASS
  1
ACMIDSTANDARDANSI
  2
AcmIdStdANSI
  3
"AcmSymBB|Product Description: AutoCAD Mechanical 2000|Company: Autodesk"
 90
        0
280
     0
281
     0
  0
CLASS
  1
ACMDATUMSTANDARDANSI
  2
AcmDatumStdANSI
  3
"AcmSymBB|Product Description: AutoCAD Mechanical 2000|Company: Autodesk"
 90
        0
280
     0
281
     0
  0
CLASS
  1
ACMBOMSTANDARDANSI
  2
AcmBOMStdANSI
  3
"AcmSymBB|Product Description: AutoCAD Mechanical 2000|Company: Autodesk"
 90
        0
280
     0
281
     0
  0
CLASS
  1
ACMSTANDARDBSI
  2
AcmStandardBSI
  3
"AcmSymBB|Product Description: AutoCAD Mechanical 2000|Company: Autodesk"
 90
        0
280
     0
281
     0
  0
CLASS
  1
ACMSURFSTANDARDBSI
  2
AcmSurfTextStdBSI
  3
"AcmSymBB|Product Description: AutoCAD Mechanical 2000|Company: Autodesk"
 90
        0
280
     0
281
     0
  0
CLASS
  1
ACMFCFSTANDARDBSI
  2
AcmFCFStdBSI
  3
"AcmSymBB|Product Description: AutoCAD Mechanical 2000|Company: Autodesk"
 90
        0
280
     0
281
     0
  0
CLASS
  1
ACMWELDSTANDARDBSI
  2
AcmWeldingStdBSI
  3
"AcmSymBB|Product Description: AutoCAD Mechanical 2000|Company: Autodesk"
 90
        0
280
     0
281
     0
  0
CLASS
  1
ACMIDSTANDARDBSI
  2
AcmIdStdBSI
  3
"AcmSymBB|Product Description: AutoCAD Mechanical 2000|Company: Autodesk"
 90
        0
280
     0
281
     0
  0
CLASS
  1
ACMDATUMSTANDARDBSI
  2
AcmDatumStdBSI
  3
"AcmSymBB|Product Description: AutoCAD Mechanical 2000|Company: Autodesk"
 90
        0
280
     0
281
     0
  0
CLASS
  1
ACMBOMSTANDARDBSI
  2
AcmBOMStdBSI
  3
"AcmSymBB|Product Description: AutoCAD Mechanical 2000|Company: Autodesk"
 90
        0
280
     0
281
     0
  0
CLASS
  1
LONG_TRANSACTION
  2
AcDbLongTransaction
  3
AutoCAD 2000
 90
        0
280
     0
281
     0
  0
CLASS
  1
LWPOLYLINE
  2
AcDbPolyline
  3
AutoCAD 2000
 90
        0
280
     0
281
     1
  0
CLASS
  1
HATCH
  2
AcDbHatch
  3
AutoCAD 2000
 90
        0
280
     0
281
     1
  0
CLASS
  1
XRECORD
  2
AcDbXrecord
  3
AutoCAD 2000
 90
        0
280
     0
281
     0
  0
ENDSEC
  0
SECTION
  2
TABLES
  0
TABLE
  2
VPORT
  5
8
330
0
100
AcDbSymbolTable
 70
     3
  0
VPORT
  5
4F06
330
8
100
AcDbSymbolTableRecord
100
AcDbViewportTableRecord
  2
*ACTIVE
 70
     0
 10
0.0
 20
0.0
 11
1.0
 21
1.0
 12
-38.97162226153493
 22
-10.86365994360765
 13
0.0
 23
0.0
 14
2.5
 24
2.5
 15
10.0
 25
10.0
 16
0.0
 26
0.0
 36
1.0
 17
0.0
 27
0.0
 37
0.0
 40
70.42993891348896
 41
1.56570841889117
 42
50.0
 43
0.0
 44
0.0
 50
0.0
 51
0.0
 71
     0
 72
   100
 73
     1
 74
     3
 75
     0
 76
     0
 77
     0
 78
     0
  0
ENDTAB
  0
TABLE
  2
LTYPE
  5
5
330
0
100
AcDbSymbolTable
 70
    10
  0
LTYPE
  5
14
330
5
100
AcDbSymbolTableRecord
100
AcDbLinetypeTableRecord
  2
BYBLOCK
 70
     0
  3

 72
    65
 73
     0
 40
0.0
  0
LTYPE
  5
15
330
5
100
AcDbSymbolTableRecord
100
AcDbLinetypeTableRecord
  2
BYLAYER
 70
     0
  3

 72
    65
 73
     0
 40
0.0
  0
LTYPE
  5
16
330
5
100
AcDbSymbolTableRecord
100
AcDbLinetypeTableRecord
  2
CONTINUOUS
 70
     0
  3
Solid line
 72
    65
 73
     0
 40
0.0
  0
LTYPE
  5
4B
330
5
100
AcDbSymbolTableRecord
100
AcDbLinetypeTableRecord
  2
AM_ISO02W050
 70
     0
  3
__ __ __ __ __ __ __ __ __ __ __ __ __ __ __
 72
    65
 73
     2
 40
7.5
 49
6.0
 74
     0
 49
-1.5
 74
     0
  0
LTYPE
  5
4C
330
5
100
AcDbSymbolTableRecord
100
AcDbLinetypeTableRecord
  2
AM_ISO08W050
 70
     0
  3
____ . ____ . ____ . ____ . ____ . ____ . ____
 72
    65
 73
     4
 40
18.0
 49
12.0
 74
     0
 49
-1.5
 74
     0
 49
3.0
 74
     0
 49
-1.5
 74
     0
  0
LTYPE
  5
4D
330
5
100
AcDbSymbolTableRecord
100
AcDbLinetypeTableRecord
  2
AM_ISO09W050
 70
     0
  3
_____ . . _____ . . _____ . . ____ .. ____
 72
    65
 73
     6
 40
22.5
 49
12.0
 74
     0
 49
-1.5
 74
     0
 49
3.0
 74
     0
 49
-1.5
 74
     0
 49
3.0
 74
     0
 49
-1.5
 74
     0
  0
LTYPE
  5
4E
330
5
100
AcDbSymbolTableRecord
100
AcDbLinetypeTableRecord
  2
AMCONSTR
 70
     0
  3
_______________________
 72
    65
 73
     2
 40
9999.0
 49
9999.0
 74
     0
 49
0.0
 74
     0
  0
LTYPE
  5
4F
330
5
100
AcDbSymbolTableRecord
100
AcDbLinetypeTableRecord
  2
AM_ISO02W050X2
 70
     0
  3
 _ _ _ _ _ _ _ _ _ _ _ _
 72
    65
 73
     2
 40
3.75
 49
3.0
 74
     0
 49
-0.75
 74
     0
  0
LTYPE
  5
50
330
5
100
AcDbSymbolTableRecord
100
AcDbLinetypeTableRecord
  2
AM_ISO08W050X2
 70
     0
  3
__ . __ . __ . __ . __ . __
 72
    65
 73
     4
 40
9.0
 49
6.0
 74
     0
 49
-0.75
 74
     0
 49
1.5
 74
     0
 49
-0.75
 74
     0
  0
LTYPE
  5
53
330
5
100
AcDbSymbolTableRecord
100
AcDbLinetypeTableRecord
  2
AMZIGZAG
 70
     0
  3
/\/-/\/-/\/-/\/-/\/-/\/
 72
    65
 73
     2
 40
11.00009999999999
 49
0.0001
 74
     4
 75
   135
340
52
 46
0.04
 50
0.0
 44
0.0
 45
0.0
 49
-11.0
 74
     0
  0
LTYPE
  5
166
330
5
100
AcDbSymbolTableRecord
100
AcDbLinetypeTableRecord
  2
ACJISTGL
 70
     0
  3
_ _ _ _ _
 72
    65
 73
     2
 40
3.0
 49
2.0
 74
     0
 49
-1.0
 74
     0
  0
LTYPE
  5
26A
330
5
100
AcDbSymbolTableRecord
100
AcDbLinetypeTableRecord
  2
ACJISTGB
 70
     0
  3
__ . . __ . .
 72
    65
 73
     6
 40
9.0
 49
4.0
 74
     0
 49
-1.0
 74
     0
 49
1.0
 74
     0
 49
-1.0
 74
     0
 49
1.0
 74
     0
 49
-1.0
 74
     0
  0
ENDTAB
  0
TABLE
  2
LAYER
  5
2
330
0
100
AcDbSymbolTable
 70
     7
  0
LAYER
  5
10
330
2
100
AcDbSymbolTableRecord
100
AcDbLayerTableRecord
  2
0
 70
     0
 62
     7
  6
CONTINUOUS
  0
LAYER
  5
3F9
330
2
100
AcDbSymbolTableRecord
100
AcDbLayerTableRecord
  2
AM_0
 70
     0
 62
     7
  6
CONTINUOUS
  0
LAYER
  5
BDD
330
2
100
AcDbSymbolTableRecord
100
AcDbLayerTableRecord
  2
AM_11
 70
     0
 62
     3
  6
AM_ISO09W050
  0
LAYER
  5
BDE
330
2
100
AcDbSymbolTableRecord
100
AcDbLayerTableRecord
  2
AM_7
 70
     0
 62
     4
  6
AM_ISO08W050
  0
LAYER
  5
BDF
330
2
100
AcDbSymbolTableRecord
100
AcDbLayerTableRecord
  2
AM_5
 70
     0
 62
     3
  6
CONTINUOUS
  0
LAYER
  5
BE0
330
2
100
AcDbSymbolTableRecord
100
AcDbLayerTableRecord
  2
DEFPOINTS
 70
     0
 62
     7
  6
CONTINUOUS
  0
LAYER
  5
14FF
330
2
100
AcDbSymbolTableRecord
100
AcDbLayerTableRecord
  2
AM_6
 70
     0
 62
     2
  6
CONTINUOUS
  0
ENDTAB
  0
TABLE
  2
STYLE
  5
3
330
0
100
AcDbSymbolTable
 70
     5
  0
STYLE
  5
11
330
3
100
AcDbSymbolTableRecord
100
AcDbTextStyleTableRecord
  2
STANDARD
 70
     0
 40
0.0
 41
1.0
 50
0.0
 71
     0
 42
2.5
  3
simplex.shx
  4
EXTFONT.SHX
  0
STYLE
  5
52
330
3
100
AcDbSymbolTableRecord
100
AcDbTextStyleTableRecord
  2

 70
     1
 40
0.0
 41
1.0
 50
0.0
 71
     0
 42
2.5
  3
ltypeshp.shx
  4

  0
STYLE
  5
6B
330
3
100
AcDbSymbolTableRecord
100
AcDbTextStyleTableRecord
  2
ASAMI
 70
     0
 40
0.0
 41
1.0
 50
0.0
 71
     0
 42
2.5
  3
simplex.shx
  4
EXTFONT.SHX
  0
STYLE
  5
262
330
3
100
AcDbSymbolTableRecord
100
AcDbTextStyleTableRecord
  2
ACJISTS
 70
     0
 40
1.0
 41
1.0
 50
0.0
 71
     0
 42
2.5
  3
simplex.shx
  4
bigfont.shx
  0
STYLE
  5
269
330
3
100
AcDbSymbolTableRecord
100
AcDbTextStyleTableRecord
  2
ACJISGDT
 70
     0
 40
0.0
 41
1.0
 50
0.0
 71
     0
 42
2.5
  3
amgdtans.shx
  4

  0
ENDTAB
  0
TABLE
  2
VIEW
  5
6
330
0
100
AcDbSymbolTable
 70
     0
  0
ENDTAB
  0
TABLE
  2
UCS
  5
7
330
0
100
AcDbSymbolTable
 70
     0
  0
ENDTAB
  0
TABLE
  2
APPID
  5
9
330
0
100
AcDbSymbolTable
 70
    14
  0
APPID
  5
12
330
9
100
AcDbSymbolTableRecord
100
AcDbRegAppTableRecord
  2
ACAD
 70
     0
  0
APPID
  5
30
330
9
100
AcDbSymbolTableRecord
100
AcDbRegAppTableRecord
  2
MCAD_NO_VIS
 70
     0
  0
APPID
  5
31
330
9
100
AcDbSymbolTableRecord
100
AcDbRegAppTableRecord
  2
ACAD_TEMP_GRAPHIC
 70
     0
  0
APPID
  5
2C2
330
9
100
AcDbSymbolTableRecord
100
AcDbRegAppTableRecord
  2
GENIUS_GENDTOL_13
 70
     0
  0
APPID
  5
339
330
9
100
AcDbSymbolTableRecord
100
AcDbRegAppTableRecord
  2
GENIUS_GENODEF_13
 70
     0
  0
APPID
  5
33A
330
9
100
AcDbSymbolTableRecord
100
AcDbRegAppTableRecord
  2
GENIUS_GENOBJ-N-RSBK_13
 70
     0
  0
APPID
  5
33B
330
9
100
AcDbSymbolTableRecord
100
AcDbRegAppTableRecord
  2
GENIUS_GENOBJ-N-LIB_13
 70
     0
  0
APPID
  5
33C
330
9
100
AcDbSymbolTableRecord
100
AcDbRegAppTableRecord
  2
GENIUS_GENSCALE_13
 70
     0
  0
APPID
  5
378
330
9
100
AcDbSymbolTableRecord
100
AcDbRegAppTableRecord
  2
GENIUS_GENDIMSH_14
 70
     0
  0
APPID
  5
BE1
330
9
100
AcDbSymbolTableRecord
100
AcDbRegAppTableRecord
  2
GENIUS_GENFIL_13
 70
     0
  0
APPID
  5
BE2
330
9
100
AcDbSymbolTableRecord
100
AcDbRegAppTableRecord
  2
GENIUS_GENOBJ-N-CHA_13
 70
     0
  0
APPID
  5
151B
330
9
100
AcDbSymbolTableRecord
100
AcDbRegAppTableRecord
  2
DCO15
 70
     0
  0
APPID
  5
1860
330
9
100
AcDbSymbolTableRecord
100
AcDbRegAppTableRecord
  2
GENIUS_GENOBJ-N-CEN_13
 70
     0
  0
APPID
  5
359C
330
9
100
AcDbSymbolTableRecord
100
AcDbRegAppTableRecord
  2
GENIUS_GENOBJ-N-FIL_13
 70
     0
  0
ENDTAB
  0
TABLE
  2
DIMSTYLE
  5
A
330
0
100
AcDbSymbolTable
 70
     8
  0
DIMSTYLE
105
58
102
{ACAD_REACTORS
330
4047
330
412A
330
45F8
330
4759
102
}
330
A
100
AcDbSymbolTableRecord
100
AcDbDimStyleTableRecord
  2
AM_JIS
 70
     0
  3

  4
"
  5
OPEN30
  6

  7

 40
0.5
 41
2.5
 42
1.0
 43
12.0
 44
1.0
 45
0.0
 46
0.0
 47
0.1
 48
0.1
140
3.2
141
0.0
142
0.0
143
0.0393701
144
1.0
145
0.0
146
0.71
147
1.5
 71
     0
 72
     0
 73
     0
 74
     0
 75
     0
 76
     0
 77
     3
 78
     8
170
     0
171
     2
172
     1
173
     0
174
     0
175
     0
176
   256
177
   256
178
     2
270
     2
271
     3
272
     3
273
     2
274
     2
340
6B
275
     0
280
     0
281
     0
282
     0
283
     0
284
     0
285
     0
286
     0
287
     3
288
     0
  0
DIMSTYLE
105
5F
330
A
100
AcDbSymbolTableRecord
100
AcDbDimStyleTableRecord
  2
AM_JIS$3
 70
     0
  3

  4
"
  5
OPEN30
  6

  7

 40
0.5
 41
2.5
 42
1.0
 43
10.0
 44
1.0
 45
0.0
 46
0.0
 47
0.1
 48
0.1
140
3.2
141
0.0
142
0.0
143
0.0393701
144
1.0
145
0.0
146
0.71
147
1.5
 71
     0
 72
     0
 73
     0
 74
     1
 75
     0
 76
     0
 77
     3
 78
     8
170
     0
171
     2
172
     0
173
     0
174
     0
175
     0
176
   256
177
   256
178
     2
270
     2
271
     2
272
     3
273
     2
274
     2
340
6B
275
     0
280
     0
281
     0
282
     0
283
     0
284
     0
285
     0
286
     0
287
     0
288
     1
  0
DIMSTYLE
105
60
102
{ACAD_REACTORS
330
4D90
102
}
330
A
100
AcDbSymbolTableRecord
100
AcDbDimStyleTableRecord
  2
AM_JIS$4
 70
     0
  3

  4
"
  5
OPEN30
  6

  7

 40
0.5
 41
2.5
 42
1.0
 43
10.0
 44
1.0
 45
0.0
 46
0.0
 47
0.1
 48
0.1
140
3.2
141
0.0
142
0.0
143
0.0393701
144
1.0
145
0.0
146
0.71
147
1.5
 71
     0
 72
     0
 73
     0
 74
     1
 75
     0
 76
     0
 77
     3
 78
     8
170
     0
171
     2
172
     0
173
     0
174
     0
175
     0
176
   256
177
   256
178
     2
270
     2
271
     2
272
     3
273
     2
274
     2
340
6B
275
     0
280
     0
281
     0
282
     0
283
     0
284
     0
285
     0
286
     0
287
     0
288
     1
  0
DIMSTYLE
105
61
330
A
100
AcDbSymbolTableRecord
100
AcDbDimStyleTableRecord
  2
AM_JIS$6
 70
     0
  3

  4
"
  5
OPEN30
  6

  7

 40
0.5
 41
2.5
 42
1.0
 43
10.0
 44
1.0
 45
0.0
 46
0.0
 47
0.1
 48
0.1
140
3.2
141
0.0
142
0.0
143
0.0393701
144
1.0
145
0.0
146
0.71
147
1.5
 71
     0
 72
     0
 73
     0
 74
     0
 75
     0
 76
     0
 77
     0
 78
     8
170
     0
171
     2
172
     1
173
     0
174
     0
175
     0
176
   256
177
   256
178
     2
270
     2
271
     2
272
     2
273
     2
274
     2
340
6B
275
     0
280
     0
281
     0
282
     0
283
     0
284
     0
285
     0
286
     0
287
     3
288
     0
  0
DIMSTYLE
105
62
330
A
100
AcDbSymbolTableRecord
100
AcDbDimStyleTableRecord
  2
AM_JIS$7
 70
     0
  3

  4
"
  5
OPEN30
  6

  7

 40
0.5
 41
2.5
 42
1.0
 43
10.0
 44
1.0
 45
0.0
 46
0.0
 47
0.1
 48
0.1
140
3.2
141
0.0
142
0.0
143
0.0393701
144
1.0
145
0.0
146
0.71
147
1.5
 71
     0
 72
     0
 73
     0
 74
     0
 75
     0
 76
     0
 77
     3
 78
     8
170
     0
171
     2
172
     1
173
     0
174
     0
175
     0
176
   256
177
   256
178
     2
270
     2
271
     2
272
     3
273
     2
274
     2
340
6B
275
     0
280
     0
281
     0
282
     0
283
     0
284
     0
285
     0
286
     0
287
     3
288
     0
  0
DIMSTYLE
105
63
330
A
100
AcDbSymbolTableRecord
100
AcDbDimStyleTableRecord
  2
AM_JIS$SF
 70
     0
  3

  4
"
  5
OPEN30
  6

  7

 40
0.5
 41
2.5
 42
1.0
 43
10.0
 44
1.0
 45
0.0
 46
0.0
 47
0.1
 48
0.1
140
3.2
141
0.0
142
0.0
143
0.0393701
144
1.0
145
0.0
146
0.71
147
1.5
 71
     0
 72
     0
 73
     0
 74
     0
 75
     1
 76
     1
 77
     3
 78
     8
170
     0
171
     2
172
     1
173
     0
174
     0
175
     0
176
   256
177
   256
178
     2
270
     2
271
     2
272
     2
273
     2
274
     2
340
6B
275
     0
280
     0
281
     0
282
     0
283
     0
284
     0
285
     0
286
     0
287
     3
288
     0
  0
DIMSTYLE
105
68
330
A
100
AcDbSymbolTableRecord
100
AcDbDimStyleTableRecord
  2
AM_JIS$SH
 70
     0
  3

  4
"
  5

  6
GENAXEH
  7
OPEN30
 40
0.5
 41
2.5
 42
1.0
 43
10.0
 44
1.0
 45
0.0
 46
0.0
 47
0.1
 48
0.1
140
3.2
141
0.0
142
0.0
143
0.0393701
144
2.0
145
0.0
146
0.71
147
1.5
 71
     0
 72
     0
 73
     0
 74
     0
 75
     1
 76
     1
 77
     3
 78
     8
170
     0
171
     2
172
     1
173
     1
174
     0
175
     0
176
   256
177
   256
178
     2
270
     2
271
     2
272
     2
273
     2
274
     2
340
6B
275
     0
280
     0
281
     0
282
     0
283
     0
284
     0
285
     0
286
     0
287
     3
288
     0
  0
DIMSTYLE
105
B34
330
A
100
AcDbSymbolTableRecord
100
AcDbDimStyleTableRecord
  2
AM_JIS$2
 70
     0
  3

  4
"
  5
OPEN30
  6

  7

 40
0.5
 41
2.5
 42
1.0
 43
12.0
 44
1.0
 45
0.0
 46
0.0
 47
0.1
 48
0.1
140
3.2
141
0.0
142
0.0
143
0.0393701
144
1.0
145
0.0
146
0.71
147
1.5
 71
     0
 72
     0
 73
     0
 74
     0
 75
     0
 76
     0
 77
     3
 78
     8
170
     0
171
     2
172
     1
173
     0
174
     0
175
     0
176
   256
177
   256
178
     2
270
     2
271
     3
272
     3
273
     2
274
     2
340
6B
275
     0
280
     0
281
     0
282
     0
283
     0
284
     0
285
     0
286
     0
287
     3
288
     0
  0
ENDTAB
  0
TABLE
  2
BLOCK_RECORD
  5
1
330
0
100
AcDbSymbolTable
 70
    10
  0
BLOCK_RECORD
  5
1F
102
{ACAD_XDICTIONARY
360
74
102
}
330
1
100
AcDbSymbolTableRecord
100
AcDbBlockTableRecord
  2
*MODEL_SPACE
  0
BLOCK_RECORD
  5
101
102
{ACAD_XDICTIONARY
360
4F2F
102
}
330
1
100
AcDbSymbolTableRecord
100
AcDbBlockTableRecord
  2
*PAPER_SPACE
  0
BLOCK_RECORD
  5
59
330
1
100
AcDbSymbolTableRecord
100
AcDbBlockTableRecord
  2
_OPEN30
  0
BLOCK_RECORD
  5
64
330
1
100
AcDbSymbolTableRecord
100
AcDbBlockTableRecord
  2
GENAXEH
  0
BLOCK_RECORD
  5
4048
330
1
100
AcDbSymbolTableRecord
100
AcDbBlockTableRecord
  2
*D5
  0
BLOCK_RECORD
  5
412B
330
1
100
AcDbSymbolTableRecord
100
AcDbBlockTableRecord
  2
*D6
  0
BLOCK_RECORD
  5
45F9
330
1
100
AcDbSymbolTableRecord
100
AcDbBlockTableRecord
  2
*D7
  0
BLOCK_RECORD
  5
4768
330
1
100
AcDbSymbolTableRecord
100
AcDbBlockTableRecord
  2
*D8
  0
BLOCK_RECORD
  5
4D91
330
1
100
AcDbSymbolTableRecord
100
AcDbBlockTableRecord
  2
*D9
  0
ENDTAB
  0
ENDSEC
  0
SECTION
  2
BLOCKS
  0
BLOCK
  5
20
330
1F
100
AcDbEntity
  8
0
100
AcDbBlockBegin
  2
*MODEL_SPACE
 70
     0
 10
0.0
 20
0.0
 30
0.0
  3
*MODEL_SPACE
  1

  0
ENDBLK
  5
21
330
1F
100
AcDbEntity
  8
0
100
AcDbBlockEnd
  0
BLOCK
  5
103
330
101
100
AcDbEntity
 67
     1
  8
0
100
AcDbBlockBegin
  2
*PAPER_SPACE
 70
     0
 10
0.0
 20
0.0
 30
0.0
  3
*PAPER_SPACE
  1

  0
ENDBLK
  5
104
330
101
100
AcDbEntity
 67
     1
  8
0
100
AcDbBlockEnd
  0
BLOCK
  5
5D
330
59
100
AcDbEntity
  8
0
100
AcDbBlockBegin
  2
_OPEN30
 70
     0
 10
0.0
 20
0.0
 30
0.0
  3
_OPEN30
  1

  0
LINE
  5
5A
330
59
100
AcDbEntity
  8
0
 62
     0
100
AcDbLine
 10
-1.0
 20
0.26794919
 30
0.0
 11
0.0
 21
0.0
 31
0.0
  0
LINE
  5
5B
330
59
100
AcDbEntity
  8
0
 62
     0
100
AcDbLine
 10
0.0
 20
0.0
 30
0.0
 11
-1.0
 21
-0.26794919
 31
0.0
  0
LINE
  5
5C
330
59
100
AcDbEntity
  8
0
 62
     0
100
AcDbLine
 10
0.0
 20
0.0
 30
0.0
 11
-1.0
 21
0.0
 31
0.0
  0
ENDBLK
  5
5E
330
59
100
AcDbEntity
  8
0
100
AcDbBlockEnd
  0
BLOCK
  5
66
330
64
100
AcDbEntity
  8
0
100
AcDbBlockBegin
  2
GENAXEH
 70
     0
 10
0.0
 20
0.0
 30
0.0
  3
GENAXEH
  1

  0
LINE
  5
65
330
64
100
AcDbEntity
  8
0
100
AcDbLine
 10
-1.0
 20
0.0
 30
0.0
 11
1.0
 21
0.0
 31
0.0
  0
ENDBLK
  5
67
330
64
100
AcDbEntity
  8
0
100
AcDbBlockEnd
  0
BLOCK
  5
4052
330
4048
100
AcDbEntity
  8
0
100
AcDbBlockBegin
  2
*D5
 70
     1
 10
0.0
 20
0.0
 30
0.0
  3
*D5
  1

  0
LINE
  5
4D55
330
4048
100
AcDbEntity
  8
AM_5
100
AcDbLine
 10
-79.99999999999997
 20
-3.000000000000015
 30
0.0
 11
-79.99999999999997
 21
-16.50000099999995
 31
0.0
  0
LINE
  5
4D56
330
4048
100
AcDbEntity
  8
AM_5
100
AcDbLine
 10
0.0000000000000006
 20
-0.5000000000000005
 30
0.0
 11
-0.0000000000000003
 21
-16.50000099999995
 31
0.0
  0
LINE
  5
4D57
330
4048
100
AcDbEntity
  8
AM_5
100
AcDbLine
 10
-78.74999999999997
 20
-16.00000099999995
 30
0.0
 11
-1.25
 21
-16.00000099999995
 31
0.0
  0
INSERT
  5
4D58
330
4048
100
AcDbEntity
  8
AM_5
100
AcDbBlockReference
  2
_OPEN30
 10
-79.99999999999997
 20
-16.00000099999995
 30
0.0
 41
1.25
 42
1.25
 43
1.25
 50
180.0
  0
INSERT
  5
4D59
330
4048
100
AcDbEntity
  8
AM_5
100
AcDbBlockReference
  2
_OPEN30
 10
-0.0000000000000003
 20
-16.00000099999995
 30
0.0
 41
1.25
 42
1.25
 43
1.25
  0
MTEXT
  5
4D5A
330
4048
100
AcDbEntity
  8
AM_5
 62
     2
100
AcDbMText
 10
-39.99999999999998
 20
-14.45000099999995
 30
0.0
 40
1.6
 41
0.0
 71
     5
 72
     1
  1
80
  7
ASAMI
1001
ACAD
1000
MTEXTBEGIN
1070
    73
1070
     1
1070
    44
1040
1.0
1070
    74
1070
     0
1000
MTEXTEND
  0
POINT
  5
4D5B
330
4048
100
AcDbEntity
  8
DEFPOINTS
 62
     0
100
AcDbPoint
 10
-79.99999999999997
 20
-2.500000000000015
 30
0.0
  0
POINT
  5
4D5C
330
4048
100
AcDbEntity
  8
DEFPOINTS
 62
     0
100
AcDbPoint
 10
0.0000000000000007
 20
-0.0000000000000005
 30
0.0
  0
POINT
  5
4D5D
330
4048
100
AcDbEntity
  8
DEFPOINTS
 62
     0
100
AcDbPoint
 10
-0.0000000000000003
 20
-16.00000099999995
 30
0.0
  0
ENDBLK
  5
4053
330
4048
100
AcDbEntity
  8
0
100
AcDbBlockEnd
  0
BLOCK
  5
4135
330
412B
100
AcDbEntity
  8
0
100
AcDbBlockBegin
  2
*D6
 70
     1
 10
0.0
 20
0.0
 30
0.0
  3
*D6
  1

  0
LINE
  5
4D5E
330
412B
100
AcDbEntity
  8
AM_5
100
AcDbLine
 10
-0.0000000000000142
 20
-0.5000000000000111
 30
0.0
 11
-0.0000000000000149
 21
-10.50000099999998
 31
0.0
  0
LINE
  5
4D5F
330
412B
100
AcDbEntity
  8
AM_5
100
AcDbLine
 10
-15.0
 20
-3.0
 30
0.0
 11
-15.0
 21
-10.50000099999998
 31
0.0
  0
LINE
  5
4D60
330
412B
100
AcDbEntity
  8
AM_5
100
AcDbLine
 10
-1.250000000000014
 20
-10.00000099999998
 30
0.0
 11
-13.75
 21
-10.00000099999998
 31
0.0
  0
INSERT
  5
4D61
330
412B
100
AcDbEntity
  8
AM_5
100
AcDbBlockReference
  2
_OPEN30
 10
-0.0000000000000148
 20
-10.00000099999998
 30
0.0
 41
1.25
 42
1.25
 43
1.25
  0
INSERT
  5
4D62
330
412B
100
AcDbEntity
  8
AM_5
100
AcDbBlockReference
  2
_OPEN30
 10
-15.0
 20
-10.00000099999998
 30
0.0
 41
1.25
 42
1.25
 43
1.25
 50
180.0
  0
MTEXT
  5
4D63
330
412B
100
AcDbEntity
  8
AM_5
 62
     2
100
AcDbMText
 10
-7.500000000000006
 20
-8.450000999999986
 30
0.0
 40
1.6
 41
0.0
 71
     5
 72
     1
  1
15
  7
ASAMI
1001
ACAD
1000
MTEXTBEGIN
1070
    73
1070
     1
1070
    44
1040
1.0
1070
    74
1070
     0
1000
MTEXTEND
  0
POINT
  5
4D64
330
412B
100
AcDbEntity
  8
DEFPOINTS
 62
     0
100
AcDbPoint
 10
-0.0000000000000142
 20
-0.0000000000000111
 30
0.0
  0
POINT
  5
4D65
330
412B
100
AcDbEntity
  8
DEFPOINTS
 62
     0
100
AcDbPoint
 10
-15.0
 20
-2.5
 30
0.0
  0
POINT
  5
4D66
330
412B
100
AcDbEntity
  8
DEFPOINTS
 62
     0
100
AcDbPoint
 10
-15.0
 20
-10.00000099999998
 30
0.0
  0
ENDBLK
  5
4136
330
412B
100
AcDbEntity
  8
0
100
AcDbBlockEnd
  0
BLOCK
  5
4605
330
45F9
100
AcDbEntity
  8
0
100
AcDbBlockBegin
  2
*D7
 70
     1
 10
0.0
 20
0.0
 30
0.0
  3
*D7
  1

  0
LINE
  5
4673
330
45F9
100
AcDbEntity
  8
AM_5
100
AcDbLine
 10
-79.99999999999999
 20
2.999999999999916
 30
0.0
 11
-89.55619512995953
 21
2.999999999999919
 31
0.0
  0
LINE
  5
4674
330
45F9
100
AcDbEntity
  8
AM_5
100
AcDbLine
 10
-79.99999999999997
 20
-3.000000000000027
 30
0.0
 11
-89.55619512995953
 21
-3.000000000000024
 31
0.0
  0
LINE
  5
4675
330
45F9
100
AcDbEntity
  8
AM_5
100
AcDbLine
 10
-89.05619512995953
 20
1.749999999999918
 30
0.0
 11
-89.05619512995953
 21
-1.750000000000025
 31
0.0
  0
INSERT
  5
4676
330
45F9
100
AcDbEntity
  8
AM_5
100
AcDbBlockReference
  2
_OPEN30
 10
-89.05619512995953
 20
2.999999999999919
 30
0.0
 41
1.25
 42
1.25
 43
1.25
 50
90.0
  0
INSERT
  5
4677
330
45F9
100
AcDbEntity
  8
AM_5
100
AcDbBlockReference
  2
_OPEN30
 10
-89.05619512995953
 20
-3.000000000000024
 30
0.0
 41
1.25
 42
1.25
 43
1.25
 50
270.0
  0
MTEXT
  5
4678
330
45F9
100
AcDbEntity
  8
AM_5
 62
     2
100
AcDbMText
 10
-90.60619512995954
 20
-0.0000000000000672
 30
0.0
 40
1.6
 41
0.0
 71
     5
 72
     1
  1
%%c6
  7
ASAMI
 11
0.0000000000000001
 21
1.0
 31
0.0
1001
ACAD
1000
MTEXTBEGIN
1070
    73
1070
     1
1070
    44
1040
1.0
1070
    74
1070
     0
1000
MTEXTEND
  0
POINT
  5
4679
330
45F9
100
AcDbEntity
  8
DEFPOINTS
 62
     0
100
AcDbPoint
 10
-79.49999999999999
 20
2.999999999999916
 30
0.0
  0
POINT
  5
467A
330
45F9
100
AcDbEntity
  8
DEFPOINTS
 62
     0
100
AcDbPoint
 10
-79.49999999999997
 20
-3.000000000000027
 30
0.0
  0
POINT
  5
467B
330
45F9
100
AcDbEntity
  8
DEFPOINTS
 62
     0
100
AcDbPoint
 10
-89.05619512995953
 20
-3.000000000000024
 30
0.0
  0
ENDBLK
  5
4606
330
45F9
100
AcDbEntity
  8
0
100
AcDbBlockEnd
  0
BLOCK
  5
4772
330
4768
100
AcDbEntity
  8
0
100
AcDbBlockBegin
  2
*D8
 70
     1
 10
0.0
 20
0.0
 30
0.0
  3
*D8
  1

  0
LINE
  5
4D67
330
4768
100
AcDbEntity
  8
AM_5
100
AcDbLine
 10
-2.0
 20
2.5
 30
0.0
 11
8.841627940564759
 21
2.499999999999996
 31
0.0
  0
LINE
  5
4D68
330
4768
100
AcDbEntity
  8
AM_5
100
AcDbLine
 10
-2.5
 20
-2.5
 30
0.0
 11
8.841627940564759
 21
-2.500000000000003
 31
0.0
  0
LINE
  5
4D69
330
4768
100
AcDbEntity
  8
AM_5
100
AcDbLine
 10
8.341627940564759
 20
1.249999999999997
 30
0.0
 11
8.341627940564759
 21
-1.250000000000003
 31
0.0
  0
INSERT
  5
4D6A
330
4768
100
AcDbEntity
  8
AM_5
100
AcDbBlockReference
  2
_OPEN30
 10
8.341627940564759
 20
2.499999999999997
 30
0.0
 41
1.25
 42
1.25
 43
1.25
 50
90.0
  0
INSERT
  5
4D6B
330
4768
100
AcDbEntity
  8
AM_5
100
AcDbBlockReference
  2
_OPEN30
 10
8.341627940564759
 20
-2.500000000000003
 30
0.0
 41
1.25
 42
1.25
 43
1.25
 50
270.0
  0
MTEXT
  5
4D6C
330
4768
100
AcDbEntity
  8
AM_5
 62
     2
100
AcDbMText
 10
6.791627940564758
 20
-0.0000000000000019
 30
0.0
 40
1.6
 41
0.0
 71
     5
 72
     1
  1
%%c5
  7
ASAMI
 11
0.0000000000000001
 21
1.0
 31
0.0
1001
ACAD
1000
MTEXTBEGIN
1070
    73
1070
     1
1070
    44
1040
1.0
1070
    74
1070
     0
1000
MTEXTEND
  0
POINT
  5
4D6D
330
4768
100
AcDbEntity
  8
DEFPOINTS
 62
     0
100
AcDbPoint
 10
-2.5
 20
2.5
 30
0.0
  0
POINT
  5
4D6E
330
4768
100
AcDbEntity
  8
DEFPOINTS
 62
     0
100
AcDbPoint
 10
-3.0
 20
-2.5
 30
0.0
  0
POINT
  5
4D6F
330
4768
100
AcDbEntity
  8
DEFPOINTS
 62
     0
100
AcDbPoint
 10
8.341627940564759
 20
-2.500000000000003
 30
0.0
  0
ENDBLK
  5
4773
330
4768
100
AcDbEntity
  8
0
100
AcDbBlockEnd
  0
BLOCK
  5
4D98
330
4D91
100
AcDbEntity
  8
0
100
AcDbBlockBegin
  2
*D9
 70
     1
 10
0.0
 20
0.0
 30
0.0
  3
*D9
  1

  0
LINE
  5
4F31
330
4D91
100
AcDbEntity
  8
AM_5
100
AcDbLine
 10
4.476984400211758
 20
-9.043798842399763
 30
0.0
 11
-0.2154365009703207
 21
-2.935782927084015
 31
0.0
  0
MTEXT
  5
4F32
330
4D91
100
AcDbEntity
  8
AM_5
 62
     2
100
AcDbMText
 10
3.740690131206761
 20
-5.541131895901348
 30
0.0
 40
1.6
 41
0.0
 71
     5
 72
     1
  1
R2.5
  7
ASAMI
 11
0.6092169330746441
 21
-0.7930036118802518
 31
0.0
  0
LINE
  5
4F33
330
4D91
100
AcDbEntity
  8
AM_5
100
AcDbLine
 10
-2.500000000000234
 20
0.0379806174669284
 30
0.0
 11
-0.9769576673136256
 21
-1.944528412233701
 31
0.0
  0
INSERT
  5
4F34
330
4D91
100
AcDbEntity
  8
AM_5
100
AcDbBlockReference
  2
_OPEN30
 10
-0.9769576673136256
 20
-1.944528412233701
 30
0.0
 41
1.25
 42
1.25
 43
1.25
 50
127.5329036409812
  0
POINT
  5
4F35
330
4D91
100
AcDbEntity
  8
DEFPOINTS
 62
     0
100
AcDbPoint
 10
-0.9769576673136256
 20
-1.944528412233701
 30
0.0
  0
POINT
  5
4F36
330
4D91
100
AcDbEntity
  8
DEFPOINTS
 62
     0
100
AcDbPoint
 10
-2.500000000000234
 20
0.0379806174669284
 30
0.0
  0
ENDBLK
  5
4D99
330
4D91
100
AcDbEntity
  8
0
100
AcDbBlockEnd
  0
ENDSEC
  0
SECTION
  2
ENTITIES
  0
TEXT
  5
1500
330
1F
100
AcDbEntity
  8
AM_6
100
AcDbText
 10
-48.03571428571426
 20
-27.25000099999995
 30
0.0
 40
2.5
  1
SSB2050
 72
     4
 11
-39.99999999999997
 21
-26.00000099999995
 31
0.0
100
AcDbText
  0
LINE
  5
3EE8
330
1F
100
AcDbEntity
  8
AM_7
  6
AM_ISO08W050X2
100
AcDbLine
 10
1.341626940564765
 20
0.0
 30
0.0
 11
-82.05619412995956
 21
-0.0000000000000355
 31
0.0
1001
GENIUS_GENODEF_13
1002
{
1000
HIER
1070
     0
1002
}
1002
{
1000
MANEDIT
1070
     0
1002
}
1002
{
1000
NOSEL
1070
     0
1002
}
1002
{
1000
BEHIND
1070
     0
1002
}
1002
{
1000
REACTOR
1002
}
1001
GENIUS_GENOBJ-N-CEN_13
1002
{
1000
OWNER
1000
GEN
1002
}
  0
DIMENSION
  5
4047
330
1F
100
AcDbEntity
  8
AM_5
100
AcDbDimension
  2
*D5
 10
-0.0000000000000003
 20
-16.00000099999995
 30
0.0
 11
-39.99999999999998
 21
-14.45000099999995
 31
0.0
 70
    32
  1
<>
  3
AM_JIS
100
AcDbAlignedDimension
 13
-79.99999999999997
 23
-2.500000000000015
 33
0.0
 14
0.0000000000000007
 24
-0.0000000000000005
 34
0.0
 50
0.0000000000001132
100
AcDbRotatedDimension
1001
GENIUS_GENDTOL_13
1000

1000
h7
1000

1040
0.0
  0
DIMENSION
  5
412A
330
1F
100
AcDbEntity
  8
AM_5
100
AcDbDimension
  2
*D6
 10
-15.0
 20
-10.00000099999998
 30
0.0
 11
-7.500000000000006
 21
-8.450000999999986
 31
0.0
 70
    32
  1
<>
  3
AM_JIS
100
AcDbAlignedDimension
 13
-0.0000000000000142
 23
-0.0000000000000111
 33
0.0
 14
-15.0
 24
-2.5
 34
0.0
 50
0.0000000000001132
100
AcDbRotatedDimension
1001
GENIUS_GENDTOL_13
1000

1000
h7
1000

1040
0.0
  0
LINE
  5
45F3
330
1F
100
AcDbEntity
  8
AM_0
100
AcDbLine
 10
-19.49999999999997
 20
-2.999999999999995
 30
0.0
 11
-79.49999999999997
 21
-3.000000000000015
 31
0.0
  0
LINE
  5
45F6
330
1F
100
AcDbEntity
  8
AM_0
100
AcDbLine
 10
-79.49999999999999
 20
2.999999999999916
 30
0.0
 11
-79.49999999999997
 21
-3.000000000000024
 31
0.0
  0
LINE
  5
45F7
330
1F
100
AcDbEntity
  8
AM_0
100
AcDbLine
 10
-80.0
 20
2.499999999999916
 30
0.0
 11
-79.99999999999997
 21
-2.500000000000015
 31
0.0
  0
DIMENSION
  5
45F8
330
1F
100
AcDbEntity
  8
AM_5
100
AcDbDimension
  2
*D7
 10
-89.05619512995953
 20
-3.000000000000024
 30
0.0
 11
-90.60619512995954
 21
-0.0000000000000672
 31
0.0
 70
    32
  1
%%c<>
  3
AM_JIS
100
AcDbAlignedDimension
 13
-79.49999999999999
 23
2.999999999999916
 33
0.0
 14
-79.49999999999997
 24
-3.000000000000027
 34
0.0
 50
270.0
100
AcDbRotatedDimension
1001
GENIUS_GENDTOL_13
1000

1000
h7
1000

1040
0.0
  0
LINE
  5
4607
330
1F
100
AcDbEntity
  8
AM_0
100
AcDbLine
 10
-19.49999999999999
 20
2.999999999999916
 30
0.0
 11
-79.5
 21
2.999999999999916
 31
0.0
  0
LINE
  5
4615
330
1F
100
AcDbEntity
  8
AM_0
100
AcDbLine
 10
-79.5
 20
2.999999999999916
 30
0.0
 11
-80.0
 21
2.499999999999916
 31
0.0
1001
GENIUS_GENFIL_13
1070
     0
1040
0.5
1040
0.5
1040
20.0
1040
0.0
1002
{
1002
}
1001
GENIUS_GENODEF_13
1002
{
1000
HIER
1070
     0
1002
}
1002
{
1000
MANEDIT
1070
     0
1002
}
1002
{
1000
NOSEL
1070
     0
1002
}
1002
{
1000
BEHIND
1070
     0
1002
}
1002
{
1000
REACTOR
1002
}
1001
GENIUS_GENOBJ-N-CHA_13
1002
{
1000
OWNER
1000
GEN
1002
}
  0
LINE
  5
4618
330
1F
100
AcDbEntity
  8
AM_0
100
AcDbLine
 10
-79.99999999999997
 20
-2.500000000000015
 30
0.0
 11
-79.49999999999997
 21
-3.000000000000015
 31
0.0
1001
GENIUS_GENFIL_13
1070
     0
1040
0.5
1040
0.5
1040
20.0
1040
0.0
1002
{
1002
}
1001
GENIUS_GENODEF_13
1002
{
1000
HIER
1070
     0
1002
}
1002
{
1000
MANEDIT
1070
     0
1002
}
1002
{
1000
NOSEL
1070
     0
1002
}
1002
{
1000
BEHIND
1070
     0
1002
}
1002
{
1000
REACTOR
1002
}
1001
GENIUS_GENOBJ-N-CHA_13
1002
{
1000
OWNER
1000
GEN
1002
}
  0
SPLINE
  5
4737
330
1F
100
AcDbEntity
  8
AM_0
100
AcDbSpline
210
0.0
220
0.0
230
1.0
 70
     8
 71
     3
 72
     8
 73
     4
 74
     0
 42
0.0000000001
 43
0.0000000001
 40
1.794922859428793
 40
1.794922859428793
 40
1.794922859428793
 40
1.794922859428793
 40
17.5282628916844
 40
17.5282628916844
 40
17.5282628916844
 40
17.5282628916844
 10
-2.499999999998409
 20
-2.462019382530685
 30
0.0
 10
-5.090467656485082
 20
-2.243995901002791
 30
0.0
 10
-7.549269100815078
 20
-1.121997950501398
 30
0.0
 10
-10.0080705451453
 20
0.0
 30
0.0
  0
SPLINE
  5
4738
330
1F
100
AcDbEntity
  8
AM_0
100
AcDbSpline
210
0.0
220
0.0
230
1.0
 70
     8
 71
     3
 72
     8
 73
     4
 74
     0
 42
0.0000000001
 43
0.0000000001
 40
3.732786119440464
 40
3.732786119440464
 40
3.732786119440464
 40
3.732786119440464
 40
17.48613721147548
 40
17.48613721147548
 40
17.48613721147548
 40
17.48613721147548
 10
-2.39237648893527
 20
-2.271154805476047
 30
0.0
 10
-4.633148175447105
 20
-1.9074335539932
 30
0.0
 10
-6.790456682423379
 20
-0.9537167769966597
 30
0.0
 10
-8.947765189399657
 20
0.0
 30
0.0
  0
SPLINE
  5
4739
330
1F
100
AcDbEntity
  8
AM_0
100
AcDbSpline
210
0.0
220
0.0
230
1.0
 70
     8
 71
     3
 72
     8
 73
     4
 74
     0
 42
0.0000000001
 43
0.0000000001
 40
6.513172597598655
 40
6.513172597598655
 40
6.513172597598655
 40
6.513172597598655
 40
17.4246383984571
 40
17.4246383984571
 40
17.4246383984571
 40
17.4246383984571
 10
-2.499999999999993
 20
-1.887677297179948
 30
0.0
 10
-4.259135664353608
 20
-1.447681748514243
 30
0.0
 10
-5.979924747404767
 20
-0.7238408742571246
 30
0.0
 10
-7.70071383045592
 20
0.0
 30
0.0
  0
SPLINE
  5
473A
330
1F
100
AcDbEntity
  8
AM_0
100
AcDbSpline
210
0.0
220
0.0
230
1.0
 70
     8
 71
     3
 72
     8
 73
     4
 74
     0
 42
0.0000000001
 43
0.0000000001
 40
1.794922859432252
 40
1.794922859432252
 40
1.794922859432252
 40
1.794922859432252
 40
8.217791785374707
 40
8.217791785374707
 40
8.217791785374707
 40
8.217791785374707
 10
-2.499999999999993
 20
2.462019382530401
 30
0.0
 10
-3.557514436248085
 20
2.3730149980982
 30
0.0
 10
-4.593086145356211
 20
2.133359472503967
 30
0.0
 10
-5.615672873105944
 20
1.804553576165464
 30
0.0
  0
SPLINE
  5
473B
330
1F
100
AcDbEntity
  8
AM_0
100
AcDbSpline
210
0.0
220
0.0
230
1.0
 70
     8
 71
     3
 72
     8
 73
     4
 74
     2
 42
0.0000000001
 43
0.0000000001
 44
0.0000000001
 12
-0.8789112757303591
 22
0.4769852926391263
 32
0.0
 13
0.9988106394578341
 23
0.0487576302319218
 33
0.0
 40
0.0
 40
0.0
 40
0.0
 40
0.0
 40
1.078724930164701
 40
1.078724930164701
 40
1.078724930164701
 40
1.078724930164701
 10
-2.61389068033963
 20
0.694425824424568
 30
0.0
 10
-2.929925181850697
 20
0.8659377999218115
 30
0.0
 10
-3.326928609441956
 20
1.69591730696883
 30
0.0
 10
-2.967781297009652
 20
1.713449330724472
 30
0.0
 11
-2.61389068033963
 21
0.694425824424568
 31
0.0
 11
-2.967781297009652
 21
1.713449330724472
 31
0.0
  0
SPLINE
  5
473C
330
1F
100
AcDbEntity
  8
AM_0
100
AcDbSpline
210
0.0
220
0.0
230
1.0
 70
     8
 71
     3
 72
     8
 73
     4
 74
     2
 42
0.0000000001
 43
0.0000000001
 44
0.0000000001
 12
0.4216926876958761
 22
-0.9067388141818064
 32
0.0
 13
-0.9928045895078733
 23
-0.119745760058982
 33
0.0
 40
0.0
 40
0.0
 40
0.0
 40
0.0
 40
0.8827097282331484
 40
0.8827097282331484
 40
0.8827097282331484
 40
0.8827097282331484
 10
-2.499999999999993
 20
2.462019382530401
 30
0.0
 10
-2.375922587415349
 20
2.195223658448778
 30
0.0
 10
-2.675661873903162
 20
1.748682913162914
 30
0.0
 10
-2.967781297034201
 20
1.713449330723335
 30
0.0
 11
-2.499999999999993
 21
2.462019382530401
 31
0.0
 11
-2.967781297034201
 21
1.713449330723335
 31
0.0
  0
SPLINE
  5
473D
330
1F
100
AcDbEntity
  8
AM_0
100
AcDbSpline
210
0.0
220
0.0
230
1.0
 70
     8
 71
     3
 72
     9
 73
     5
 74
     3
 42
0.0000000001
 43
0.0000000001
 44
0.0000000001
 12
0.5867325161912577
 22
-0.8097808064185491
 32
0.0
 13
-0.8994987856269101
 23
0.436923259458356
 33
0.0
 40
0.0
 40
0.0
 40
0.0
 40
0.0
 40
0.2240065915494726
 40
0.6673311909008176
 40
0.6673311909008176
 40
0.6673311909008176
 40
0.6673311909008176
 10
-2.193206953741751
 20
-1.521299584689247
 30
0.0
 10
-2.149396303374001
 20
-1.581764997471915
 30
0.0
 10
-1.960413650605123
 20
-1.797948242104002
 30
0.0
 10
-2.367076687081636
 20
-1.952243573495501
 30
0.0
 10
-2.499999999999993
 20
-1.887677297179948
 30
0.0
 11
-2.193206953741751
 21
-1.521299584689247
 31
0.0
 11
-2.089638795441481
 21
-1.719926344326268
 31
0.0
 11
-2.499999999999993
 21
-1.887677297179948
 31
0.0
  0
SPLINE
  5
473E
330
1F
100
AcDbEntity
  8
AM_0
100
AcDbSpline
210
0.0
220
0.0
230
1.0
 70
     8
 71
     3
 72
     8
 73
     4
 74
     0
 42
0.0000000001
 43
0.0000000001
 40
15.41323093265439
 40
15.41323093265439
 40
15.41323093265439
 40
15.41323093265439
 40
17.52826289168434
 40
17.52826289168434
 40
17.52826289168434
 40
17.52826289168434
 10
-15.0
 20
1.397814659287348
 30
0.0
 10
-13.12847471045256
 20
1.057810774796166
 30
0.0
 10
-11.37525919167012
 20
0.569182272335695
 30
0.0
 10
-10.0080705451453
 20
0.0
 30
0.0
  0
SPLINE
  5
473F
330
1F
100
AcDbEntity
  8
AM_0
100
AcDbSpline
210
0.0
220
0.0
230
1.0
 70
     8
 71
     3
 72
     8
 73
     4
 74
     0
 42
0.0000000001
 43
0.0000000001
 40
13.13081676297142
 40
13.13081676297142
 40
13.13081676297142
 40
13.13081676297142
 40
17.48613721147548
 40
17.48613721147548
 40
17.48613721147548
 40
17.48613721147548
 10
-15.0
 20
1.823305370081698
 30
0.0
 10
-12.5318646974479
 20
1.327211930022801
 30
0.0
 10
-10.89100750643604
 20
0.9113060037107061
 30
0.0
 10
-8.947765189399657
 20
0.0
 30
0.0
  0
SPLINE
  5
4740
330
1F
100
AcDbEntity
  8
AM_0
100
AcDbSpline
210
0.0
220
0.0
230
1.0
 70
     8
 71
     3
 72
     8
 73
     4
 74
     0
 42
0.0000000001
 43
0.0000000001
 40
0.7484745895110383
 40
0.7484745895110383
 40
0.7484745895110383
 40
0.7484745895110383
 40
17.4246383984571
 40
17.4246383984571
 40
17.4246383984571
 40
17.4246383984571
 10
-16.7294817826156
 20
2.499999999999946
 30
0.0
 10
-13.7681967174966
 20
2.212514654039014
 30
0.0
 10
-11.33657614797738
 20
1.449702727717549
 30
0.0
 10
-7.70071383045592
 20
0.0
 30
0.0
  0
SPLINE
  5
4741
330
1F
100
AcDbEntity
  8
AM_0
100
AcDbSpline
210
0.0
220
0.0
230
1.0
 70
     8
 71
     3
 72
     8
 73
     4
 74
     0
 42
0.0000000001
 43
0.0000000001
 40
0.0
 40
0.0
 40
0.0
 40
0.0
 40
2.890953265908282
 40
2.890953265908282
 40
2.890953265908282
 40
2.890953265908282
 10
-16.84249242879318
 20
-2.499999999999994
 30
0.0
 10
-16.06096694073872
 20
-2.422140626091155
 30
0.0
 10
-15.53964723088296
 20
-2.307955205921837
 30
0.0
 10
-15.0
 20
-2.154959138419599
 30
0.0
  0
LINE
  5
4742
330
1F
100
AcDbEntity
  8
AM_0
100
AcDbLine
 10
-15.0
 20
-2.154959138419599
 30
0.0
 11
-5.615672873105951
 21
-1.804553576165629
 31
0.0
  0
LINE
  5
4743
330
1F
100
AcDbEntity
  8
AM_11
100
AcDbLine
 10
-15.0
 20
-2.5
 30
0.0
 11
-2.5
 21
-2.5
 31
0.0
  0
LINE
  5
4744
330
1F
100
AcDbEntity
  8
AM_11
100
AcDbLine
 10
-2.5
 20
2.49999999999994
 30
0.0
 11
-15.0
 21
2.499999999999941
 31
0.0
  0
LINE
  5
4745
330
1F
100
AcDbEntity
  8
AM_0
100
AcDbLine
 10
-13.99508525604447
 20
2.071617676308692
 30
0.0
 11
-2.967781297009879
 21
1.713449330724472
 31
0.0
  0
LINE
  5
4747
330
1F
100
AcDbEntity
  8
AM_11
100
AcDbLine
 10
-15.0
 20
2.499999999999941
 30
0.0
 11
-15.0
 21
-2.5
 31
0.0
  0
POLYLINE
  5
4748
330
1F
100
AcDbEntity
  8
AM_0
100
AcDb2dPolyline
 66
     1
 10
0.0
 20
0.0
 30
0.0
 70
     2
  0
VERTEX
  5
4C1A
330
4748
100
AcDbEntity
  8
AM_0
100
AcDbVertex
100
AcDb2dVertex
 10
-15.0
 20
1.397814659287348
 30
0.0
 42
0.0133190182982484
  0
VERTEX
  5
4C28
330
4748
100
AcDbEntity
  8
AM_0
100
AcDbVertex
100
AcDb2dVertex
 10
-15.56861210027201
 20
1.299669364845943
 30
0.0
 42
0.0206055082738524
 70
     1
  0
VERTEX
  5
4C1B
330
4748
100
AcDbEntity
  8
AM_0
100
AcDbVertex
100
AcDb2dVertex
 10
-15.93109597665989
 20
1.211438782222729
 30
0.0
 42
0.0010255928715063
  0
VERTEX
  5
4C29
330
4748
100
AcDbEntity
  8
AM_0
100
AcDbVertex
100
AcDb2dVertex
 10
-16.41166462047499
 20
1.072198125311388
 30
0.0
 42
0.0055579029936777
 70
     1
  0
VERTEX
  5
4C1C
330
4748
100
AcDbEntity
  8
AM_0
100
AcDbVertex
100
AcDb2dVertex
 10
-16.5
 20
1.045338059074595
 30
0.0
 42
0.0144265122349397
  0
VERTEX
  5
4C2A
330
4748
100
AcDbEntity
  8
AM_0
100
AcDbVertex
100
AcDb2dVertex
 10
-16.94201860848397
 20
0.8913864643224158
 30
0.0
 42
0.0064805851230883
 70
     1
  0
VERTEX
  5
4C1D
330
4748
100
AcDbEntity
  8
AM_0
100
AcDbVertex
100
AcDb2dVertex
 10
-17.9106555296703
 20
0.5079057817060307
 30
0.0
 42
0.0155505912919587
  0
VERTEX
  5
4C2B
330
4748
100
AcDbEntity
  8
AM_0
100
AcDbVertex
100
AcDb2dVertex
 10
-18.28332252318593
 20
0.3410249275689807
 30
0.0
 42
0.0256792573039515
 70
     1
  0
VERTEX
  5
4C1E
330
4748
100
AcDbEntity
  8
AM_0
100
AcDbVertex
100
AcDb2dVertex
 10
-18.5
 20
0.2216753352678886
 30
0.0
 42
0.0887915185079863
  0
VERTEX
  5
4C2C
330
4748
100
AcDbEntity
  8
AM_0
100
AcDbVertex
100
AcDb2dVertex
 10
-18.69380335615417
 20
0.0475604925446405
 30
0.0
 42
0.0497717146308219
 70
     1
  0
VERTEX
  5
4C1F
330
4748
100
AcDbEntity
  8
AM_0
100
AcDbVertex
100
AcDb2dVertex
 10
-18.94025552849144
 20
-0.3435520701684426
 30
0.0
 42
0.019220562583607
  0
VERTEX
  5
4C2D
330
4748
100
AcDbEntity
  8
AM_0
100
AcDbVertex
100
AcDb2dVertex
 10
-18.99667679946358
 20
-0.4684221613309206
 30
0.0
 42
0.1191256070877622
 70
     1
  0
VERTEX
  5
4C20
330
4748
100
AcDbEntity
  8
AM_0
100
AcDbVertex
100
AcDb2dVertex
 10
-19.0
 20
-0.4905885027619367
 30
0.0
 42
0.1030806632905034
  0
VERTEX
  5
4C2E
330
4748
100
AcDbEntity
  8
AM_0
100
AcDbVertex
100
AcDb2dVertex
 10
-18.98982410153229
 20
-0.5242268696816979
 30
0.0
 42
0.0306967340520419
 70
     1
  0
VERTEX
  5
4C21
330
4748
100
AcDbEntity
  8
AM_0
100
AcDbVertex
100
AcDb2dVertex
 10
-18.92768114308159
 20
-0.6232217255752354
 30
0.0
 42
0.0325479444974181
  0
VERTEX
  5
4C2F
330
4748
100
AcDbEntity
  8
AM_0
100
AcDbVertex
100
AcDb2dVertex
 10
-18.78395610981647
 20
-0.7984260493983726
 30
0.0
 42
0.0250903602213412
 70
     1
  0
VERTEX
  5
4C22
330
4748
100
AcDbEntity
  8
AM_0
100
AcDbVertex
100
AcDb2dVertex
 10
-18.57270474637957
 20
-1.002671979174463
 30
0.0
 42
0.0351390755216263
  0
VERTEX
  5
4C30
330
4748
100
AcDbEntity
  8
AM_0
100
AcDbVertex
100
AcDb2dVertex
 10
-18.28707743866397
 20
-1.218960999818861
 30
0.0
 42
0.029402247913624
 70
     1
  0
VERTEX
  5
4C23
330
4748
100
AcDbEntity
  8
AM_0
100
AcDbVertex
100
AcDb2dVertex
 10
-17.91543303455956
 20
-1.431298192460417
 30
0.0
 42
0.0290499554422328
  0
VERTEX
  5
4C31
330
4748
100
AcDbEntity
  8
AM_0
100
AcDbVertex
100
AcDb2dVertex
 10
-17.31358295580118
 20
-1.687327075717952
 30
0.0
 42
0.028925086886514
 70
     1
  0
VERTEX
  5
4C24
330
4748
100
AcDbEntity
  8
AM_0
100
AcDbVertex
100
AcDb2dVertex
 10
-16.6834560048641
 20
-1.872824878336464
 30
0.0
 42
0.0065284305324324
  0
VERTEX
  5
4C33
330
4748
100
AcDbEntity
  8
AM_0
100
AcDbVertex
100
AcDb2dVertex
 10
-16.43474568329293
 20
-1.92724224199037
 30
0.0
 42
0.0025850798106436
 70
     1
  0
VERTEX
  5
4C25
330
4748
100
AcDbEntity
  8
AM_0
100
AcDbVertex
100
AcDb2dVertex
 10
-15.80426817169201
 20
-2.053194341617484
 30
0.0
 42
0.0165376614770678
  0
VERTEX
  5
4C32
330
4748
100
AcDbEntity
  8
AM_0
100
AcDbVertex
100
AcDb2dVertex
 10
-15.52053615590887
 20
-2.098672693082123
 30
0.0
 42
0.0090747089660156
 70
     1
  0
VERTEX
  5
4C26
330
4748
100
AcDbEntity
  8
AM_0
100
AcDbVertex
100
AcDb2dVertex
 10
-15.0
 20
-2.154959138419599
 30
0.0
  0
SEQEND
  5
4C27
330
4748
100
AcDbEntity
  8
AM_0
  0
DIMENSION
  5
4759
330
1F
100
AcDbEntity
  8
AM_5
100
AcDbDimension
  2
*D8
 10
8.341627940564759
 20
-2.500000000000003
 30
0.0
 11
6.791627940564758
 21
-0.0000000000000019
 31
0.0
 70
    32
  1
%%c<>
  3
AM_JIS
100
AcDbAlignedDimension
 13
-2.5
 23
2.5
 33
0.0
 14
-3.0
 24
-2.5
 34
0.0
 50
90.0
100
AcDbRotatedDimension
1001
GENIUS_GENDTOL_13
1000

1000
h7
1000

1040
0.0
  0
ARC
  5
475A
330
1F
100
AcDbEntity
  8
AM_0
100
AcDbCircle
 10
-2.500000000000235
 20
0.0379806174669284
 30
0.0
 40
2.5
100
AcDbArc
 50
270.0000000000781
 51
359.1295148788724
  0
ARC
  5
475C
330
1F
100
AcDbEntity
  8
AM_0
100
AcDbCircle
 10
-2.419532774453963
 20
0.671628462405692
 30
0.0
 40
2.204576330467315
100
AcDbArc
 50
275.8924707062755
 51
339.8416840647174
  0
LINE
  5
475D
330
1F
100
AcDbEntity
  8
AM_0
100
AcDbLine
 10
-0.0000000000000009
 20
0.0
 30
0.0
 11
-2.967781297009651
 21
1.713449330724472
 31
0.0
  0
ARC
  5
475E
330
1F
100
AcDbEntity
  8
AM_0
100
AcDbCircle
 10
-2.500000000000007
 20
-0.0379806174695426
 30
0.0
 40
2.5
100
AcDbArc
 50
0.8704851212057906
 51
90.0
  0
LINE
  5
475F
330
1F
100
AcDbEntity
  8
AM_0
100
AcDbLine
 10
-0.3500000000001373
 20
-0.0881023401275331
 30
0.0
 11
-2.613890680339637
 21
0.694425824424571
 31
0.0
  0
ARC
  5
4760
330
1F
100
AcDbEntity
  8
AM_11
100
AcDbCircle
 10
-2.500000000000007
 20
0.0
 30
0.0
 40
2.5
100
AcDbArc
 50
270.0
 51
90.0
  0
ARC
  5
4761
330
1F
100
AcDbEntity
  8
AM_0
100
AcDbCircle
 10
-2.568427238397142
 20
0.1919168762368588
 30
0.0
 40
2.469355376538952
100
AcDbArc
 50
274.0883259404363
 51
353.4887846299623
  0
ARC
  5
4762
330
1F
100
AcDbEntity
  8
AM_0
100
AcDbCircle
 10
-0.1025704564203886
 20
0.0234332065602979
 30
0.0
 40
2.599415388177602
100
AcDbArc
 50
165.040742132377
 51
216.4600123166023
  0
LINE
  5
4763
330
1F
100
AcDbEntity
  8
AM_0
100
AcDbLine
 10
-2.39237648893527
 20
-2.271154805475929
 30
0.0
 11
-2.500000000000228
 21
-1.887677297179948
 31
0.0
  0
LINE
  5
4764
330
1F
100
AcDbEntity
  8
AM_0
100
AcDbLine
 10
-2.49999999996976
 20
-2.462019382533071
 30
0.0
 11
-2.39237648893527
 21
-2.271154805475929
 31
0.0
  0
LINE
  5
4765
330
1F
100
AcDbEntity
  8
AM_0
100
AcDbLine
 10
-0.11500000000001
 20
-0.0881023401275331
 30
0.0
 11
-0.3500000000001373
 21
-0.0881023401275331
 31
0.0
  0
LINE
  5
4766
330
1F
100
AcDbEntity
  8
AM_0
100
AcDbLine
 10
-0.0000000000000009
 20
0.0
 30
0.0
 11
-0.11500000000001
 21
-0.0881023401275331
 31
0.0
  0
LINE
  5
4ADA
330
1F
100
AcDbEntity
  8
AM_0
100
AcDbLine
 10
-19.49999999999999
 20
2.999999999999916
 30
0.0
 11
-19.49999999999997
 21
-2.999999999999995
 31
0.0
  0
LINE
  5
4AF5
330
1F
100
AcDbEntity
  8
AM_0
100
AcDbLine
 10
-16.72948178242521
 20
2.499999999999937
 30
0.0
 11
-17.63397459621563
 21
2.499999999999936
 31
0.0
  0
LINE
  5
4AF6
330
1F
100
AcDbEntity
  8
AM_0
100
AcDbLine
 10
-17.63397459621563
 20
2.499999999999936
 30
0.0
 11
-19.49999999999999
 21
2.999999999999916
 31
0.0
  0
LINE
  5
4AF7
330
1F
100
AcDbEntity
  8
AM_0
100
AcDbLine
 10
-16.8424924287665
 20
-2.500000000000002
 30
0.0
 11
-17.63397459621557
 21
-2.500000000000007
 31
0.0
  0
LINE
  5
4AF8
330
1F
100
AcDbEntity
  8
AM_0
100
AcDbLine
 10
-17.63397459621557
 20
-2.500000000000007
 30
0.0
 11
-19.49999999999997
 21
-2.999999999999995
 31
0.0
  0
LINE
  5
4AF9
330
1F
100
AcDbEntity
  8
AM_0
100
AcDbLine
 10
-17.63397459621557
 20
-2.500000000000007
 30
0.0
 11
-17.63397459621558
 21
-1.561327050438121
 31
0.0
  0
LINE
  5
4C18
330
1F
100
AcDbEntity
  8
AM_0
100
AcDbLine
 10
-15.0
 20
1.397814659287348
 30
0.0
 11
-15.0
 21
2.268363225069011
 31
0.0
  0
LINE
  5
4C34
330
1F
100
AcDbEntity
  8
AM_0
100
AcDbLine
 10
-17.6339745962156
 20
0.6204128326229892
 30
0.0
 11
-17.63397459621563
 21
2.499999999999936
 31
0.0
  0
DIMENSION
  5
4D90
330
1F
100
AcDbEntity
  8
AM_5
100
AcDbDimension
  2
*D9
 10
-2.500000000000234
 20
0.0379806174669284
 30
0.0
 11
3.740690131206761
 21
-5.541131895901348
 31
0.0
 70
    36
  1
<>
  3
AM_JIS$4
100
AcDbRadialDimension
 15
-0.9769576673136256
 25
-1.944528412233701
 35
0.0
 40
0.0
1001
GENIUS_GENDTOL_13
1000

1000
h7
1000

1040
0.0
1001
ACAD
1000
DSTYLE
1002
{
1070
   287
1070
     3
1070
   271
1070
     3
1070
   288
1070
     1
1070
   289
1070
     3
1070
   172
1070
     1
1070
    74
1070
     0
1002
}
  0
VIEWPORT
  5
110
330
101
100
AcDbEntity
 67
     1
  8
0
100
AcDbViewport
 10
420.5
 20
297.0
 30
0.0
 40
948.9782706766916
 41
628.452
 68
     1
 69
     1
1001
ACAD
1000
MVIEW
1002
{
1070
    16
1010
0.0
1020
0.0
1030
0.0
1010
0.0
1020
0.0
1030
1.0
1040
0.0
1040
628.452
1040
420.5
1040
297.0
1040
50.0
1040
0.0
1040
0.0
1070
     0
1070
   100
1070
     1
1070
     1
1070
     0
1070
     0
1070
     0
1070
     0
1040
0.0
1040
0.0
1040
0.0
1040
10.0
1040
10.0
1040
10.0
1040
10.0
1070
     0
1002
{
1002
}
1002
}
  0
ENDSEC
  0
SECTION
  2
OBJECTS
  0
DICTIONARY
  5
C
330
0
100
AcDbDictionary
  3
ACAD_GROUP
350
D
  3
ACAD_LAYOUT
350
1A
  3
ACAD_MLINESTYLE
350
17
  3
ACAD_PLOTSETTINGS
350
19
  3
ACAD_PLOTSTYLENAME
350
E
  3
ACDBVARIABLEDICTIONARY
350
34
  3
ACMDICTIONARY
350
43
  3
AMG
350
2B
  3
AMGSNAPSETTINGS
350
6E
  3
ASE_INDEX_DICTIONARY
350
151A
  3
DWGPROPS
350
4EFB
  3
ACDBHEADERROUNDTRIPXREC
350
4F07
  0
DICTIONARY
  5
74
330
1F
100
AcDbDictionary
280
     1
  3
ACAD_INDEX
360
4EFD
  3
ACAD_LAYOUTSELFREF
360
4F2A
  0
DICTIONARY
  5
4F2F
330
101
100
AcDbDictionary
280
     1
  3
ACAD_LAYOUTSELFREF
360
4F30
  0
DICTIONARY
  5
D
102
{ACAD_REACTORS
330
C
102
}
330
C
100
AcDbDictionary
  0
DICTIONARY
  5
1A
102
{ACAD_REACTORS
330
C
102
}
330
C
100
AcDbDictionary
  0
DICTIONARY
  5
17
102
{ACAD_REACTORS
330
C
102
}
330
C
100
AcDbDictionary
  3
STANDARD
350
18
  0
DICTIONARY
  5
19
102
{ACAD_REACTORS
330
C
102
}
330
C
100
AcDbDictionary
  0
ACDBDICTIONARYWDFLT
  5
E
102
{ACAD_REACTORS
330
C
102
}
330
C
100
AcDbDictionary
281
     1
  3
Normal
350
F
100
AcDbDictionaryWithDefault
340
F
  0
DICTIONARY
  5
34
102
{ACAD_REACTORS
330
C
102
}
330
C
100
AcDbDictionary
  3
INDEXCTL
350
35
  3
SORTENTS
350
B5E
  0
DICTIONARY
  5
43
102
{ACAD_REACTORS
330
C
102
}
330
C
100
AcDbDictionary
  3
ACMSTDDICTIONARY
350
260
  0
DICTIONARY
  5
2B
102
{ACAD_REACTORS
330
C
102
}
330
C
100
AcDbDictionary
  3
ACMGSETTINGS
350
2C
  0
DICTIONARY
  5
6E
102
{ACAD_REACTORS
330
C
102
}
330
C
100
AcDbDictionary
  0
DICTIONARY
  5
151A
102
{ACAD_REACTORS
330
C
102
}
330
C
100
AcDbDictionary
  3
ASEBLOCKHIERARCHYINDEXRECORD
350
151C
1001
DCO15
1040
1471862535.906
  0
XRECORD
  5
4EFB
102
{ACAD_REACTORS
330
C
102
}
330
C
100
AcDbXrecord
  1
DWGPROPS COOKIE
  2

  3

  4

  6

  7

  8

  9

300
AmdtFileType=82
301
=
302
=
303
=
304
=
305
=
306
=
307
=
308
=
309
=
 40
0.1782523148148148
 41
2452838.430434386
 42
2452871.598484421
  1

 90
        1
  0
DICTIONARY
  5
4F07
102
{ACAD_REACTORS
330
C
102
}
330
C
100
AcDbDictionary
  3
TSTACKALIGN
350
4F08
  3
TSTACKSIZE
350
4F09
  3
HYPERLINKBASE
350
4F0A
  3
STYLESHEET
350
4F0B
  3
LAYOUTDICT
350
4F0C
  3
PLOTSETDICT
350
4F0D
  3
PLOTSTYLNAMDICT
350
4F0E
  3
LWETCUNION
350
4F0F
  3
INSUNITS
350
4F10
  3
CEPSNTYPE
350
4F11
  3
FINGERPRINTGUID
350
4F12
  3
VERSIONGUID
350
4F13
  3
PSVPSCALE
350
4F14
  3
DIMSTYLEDATA
350
4F15
  3
PUCSORTHOREF
350
4F16
  3
PUCSORTHOVIEW
350
4F17
  3
PUCSBASE
350
4F18
  3
PUCSORGTOP
350
4F19
  3
PUCSORGBOTTOM
350
4F1A
  3
PUCSORGLEFT
350
4F1B
  3
PUCSORGRIGHT
350
4F1C
  3
PUCSORGFRONT
350
4F1D
  3
PUCSORGBACK
350
4F1E
  3
UCSORTHOREF
350
4F1F
  3
UCSORTHOVIEW
350
4F20
  3
UCSBASE
350
4F21
  3
UCSORGTOP
350
4F22
  3
UCSORGBOTTOM
350
4F23
  3
UCSORGLEFT
350
4F24
  3
UCSORGRIGHT
350
4F25
  3
UCSORGFRONT
350
4F26
  3
UCSORGBACK
350
4F27
  0
DICTIONARY
  5
4EFD
102
{ACAD_REACTORS
330
74
102
}
330
74
100
AcDbDictionary
  3
*A1
350
4EFE
  0
XRECORD
  5
4F2A
102
{ACAD_REACTORS
330
74
102
}
330
74
100
AcDbXrecord
340
1F
  0
XRECORD
  5
4F30
102
{ACAD_REACTORS
330
4F2F
102
}
330
4F2F
100
AcDbXrecord
340
101
  0
MLINESTYLE
  5
18
102
{ACAD_REACTORS
330
17
102
}
330
17
100
AcDbMlineStyle
  2
STANDARD
 70
     0
  3

 62
   256
 51
90.0
 52
90.0
 71
     2
 49
0.5
 62
   256
  6
BYLAYER
 49
-0.5
 62
   256
  6
BYLAYER
  0
ACDBPLACEHOLDER
  5
F
102
{ACAD_REACTORS
330
E
102
}
330
E
100
AcDbPlaceHolder
280
     0
  0
DICTIONARYVAR
  5
35
102
{ACAD_REACTORS
330
34
102
}
330
34
100
DictionaryVariables
280
     0
  1
1
  0
DICTIONARYVAR
  5
B5E
102
{ACAD_REACTORS
330
34
102
}
330
34
100
DictionaryVariables
280
     0
  1
96
  0
DICTIONARY
  5
260
102
{ACAD_REACTORS
330
43
102
}
330
43
100
AcDbDictionary
  0
DICTIONARY
  5
2C
102
{ACAD_REACTORS
330
2B
102
}
330
2B
100
AcDbDictionary
  3
DWGSETTINGS
350
2D
  0
XRECORD
  5
151C
102
{ACAD_REACTORS
330
151A
102
}
330
151A
100
AcDbXrecord
330
0
330
0
330
0
330
0
330
0
330
0
330
0
330
0
  0
XRECORD
  5
4F08
102
{ACAD_REACTORS
330
4F07
102
}
330
4F07
100
AcDbXrecord
 90
        1
  0
XRECORD
  5
4F09
102
{ACAD_REACTORS
330
4F07
102
}
330
4F07
100
AcDbXrecord
 90
       70
  0
XRECORD
  5
4F0A
102
{ACAD_REACTORS
330
4F07
102
}
330
4F07
100
AcDbXrecord
  1

  0
XRECORD
  5
4F0B
102
{ACAD_REACTORS
330
4F07
102
}
330
4F07
100
AcDbXrecord
  1
ASAMI.ctb
  0
XRECORD
  5
4F0C
102
{ACAD_REACTORS
330
4F07
102
}
330
4F07
100
AcDbXrecord
340
1A
  0
XRECORD
  5
4F0D
102
{ACAD_REACTORS
330
4F07
102
}
330
4F07
100
AcDbXrecord
340
19
  0
XRECORD
  5
4F0E
102
{ACAD_REACTORS
330
4F07
102
}
330
4F07
100
AcDbXrecord
340
E
  0
XRECORD
  5
4F0F
102
{ACAD_REACTORS
330
4F07
102
}
330
4F07
100
AcDbXrecord
 90
    10781
  0
XRECORD
  5
4F10
102
{ACAD_REACTORS
330
4F07
102
}
330
4F07
100
AcDbXrecord
 90
        4
  0
XRECORD
  5
4F11
102
{ACAD_REACTORS
330
4F07
102
}
330
4F07
100
AcDbXrecord
 90
        0
  0
XRECORD
  5
4F12
102
{ACAD_REACTORS
330
4F07
102
}
330
4F07
100
AcDbXrecord
  1
{AFB28963-8C59-40AE-9337-C84526B81ACE}
  0
XRECORD
  5
4F13
102
{ACAD_REACTORS
330
4F07
102
}
330
4F07
100
AcDbXrecord
  1
{052717AE-1CEC-47AF-9A30-E51546EF7716}
  0
XRECORD
  5
4F14
102
{ACAD_REACTORS
330
4F07
102
}
330
4F07
100
AcDbXrecord
 40
0.0
  0
XRECORD
  5
4F15
102
{ACAD_REACTORS
330
4F07
102
}
330
4F07
100
AcDbXrecord
1000
DSTYLE
1002
{
1070
    79
 70
     2
1070
   341
340
59
1070
   342
340
59
1070
   371
 70
    -1
1070
   372
 70
    -1
1002
}
  0
XRECORD
  5
4F16
102
{ACAD_REACTORS
330
4F07
102
}
330
4F07
100
AcDbXrecord
340
0
  0
XRECORD
  5
4F17
102
{ACAD_REACTORS
330
4F07
102
}
330
4F07
100
AcDbXrecord
 70
     0
  0
XRECORD
  5
4F18
102
{ACAD_REACTORS
330
4F07
102
}
330
4F07
100
AcDbXrecord
340
0
  0
XRECORD
  5
4F19
102
{ACAD_REACTORS
330
4F07
102
}
330
4F07
100
AcDbXrecord
 10
0.0
 20
0.0
 30
0.0
  0
XRECORD
  5
4F1A
102
{ACAD_REACTORS
330
4F07
102
}
330
4F07
100
AcDbXrecord
 10
0.0
 20
0.0
 30
0.0
  0
XRECORD
  5
4F1B
102
{ACAD_REACTORS
330
4F07
102
}
330
4F07
100
AcDbXrecord
 10
0.0
 20
0.0
 30
0.0
  0
XRECORD
  5
4F1C
102
{ACAD_REACTORS
330
4F07
102
}
330
4F07
100
AcDbXrecord
 10
0.0
 20
0.0
 30
0.0
  0
XRECORD
  5
4F1D
102
{ACAD_REACTORS
330
4F07
102
}
330
4F07
100
AcDbXrecord
 10
0.0
 20
0.0
 30
0.0
  0
XRECORD
  5
4F1E
102
{ACAD_REACTORS
330
4F07
102
}
330
4F07
100
AcDbXrecord
 10
0.0
 20
0.0
 30
0.0
  0
XRECORD
  5
4F1F
102
{ACAD_REACTORS
330
4F07
102
}
330
4F07
100
AcDbXrecord
340
0
  0
XRECORD
  5
4F20
102
{ACAD_REACTORS
330
4F07
102
}
330
4F07
100
AcDbXrecord
 70
     0
  0
XRECORD
  5
4F21
102
{ACAD_REACTORS
330
4F07
102
}
330
4F07
100
AcDbXrecord
340
0
  0
XRECORD
  5
4F22
102
{ACAD_REACTORS
330
4F07
102
}
330
4F07
100
AcDbXrecord
 10
0.0
 20
0.0
 30
0.0
  0
XRECORD
  5
4F23
102
{ACAD_REACTORS
330
4F07
102
}
330
4F07
100
AcDbXrecord
 10
0.0
 20
0.0
 30
0.0
  0
XRECORD
  5
4F24
102
{ACAD_REACTORS
330
4F07
102
}
330
4F07
100
AcDbXrecord
 10
0.0
 20
0.0
 30
0.0
  0
XRECORD
  5
4F25
102
{ACAD_REACTORS
330
4F07
102
}
330
4F07
100
AcDbXrecord
 10
0.0
 20
0.0
 30
0.0
  0
XRECORD
  5
4F26
102
{ACAD_REACTORS
330
4F07
102
}
330
4F07
100
AcDbXrecord
 10
0.0
 20
0.0
 30
0.0
  0
XRECORD
  5
4F27
102
{ACAD_REACTORS
330
4F07
102
}
330
4F07
100
AcDbXrecord
 10
0.0
 20
0.0
 30
0.0
  0
LAYER_INDEX
  5
4EFE
102
{ACAD_REACTORS
330
4EFD
102
}
330
4EFD
100
AcDbIndex
 40
2453151.85948647
100
AcDbLayerIndex
  8
0
360
4EFF
 90
        0
  8
AM_0
360
4F00
 90
       39
  8
AM_11
360
4F01
 90
        4
  8
AM_7
360
4F02
 90
        1
  8
AM_5
360
4F03
 90
        5
  8
Defpoints
360
4F04
 90
        0
  8
AM_6
360
4F05
 90
        1
  0
XRECORD
  5
2D
102
{ACAD_REACTORS
330
2C
102
}
330
2C
100
AcDbXrecord
  1
VERSION
140
15.0
  1
PRODUCT
  2
AutoCAD Mechanical 2000
  0
IDBUFFER
  5
4EFF
330
0
100
AcDbIdBuffer
  0
IDBUFFER
  5
4F00
330
0
100
AcDbIdBuffer
330
4741
330
4742
330
4745
330
4748
330
475A
330
475C
330
475D
330
475E
330
475F
330
4761
330
4762
330
4763
330
4764
330
4765
330
4766
330
4ADA
330
4AF5
330
4AF6
330
4AF7
330
4AF8
330
4AF9
330
4C18
330
4C34
330
45F3
330
45F6
330
45F7
330
4607
330
4615
330
4618
330
4737
330
4738
330
4739
330
473A
330
473B
330
473C
330
473D
330
473E
330
473F
330
4740
  0
IDBUFFER
  5
4F01
330
0
100
AcDbIdBuffer
330
4743
330
4744
330
4747
330
4760
  0
IDBUFFER
  5
4F02
330
0
100
AcDbIdBuffer
330
3EE8
  0
IDBUFFER
  5
4F03
330
0
100
AcDbIdBuffer
330
4047
330
412A
330
45F8
330
4759
330
4D90
  0
IDBUFFER
  5
4F04
330
0
100
AcDbIdBuffer
  0
IDBUFFER
  5
4F05
330
0
100
AcDbIdBuffer
330
1500
  0
ENDSEC
  0
EOF
