  0
SECTION
  2
HEADER
  9
$ACADVER
  1
AC1014
  9
$ACADMAINTVER
 70
     9
  9
$DWGCODEPAGE
  3
ANSI_932
  9
$INSBASE
 10
0.0
 20
0.0
 30
0.0
  9
$EXTMIN
 10
-55.7333333333334
 20
-23.16667000416651
 30
-0.00000001
  9
$EXTMAX
 10
5.879808022829973
 20
4.385714285714279
 30
0.00000001
  9
$LIMMIN
 10
-65.08432461036409
 20
-33.15080227214883
  9
$LIMMAX
 10
13.84083698535715
 20
15.53224891408746
  9
$ORTHOMODE
 70
     0
  9
$REGENMODE
 70
     1
  9
$FILLMODE
 70
     1
  9
$QTEXTMODE
 70
     0
  9
$MIRRTEXT
 70
     0
  9
$DRAGMODE
 70
     2
  9
$LTSCALE
 40
0.3
  9
$OSMODE
 70
    55
  9
$ATTMODE
 70
     1
  9
$TEXTSIZE
 40
2.5
  9
$TRACEWID
 40
1.0
  9
$TEXTSTYLE
  7
STANDARD
  9
$CLAYER
  8
AM_0
  9
$CELTYPE
  6
BYLAYER
  9
$CECOLOR
 62
   256
  9
$CELTSCALE
 40
1.0
  9
$DELOBJ
 70
     1
  9
$DISPSILH
 70
     0
  9
$DIMSCALE
 40
0.3333333333333333
  9
$DIMASZ
 40
2.5
  9
$DIMEXO
 40
1.0
  9
$DIMDLI
 40
12.0
  9
$DIMRND
 40
0.0
  9
$DIMDLE
 40
0.0
  9
$DIMEXE
 40
1.0
  9
$DIMTP
 40
0.1
  9
$DIMTM
 40
0.1
  9
$DIMTXT
 40
3.2
  9
$DIMCEN
 40
0.0
  9
$DIMTSZ
 40
0.0
  9
$DIMTOL
 70
     0
  9
$DIMLIM
 70
     0
  9
$DIMTIH
 70
     0
  9
$DIMTOH
 70
     0
  9
$DIMSE1
 70
     0
  9
$DIMSE2
 70
     0
  9
$DIMTAD
 70
     3
  9
$DIMZIN
 70
     8
  9
$DIMBLK
  1
OPEN30
  9
$DIMASO
 70
     1
  9
$DIMSHO
 70
     1
  9
$DIMPOST
  1

  9
$DIMAPOST
  1
"
  9
$DIMALT
 70
     0
  9
$DIMALTD
 70
     2
  9
$DIMALTF
 40
0.0393701
  9
$DIMLFAC
 40
1.0
  9
$DIMTOFL
 70
     1
  9
$DIMTVP
 40
0.0
  9
$DIMTIX
 70
     0
  9
$DIMSOXD
 70
     0
  9
$DIMSAH
 70
     0
  9
$DIMBLK1
  1

  9
$DIMBLK2
  1

  9
$DIMSTYLE
  2
AM_JIS
  9
$DIMCLRD
 70
   256
  9
$DIMCLRE
 70
   256
  9
$DIMCLRT
 70
     2
  9
$DIMTFAC
 40
0.71
  9
$DIMGAP
 40
1.5
  9
$DIMJUST
 70
     0
  9
$DIMSD1
 70
     0
  9
$DIMSD2
 70
     0
  9
$DIMTOLJ
 70
     0
  9
$DIMTZIN
 70
     0
  9
$DIMALTZ
 70
     0
  9
$DIMALTTZ
 70
     0
  9
$DIMFIT
 70
     3
  9
$DIMUPT
 70
     0
  9
$DIMUNIT
 70
     2
  9
$DIMDEC
 70
     3
  9
$DIMTDEC
 70
     3
  9
$DIMALTU
 70
     2
  9
$DIMALTTD
 70
     2
  9
$DIMTXSTY
  7
ASAMI
  9
$DIMAUNIT
 70
     0
  9
$LUNITS
 70
     2
  9
$LUPREC
 70
     2
  9
$SKETCHINC
 40
1.0
  9
$FILLETRAD
 40
0.5
  9
$AUNITS
 70
     0
  9
$AUPREC
 70
     0
  9
$MENU
  1
.
  9
$ELEVATION
 40
0.0
  9
$PELEVATION
 40
0.0
  9
$THICKNESS
 40
0.0
  9
$LIMCHECK
 70
     0
  9
$BLIPMODE
 70
     0
  9
$CHAMFERA
 40
0.5
  9
$CHAMFERB
 40
0.5
  9
$CHAMFERC
 40
20.0
  9
$CHAMFERD
 40
0.0
  9
$SKPOLY
 70
     0
  9
$TDCREATE
 40
2452838.620506898
  9
$TDUPDATE
 40
2453151.850856690
  9
$TDINDWG
 40
0.3541519444
  9
$TDUSRTIMER
 40
0.3541519444
  9
$USRTIMER
 70
     1
  9
$ANGBASE
 50
0.0
  9
$ANGDIR
 70
     0
  9
$PDMODE
 70
     0
  9
$PDSIZE
 40
0.0
  9
$PLINEWID
 40
0.0
  9
$COORDS
 70
     1
  9
$SPLFRAME
 70
     0
  9
$SPLINETYPE
 70
     6
  9
$SPLINESEGS
 70
     8
  9
$ATTDIA
 70
     1
  9
$ATTREQ
 70
     1
  9
$HANDLING
 70
 12289
  9
$HANDSEED
  5
276F
  9
$SURFTAB1
 70
     6
  9
$SURFTAB2
 70
     6
  9
$SURFTYPE
 70
     6
  9
$SURFU
 70
     6
  9
$SURFV
 70
     6
  9
$UCSNAME
  2

  9
$UCSORG
 10
-0.0000000000000568
 20
-0.0000000000000036
 30
0.0
  9
$UCSXDIR
 10
1.0
 20
0.0
 30
0.0
  9
$UCSYDIR
 10
0.0
 20
1.0
 30
0.0
  9
$PUCSNAME
  2

  9
$PUCSORG
 10
0.0
 20
0.0
 30
0.0
  9
$PUCSXDIR
 10
1.0
 20
0.0
 30
0.0
  9
$PUCSYDIR
 10
0.0
 20
1.0
 30
0.0
  9
$USERI1
 70
     0
  9
$USERI2
 70
     0
  9
$USERI3
 70
     0
  9
$USERI4
 70
     0
  9
$USERI5
 70
     0
  9
$USERR1
 40
0.0
  9
$USERR2
 40
0.0
  9
$USERR3
 40
0.0
  9
$USERR4
 40
0.0
  9
$USERR5
 40
0.0
  9
$WORLDVIEW
 70
     1
  9
$SHADEDGE
 70
     3
  9
$SHADEDIF
 70
    70
  9
$TILEMODE
 70
     1
  9
$MAXACTVP
 70
    64
  9
$PINSBASE
 10
0.0
 20
0.0
 30
0.0
  9
$PLIMCHECK
 70
     0
  9
$PEXTMIN
 10
1.000000000000000E+20
 20
1.000000000000000E+20
 30
1.000000000000000E+20
  9
$PEXTMAX
 10
-1.000000000000000E+20
 20
-1.000000000000000E+20
 30
-1.000000000000000E+20
  9
$PLIMMIN
 10
0.0
 20
0.0
  9
$PLIMMAX
 10
841.0
 20
594.0
  9
$UNITMODE
 70
     0
  9
$VISRETAIN
 70
     1
  9
$PLINEGEN
 70
     0
  9
$PSLTSCALE
 70
     0
  9
$TREEDEPTH
 70
  3020
  9
$PICKSTYLE
 70
     0
  9
$CMLSTYLE
  2
STANDARD
  9
$CMLJUST
 70
     0
  9
$CMLSCALE
 40
20.0
  9
$PROXYGRAPHICS
 70
     1
  9
$MEASUREMENT
 70
     1
  0
ENDSEC
  0
SECTION
  2
CLASSES
  0
CLASS
  1
ACDBDICTIONARYWDFLT
  2
AcDbDictionaryWithDefault
  3
AutoCAD 2000
 90
        0
280
     0
281
     0
  0
CLASS
  1
ACDBPLACEHOLDER
  2
AcDbPlaceHolder
  3
AutoCAD 2000
 90
        0
280
     0
281
     0
  0
CLASS
  1
LAYOUT
  2
AcDbLayout
  3
AutoCAD 2000
 90
        0
280
     0
281
     0
  0
CLASS
  1
AMGSETTINGSOBJ
  2
AmgSettingsObj
  3
"AcadM|Product Description: AutoCAD Mechanical 2000|Company: Autodesk"
 90
        0
280
     0
281
     0
  0
CLASS
  1
ACME_DOCUMENT
  2
AcMeDbDoc
  3
AcMeServices
 90
        0
280
     0
281
     0
  0
CLASS
  1
ACMESCOPE
  2
AcMeScope
  3
AcMeServices
 90
        0
280
     0
281
     0
  0
CLASS
  1
ACMECOMMANDHISTORY
  2
AcMeCommandHistory
  3
AcMeServices
 90
        0
280
     0
281
     0
  0
CLASS
  1
DICTIONARYVAR
  2
AcDbDictionaryVar
  3
AutoCAD 2000
 90
        0
280
     0
281
     0
  0
CLASS
  1
ACIMSYSVARMAN
  2
AcImSysVarManager
  3
AcMeServices
 90
        0
280
     0
281
     0
  0
CLASS
  1
ACIMREALSYSVAR
  2
AcImRealSysVar
  3
AcMeServices
 90
        0
280
     0
281
     0
  0
CLASS
  1
ACIMINTSYSVAR
  2
AcImIntSysVar
  3
AcMeServices
 90
        0
280
     0
281
     0
  0
CLASS
  1
ACMEDRAWINGMAN
  2
AcMeDrawingMan
  3
AcMeServices
 90
        0
280
     0
281
     0
  0
CLASS
  1
ACMEVIEW
  2
AcMeView
  3
AcMeServices
 90
        0
280
     0
281
     0
  0
CLASS
  1
ACDBENTITYCACHE
  2
AcMeEntityCache
  3
AcMeServices
 90
        0
280
     0
281
     0
  0
CLASS
  1
GSMANAGER
  2
AcMeGSManager
  3
AcMeServices
 90
        0
280
     0
281
     0
  0
CLASS
  1
AmdtInternalReactor
  2
AmdtInternalReactor
  3
AcMeServices
 90
        0
280
     0
281
     0
  0
CLASS
  1
ACMESTATEMGR
  2
AcMeStateMgr
  3
AcMeServices
 90
        0
280
     0
281
     0
  0
CLASS
  1
ACME_DATABASE
  2
AcMeDbDatabase
  3
AcMeServices
 90
        0
280
     0
281
     0
  0
CLASS
  1
ACRFINSADJUSTERMGR
  2
AcRfInsAdjusterMgr
  3
AcMeServices
 90
        0
280
     0
281
     0
  0
CLASS
  1
ACMDATADICTIONARY
  2
AcmDataDictionary
  3
"AcmSymBB|Product Description: AutoCAD Mechanical 2000|Company: Autodesk"
 90
        0
280
     0
281
     0
  0
CLASS
  1
ACMDATAENTRYBLOCK
  2
AcmDataEntryBlock
  3
"AcmSymBB|Product Description: AutoCAD Mechanical 2000|Company: Autodesk"
 90
        0
280
     0
281
     0
  0
CLASS
  1
AMGOBJPROPCFG
  2
AmgObjPropCfg
  3
"AmgLay|Product Description: AutoCAD Mechanical 2000|Company: Autodesk"
 90
        1
280
     0
281
     0
  0
CLASS
  1
ACAMGFILTERDAT
  2
AcAmgFilterDat
  3
"AcadM|Product Description: AutoCAD Mechanical 2000|Company: Autodesk"
 90
        0
280
     0
281
     0
  0
CLASS
  1
LAYER_INDEX
  2
AcDbLayerIndex
  3
AutoCAD 2000
 90
        0
280
     0
281
     0
  0
CLASS
  1
IDBUFFER
  2
AcDbIdBuffer
  3
AutoCAD 2000
 90
        0
280
     0
281
     0
  0
CLASS
  1
ACIMSTRSYSVAR
  2
AcImStrSysVar
  3
AcMeServices
 90
        0
280
     0
281
     0
  0
CLASS
  1
ACMSTANDARDJIS
  2
AcmStandardJIS
  3
"AcmSymBB|Product Description: AutoCAD Mechanical 2000|Company: Autodesk"
 90
        0
280
     0
281
     0
  0
CLASS
  1
ACMSURFSTANDARDJIS
  2
AcmSurfTextStdJIS
  3
"AcmSymBB|Product Description: AutoCAD Mechanical 2000|Company: Autodesk"
 90
        0
280
     0
281
     0
  0
CLASS
  1
ACMFCFSTANDARDJIS
  2
AcmFCFStdJIS
  3
"AcmSymBB|Product Description: AutoCAD Mechanical 2000|Company: Autodesk"
 90
        0
280
     0
281
     0
  0
CLASS
  1
ACMWELDSTANDARDJIS
  2
AcmWeldingStdJIS
  3
"AcmSymBB|Product Description: AutoCAD Mechanical 2000|Company: Autodesk"
 90
        0
280
     0
281
     0
  0
CLASS
  1
ACMIDSTANDARDJIS
  2
AcmIdStdJIS
  3
"AcmSymBB|Product Description: AutoCAD Mechanical 2000|Company: Autodesk"
 90
        0
280
     0
281
     0
  0
CLASS
  1
ACMDATUMSTANDARDJIS
  2
AcmDatumStdJIS
  3
"AcmSymBB|Product Description: AutoCAD Mechanical 2000|Company: Autodesk"
 90
        0
280
     0
281
     0
  0
CLASS
  1
ACMBOMSTANDARDJIS
  2
AcmBOMStdJIS
  3
"AcmSymBB|Product Description: AutoCAD Mechanical 2000|Company: Autodesk"
 90
        0
280
     0
281
     0
  0
CLASS
  1
ACMSTANDARDANSI
  2
AcmStandardANSI
  3
"AcmSymBB|Product Description: AutoCAD Mechanical 2000|Company: Autodesk"
 90
        0
280
     0
281
     0
  0
CLASS
  1
ACMSURFSTANDARDANSI
  2
AcmSurfTextStdANSI
  3
"AcmSymBB|Product Description: AutoCAD Mechanical 2000|Company: Autodesk"
 90
        0
280
     0
281
     0
  0
CLASS
  1
ACMFCFSTANDARDANSI
  2
AcmFCFStdANSI
  3
"AcmSymBB|Product Description: AutoCAD Mechanical 2000|Company: Autodesk"
 90
        0
280
     0
281
     0
  0
CLASS
  1
ACMWELDSTANDARDANSI
  2
AcmWeldingStdANSI
  3
"AcmSymBB|Product Description: AutoCAD Mechanical 2000|Company: Autodesk"
 90
        0
280
     0
281
     0
  0
CLASS
  1
ACMIDSTANDARDANSI
  2
AcmIdStdANSI
  3
"AcmSymBB|Product Description: AutoCAD Mechanical 2000|Company: Autodesk"
 90
        0
280
     0
281
     0
  0
CLASS
  1
ACMDATUMSTANDARDANSI
  2
AcmDatumStdANSI
  3
"AcmSymBB|Product Description: AutoCAD Mechanical 2000|Company: Autodesk"
 90
        0
280
     0
281
     0
  0
CLASS
  1
ACMBOMSTANDARDANSI
  2
AcmBOMStdANSI
  3
"AcmSymBB|Product Description: AutoCAD Mechanical 2000|Company: Autodesk"
 90
        0
280
     0
281
     0
  0
CLASS
  1
ACMSTANDARDBSI
  2
AcmStandardBSI
  3
"AcmSymBB|Product Description: AutoCAD Mechanical 2000|Company: Autodesk"
 90
        0
280
     0
281
     0
  0
CLASS
  1
ACMSURFSTANDARDBSI
  2
AcmSurfTextStdBSI
  3
"AcmSymBB|Product Description: AutoCAD Mechanical 2000|Company: Autodesk"
 90
        0
280
     0
281
     0
  0
CLASS
  1
ACMFCFSTANDARDBSI
  2
AcmFCFStdBSI
  3
"AcmSymBB|Product Description: AutoCAD Mechanical 2000|Company: Autodesk"
 90
        0
280
     0
281
     0
  0
CLASS
  1
ACMWELDSTANDARDBSI
  2
AcmWeldingStdBSI
  3
"AcmSymBB|Product Description: AutoCAD Mechanical 2000|Company: Autodesk"
 90
        0
280
     0
281
     0
  0
CLASS
  1
ACMIDSTANDARDBSI
  2
AcmIdStdBSI
  3
"AcmSymBB|Product Description: AutoCAD Mechanical 2000|Company: Autodesk"
 90
        0
280
     0
281
     0
  0
CLASS
  1
ACMDATUMSTANDARDBSI
  2
AcmDatumStdBSI
  3
"AcmSymBB|Product Description: AutoCAD Mechanical 2000|Company: Autodesk"
 90
        0
280
     0
281
     0
  0
CLASS
  1
ACMBOMSTANDARDBSI
  2
AcmBOMStdBSI
  3
"AcmSymBB|Product Description: AutoCAD Mechanical 2000|Company: Autodesk"
 90
        0
280
     0
281
     0
  0
CLASS
  1
LONG_TRANSACTION
  2
AcDbLongTransaction
  3
AutoCAD 2000
 90
        0
280
     0
281
     0
  0
CLASS
  1
LWPOLYLINE
  2
AcDbPolyline
  3
AutoCAD 2000
 90
        0
280
     0
281
     1
  0
CLASS
  1
HATCH
  2
AcDbHatch
  3
AutoCAD 2000
 90
        0
280
     0
281
     1
  0
CLASS
  1
XRECORD
  2
AcDbXrecord
  3
AutoCAD 2000
 90
        0
280
     0
281
     0
  0
ENDSEC
  0
SECTION
  2
TABLES
  0
TABLE
  2
VPORT
  5
8
330
0
100
AcDbSymbolTable
 70
     3
  0
VPORT
  5
2744
330
8
100
AcDbSymbolTableRecord
100
AcDbViewportTableRecord
  2
*ACTIVE
 70
     0
 10
0.0
 20
0.0
 11
1.0
 21
1.0
 12
-25.20105580636474
 22
20.61101094794457
 13
0.0
 23
0.0
 14
2.5
 24
2.5
 15
10.0
 25
10.0
 16
0.0
 26
0.0
 36
1.0
 17
0.0
 27
0.0
 37
0.0
 40
102.2332493972175
 41
1.56570841889117
 42
50.0
 43
0.0
 44
0.0
 50
0.0
 51
0.0
 71
     0
 72
   100
 73
     1
 74
     3
 75
     0
 76
     0
 77
     0
 78
     0
  0
ENDTAB
  0
TABLE
  2
LTYPE
  5
5
330
0
100
AcDbSymbolTable
 70
    10
  0
LTYPE
  5
14
330
5
100
AcDbSymbolTableRecord
100
AcDbLinetypeTableRecord
  2
BYBLOCK
 70
     0
  3

 72
    65
 73
     0
 40
0.0
  0
LTYPE
  5
15
330
5
100
AcDbSymbolTableRecord
100
AcDbLinetypeTableRecord
  2
BYLAYER
 70
     0
  3

 72
    65
 73
     0
 40
0.0
  0
LTYPE
  5
16
330
5
100
AcDbSymbolTableRecord
100
AcDbLinetypeTableRecord
  2
CONTINUOUS
 70
     0
  3
Solid line
 72
    65
 73
     0
 40
0.0
  0
LTYPE
  5
4B
330
5
100
AcDbSymbolTableRecord
100
AcDbLinetypeTableRecord
  2
AM_ISO02W050
 70
     0
  3
__ __ __ __ __ __ __ __ __ __ __ __ __ __ __
 72
    65
 73
     2
 40
7.5
 49
6.0
 74
     0
 49
-1.5
 74
     0
  0
LTYPE
  5
4C
330
5
100
AcDbSymbolTableRecord
100
AcDbLinetypeTableRecord
  2
AM_ISO08W050
 70
     0
  3
____ . ____ . ____ . ____ . ____ . ____ . ____
 72
    65
 73
     4
 40
18.0
 49
12.0
 74
     0
 49
-1.5
 74
     0
 49
3.0
 74
     0
 49
-1.5
 74
     0
  0
LTYPE
  5
4D
330
5
100
AcDbSymbolTableRecord
100
AcDbLinetypeTableRecord
  2
AM_ISO09W050
 70
     0
  3
_____ . . _____ . . _____ . . ____ .. ____
 72
    65
 73
     6
 40
22.5
 49
12.0
 74
     0
 49
-1.5
 74
     0
 49
3.0
 74
     0
 49
-1.5
 74
     0
 49
3.0
 74
     0
 49
-1.5
 74
     0
  0
LTYPE
  5
4E
330
5
100
AcDbSymbolTableRecord
100
AcDbLinetypeTableRecord
  2
AMCONSTR
 70
     0
  3
_______________________
 72
    65
 73
     2
 40
9999.0
 49
9999.0
 74
     0
 49
0.0
 74
     0
  0
LTYPE
  5
4F
330
5
100
AcDbSymbolTableRecord
100
AcDbLinetypeTableRecord
  2
AM_ISO02W050X2
 70
     0
  3
 _ _ _ _ _ _ _ _ _ _ _ _
 72
    65
 73
     2
 40
3.75
 49
3.0
 74
     0
 49
-0.75
 74
     0
  0
LTYPE
  5
50
330
5
100
AcDbSymbolTableRecord
100
AcDbLinetypeTableRecord
  2
AM_ISO08W050X2
 70
     0
  3
__ . __ . __ . __ . __ . __
 72
    65
 73
     4
 40
9.0
 49
6.0
 74
     0
 49
-0.75
 74
     0
 49
1.5
 74
     0
 49
-0.75
 74
     0
  0
LTYPE
  5
53
330
5
100
AcDbSymbolTableRecord
100
AcDbLinetypeTableRecord
  2
AMZIGZAG
 70
     0
  3
/\/-/\/-/\/-/\/-/\/-/\/
 72
    65
 73
     2
 40
11.00009999999999
 49
0.0001
 74
     4
 75
   135
340
52
 46
0.04
 50
0.0
 44
0.0
 45
0.0
 49
-11.0
 74
     0
  0
LTYPE
  5
166
330
5
100
AcDbSymbolTableRecord
100
AcDbLinetypeTableRecord
  2
ACJISTGL
 70
     0
  3
_ _ _ _ _
 72
    65
 73
     2
 40
3.0
 49
2.0
 74
     0
 49
-1.0
 74
     0
  0
LTYPE
  5
26A
330
5
100
AcDbSymbolTableRecord
100
AcDbLinetypeTableRecord
  2
ACJISTGB
 70
     0
  3
__ . . __ . .
 72
    65
 73
     6
 40
9.0
 49
4.0
 74
     0
 49
-1.0
 74
     0
 49
1.0
 74
     0
 49
-1.0
 74
     0
 49
1.0
 74
     0
 49
-1.0
 74
     0
  0
ENDTAB
  0
TABLE
  2
LAYER
  5
2
330
0
100
AcDbSymbolTable
 70
     8
  0
LAYER
  5
10
330
2
100
AcDbSymbolTableRecord
100
AcDbLayerTableRecord
  2
0
 70
     0
 62
     7
  6
CONTINUOUS
  0
LAYER
  5
3F9
330
2
100
AcDbSymbolTableRecord
100
AcDbLayerTableRecord
  2
AM_0
 70
     0
 62
     7
  6
CONTINUOUS
  0
LAYER
  5
BD6
330
2
100
AcDbSymbolTableRecord
100
AcDbLayerTableRecord
  2
AM_11
 70
     0
 62
     3
  6
AM_ISO09W050
  0
LAYER
  5
BD7
330
2
100
AcDbSymbolTableRecord
100
AcDbLayerTableRecord
  2
AM_7
 70
     0
 62
     4
  6
AM_ISO08W050
  0
LAYER
  5
BD8
330
2
100
AcDbSymbolTableRecord
100
AcDbLayerTableRecord
  2
AM_5
 70
     0
 62
     3
  6
CONTINUOUS
  0
LAYER
  5
BD9
330
2
100
AcDbSymbolTableRecord
100
AcDbLayerTableRecord
  2
DEFPOINTS
 70
     0
 62
     7
  6
CONTINUOUS
  0
LAYER
  5
BDA
330
2
100
AcDbSymbolTableRecord
100
AcDbLayerTableRecord
  2
AM_6
 70
     0
 62
     2
  6
CONTINUOUS
  0
LAYER
  5
1F9B
330
2
100
AcDbSymbolTableRecord
100
AcDbLayerTableRecord
  2
AM_CL
 70
     0
 62
     1
  6
AMCONSTR
  0
ENDTAB
  0
TABLE
  2
STYLE
  5
3
330
0
100
AcDbSymbolTable
 70
     5
  0
STYLE
  5
11
330
3
100
AcDbSymbolTableRecord
100
AcDbTextStyleTableRecord
  2
STANDARD
 70
     0
 40
0.0
 41
1.0
 50
0.0
 71
     0
 42
2.5
  3
simplex.shx
  4
EXTFONT.SHX
  0
STYLE
  5
52
330
3
100
AcDbSymbolTableRecord
100
AcDbTextStyleTableRecord
  2

 70
     1
 40
0.0
 41
1.0
 50
0.0
 71
     0
 42
2.5
  3
ltypeshp.shx
  4

  0
STYLE
  5
6B
330
3
100
AcDbSymbolTableRecord
100
AcDbTextStyleTableRecord
  2
ASAMI
 70
     0
 40
0.0
 41
1.0
 50
0.0
 71
     0
 42
2.5
  3
simplex.shx
  4
EXTFONT.SHX
  0
STYLE
  5
262
330
3
100
AcDbSymbolTableRecord
100
AcDbTextStyleTableRecord
  2
ACJISTS
 70
     0
 40
1.0
 41
1.0
 50
0.0
 71
     0
 42
2.5
  3
simplex.shx
  4
bigfont.shx
  0
STYLE
  5
269
330
3
100
AcDbSymbolTableRecord
100
AcDbTextStyleTableRecord
  2
ACJISGDT
 70
     0
 40
0.0
 41
1.0
 50
0.0
 71
     0
 42
2.5
  3
amgdtans.shx
  4

  0
ENDTAB
  0
TABLE
  2
VIEW
  5
6
330
0
100
AcDbSymbolTable
 70
     0
  0
ENDTAB
  0
TABLE
  2
UCS
  5
7
330
0
100
AcDbSymbolTable
 70
     0
  0
ENDTAB
  0
TABLE
  2
APPID
  5
9
330
0
100
AcDbSymbolTable
 70
    14
  0
APPID
  5
12
330
9
100
AcDbSymbolTableRecord
100
AcDbRegAppTableRecord
  2
ACAD
 70
     0
  0
APPID
  5
30
330
9
100
AcDbSymbolTableRecord
100
AcDbRegAppTableRecord
  2
MCAD_NO_VIS
 70
     0
  0
APPID
  5
31
330
9
100
AcDbSymbolTableRecord
100
AcDbRegAppTableRecord
  2
ACAD_TEMP_GRAPHIC
 70
     0
  0
APPID
  5
2C2
330
9
100
AcDbSymbolTableRecord
100
AcDbRegAppTableRecord
  2
GENIUS_GENDTOL_13
 70
     0
  0
APPID
  5
339
330
9
100
AcDbSymbolTableRecord
100
AcDbRegAppTableRecord
  2
GENIUS_GENODEF_13
 70
     0
  0
APPID
  5
33A
330
9
100
AcDbSymbolTableRecord
100
AcDbRegAppTableRecord
  2
GENIUS_GENOBJ-N-RSBK_13
 70
     0
  0
APPID
  5
33B
330
9
100
AcDbSymbolTableRecord
100
AcDbRegAppTableRecord
  2
GENIUS_GENOBJ-N-LIB_13
 70
     0
  0
APPID
  5
33C
330
9
100
AcDbSymbolTableRecord
100
AcDbRegAppTableRecord
  2
GENIUS_GENSCALE_13
 70
     0
  0
APPID
  5
378
330
9
100
AcDbSymbolTableRecord
100
AcDbRegAppTableRecord
  2
GENIUS_GENDIMSH_14
 70
     0
  0
APPID
  5
BDB
330
9
100
AcDbSymbolTableRecord
100
AcDbRegAppTableRecord
  2
GENIUS_GENOBJ-N-CEN_13
 70
     0
  0
APPID
  5
BDC
330
9
100
AcDbSymbolTableRecord
100
AcDbRegAppTableRecord
  2
GENIUS_GENFIL_13
 70
     0
  0
APPID
  5
BDD
330
9
100
AcDbSymbolTableRecord
100
AcDbRegAppTableRecord
  2
GENIUS_GENOBJ-N-FIL_13
 70
     0
  0
APPID
  5
12AD
330
9
100
AcDbSymbolTableRecord
100
AcDbRegAppTableRecord
  2
GENIUS_GENOREF_13
 70
     0
  0
APPID
  5
2464
330
9
100
AcDbSymbolTableRecord
100
AcDbRegAppTableRecord
  2
GENIUS_GENOBJ-N-CHA_13
 70
     0
  0
ENDTAB
  0
TABLE
  2
DIMSTYLE
  5
A
330
0
100
AcDbSymbolTable
 70
     8
  0
DIMSTYLE
105
58
102
{ACAD_REACTORS
330
C4F
330
18C3
330
195B
330
1CC3
330
21D2
102
}
330
A
100
AcDbSymbolTableRecord
100
AcDbDimStyleTableRecord
  2
AM_JIS
 70
     0
  3

  4
"
  5
OPEN30
  6

  7

 40
0.3333333333333333
 41
2.5
 42
1.0
 43
12.0
 44
1.0
 45
0.0
 46
0.0
 47
0.1
 48
0.1
140
3.2
141
0.0
142
0.0
143
0.0393701
144
1.0
145
0.0
146
0.71
147
1.5
 71
     0
 72
     0
 73
     0
 74
     0
 75
     0
 76
     0
 77
     3
 78
     8
170
     0
171
     2
172
     1
173
     0
174
     0
175
     0
176
   256
177
   256
178
     2
270
     2
271
     3
272
     3
273
     2
274
     2
340
6B
275
     0
280
     0
281
     0
282
     0
283
     0
284
     0
285
     0
286
     0
287
     3
288
     0
  0
DIMSTYLE
105
5F
330
A
100
AcDbSymbolTableRecord
100
AcDbDimStyleTableRecord
  2
AM_JIS$3
 70
     0
  3

  4
"
  5
OPEN30
  6

  7

 40
0.3333333333333333
 41
2.5
 42
1.0
 43
10.0
 44
1.0
 45
0.0
 46
0.0
 47
0.1
 48
0.1
140
3.2
141
0.0
142
0.0
143
0.0393701
144
1.0
145
0.0
146
0.71
147
1.5
 71
     0
 72
     0
 73
     0
 74
     1
 75
     0
 76
     0
 77
     3
 78
     8
170
     0
171
     2
172
     0
173
     0
174
     0
175
     0
176
   256
177
   256
178
     2
270
     2
271
     2
272
     3
273
     2
274
     2
340
6B
275
     0
280
     0
281
     0
282
     0
283
     0
284
     0
285
     0
286
     0
287
     0
288
     1
  0
DIMSTYLE
105
60
102
{ACAD_REACTORS
330
2347
102
}
330
A
100
AcDbSymbolTableRecord
100
AcDbDimStyleTableRecord
  2
AM_JIS$4
 70
     0
  3

  4
"
  5
OPEN30
  6

  7

 40
0.3333333333333333
 41
2.5
 42
1.0
 43
10.0
 44
1.0
 45
0.0
 46
0.0
 47
0.1
 48
0.1
140
3.2
141
0.0
142
0.0
143
0.0393701
144
1.0
145
0.0
146
0.71
147
1.5
 71
     0
 72
     0
 73
     0
 74
     1
 75
     0
 76
     0
 77
     3
 78
     8
170
     0
171
     2
172
     0
173
     0
174
     0
175
     0
176
   256
177
   256
178
     2
270
     2
271
     2
272
     3
273
     2
274
     2
340
6B
275
     0
280
     0
281
     0
282
     0
283
     0
284
     0
285
     0
286
     0
287
     0
288
     1
  0
DIMSTYLE
105
61
330
A
100
AcDbSymbolTableRecord
100
AcDbDimStyleTableRecord
  2
AM_JIS$6
 70
     0
  3

  4
"
  5
OPEN30
  6

  7

 40
0.3333333333333333
 41
2.5
 42
1.0
 43
10.0
 44
1.0
 45
0.0
 46
0.0
 47
0.1
 48
0.1
140
3.2
141
0.0
142
0.0
143
0.0393701
144
1.0
145
0.0
146
0.71
147
1.5
 71
     0
 72
     0
 73
     0
 74
     0
 75
     0
 76
     0
 77
     0
 78
     8
170
     0
171
     2
172
     1
173
     0
174
     0
175
     0
176
   256
177
   256
178
     2
270
     2
271
     2
272
     2
273
     2
274
     2
340
6B
275
     0
280
     0
281
     0
282
     0
283
     0
284
     0
285
     0
286
     0
287
     3
288
     0
  0
DIMSTYLE
105
62
330
A
100
AcDbSymbolTableRecord
100
AcDbDimStyleTableRecord
  2
AM_JIS$7
 70
     0
  3

  4
"
  5
OPEN30
  6

  7

 40
0.3333333333333333
 41
2.5
 42
1.0
 43
10.0
 44
1.0
 45
0.0
 46
0.0
 47
0.1
 48
0.1
140
3.2
141
0.0
142
0.0
143
0.0393701
144
1.0
145
0.0
146
0.71
147
1.5
 71
     0
 72
     0
 73
     0
 74
     0
 75
     0
 76
     0
 77
     3
 78
     8
170
     0
171
     2
172
     1
173
     0
174
     0
175
     0
176
   256
177
   256
178
     2
270
     2
271
     2
272
     3
273
     2
274
     2
340
6B
275
     0
280
     0
281
     0
282
     0
283
     0
284
     0
285
     0
286
     0
287
     3
288
     0
  0
DIMSTYLE
105
63
330
A
100
AcDbSymbolTableRecord
100
AcDbDimStyleTableRecord
  2
AM_JIS$SF
 70
     0
  3

  4
"
  5
OPEN30
  6

  7

 40
0.3333333333333333
 41
2.5
 42
1.0
 43
10.0
 44
1.0
 45
0.0
 46
0.0
 47
0.1
 48
0.1
140
3.2
141
0.0
142
0.0
143
0.0393701
144
1.0
145
0.0
146
0.71
147
1.5
 71
     0
 72
     0
 73
     0
 74
     0
 75
     1
 76
     1
 77
     3
 78
     8
170
     0
171
     2
172
     1
173
     0
174
     0
175
     0
176
   256
177
   256
178
     2
270
     2
271
     2
272
     2
273
     2
274
     2
340
6B
275
     0
280
     0
281
     0
282
     0
283
     0
284
     0
285
     0
286
     0
287
     3
288
     0
  0
DIMSTYLE
105
68
330
A
100
AcDbSymbolTableRecord
100
AcDbDimStyleTableRecord
  2
AM_JIS$SH
 70
     0
  3

  4
"
  5

  6
GENAXEH
  7
OPEN30
 40
0.3333333333333333
 41
2.5
 42
1.0
 43
10.0
 44
1.0
 45
0.0
 46
0.0
 47
0.1
 48
0.1
140
3.2
141
0.0
142
0.0
143
0.0393701
144
2.0
145
0.0
146
0.71
147
1.5
 71
     0
 72
     0
 73
     0
 74
     0
 75
     1
 76
     1
 77
     3
 78
     8
170
     0
171
     2
172
     1
173
     1
174
     0
175
     0
176
   256
177
   256
178
     2
270
     2
271
     2
272
     2
273
     2
274
     2
340
6B
275
     0
280
     0
281
     0
282
     0
283
     0
284
     0
285
     0
286
     0
287
     3
288
     0
  0
DIMSTYLE
105
B34
330
A
100
AcDbSymbolTableRecord
100
AcDbDimStyleTableRecord
  2
AM_JIS$2
 70
     0
  3

  4
"
  5
OPEN30
  6

  7

 40
0.3333333333333333
 41
2.5
 42
1.0
 43
12.0
 44
1.0
 45
0.0
 46
0.0
 47
0.1
 48
0.1
140
3.2
141
0.0
142
0.0
143
0.0393701
144
1.0
145
0.0
146
0.71
147
1.5
 71
     0
 72
     0
 73
     0
 74
     0
 75
     0
 76
     0
 77
     3
 78
     8
170
     0
171
     2
172
     1
173
     0
174
     0
175
     0
176
   256
177
   256
178
     2
270
     2
271
     3
272
     3
273
     2
274
     2
340
6B
275
     0
280
     0
281
     0
282
     0
283
     0
284
     0
285
     0
286
     0
287
     3
288
     0
  0
ENDTAB
  0
TABLE
  2
BLOCK_RECORD
  5
1
330
0
100
AcDbSymbolTable
 70
    11
  0
BLOCK_RECORD
  5
1F
102
{ACAD_XDICTIONARY
360
74
102
}
330
1
100
AcDbSymbolTableRecord
100
AcDbBlockTableRecord
  2
*MODEL_SPACE
  0
BLOCK_RECORD
  5
101
102
{ACAD_XDICTIONARY
360
276D
102
}
330
1
100
AcDbSymbolTableRecord
100
AcDbBlockTableRecord
  2
*PAPER_SPACE
  0
BLOCK_RECORD
  5
59
330
1
100
AcDbSymbolTableRecord
100
AcDbBlockTableRecord
  2
_OPEN30
  0
BLOCK_RECORD
  5
64
330
1
100
AcDbSymbolTableRecord
100
AcDbBlockTableRecord
  2
GENAXEH
  0
BLOCK_RECORD
  5
C75
330
1
100
AcDbSymbolTableRecord
100
AcDbBlockTableRecord
  2
*D5
  0
BLOCK_RECORD
  5
18C4
330
1
100
AcDbSymbolTableRecord
100
AcDbBlockTableRecord
  2
*D6
  0
BLOCK_RECORD
  5
195C
330
1
100
AcDbSymbolTableRecord
100
AcDbBlockTableRecord
  2
*D7
  0
BLOCK_RECORD
  5
1CC4
330
1
100
AcDbSymbolTableRecord
100
AcDbBlockTableRecord
  2
*D8
  0
BLOCK_RECORD
  5
21D3
330
1
100
AcDbSymbolTableRecord
100
AcDbBlockTableRecord
  2
*D9
  0
BLOCK_RECORD
  5
2348
330
1
100
AcDbSymbolTableRecord
100
AcDbBlockTableRecord
  2
*D10
  0
ENDTAB
  0
ENDSEC
  0
SECTION
  2
BLOCKS
  0
BLOCK
  5
20
330
1F
100
AcDbEntity
  8
0
100
AcDbBlockBegin
  2
*MODEL_SPACE
 70
     0
 10
0.0
 20
0.0
 30
0.0
  3
*MODEL_SPACE
  1

  0
ENDBLK
  5
21
330
1F
100
AcDbEntity
  8
0
100
AcDbBlockEnd
  0
BLOCK
  5
103
330
101
100
AcDbEntity
 67
     1
  8
0
100
AcDbBlockBegin
  2
*PAPER_SPACE
 70
     0
 10
0.0
 20
0.0
 30
0.0
  3
*PAPER_SPACE
  1

  0
ENDBLK
  5
104
330
101
100
AcDbEntity
 67
     1
  8
0
100
AcDbBlockEnd
  0
BLOCK
  5
5D
330
59
100
AcDbEntity
  8
0
100
AcDbBlockBegin
  2
_OPEN30
 70
     0
 10
0.0
 20
0.0
 30
0.0
  3
_OPEN30
  1

  0
LINE
  5
5A
330
59
100
AcDbEntity
  8
0
 62
     0
100
AcDbLine
 10
-1.0
 20
0.26794919
 30
0.0
 11
0.0
 21
0.0
 31
0.0
  0
LINE
  5
5B
330
59
100
AcDbEntity
  8
0
 62
     0
100
AcDbLine
 10
0.0
 20
0.0
 30
0.0
 11
-1.0
 21
-0.26794919
 31
0.0
  0
LINE
  5
5C
330
59
100
AcDbEntity
  8
0
 62
     0
100
AcDbLine
 10
0.0
 20
0.0
 30
0.0
 11
-1.0
 21
0.0
 31
0.0
  0
ENDBLK
  5
5E
330
59
100
AcDbEntity
  8
0
100
AcDbBlockEnd
  0
BLOCK
  5
66
330
64
100
AcDbEntity
  8
0
100
AcDbBlockBegin
  2
GENAXEH
 70
     0
 10
0.0
 20
0.0
 30
0.0
  3
GENAXEH
  1

  0
LINE
  5
65
330
64
100
AcDbEntity
  8
0
100
AcDbLine
 10
-1.0
 20
0.0
 30
0.0
 11
1.0
 21
0.0
 31
0.0
  0
ENDBLK
  5
67
330
64
100
AcDbEntity
  8
0
100
AcDbBlockEnd
  0
BLOCK
  5
C7F
330
C75
100
AcDbEntity
  8
0
100
AcDbBlockBegin
  2
*D5
 70
     1
 10
0.0
 20
0.0
 30
0.0
  3
*D5
  1

  0
LINE
  5
24AE
330
C75
100
AcDbEntity
  8
AM_5
100
AcDbLine
 10
-50.00000000000007
 20
-3.333333333333336
 30
0.0
 11
-50.00000000000007
 21
-15.99999999999982
 31
0.0
  0
LINE
  5
24AF
330
C75
100
AcDbEntity
  8
AM_5
100
AcDbLine
 10
-0.00000000000006
 20
-0.3333333333333369
 30
0.0
 11
-0.0000000000000609
 21
-15.99999999999982
 31
0.0
  0
LINE
  5
24B0
330
C75
100
AcDbEntity
  8
AM_5
100
AcDbLine
 10
-49.16666666666674
 20
-15.66666666666649
 30
0.0
 11
-0.8333333333333941
 21
-15.66666666666649
 31
0.0
  0
INSERT
  5
24B1
330
C75
100
AcDbEntity
  8
AM_5
100
AcDbBlockReference
  2
_OPEN30
 10
-50.00000000000007
 20
-15.66666666666649
 30
0.0
 41
0.8333333333333332
 42
0.8333333333333332
 43
0.8333333333333332
 50
180.0
  0
INSERT
  5
24B2
330
C75
100
AcDbEntity
  8
AM_5
100
AcDbBlockReference
  2
_OPEN30
 10
-0.0000000000000609
 20
-15.66666666666649
 30
0.0
 41
0.8333333333333332
 42
0.8333333333333332
 43
0.8333333333333332
  0
MTEXT
  5
24B3
330
C75
100
AcDbEntity
  8
AM_5
 62
     2
100
AcDbMText
 10
-25.00000000000006
 20
-14.63333333333316
 30
0.0
 40
1.066666666666666
 41
0.0
 71
     5
 72
     1
  1
50
  7
ASAMI
1001
ACAD
1000
MTEXTBEGIN
1070
    73
1070
     1
1070
    44
1040
1.0
1070
    74
1070
     0
1000
MTEXTEND
  0
POINT
  5
24B4
330
C75
100
AcDbEntity
  8
DEFPOINTS
 62
     0
100
AcDbPoint
 10
-50.00000000000007
 20
-3.000000000000003
 30
0.0
  0
POINT
  5
24B5
330
C75
100
AcDbEntity
  8
DEFPOINTS
 62
     0
100
AcDbPoint
 10
-0.00000000000006
 20
-0.0000000000000036
 30
0.0
  0
POINT
  5
24B6
330
C75
100
AcDbEntity
  8
DEFPOINTS
 62
     0
100
AcDbPoint
 10
-0.0000000000000609
 20
-15.66666666666649
 30
0.0
  0
ENDBLK
  5
C80
330
C75
100
AcDbEntity
  8
0
100
AcDbBlockEnd
  0
BLOCK
  5
18CE
330
18C4
100
AcDbEntity
  8
0
100
AcDbBlockBegin
  2
*D6
 70
     1
 10
0.0
 20
0.0
 30
0.0
  3
*D6
  1

  0
LINE
  5
24E2
330
18C4
100
AcDbEntity
  8
AM_5
100
AcDbLine
 10
-49.83333333333341
 20
-3.000000000000003
 30
0.0
 11
-54.50000000000007
 21
-3.000000000000002
 31
0.0
  0
LINE
  5
24E3
330
18C4
100
AcDbEntity
  8
AM_5
100
AcDbLine
 10
-49.83333333333341
 20
2.999999999999996
 30
0.0
 11
-54.50000000000007
 21
2.999999999999997
 31
0.0
  0
LINE
  5
24E4
330
18C4
100
AcDbEntity
  8
AM_5
100
AcDbLine
 10
-54.16666666666674
 20
-2.166666666666669
 30
0.0
 11
-54.16666666666674
 21
2.166666666666664
 31
0.0
  0
INSERT
  5
24E5
330
18C4
100
AcDbEntity
  8
AM_5
100
AcDbBlockReference
  2
_OPEN30
 10
-54.16666666666674
 20
-3.000000000000002
 30
0.0
 41
0.8333333333333332
 42
0.8333333333333332
 43
0.8333333333333332
 50
270.0
  0
INSERT
  5
24E6
330
18C4
100
AcDbEntity
  8
AM_5
100
AcDbBlockReference
  2
_OPEN30
 10
-54.16666666666674
 20
2.999999999999997
 30
0.0
 41
0.8333333333333332
 42
0.8333333333333332
 43
0.8333333333333332
 50
90.0
  0
MTEXT
  5
24E7
330
18C4
100
AcDbEntity
  8
AM_5
 62
     2
100
AcDbMText
 10
-55.20000000000006
 20
-0.0000000000000123
 30
0.0
 40
1.066666666666666
 41
0.0
 71
     5
 72
     1
  1
%%c6
  7
ASAMI
 11
0.0000000000000001
 21
1.0
 31
0.0
1001
ACAD
1000
MTEXTBEGIN
1070
    73
1070
     1
1070
    44
1040
1.0
1070
    74
1070
     0
1000
MTEXTEND
  0
POINT
  5
24E8
330
18C4
100
AcDbEntity
  8
DEFPOINTS
 62
     0
100
AcDbPoint
 10
-49.50000000000007
 20
-3.000000000000003
 30
0.0
  0
POINT
  5
24E9
330
18C4
100
AcDbEntity
  8
DEFPOINTS
 62
     0
100
AcDbPoint
 10
-49.50000000000007
 20
2.999999999999996
 30
0.0
  0
POINT
  5
24EA
330
18C4
100
AcDbEntity
  8
DEFPOINTS
 62
     0
100
AcDbPoint
 10
-54.16666666666674
 20
2.999999999999997
 30
0.0
  0
ENDBLK
  5
18CF
330
18C4
100
AcDbEntity
  8
0
100
AcDbBlockEnd
  0
BLOCK
  5
1968
330
195C
100
AcDbEntity
  8
0
100
AcDbBlockBegin
  2
*D7
 70
     1
 10
0.0
 20
0.0
 30
0.0
  3
*D7
  1

  0
LINE
  5
26E8
330
195C
100
AcDbEntity
  8
AM_5
100
AcDbLine
 10
-1.000000000000057
 20
-0.8333333333333349
 30
0.0
 11
-1.000000000000057
 21
-8.748801502455801
 31
0.0
  0
LINE
  5
26E9
330
195C
100
AcDbEntity
  8
AM_5
100
AcDbLine
 10
-0.0000000000000569
 20
-1.583333333333336
 30
0.0
 11
-0.0000000000000573
 21
-8.748801502455799
 31
0.0
  0
LINE
  5
26EA
330
195C
100
AcDbEntity
  8
AM_5
100
AcDbLine
 10
-1.83333333333339
 20
-8.415468169122467
 30
0.0
 11
-2.666666666666723
 21
-8.415468169122467
 31
0.0
  0
LINE
  5
26EB
330
195C
100
AcDbEntity
  8
AM_5
100
AcDbLine
 10
0.833333333333276
 20
-8.415468169122467
 30
0.0
 11
2.920634920634863
 21
-8.415468169122467
 31
0.0
  0
LINE
  5
26EC
330
195C
100
AcDbEntity
  8
AM_5
100
AcDbLine
 10
-1.000000000000057
 20
-8.415468169122467
 30
0.0
 11
-0.0000000000000573
 21
-8.415468169122467
 31
0.0
  0
INSERT
  5
26ED
330
195C
100
AcDbEntity
  8
AM_5
100
AcDbBlockReference
  2
_OPEN30
 10
-1.000000000000057
 20
-8.415468169122467
 30
0.0
 41
0.8333333333333332
 42
0.8333333333333332
 43
0.8333333333333332
  0
INSERT
  5
26EE
330
195C
100
AcDbEntity
  8
AM_5
100
AcDbBlockReference
  2
_OPEN30
 10
-0.0000000000000573
 20
-8.415468169122467
 30
0.0
 41
0.8333333333333332
 42
0.8333333333333332
 43
0.8333333333333332
 50
180.0
  0
MTEXT
  5
26EF
330
195C
100
AcDbEntity
  8
AM_5
 62
     2
100
AcDbMText
 10
2.293650793650736
 20
-7.382134835789134
 30
0.0
 40
1.066666666666666
 41
0.0
 71
     5
 72
     1
  1
1
  7
ASAMI
1001
ACAD
1000
MTEXTBEGIN
1070
    73
1070
     1
1070
    44
1040
1.0
1070
    74
1070
     0
1000
MTEXTEND
  0
POINT
  5
26F0
330
195C
100
AcDbEntity
  8
DEFPOINTS
 62
     0
100
AcDbPoint
 10
-1.000000000000057
 20
-0.5000000000000018
 30
0.0
  0
POINT
  5
26F1
330
195C
100
AcDbEntity
  8
DEFPOINTS
 62
     0
100
AcDbPoint
 10
-0.0000000000000568
 20
-1.250000000000003
 30
0.0
  0
POINT
  5
26F2
330
195C
100
AcDbEntity
  8
DEFPOINTS
 62
     0
100
AcDbPoint
 10
-0.0000000000000573
 20
-8.415468169122467
 30
0.0
  0
ENDBLK
  5
1969
330
195C
100
AcDbEntity
  8
0
100
AcDbBlockEnd
  0
BLOCK
  5
1CD0
330
1CC4
100
AcDbEntity
  8
0
100
AcDbBlockBegin
  2
*D8
 70
     1
 10
0.0
 20
0.0
 30
0.0
  3
*D8
  1

  0
LINE
  5
26F3
330
1CC4
100
AcDbEntity
  8
AM_5
100
AcDbLine
 10
-0.0000000000000574
 20
-0.3333333333333369
 30
0.0
 11
-0.0000000000000582
 21
-12.36997806421318
 31
0.0
  0
LINE
  5
26F4
330
1CC4
100
AcDbEntity
  8
AM_5
100
AcDbLine
 10
-2.500000000000056
 20
-0.8666543301241349
 30
0.0
 11
-2.500000000000057
 21
-12.36997806421317
 31
0.0
  0
LINE
  5
26F5
330
1CC4
100
AcDbEntity
  8
AM_5
100
AcDbLine
 10
0.8333333333332751
 20
-12.03664473087984
 30
0.0
 11
1.666666666666608
 21
-12.03664473087984
 31
0.0
  0
LINE
  5
26F6
330
1CC4
100
AcDbEntity
  8
AM_5
100
AcDbLine
 10
-3.33333333333339
 20
-12.03664473087984
 30
0.0
 11
-7.401587301587357
 21
-12.03664473087984
 31
0.0
  0
LINE
  5
26F7
330
1CC4
100
AcDbEntity
  8
AM_5
100
AcDbLine
 10
-0.0000000000000581
 20
-12.03664473087984
 30
0.0
 11
-2.500000000000057
 21
-12.03664473087984
 31
0.0
  0
INSERT
  5
26F8
330
1CC4
100
AcDbEntity
  8
AM_5
100
AcDbBlockReference
  2
_OPEN30
 10
-0.0000000000000581
 20
-12.03664473087984
 30
0.0
 41
0.8333333333333332
 42
0.8333333333333332
 43
0.8333333333333332
 50
180.0
  0
INSERT
  5
26F9
330
1CC4
100
AcDbEntity
  8
AM_5
100
AcDbBlockReference
  2
_OPEN30
 10
-2.500000000000057
 20
-12.03664473087984
 30
0.0
 41
0.8333333333333332
 42
0.8333333333333332
 43
0.8333333333333332
  0
MTEXT
  5
26FA
330
1CC4
100
AcDbEntity
  8
AM_5
 62
     2
100
AcDbMText
 10
-5.784126984127039
 20
-11.00331139754651
 30
0.0
 40
1.066666666666666
 41
0.0
 71
     5
 72
     1
  1
2.5
  7
ASAMI
1001
ACAD
1000
MTEXTBEGIN
1070
    73
1070
     1
1070
    44
1040
1.0
1070
    74
1070
     0
1000
MTEXTEND
  0
POINT
  5
26FB
330
1CC4
100
AcDbEntity
  8
DEFPOINTS
 62
     0
100
AcDbPoint
 10
-0.0000000000000574
 20
-0.0000000000000036
 30
0.0
  0
POINT
  5
26FC
330
1CC4
100
AcDbEntity
  8
DEFPOINTS
 62
     0
100
AcDbPoint
 10
-2.500000000000056
 20
-0.5333209967908017
 30
0.0
  0
POINT
  5
26FD
330
1CC4
100
AcDbEntity
  8
DEFPOINTS
 62
     0
100
AcDbPoint
 10
-2.500000000000057
 20
-12.03664473087984
 30
0.0
  0
ENDBLK
  5
1CD1
330
1CC4
100
AcDbEntity
  8
0
100
AcDbBlockEnd
  0
BLOCK
  5
21DF
330
21D3
100
AcDbEntity
  8
0
100
AcDbBlockBegin
  2
*D9
 70
     1
 10
0.0
 20
0.0
 30
0.0
  3
*D9
  1

  0
LINE
  5
26D2
330
21D3
100
AcDbEntity
  8
AM_5
100
AcDbLine
 10
-0.401186121655608
 20
0.4999999999999946
 30
0.0
 11
4.999999999999942
 21
0.499999999999993
 31
0.0
  0
LINE
  5
26D3
330
21D3
100
AcDbEntity
  8
AM_5
100
AcDbLine
 10
-0.2746831881981772
 20
-0.5000000000000018
 30
0.0
 11
4.999999999999942
 21
-0.5000000000000034
 31
0.0
  0
LINE
  5
26D4
330
21D3
100
AcDbEntity
  8
AM_5
100
AcDbLine
 10
4.666666666666609
 20
-1.333333333333336
 30
0.0
 11
4.666666666666608
 21
-2.166666666666669
 31
0.0
  0
LINE
  5
26D5
330
21D3
100
AcDbEntity
  8
AM_5
100
AcDbLine
 10
4.666666666666609
 20
1.333333333333326
 30
0.0
 11
4.66666666666661
 21
4.385714285714279
 31
0.0
  0
LINE
  5
26D6
330
21D3
100
AcDbEntity
  8
AM_5
100
AcDbLine
 10
4.666666666666609
 20
-0.5000000000000032
 30
0.0
 11
4.666666666666609
 21
0.4999999999999931
 31
0.0
  0
INSERT
  5
26D7
330
21D3
100
AcDbEntity
  8
AM_5
100
AcDbBlockReference
  2
_OPEN30
 10
4.666666666666609
 20
-0.5000000000000032
 30
0.0
 41
0.8333333333333332
 42
0.8333333333333332
 43
0.8333333333333332
 50
90.0
  0
INSERT
  5
26D8
330
21D3
100
AcDbEntity
  8
AM_5
100
AcDbBlockReference
  2
_OPEN30
 10
4.666666666666609
 20
0.4999999999999931
 30
0.0
 41
0.8333333333333332
 42
0.8333333333333332
 43
0.8333333333333332
 50
270.0
  0
MTEXT
  5
26D9
330
21D3
100
AcDbEntity
  8
AM_5
 62
     2
100
AcDbMText
 10
3.633333333333276
 20
3.276190476190469
 30
0.0
 40
1.066666666666666
 41
0.0
 71
     5
 72
     1
  1
%%c1
  7
ASAMI
 11
0.0000000000000001
 21
1.0
 31
0.0
1001
ACAD
1000
MTEXTBEGIN
1070
    73
1070
     1
1070
    44
1040
1.0
1070
    74
1070
     0
1000
MTEXTEND
  0
POINT
  5
26DA
330
21D3
100
AcDbEntity
  8
DEFPOINTS
 62
     0
100
AcDbPoint
 10
-0.7345194549889413
 20
0.4999999999999946
 30
0.0
  0
POINT
  5
26DB
330
21D3
100
AcDbEntity
  8
DEFPOINTS
 62
     0
100
AcDbPoint
 10
-0.6080165215315106
 20
-0.5000000000000018
 30
0.0
  0
POINT
  5
26DC
330
21D3
100
AcDbEntity
  8
DEFPOINTS
 62
     0
100
AcDbPoint
 10
4.666666666666609
 20
-0.5000000000000032
 30
0.0
  0
ENDBLK
  5
21E0
330
21D3
100
AcDbEntity
  8
0
100
AcDbBlockEnd
  0
BLOCK
  5
234F
330
2348
100
AcDbEntity
  8
0
100
AcDbBlockBegin
  2
*D10
 70
     1
 10
0.0
 20
0.0
 30
0.0
  3
*D10
  1

  0
LINE
  5
26A0
330
2348
100
AcDbEntity
  8
AM_5
100
AcDbLine
 10
0.3514341992237222
 20
-1.026078740726034
 30
0.0
 11
5.058324504269513
 21
-6.69843731093613
 31
0.0
  0
INSERT
  5
26A1
330
2348
100
AcDbEntity
  8
AM_5
100
AcDbBlockReference
  2
_OPEN30
 10
-0.1807121752911415
 20
-0.3847795277722596
 30
0.0
 41
0.8333333333333332
 42
0.8333333333333332
 43
0.8333333333333332
 50
129.6856910759967
  0
MTEXT
  5
26A2
330
2348
100
AcDbEntity
  8
AM_5
 62
     2
100
AcDbMText
 10
4.480091076012878
 20
-4.383413075961766
 30
0.0
 40
1.066666666666666
 41
0.0
 71
     5
 72
     1
  1
R0.5
  7
ASAMI
 11
0.6385756494178364
 21
-0.7695590555445297
 31
0.0
1001
ACAD
1000
MTEXTBEGIN
1070
    73
1070
     1
1070
    44
1040
1.0
1070
    74
1070
     0
1000
MTEXTEND
  0
POINT
  5
26A3
330
2348
100
AcDbEntity
  8
DEFPOINTS
 62
     0
100
AcDbPoint
 10
-0.1807121752911415
 20
-0.3847795277722596
 30
0.0
  0
POINT
  5
26A4
330
2348
100
AcDbEntity
  8
DEFPOINTS
 62
     0
100
AcDbPoint
 10
-0.5000000000000595
 20
0.0000000000000053
 30
0.0
  0
ENDBLK
  5
2350
330
2348
100
AcDbEntity
  8
0
100
AcDbBlockEnd
  0
ENDSEC
  0
SECTION
  2
ENTITIES
  0
DIMENSION
  5
C4F
330
1F
100
AcDbEntity
  8
AM_5
100
AcDbDimension
  2
*D5
 10
-0.0000000000000609
 20
-15.66666666666649
 30
0.0
 11
-25.00000000000006
 21
-14.63333333333316
 31
0.0
 70
    32
  1
<>
  3
AM_JIS
100
AcDbAlignedDimension
 13
-50.00000000000007
 23
-3.000000000000003
 33
0.0
 14
-0.00000000000006
 24
-0.0000000000000036
 34
0.0
 50
0.0000000000002036
100
AcDbRotatedDimension
1001
GENIUS_GENDTOL_13
1000

1000
H7
1000

1040
0.0
  0
LINE
  5
C50
330
1F
100
AcDbEntity
  8
AM_7
100
AcDbLine
 10
-52.38487321524641
 20
-0.0000000000000036
 30
0.0
 11
1.32952988907452
 21
-0.0000000000000036
 31
0.0
1001
GENIUS_GENODEF_13
1002
{
1000
HIER
1070
     0
1002
}
1002
{
1000
MANEDIT
1070
     0
1002
}
1002
{
1000
NOSEL
1070
     0
1002
}
1002
{
1000
BEHIND
1070
     0
1002
}
1002
{
1000
REACTOR
1002
}
1001
GENIUS_GENOBJ-N-CEN_13
1002
{
1000
OWNER
1000
GEN
1002
}
  0
TEXT
  5
C58
330
1F
100
AcDbEntity
  8
AM_6
100
AcDbText
 10
-32.57936511726197
 20
-23.16667000416652
 30
0.0
 40
1.666666675
  1
SSBS2010ZX
 50
0.0000000000002036
 72
     4
 11
-25.00000000000006
 21
-22.33333666666649
 31
0.0
100
AcDbText
  0
DIMENSION
  5
18C3
330
1F
100
AcDbEntity
  8
AM_5
100
AcDbDimension
  2
*D6
 10
-54.16666666666674
 20
2.999999999999997
 30
0.0
 11
-54.16666666666674
 21
-0.0000000000000125
 31
0.0
 70
   160
  1
%%c<>
  3
AM_JIS
100
AcDbAlignedDimension
 13
-49.50000000000007
 23
-3.000000000000003
 33
0.0
 14
-49.50000000000007
 24
2.999999999999996
 34
0.0
 50
270.0
100
AcDbRotatedDimension
1001
ACAD
1000
DSTYLE
1002
{
1070
    48
1040
0.1
1070
    47
1040
0.1
1070
   274
1070
     2
1070
   272
1070
     3
1002
}
1001
GENIUS_GENDTOL_13
1000

1000
h6
1000

1040
0.0
  0
DIMENSION
  5
195B
330
1F
100
AcDbEntity
  8
AM_5
100
AcDbDimension
  2
*D7
 10
-0.0000000000000573
 20
-8.415468169122467
 30
0.0
 11
2.293650793650736
 21
-7.382134835789134
 31
0.0
 70
    32
  1
<>
  3
AM_JIS
100
AcDbAlignedDimension
 13
-1.000000000000057
 23
-0.5000000000000018
 33
0.0
 14
-0.0000000000000568
 24
-1.250000000000003
 34
0.0
 50
359.9999999999988
100
AcDbRotatedDimension
1001
GENIUS_GENDTOL_13
1000

1000
H7
1000

1040
0.0
  0
DIMENSION
  5
1CC3
330
1F
100
AcDbEntity
  8
AM_5
100
AcDbDimension
  2
*D8
 10
-2.500000000000057
 20
-12.03664473087984
 30
0.0
 11
-5.784126984127039
 21
-11.00331139754651
 31
0.0
 70
    32
  1
<>
  3
AM_JIS
100
AcDbAlignedDimension
 13
-0.0000000000000574
 23
-0.0000000000000036
 33
0.0
 14
-2.500000000000056
 24
-0.5333209967908017
 34
0.0
 50
0.0000000000001132
100
AcDbRotatedDimension
1001
GENIUS_GENDTOL_13
1000

1000
h7
1000

1040
0.0
  0
ARC
  5
2128
330
1F
100
AcDbEntity
  8
AM_0
100
AcDbCircle
 10
-0.0205140912841353
 20
0.0046866413120714
 30
0.0
 40
0.5198830776355205
100
AcDbArc
 50
165.040742132377
 51
216.4600123166023
  0
LINE
  5
2129
330
1F
100
AcDbEntity
  8
AM_0
100
AcDbLine
 10
-0.0000000000000568
 20
0.0000000000000053
 30
0.0
 11
-0.5935562594019875
 21
0.3426898661448927
 31
0.0
  0
LINE
  5
212A
330
1F
100
AcDbEntity
  8
AM_0
100
AcDbLine
 10
-0.0700000000000847
 20
-0.0176204680255001
 30
0.0
 11
-0.5227781360679842
 21
0.138885164884913
 31
0.0
  0
SPLINE
  5
212B
330
1F
100
AcDbEntity
  8
AM_0
100
AcDbSpline
210
0.0
220
0.0
230
1.0
 70
     8
 71
     3
 72
     8
 73
     4
 74
     0
 42
0.0000000001
 43
0.0000000001
 40
1.794922859428793
 40
1.794922859428793
 40
1.794922859428793
 40
1.794922859428793
 40
10.83997763771114
 40
10.83997763771114
 40
10.83997763771114
 40
10.83997763771114
 10
-0.4999999999997398
 20
-0.4924038765061259
 30
0.0
 10
-0.7978505747188278
 20
-0.4673356541283091
 30
0.0
 10
-1.086997830826967
 20
-0.3825134698891481
 30
0.0
 10
-1.37244528273544
 20
-0.2722897154071547
 30
0.0
  0
SPLINE
  5
212D
330
1F
100
AcDbEntity
  8
AM_0
100
AcDbSpline
210
0.0
220
0.0
230
1.0
 70
     8
 71
     3
 72
     8
 73
     4
 74
     0
 42
0.0000000001
 43
0.0000000001
 40
6.513172597598655
 40
6.513172597598655
 40
6.513172597598655
 40
6.513172597598655
 40
14.99093327970741
 40
14.99093327970741
 40
14.99093327970741
 40
14.99093327970741
 10
-0.5000000000000595
 20
-0.3775354594359772
 30
0.0
 10
-0.7733552291128896
 20
-0.3091637661940368
 30
0.0
 10
-1.042080759174752
 20
-0.2065225660005694
 30
0.0
 10
-1.309773676159303
 20
-0.0962378579588433
 30
0.0
  0
SPLINE
  5
212E
330
1F
100
AcDbEntity
  8
AM_0
100
AcDbSpline
210
0.0
220
0.0
230
1.0
 70
     8
 71
     3
 72
     8
 73
     4
 74
     0
 42
0.0000000001
 43
0.0000000001
 40
1.794922859432252
 40
1.794922859432252
 40
1.794922859432252
 40
1.794922859432252
 40
8.217791785374707
 40
8.217791785374707
 40
8.217791785374707
 40
8.217791785374707
 10
-0.5000000000000595
 20
0.4924038765060831
 30
0.0
 10
-0.7115028872496766
 20
0.474602999619643
 30
0.0
 10
-0.9186172290713024
 20
0.4266718945008083
 30
0.0
 10
-1.123134574621248
 20
0.3609107152330945
 30
0.0
  0
SPLINE
  5
212F
330
1F
100
AcDbEntity
  8
AM_0
100
AcDbSpline
210
0.0
220
0.0
230
1.0
 70
     8
 71
     3
 72
     8
 73
     4
 74
     2
 42
0.0000000001
 43
0.0000000001
 44
0.0000000001
 12
0.421692687695876
 22
-0.9067388141818064
 32
0.0
 13
-0.9928045895078733
 23
-0.1197457600589821
 33
0.0
 40
0.0
 40
0.0
 40
0.0
 40
0.0
 40
0.1765419456466206
 40
0.1765419456466206
 40
0.1765419456466206
 40
0.1765419456466206
 10
-0.5000000000000595
 20
0.4924038765060831
 30
0.0
 10
-0.475184517483132
 20
0.4390447316897613
 30
0.0
 10
-0.5351323747806943
 20
0.3497365826325949
 30
0.0
 10
-0.5935562594068991
 20
0.3426898661446795
 30
0.0
 11
-0.5000000000000595
 21
0.4924038765060831
 31
0.0
 11
-0.5935562594068991
 21
0.3426898661446795
 31
0.0
  0
LINE
  5
2130
330
1F
100
AcDbEntity
  8
AM_11
100
AcDbLine
 10
-1.000000000000056
 20
-0.5000000000000018
 30
0.0
 11
-0.5000000000000595
 21
-0.5000000000000018
 31
0.0
  0
LINE
  5
2131
330
1F
100
AcDbEntity
  8
AM_11
100
AcDbLine
 10
-0.5000000000000595
 20
0.4999999999999947
 30
0.0
 11
-1.000000000000056
 21
0.4999999999999946
 31
0.0
  0
ARC
  5
2132
330
1F
100
AcDbEntity
  8
AM_11
100
AcDbCircle
 10
-0.5000000000000595
 20
0.0000000000000053
 30
0.0
 40
0.5
100
AcDbArc
 50
270.0
 51
90.0
  0
ARC
  5
2133
330
1F
100
AcDbEntity
  8
AM_0
100
AcDbCircle
 10
-0.4999422955781329
 20
0.0075961234932117
 30
0.0
 40
0.5
100
AcDbArc
 50
270.0000000000781
 51
359.1295148788724
  0
SPLINE
  5
2136
330
1F
100
AcDbEntity
  8
AM_0
100
AcDbSpline
210
0.0
220
0.0
230
1.0
 70
     8
 71
     3
 72
     9
 73
     5
 74
     3
 42
0.0000000001
 43
0.0000000001
 44
0.0000000001
 12
0.5867325161912577
 22
-0.8097808064185491
 32
0.0
 13
-0.8994987856269101
 23
0.4369232594583563
 33
0.0
 40
0.0
 40
0.0
 40
0.0
 40
0.0
 40
0.0448013183098979
 40
0.1334662381801646
 40
0.1334662381801646
 40
0.1334662381801646
 40
0.1334662381801646
 10
-0.4386413907484102
 20
-0.3042599169378359
 30
0.0
 10
-0.4298792606748595
 20
-0.3163529994943703
 30
0.0
 10
-0.3920827301210891
 20
-0.3595896484207924
 30
0.0
 10
-0.4734153374163888
 20
-0.3904487146990875
 30
0.0
 10
-0.5000000000000595
 20
-0.3775354594359772
 30
0.0
 11
-0.4386413907484102
 21
-0.3042599169378359
 31
0.0
 11
-0.4179277590883581
 21
-0.3439852688652447
 31
0.0
 11
-0.5000000000000595
 21
-0.3775354594359772
 31
0.0
  0
LINE
  5
2137
330
1F
100
AcDbEntity
  8
AM_0
100
AcDbLine
 10
-0.023000000000061
 20
-0.0176204680255001
 30
0.0
 11
-0.0700000000000847
 21
-0.0176204680255001
 31
0.0
  0
LINE
  5
2138
330
1F
100
AcDbEntity
  8
AM_0
100
AcDbLine
 10
-0.0000000000000568
 20
0.0000000000000053
 30
0.0
 11
-0.023000000000061
 21
-0.0176204680255001
 31
0.0
  0
ARC
  5
2139
330
1F
100
AcDbEntity
  8
AM_0
100
AcDbCircle
 10
-0.4999422955780885
 20
-0.0075961234940784
 30
0.0
 40
0.5
100
AcDbArc
 50
0.8704851212057906
 51
90.0
  0
ARC
  5
213A
330
1F
100
AcDbEntity
  8
AM_0
100
AcDbCircle
 10
-0.4839065548908508
 20
0.1343256924811396
 30
0.0
 40
0.440915266093463
100
AcDbArc
 50
275.8924707062756
 51
339.8416840647174
  0
LINE
  5
213C
330
1F
100
AcDbEntity
  8
AM_0
100
AcDbLine
 10
-0.4999999999994219
 20
-0.4924038765066161
 30
0.0
 11
-0.500000000000104
 21
-0.3775354594359772
 31
0.0
  0
LINE
  5
213D
330
1F
100
AcDbEntity
  8
AM_0
100
AcDbLine
 10
-1.799152852979902
 20
-0.5000000000000018
 30
0.0
 11
-2.500000000000056
 21
-0.5000000000000018
 31
0.0
  0
LINE
  5
213E
330
1F
100
AcDbEntity
  8
AM_0
100
AcDbLine
 10
-1.799152852979902
 20
0.4999999999999946
 30
0.0
 11
-2.500000000000057
 21
0.4999999999999946
 31
0.0
  0
LINE
  5
214F
330
1F
100
AcDbEntity
  8
AM_0
100
AcDbLine
 10
-1.219794497320112
 20
0.3642364289448599
 30
0.0
 11
-0.5935562594020363
 21
0.3426898661448927
 31
0.0
  0
SPLINE
  5
2152
330
1F
100
AcDbEntity
  8
AM_0
100
AcDbSpline
210
0.0
220
0.0
230
1.0
 70
     8
 71
     3
 72
     8
 73
     4
 74
     2
 42
0.0000000001
 43
0.0000000001
 44
0.0000000001
 12
-0.8789112757303591
 22
0.4769852926391262
 32
0.0
 13
0.9988106394578339
 23
0.0487576302319218
 33
0.0
 40
0.0
 40
0.0
 40
0.0
 40
0.0
 40
0.2157449860329373
 40
0.2157449860329373
 40
0.2157449860329373
 40
0.2157449860329373
 10
-0.5227781360679887
 20
0.1388851648849307
 30
0.0
 10
-0.5859850363702011
 20
0.173187559984379
 30
0.0
 10
-0.6653857218884473
 20
0.3391834613937821
 30
0.0
 10
-0.5935562594019875
 20
0.3426898661449104
 30
0.0
 11
-0.5227781360679887
 21
0.1388851648849307
 31
0.0
 11
-0.5935562594019875
 21
0.3426898661449104
 31
0.0
  0
LINE
  5
2153
330
1F
100
AcDbEntity
  8
AM_0
100
AcDbLine
 10
-1.219578856559339
 20
-0.3235532549061961
 30
0.0
 11
-1.219578856559339
 21
-0.130162501173027
 31
0.0
  0
SPLINE
  5
2155
330
1F
100
AcDbEntity
  8
AM_0
100
AcDbSpline
210
0.0
220
0.0
230
1.0
 70
     8
 71
     3
 72
     8
 73
     4
 74
     0
 42
0.0000000001
 43
0.0000000001
 40
0.0
 40
0.0
 40
0.0
 40
0.0
 40
4.079693546503751
 40
4.079693546503751
 40
4.079693546503751
 40
4.079693546503751
 10
-1.799152852979902
 20
-0.4999999999999841
 30
0.0
 10
-1.606047224195174
 20
-0.4670241521485902
 30
0.0
 10
-1.339897398954804
 20
-0.4256697539791664
 30
0.0
 10
-1.060844995917974
 20
-0.380350469891455
 30
0.0
  0
LINE
  5
2156
330
1F
100
AcDbEntity
  8
AM_7
  6
AM_ISO08W050X2
100
AcDbLine
 10
0.1341626940564176
 20
0.0000000000000053
 30
0.0
 11
-4.401614109029118
 21
0.0000000000000053
 31
0.0
1001
GENIUS_GENODEF_13
1002
{
1000
HIER
1070
     0
1002
}
1002
{
1000
MANEDIT
1070
     0
1002
}
1002
{
1000
NOSEL
1070
     0
1002
}
1002
{
1000
BEHIND
1070
     0
1002
}
1002
{
1000
REACTOR
1002
}
1001
GENIUS_GENOBJ-N-CEN_13
1002
{
1000
OWNER
1000
GEN
1002
}
  0
LINE
  5
21C2
330
1F
100
AcDbEntity
  8
AM_11
100
AcDbLine
 10
-1.000000000000056
 20
-0.5000000000000018
 30
0.0
 11
-1.000000000000056
 21
0.4999999999999946
 31
0.0
  0
LINE
  5
21CA
330
1F
100
AcDbEntity
  8
AM_0
100
AcDbLine
 10
-2.500000000000057
 20
-0.5000000000000018
 30
0.0
 11
-2.500000000000057
 21
0.4999999999999945
 31
0.0
  0
DIMENSION
  5
21D2
330
1F
100
AcDbEntity
  8
AM_5
100
AcDbDimension
  2
*D9
 10
4.666666666666609
 20
-0.5000000000000032
 30
0.0
 11
4.666666666666609
 21
3.276190476190469
 31
0.0
 70
   160
  1
%%c<>
  3
AM_JIS
100
AcDbAlignedDimension
 13
-0.7345194549889413
 23
0.4999999999999946
 33
0.0
 14
-0.6080165215315106
 24
-0.5000000000000018
 34
0.0
 50
270.0
100
AcDbRotatedDimension
1001
GENIUS_GENDTOL_13
1000

1000
h7
1000

1040
0.0
  0
DIMENSION
  5
2347
330
1F
100
AcDbEntity
  8
AM_5
100
AcDbDimension
  2
*D10
 10
-0.5000000000000595
 20
0.0000000000000053
 30
0.0
 11
3.684880051950197
 21
-5.043274580360197
 31
0.0
 70
   164
  1
<>
  3
AM_JIS$4
100
AcDbRadialDimension
 15
-0.1807121752911415
 25
-0.3847795277722596
 35
0.0
 40
0.0
1001
ACAD
1000
DSTYLE
1002
{
1070
   271
1070
     3
1070
   288
1070
     1
1070
   289
1070
     0
1070
    74
1070
     0
1002
}
1001
GENIUS_GENDTOL_13
1000

1000
h7
1000

1040
0.0
  0
POLYLINE
  5
23F2
330
1F
100
AcDbEntity
  8
AM_0
100
AcDb2dPolyline
 66
     1
 10
0.0
 20
0.0
 30
0.0
  0
VERTEX
  5
23F3
330
23F2
100
AcDbEntity
  8
AM_0
100
AcDbVertex
100
AcDb2dVertex
 10
-1.365096567638357
 20
-0.2751214268137199
 30
0.0
 42
0.1038890670521555
  0
VERTEX
  5
23F4
330
23F2
100
AcDbEntity
  8
AM_0
100
AcDbVertex
100
AcDb2dVertex
 10
-1.592279021722674
 20
-0.236640613064333
 30
0.0
 42
0.037467806847825
  0
VERTEX
  5
23F5
330
23F2
100
AcDbEntity
  8
AM_0
100
AcDbVertex
100
AcDb2dVertex
 10
-1.716015886562577
 20
-0.259473718317901
 30
0.0
 42
0.0786085520423559
  0
VERTEX
  5
23F6
330
23F2
100
AcDbEntity
  8
AM_0
100
AcDbVertex
100
AcDb2dVertex
 10
-1.790181600337671
 20
-0.2998952197480111
 30
0.0
 42
0.2497286571989496
  0
VERTEX
  5
23F7
330
23F2
100
AcDbEntity
  8
AM_0
100
AcDbVertex
100
AcDb2dVertex
 10
-1.799152852979902
 20
-0.3558291508293989
 30
0.0
  0
VERTEX
  5
23F8
330
23F2
100
AcDbEntity
  8
AM_0
100
AcDbVertex
100
AcDb2dVertex
 10
-1.799152852979902
 20
-0.3558291508293989
 30
0.0
 42
0.0977771221096372
  0
VERTEX
  5
23F9
330
23F2
100
AcDbEntity
  8
AM_0
100
AcDbVertex
100
AcDb2dVertex
 10
-1.726912003393179
 20
-0.4088651589098849
 30
0.0
 42
0.0915289962939468
  0
VERTEX
  5
23FA
330
23F2
100
AcDbEntity
  8
AM_0
100
AcDbVertex
100
AcDb2dVertex
 10
-1.60189614216199
 20
-0.4485006326419186
 30
0.0
 42
0.0356552271032647
  0
VERTEX
  5
23FB
330
23F2
100
AcDbEntity
  8
AM_0
100
AcDbVertex
100
AcDb2dVertex
 10
-1.475026837262358
 20
-0.4468560367641802
 30
0.0
  0
SEQEND
  5
23FC
330
23F2
100
AcDbEntity
  8
AM_0
  0
SPLINE
  5
240D
330
1F
100
AcDbEntity
  8
AM_0
100
AcDbSpline
210
0.0
220
0.0
230
1.0
 70
     8
 71
     3
 72
     8
 73
     4
 74
     0
 42
0.0000000001
 43
0.0000000001
 40
0.0
 40
0.0
 40
0.0
 40
0.0
 40
4.656267981793611
 40
4.656267981793611
 40
4.656267981793611
 40
4.656267981793611
 10
-1.799152852979902
 20
0.499999999999977
 30
0.0
 10
-1.609411898934088
 20
0.456197260199745
 30
0.0
 10
-1.39077941257517
 20
0.3748579222684388
 30
0.0
 10
-1.219794497320112
 20
0.3642364289448597
 30
0.0
  0
POLYLINE
  5
2440
330
1F
100
AcDbEntity
  8
AM_0
100
AcDb2dPolyline
 66
     1
 10
0.0
 20
0.0
 30
0.0
  0
VERTEX
  5
2441
330
2440
100
AcDbEntity
  8
AM_0
100
AcDbVertex
100
AcDb2dVertex
 10
-1.536842276362647
 20
0.4291567893234868
 30
0.0
 42
0.0755979241988467
  0
VERTEX
  5
2442
330
2440
100
AcDbEntity
  8
AM_0
100
AcDbVertex
100
AcDb2dVertex
 10
-1.663988498129569
 20
0.4538185048629427
 30
0.0
 42
0.0770681575580261
  0
VERTEX
  5
2443
330
2440
100
AcDbEntity
  8
AM_0
100
AcDbVertex
100
AcDb2dVertex
 10
-1.772287963653243
 20
0.4415837971058879
 30
0.0
 42
0.2179099759154814
  0
VERTEX
  5
2444
330
2440
100
AcDbEntity
  8
AM_0
100
AcDbVertex
100
AcDb2dVertex
 10
-1.796799960673446
 20
0.4214163337674272
 30
0.0
 42
0.2320489978593618
  0
VERTEX
  5
2445
330
2440
100
AcDbEntity
  8
AM_0
100
AcDbVertex
100
AcDb2dVertex
 10
-1.796715130742753
 20
0.391202820925048
 30
0.0
 42
0.0920784803092352
  0
VERTEX
  5
2446
330
2440
100
AcDbEntity
  8
AM_0
100
AcDbVertex
100
AcDb2dVertex
 10
-1.760491915311973
 20
0.3086731201467301
 30
0.0
 42
0.046637983948585
  0
VERTEX
  5
2447
330
2440
100
AcDbEntity
  8
AM_0
100
AcDbVertex
100
AcDb2dVertex
 10
-1.663222651735964
 20
0.1749544824247149
 30
0.0
 42
0.0253947623709178
  0
VERTEX
  5
2448
330
2440
100
AcDbEntity
  8
AM_0
100
AcDbVertex
100
AcDb2dVertex
 10
-1.546364625555639
 20
0.0567510734444508
 30
0.0
 42
0.0935153961038383
  0
VERTEX
  5
2449
330
2440
100
AcDbEntity
  8
AM_0
100
AcDbVertex
100
AcDb2dVertex
 10
-1.219578856559339
 20
-0.1330517123304605
 30
0.0
  0
SEQEND
  5
244A
330
2440
100
AcDbEntity
  8
AM_0
  0
LINE
  5
244E
330
1F
100
AcDbEntity
  8
AM_0
100
AcDbLine
 10
-50.00000000000007
 20
-2.500000000000003
 30
0.0
 11
-50.00000000000007
 21
-0.0000000000000036
 31
0.0
  0
LINE
  5
2456
330
1F
100
AcDbEntity
  8
AM_0
100
AcDbLine
 10
-49.50000000000008
 20
-3.000000000000003
 30
0.0
 11
-11.82810889132461
 21
-3.000000000000002
 31
0.0
1001
GENIUS_GENODEF_13
1002
{
1000
HIER
1070
     0
1002
}
1002
{
1000
MANEDIT
1070
     0
1002
}
1002
{
1000
NOSEL
1070
     0
1002
}
1002
{
1000
BEHIND
1070
     0
1002
}
1002
{
1000
REACTOR
1002
}
1001
GENIUS_GENOBJ-N-CEN_13
1002
{
1000
OWNER
1000
GEN
1002
}
  0
LINE
  5
2463
330
1F
100
AcDbEntity
  8
AM_0
100
AcDbLine
 10
-49.50000000000008
 20
-3.000000000000003
 30
0.0
 11
-50.00000000000007
 21
-2.500000000000003
 31
0.0
1001
GENIUS_GENFIL_13
1070
     0
1040
0.5
1040
0.5
1040
20.0
1040
0.0
1002
{
1002
}
1001
GENIUS_GENODEF_13
1002
{
1000
HIER
1070
     0
1002
}
1002
{
1000
MANEDIT
1070
     0
1002
}
1002
{
1000
NOSEL
1070
     0
1002
}
1002
{
1000
BEHIND
1070
     0
1002
}
1002
{
1000
REACTOR
1002
}
1001
GENIUS_GENOBJ-N-CHA_13
1002
{
1000
OWNER
1000
GEN
1002
}
  0
LINE
  5
2466
330
1F
100
AcDbEntity
  8
AM_0
100
AcDbLine
 10
-49.50000000000008
 20
-3.000000000000003
 30
0.0
 11
-49.50000000000007
 21
-0.0000000000000036
 31
0.0
  0
LINE
  5
246E
330
1F
100
AcDbEntity
  8
AM_0
100
AcDbLine
 10
-11.82810889132461
 20
-3.000000000000002
 30
0.0
 11
-11.8281088913246
 21
-0.0000000000001124
 31
0.0
  0
LINE
  5
246F
330
1F
100
AcDbEntity
  8
AM_0
100
AcDbLine
 10
-11.82810889132461
 20
-3.000000000000002
 30
0.0
 11
-2.497981872402418
 21
-0.5000000000000018
 31
0.0
1001
GENIUS_GENODEF_13
1002
{
1000
HIER
1070
     0
1002
}
1002
{
1000
MANEDIT
1070
     0
1002
}
1002
{
1000
NOSEL
1070
     0
1002
}
1002
{
1000
BEHIND
1070
     0
1002
}
1002
{
1000
REACTOR
1002
}
1001
GENIUS_GENOBJ-N-CEN_13
1002
{
1000
OWNER
1000
GEN
1002
}
  0
LINE
  5
2472
330
1F
100
AcDbEntity
  8
AM_0
100
AcDbLine
 10
-49.50000000000008
 20
2.999999999999996
 30
0.0
 11
-11.83012701892225
 21
2.999999999999995
 31
0.0
1001
GENIUS_GENODEF_13
1002
{
1000
HIER
1070
     0
1002
}
1002
{
1000
MANEDIT
1070
     0
1002
}
1002
{
1000
NOSEL
1070
     0
1002
}
1002
{
1000
BEHIND
1070
     0
1002
}
1002
{
1000
REACTOR
1002
}
1001
GENIUS_GENOBJ-N-CEN_13
1002
{
1000
OWNER
1000
GEN
1002
}
  0
LINE
  5
2473
330
1F
100
AcDbEntity
  8
AM_0
100
AcDbLine
 10
-11.83012701892225
 20
2.999999999999995
 30
0.0
 11
-2.500000000000057
 21
0.4999999999999945
 31
0.0
1001
GENIUS_GENODEF_13
1002
{
1000
HIER
1070
     0
1002
}
1002
{
1000
MANEDIT
1070
     0
1002
}
1002
{
1000
NOSEL
1070
     0
1002
}
1002
{
1000
BEHIND
1070
     0
1002
}
1002
{
1000
REACTOR
1002
}
1001
GENIUS_GENOBJ-N-CEN_13
1002
{
1000
OWNER
1000
GEN
1002
}
  0
LINE
  5
2474
330
1F
100
AcDbEntity
  8
AM_0
100
AcDbLine
 10
-11.82810889132461
 20
2.999999999999997
 30
0.0
 11
-11.8281088913246
 21
0.0000000000001079
 31
0.0
  0
LINE
  5
2475
330
1F
100
AcDbEntity
  8
AM_0
100
AcDbLine
 10
-49.50000000000008
 20
2.999999999999996
 30
0.0
 11
-49.50000000000007
 21
-0.0000000000000036
 31
0.0
  0
LINE
  5
2476
330
1F
100
AcDbEntity
  8
AM_0
100
AcDbLine
 10
-49.50000000000008
 20
2.999999999999996
 30
0.0
 11
-50.00000000000007
 21
2.499999999999996
 31
0.0
1001
GENIUS_GENFIL_13
1070
     0
1040
0.5
1040
0.5
1040
20.0
1040
0.0
1002
{
1002
}
1001
GENIUS_GENODEF_13
1002
{
1000
HIER
1070
     0
1002
}
1002
{
1000
MANEDIT
1070
     0
1002
}
1002
{
1000
NOSEL
1070
     0
1002
}
1002
{
1000
BEHIND
1070
     0
1002
}
1002
{
1000
REACTOR
1002
}
1001
GENIUS_GENOBJ-N-CHA_13
1002
{
1000
OWNER
1000
GEN
1002
}
  0
LINE
  5
2477
330
1F
100
AcDbEntity
  8
AM_0
100
AcDbLine
 10
-50.00000000000007
 20
2.499999999999996
 30
0.0
 11
-50.00000000000007
 21
-0.0000000000000036
 31
0.0
  0
VIEWPORT
  5
110
330
101
100
AcDbEntity
 67
     1
  8
0
100
AcDbViewport
 10
420.5
 20
297.0
 30
0.0
 40
948.9782706766916
 41
628.452
 68
     1
 69
     1
1001
ACAD
1000
MVIEW
1002
{
1070
    16
1010
0.0
1020
0.0
1030
0.0
1010
0.0
1020
0.0
1030
1.0
1040
0.0
1040
628.452
1040
420.5
1040
297.0
1040
50.0
1040
0.0
1040
0.0
1070
     0
1070
   100
1070
     1
1070
     1
1070
     0
1070
     0
1070
     0
1070
     0
1040
0.0
1040
0.0
1040
0.0
1040
10.0
1040
10.0
1040
10.0
1040
10.0
1070
     0
1002
{
1002
}
1002
}
  0
ENDSEC
  0
SECTION
  2
OBJECTS
  0
DICTIONARY
  5
C
330
0
100
AcDbDictionary
  3
ACAD_GROUP
350
D
  3
ACAD_LAYOUT
350
1A
  3
ACAD_MLINESTYLE
350
17
  3
ACAD_PLOTSETTINGS
350
19
  3
ACAD_PLOTSTYLENAME
350
E
  3
ACDBVARIABLEDICTIONARY
350
34
  3
ACMDICTIONARY
350
43
  3
AMG
350
2B
  3
AMGSNAPSETTINGS
350
6E
  3
DWGPROPS
350
2738
  3
ACDBHEADERROUNDTRIPXREC
350
2745
  0
DICTIONARY
  5
74
330
1F
100
AcDbDictionary
280
     1
  3
ACAD_INDEX
360
273A
  3
ACAD_LAYOUTSELFREF
360
2768
  0
DICTIONARY
  5
276D
330
101
100
AcDbDictionary
280
     1
  3
ACAD_LAYOUTSELFREF
360
276E
  0
DICTIONARY
  5
D
102
{ACAD_REACTORS
330
C
102
}
330
C
100
AcDbDictionary
  0
DICTIONARY
  5
1A
102
{ACAD_REACTORS
330
C
102
}
330
C
100
AcDbDictionary
  0
DICTIONARY
  5
17
102
{ACAD_REACTORS
330
C
102
}
330
C
100
AcDbDictionary
  3
STANDARD
350
18
  0
DICTIONARY
  5
19
102
{ACAD_REACTORS
330
C
102
}
330
C
100
AcDbDictionary
  0
ACDBDICTIONARYWDFLT
  5
E
102
{ACAD_REACTORS
330
C
102
}
330
C
100
AcDbDictionary
281
     1
  3
Normal
350
F
100
AcDbDictionaryWithDefault
340
F
  0
DICTIONARY
  5
34
102
{ACAD_REACTORS
330
C
102
}
330
C
100
AcDbDictionary
  3
INDEXCTL
350
35
  3
SORTENTS
350
B5E
  0
DICTIONARY
  5
43
102
{ACAD_REACTORS
330
C
102
}
330
C
100
AcDbDictionary
  3
ACMSTDDICTIONARY
350
260
  0
DICTIONARY
  5
2B
102
{ACAD_REACTORS
330
C
102
}
330
C
100
AcDbDictionary
  3
ACMGSETTINGS
350
2C
  0
DICTIONARY
  5
6E
102
{ACAD_REACTORS
330
C
102
}
330
C
100
AcDbDictionary
  0
XRECORD
  5
2738
102
{ACAD_REACTORS
330
C
102
}
330
C
100
AcDbXrecord
  1
DWGPROPS COOKIE
  2

  3

  4

  6

  7

  8

  9

300
AmdtFileType=82
301
=
302
=
303
=
304
=
305
=
306
=
307
=
308
=
309
=
 40
0.3539206365740741
 41
2452838.620506898
 42
2453045.569159305
  1

 90
        1
  0
DICTIONARY
  5
2745
102
{ACAD_REACTORS
330
C
102
}
330
C
100
AcDbDictionary
  3
TSTACKALIGN
350
2746
  3
TSTACKSIZE
350
2747
  3
HYPERLINKBASE
350
2748
  3
STYLESHEET
350
2749
  3
LAYOUTDICT
350
274A
  3
PLOTSETDICT
350
274B
  3
PLOTSTYLNAMDICT
350
274C
  3
LWETCUNION
350
274D
  3
INSUNITS
350
274E
  3
CEPSNTYPE
350
274F
  3
FINGERPRINTGUID
350
2750
  3
VERSIONGUID
350
2751
  3
PSVPSCALE
350
2752
  3
DIMSTYLEDATA
350
2753
  3
PUCSORTHOREF
350
2754
  3
PUCSORTHOVIEW
350
2755
  3
PUCSBASE
350
2756
  3
PUCSORGTOP
350
2757
  3
PUCSORGBOTTOM
350
2758
  3
PUCSORGLEFT
350
2759
  3
PUCSORGRIGHT
350
275A
  3
PUCSORGFRONT
350
275B
  3
PUCSORGBACK
350
275C
  3
UCSORTHOREF
350
275D
  3
UCSORTHOVIEW
350
275E
  3
UCSBASE
350
275F
  3
UCSORGTOP
350
2760
  3
UCSORGBOTTOM
350
2761
  3
UCSORGLEFT
350
2762
  3
UCSORGRIGHT
350
2763
  3
UCSORGFRONT
350
2764
  3
UCSORGBACK
350
2765
  0
DICTIONARY
  5
273A
102
{ACAD_REACTORS
330
74
102
}
330
74
100
AcDbDictionary
  3
*A1
350
273B
  0
XRECORD
  5
2768
102
{ACAD_REACTORS
330
74
102
}
330
74
100
AcDbXrecord
340
1F
  0
XRECORD
  5
276E
102
{ACAD_REACTORS
330
276D
102
}
330
276D
100
AcDbXrecord
340
101
  0
MLINESTYLE
  5
18
102
{ACAD_REACTORS
330
17
102
}
330
17
100
AcDbMlineStyle
  2
STANDARD
 70
     0
  3

 62
   256
 51
90.0
 52
90.0
 71
     2
 49
0.5
 62
   256
  6
BYLAYER
 49
-0.5
 62
   256
  6
BYLAYER
  0
ACDBPLACEHOLDER
  5
F
102
{ACAD_REACTORS
330
E
102
}
330
E
100
AcDbPlaceHolder
280
     0
  0
DICTIONARYVAR
  5
35
102
{ACAD_REACTORS
330
34
102
}
330
34
100
DictionaryVariables
280
     0
  1
1
  0
DICTIONARYVAR
  5
B5E
102
{ACAD_REACTORS
330
34
102
}
330
34
100
DictionaryVariables
280
     0
  1
96
  0
DICTIONARY
  5
260
102
{ACAD_REACTORS
330
43
102
}
330
43
100
AcDbDictionary
  0
DICTIONARY
  5
2C
102
{ACAD_REACTORS
330
2B
102
}
330
2B
100
AcDbDictionary
  3
DWGSETTINGS
350
2D
  0
XRECORD
  5
2746
102
{ACAD_REACTORS
330
2745
102
}
330
2745
100
AcDbXrecord
 90
        1
  0
XRECORD
  5
2747
102
{ACAD_REACTORS
330
2745
102
}
330
2745
100
AcDbXrecord
 90
       70
  0
XRECORD
  5
2748
102
{ACAD_REACTORS
330
2745
102
}
330
2745
100
AcDbXrecord
  1

  0
XRECORD
  5
2749
102
{ACAD_REACTORS
330
2745
102
}
330
2745
100
AcDbXrecord
  1
ASAMI.ctb
  0
XRECORD
  5
274A
102
{ACAD_REACTORS
330
2745
102
}
330
2745
100
AcDbXrecord
340
1A
  0
XRECORD
  5
274B
102
{ACAD_REACTORS
330
2745
102
}
330
2745
100
AcDbXrecord
340
19
  0
XRECORD
  5
274C
102
{ACAD_REACTORS
330
2745
102
}
330
2745
100
AcDbXrecord
340
E
  0
XRECORD
  5
274D
102
{ACAD_REACTORS
330
2745
102
}
330
2745
100
AcDbXrecord
 90
    10781
  0
XRECORD
  5
274E
102
{ACAD_REACTORS
330
2745
102
}
330
2745
100
AcDbXrecord
 90
        4
  0
XRECORD
  5
274F
102
{ACAD_REACTORS
330
2745
102
}
330
2745
100
AcDbXrecord
 90
        0
  0
XRECORD
  5
2750
102
{ACAD_REACTORS
330
2745
102
}
330
2745
100
AcDbXrecord
  1
{AFB28963-8C59-40AE-9337-C84526B81ACE}
  0
XRECORD
  5
2751
102
{ACAD_REACTORS
330
2745
102
}
330
2745
100
AcDbXrecord
  1
{835FC116-150F-4A49-9056-566285B98712}
  0
XRECORD
  5
2752
102
{ACAD_REACTORS
330
2745
102
}
330
2745
100
AcDbXrecord
 40
0.0
  0
XRECORD
  5
2753
102
{ACAD_REACTORS
330
2745
102
}
330
2745
100
AcDbXrecord
1000
DSTYLE
1002
{
1070
    79
 70
     2
1070
   341
340
59
1070
   342
340
59
1070
   371
 70
    -1
1070
   372
 70
    -1
1002
}
  0
XRECORD
  5
2754
102
{ACAD_REACTORS
330
2745
102
}
330
2745
100
AcDbXrecord
340
0
  0
XRECORD
  5
2755
102
{ACAD_REACTORS
330
2745
102
}
330
2745
100
AcDbXrecord
 70
     0
  0
XRECORD
  5
2756
102
{ACAD_REACTORS
330
2745
102
}
330
2745
100
AcDbXrecord
340
0
  0
XRECORD
  5
2757
102
{ACAD_REACTORS
330
2745
102
}
330
2745
100
AcDbXrecord
 10
0.0
 20
0.0
 30
0.0
  0
XRECORD
  5
2758
102
{ACAD_REACTORS
330
2745
102
}
330
2745
100
AcDbXrecord
 10
0.0
 20
0.0
 30
0.0
  0
XRECORD
  5
2759
102
{ACAD_REACTORS
330
2745
102
}
330
2745
100
AcDbXrecord
 10
0.0
 20
0.0
 30
0.0
  0
XRECORD
  5
275A
102
{ACAD_REACTORS
330
2745
102
}
330
2745
100
AcDbXrecord
 10
0.0
 20
0.0
 30
0.0
  0
XRECORD
  5
275B
102
{ACAD_REACTORS
330
2745
102
}
330
2745
100
AcDbXrecord
 10
0.0
 20
0.0
 30
0.0
  0
XRECORD
  5
275C
102
{ACAD_REACTORS
330
2745
102
}
330
2745
100
AcDbXrecord
 10
0.0
 20
0.0
 30
0.0
  0
XRECORD
  5
275D
102
{ACAD_REACTORS
330
2745
102
}
330
2745
100
AcDbXrecord
340
0
  0
XRECORD
  5
275E
102
{ACAD_REACTORS
330
2745
102
}
330
2745
100
AcDbXrecord
 70
     0
  0
XRECORD
  5
275F
102
{ACAD_REACTORS
330
2745
102
}
330
2745
100
AcDbXrecord
340
0
  0
XRECORD
  5
2760
102
{ACAD_REACTORS
330
2745
102
}
330
2745
100
AcDbXrecord
 10
0.0
 20
0.0
 30
0.0
  0
XRECORD
  5
2761
102
{ACAD_REACTORS
330
2745
102
}
330
2745
100
AcDbXrecord
 10
0.0
 20
0.0
 30
0.0
  0
XRECORD
  5
2762
102
{ACAD_REACTORS
330
2745
102
}
330
2745
100
AcDbXrecord
 10
0.0
 20
0.0
 30
0.0
  0
XRECORD
  5
2763
102
{ACAD_REACTORS
330
2745
102
}
330
2745
100
AcDbXrecord
 10
0.0
 20
0.0
 30
0.0
  0
XRECORD
  5
2764
102
{ACAD_REACTORS
330
2745
102
}
330
2745
100
AcDbXrecord
 10
0.0
 20
0.0
 30
0.0
  0
XRECORD
  5
2765
102
{ACAD_REACTORS
330
2745
102
}
330
2745
100
AcDbXrecord
 10
0.0
 20
0.0
 30
0.0
  0
LAYER_INDEX
  5
273B
102
{ACAD_REACTORS
330
273A
102
}
330
273A
100
AcDbIndex
 40
2453151.85085669
100
AcDbLayerIndex
  8
0
360
273C
 90
        0
  8
AM_0
360
273D
 90
       36
  8
AM_11
360
273E
 90
        4
  8
AM_7
360
273F
 90
        2
  8
AM_5
360
2740
 90
        6
  8
Defpoints
360
2741
 90
        0
  8
AM_6
360
2742
 90
        1
  8
AM_CL
360
2743
 90
        0
  0
XRECORD
  5
2D
102
{ACAD_REACTORS
330
2C
102
}
330
2C
100
AcDbXrecord
  1
VERSION
140
15.0
  1
PRODUCT
  2
AutoCAD Mechanical 2000
  0
IDBUFFER
  5
273C
330
0
100
AcDbIdBuffer
  0
IDBUFFER
  5
273D
330
0
100
AcDbIdBuffer
330
214F
330
2152
330
2153
330
2155
330
21CA
330
23F2
330
240D
330
2440
330
244E
330
2456
330
2463
330
2466
330
246E
330
246F
330
2472
330
2473
330
2474
330
2475
330
2476
330
2477
330
2128
330
2129
330
212A
330
212B
330
212D
330
212E
330
212F
330
2133
330
2136
330
2137
330
2138
330
2139
330
213A
330
213C
330
213D
330
213E
  0
IDBUFFER
  5
273E
330
0
100
AcDbIdBuffer
330
2130
330
2131
330
2132
330
21C2
  0
IDBUFFER
  5
273F
330
0
100
AcDbIdBuffer
330
C50
330
2156
  0
IDBUFFER
  5
2740
330
0
100
AcDbIdBuffer
330
C4F
330
18C3
330
195B
330
1CC3
330
21D2
330
2347
  0
IDBUFFER
  5
2741
330
0
100
AcDbIdBuffer
  0
IDBUFFER
  5
2742
330
0
100
AcDbIdBuffer
330
C58
  0
IDBUFFER
  5
2743
330
0
100
AcDbIdBuffer
  0
ENDSEC
  0
EOF
