  0
SECTION
  2
HEADER
  9
$ACADVER
  1
AC1014
  9
$ACADMAINTVER
 70
     9
  9
$DWGCODEPAGE
  3
ANSI_932
  9
$INSBASE
 10
0.0
 20
0.0
 30
0.0
  9
$EXTMIN
 10
-55.7333333333334
 20
-27.06133893465217
 30
-0.00000001
  9
$EXTMAX
 10
7.333333333333277
 20
7.329761904761895
 30
0.00000001
  9
$LIMMIN
 10
-65.08432461036409
 20
-33.15080227214883
  9
$LIMMAX
 10
13.84083698535715
 20
15.53224891408746
  9
$ORTHOMODE
 70
     0
  9
$REGENMODE
 70
     1
  9
$FILLMODE
 70
     1
  9
$QTEXTMODE
 70
     0
  9
$MIRRTEXT
 70
     0
  9
$DRAGMODE
 70
     2
  9
$LTSCALE
 40
0.3
  9
$OSMODE
 70
    55
  9
$ATTMODE
 70
     1
  9
$TEXTSIZE
 40
2.5
  9
$TRACEWID
 40
1.0
  9
$TEXTSTYLE
  7
STANDARD
  9
$CLAYER
  8
AM_0
  9
$CELTYPE
  6
BYLAYER
  9
$CECOLOR
 62
   256
  9
$CELTSCALE
 40
1.0
  9
$DELOBJ
 70
     1
  9
$DISPSILH
 70
     0
  9
$DIMSCALE
 40
0.3333333333333333
  9
$DIMASZ
 40
2.5
  9
$DIMEXO
 40
1.0
  9
$DIMDLI
 40
12.0
  9
$DIMRND
 40
0.0
  9
$DIMDLE
 40
0.0
  9
$DIMEXE
 40
1.0
  9
$DIMTP
 40
0.1
  9
$DIMTM
 40
0.1
  9
$DIMTXT
 40
3.2
  9
$DIMCEN
 40
0.0
  9
$DIMTSZ
 40
0.0
  9
$DIMTOL
 70
     0
  9
$DIMLIM
 70
     0
  9
$DIMTIH
 70
     0
  9
$DIMTOH
 70
     0
  9
$DIMSE1
 70
     0
  9
$DIMSE2
 70
     0
  9
$DIMTAD
 70
     3
  9
$DIMZIN
 70
     8
  9
$DIMBLK
  1
OPEN30
  9
$DIMASO
 70
     1
  9
$DIMSHO
 70
     1
  9
$DIMPOST
  1

  9
$DIMAPOST
  1
"
  9
$DIMALT
 70
     0
  9
$DIMALTD
 70
     2
  9
$DIMALTF
 40
0.0393701
  9
$DIMLFAC
 40
1.0
  9
$DIMTOFL
 70
     1
  9
$DIMTVP
 40
0.0
  9
$DIMTIX
 70
     0
  9
$DIMSOXD
 70
     0
  9
$DIMSAH
 70
     0
  9
$DIMBLK1
  1

  9
$DIMBLK2
  1

  9
$DIMSTYLE
  2
AM_JIS
  9
$DIMCLRD
 70
   256
  9
$DIMCLRE
 70
   256
  9
$DIMCLRT
 70
     2
  9
$DIMTFAC
 40
0.71
  9
$DIMGAP
 40
1.5
  9
$DIMJUST
 70
     0
  9
$DIMSD1
 70
     0
  9
$DIMSD2
 70
     0
  9
$DIMTOLJ
 70
     0
  9
$DIMTZIN
 70
     0
  9
$DIMALTZ
 70
     0
  9
$DIMALTTZ
 70
     0
  9
$DIMFIT
 70
     3
  9
$DIMUPT
 70
     0
  9
$DIMUNIT
 70
     2
  9
$DIMDEC
 70
     3
  9
$DIMTDEC
 70
     3
  9
$DIMALTU
 70
     2
  9
$DIMALTTD
 70
     2
  9
$DIMTXSTY
  7
ASAMI
  9
$DIMAUNIT
 70
     0
  9
$LUNITS
 70
     2
  9
$LUPREC
 70
     2
  9
$SKETCHINC
 40
1.0
  9
$FILLETRAD
 40
0.5
  9
$AUNITS
 70
     0
  9
$AUPREC
 70
     0
  9
$MENU
  1
.
  9
$ELEVATION
 40
0.0
  9
$PELEVATION
 40
0.0
  9
$THICKNESS
 40
0.0
  9
$LIMCHECK
 70
     0
  9
$BLIPMODE
 70
     0
  9
$CHAMFERA
 40
0.5
  9
$CHAMFERB
 40
0.5
  9
$CHAMFERC
 40
20.0
  9
$CHAMFERD
 40
0.0
  9
$SKPOLY
 70
     0
  9
$TDCREATE
 40
2452838.620506898
  9
$TDUPDATE
 40
2453151.851398518
  9
$TDINDWG
 40
0.3864412731
  9
$TDUSRTIMER
 40
0.3864412731
  9
$USRTIMER
 70
     1
  9
$ANGBASE
 50
0.0
  9
$ANGDIR
 70
     0
  9
$PDMODE
 70
     0
  9
$PDSIZE
 40
0.0
  9
$PLINEWID
 40
0.0
  9
$COORDS
 70
     1
  9
$SPLFRAME
 70
     0
  9
$SPLINETYPE
 70
     6
  9
$SPLINESEGS
 70
     8
  9
$ATTDIA
 70
     1
  9
$ATTREQ
 70
     1
  9
$HANDLING
 70
 12289
  9
$HANDSEED
  5
2848
  9
$SURFTAB1
 70
     6
  9
$SURFTAB2
 70
     6
  9
$SURFTYPE
 70
     6
  9
$SURFU
 70
     6
  9
$SURFV
 70
     6
  9
$UCSNAME
  2

  9
$UCSORG
 10
-0.0000000000000568
 20
-0.0000000000000036
 30
0.0
  9
$UCSXDIR
 10
1.0
 20
0.0
 30
0.0
  9
$UCSYDIR
 10
0.0
 20
1.0
 30
0.0
  9
$PUCSNAME
  2

  9
$PUCSORG
 10
0.0
 20
0.0
 30
0.0
  9
$PUCSXDIR
 10
1.0
 20
0.0
 30
0.0
  9
$PUCSYDIR
 10
0.0
 20
1.0
 30
0.0
  9
$USERI1
 70
     0
  9
$USERI2
 70
     0
  9
$USERI3
 70
     0
  9
$USERI4
 70
     0
  9
$USERI5
 70
     0
  9
$USERR1
 40
0.0
  9
$USERR2
 40
0.0
  9
$USERR3
 40
0.0
  9
$USERR4
 40
0.0
  9
$USERR5
 40
0.0
  9
$WORLDVIEW
 70
     1
  9
$SHADEDGE
 70
     3
  9
$SHADEDIF
 70
    70
  9
$TILEMODE
 70
     1
  9
$MAXACTVP
 70
    64
  9
$PINSBASE
 10
0.0
 20
0.0
 30
0.0
  9
$PLIMCHECK
 70
     0
  9
$PEXTMIN
 10
1.000000000000000E+20
 20
1.000000000000000E+20
 30
1.000000000000000E+20
  9
$PEXTMAX
 10
-1.000000000000000E+20
 20
-1.000000000000000E+20
 30
-1.000000000000000E+20
  9
$PLIMMIN
 10
0.0
 20
0.0
  9
$PLIMMAX
 10
841.0
 20
594.0
  9
$UNITMODE
 70
     0
  9
$VISRETAIN
 70
     1
  9
$PLINEGEN
 70
     0
  9
$PSLTSCALE
 70
     0
  9
$TREEDEPTH
 70
  3020
  9
$PICKSTYLE
 70
     0
  9
$CMLSTYLE
  2
STANDARD
  9
$CMLJUST
 70
     0
  9
$CMLSCALE
 40
20.0
  9
$PROXYGRAPHICS
 70
     1
  9
$MEASUREMENT
 70
     1
  0
ENDSEC
  0
SECTION
  2
CLASSES
  0
CLASS
  1
ACDBDICTIONARYWDFLT
  2
AcDbDictionaryWithDefault
  3
AutoCAD 2000
 90
        0
280
     0
281
     0
  0
CLASS
  1
ACDBPLACEHOLDER
  2
AcDbPlaceHolder
  3
AutoCAD 2000
 90
        0
280
     0
281
     0
  0
CLASS
  1
LAYOUT
  2
AcDbLayout
  3
AutoCAD 2000
 90
        0
280
     0
281
     0
  0
CLASS
  1
AMGSETTINGSOBJ
  2
AmgSettingsObj
  3
"AcadM|Product Description: AutoCAD Mechanical 2000|Company: Autodesk"
 90
        0
280
     0
281
     0
  0
CLASS
  1
ACME_DOCUMENT
  2
AcMeDbDoc
  3
AcMeServices
 90
        0
280
     0
281
     0
  0
CLASS
  1
ACMESCOPE
  2
AcMeScope
  3
AcMeServices
 90
        0
280
     0
281
     0
  0
CLASS
  1
ACMECOMMANDHISTORY
  2
AcMeCommandHistory
  3
AcMeServices
 90
        0
280
     0
281
     0
  0
CLASS
  1
DICTIONARYVAR
  2
AcDbDictionaryVar
  3
AutoCAD 2000
 90
        0
280
     0
281
     0
  0
CLASS
  1
ACIMSYSVARMAN
  2
AcImSysVarManager
  3
AcMeServices
 90
        0
280
     0
281
     0
  0
CLASS
  1
ACIMREALSYSVAR
  2
AcImRealSysVar
  3
AcMeServices
 90
        0
280
     0
281
     0
  0
CLASS
  1
ACIMINTSYSVAR
  2
AcImIntSysVar
  3
AcMeServices
 90
        0
280
     0
281
     0
  0
CLASS
  1
ACMEDRAWINGMAN
  2
AcMeDrawingMan
  3
AcMeServices
 90
        0
280
     0
281
     0
  0
CLASS
  1
ACMEVIEW
  2
AcMeView
  3
AcMeServices
 90
        0
280
     0
281
     0
  0
CLASS
  1
ACDBENTITYCACHE
  2
AcMeEntityCache
  3
AcMeServices
 90
        0
280
     0
281
     0
  0
CLASS
  1
GSMANAGER
  2
AcMeGSManager
  3
AcMeServices
 90
        0
280
     0
281
     0
  0
CLASS
  1
AmdtInternalReactor
  2
AmdtInternalReactor
  3
AcMeServices
 90
        0
280
     0
281
     0
  0
CLASS
  1
ACMESTATEMGR
  2
AcMeStateMgr
  3
AcMeServices
 90
        0
280
     0
281
     0
  0
CLASS
  1
ACME_DATABASE
  2
AcMeDbDatabase
  3
AcMeServices
 90
        0
280
     0
281
     0
  0
CLASS
  1
ACRFINSADJUSTERMGR
  2
AcRfInsAdjusterMgr
  3
AcMeServices
 90
        0
280
     0
281
     0
  0
CLASS
  1
ACMDATADICTIONARY
  2
AcmDataDictionary
  3
"AcmSymBB|Product Description: AutoCAD Mechanical 2000|Company: Autodesk"
 90
        0
280
     0
281
     0
  0
CLASS
  1
ACMDATAENTRYBLOCK
  2
AcmDataEntryBlock
  3
"AcmSymBB|Product Description: AutoCAD Mechanical 2000|Company: Autodesk"
 90
        0
280
     0
281
     0
  0
CLASS
  1
AMGOBJPROPCFG
  2
AmgObjPropCfg
  3
"AmgLay|Product Description: AutoCAD Mechanical 2000|Company: Autodesk"
 90
        1
280
     0
281
     0
  0
CLASS
  1
ACAMGFILTERDAT
  2
AcAmgFilterDat
  3
"AcadM|Product Description: AutoCAD Mechanical 2000|Company: Autodesk"
 90
        0
280
     0
281
     0
  0
CLASS
  1
LAYER_INDEX
  2
AcDbLayerIndex
  3
AutoCAD 2000
 90
        0
280
     0
281
     0
  0
CLASS
  1
IDBUFFER
  2
AcDbIdBuffer
  3
AutoCAD 2000
 90
        0
280
     0
281
     0
  0
CLASS
  1
ACIMSTRSYSVAR
  2
AcImStrSysVar
  3
AcMeServices
 90
        0
280
     0
281
     0
  0
CLASS
  1
ACMSTANDARDJIS
  2
AcmStandardJIS
  3
"AcmSymBB|Product Description: AutoCAD Mechanical 2000|Company: Autodesk"
 90
        0
280
     0
281
     0
  0
CLASS
  1
ACMSURFSTANDARDJIS
  2
AcmSurfTextStdJIS
  3
"AcmSymBB|Product Description: AutoCAD Mechanical 2000|Company: Autodesk"
 90
        0
280
     0
281
     0
  0
CLASS
  1
ACMFCFSTANDARDJIS
  2
AcmFCFStdJIS
  3
"AcmSymBB|Product Description: AutoCAD Mechanical 2000|Company: Autodesk"
 90
        0
280
     0
281
     0
  0
CLASS
  1
ACMWELDSTANDARDJIS
  2
AcmWeldingStdJIS
  3
"AcmSymBB|Product Description: AutoCAD Mechanical 2000|Company: Autodesk"
 90
        0
280
     0
281
     0
  0
CLASS
  1
ACMIDSTANDARDJIS
  2
AcmIdStdJIS
  3
"AcmSymBB|Product Description: AutoCAD Mechanical 2000|Company: Autodesk"
 90
        0
280
     0
281
     0
  0
CLASS
  1
ACMDATUMSTANDARDJIS
  2
AcmDatumStdJIS
  3
"AcmSymBB|Product Description: AutoCAD Mechanical 2000|Company: Autodesk"
 90
        0
280
     0
281
     0
  0
CLASS
  1
ACMBOMSTANDARDJIS
  2
AcmBOMStdJIS
  3
"AcmSymBB|Product Description: AutoCAD Mechanical 2000|Company: Autodesk"
 90
        0
280
     0
281
     0
  0
CLASS
  1
ACMSTANDARDANSI
  2
AcmStandardANSI
  3
"AcmSymBB|Product Description: AutoCAD Mechanical 2000|Company: Autodesk"
 90
        0
280
     0
281
     0
  0
CLASS
  1
ACMSURFSTANDARDANSI
  2
AcmSurfTextStdANSI
  3
"AcmSymBB|Product Description: AutoCAD Mechanical 2000|Company: Autodesk"
 90
        0
280
     0
281
     0
  0
CLASS
  1
ACMFCFSTANDARDANSI
  2
AcmFCFStdANSI
  3
"AcmSymBB|Product Description: AutoCAD Mechanical 2000|Company: Autodesk"
 90
        0
280
     0
281
     0
  0
CLASS
  1
ACMWELDSTANDARDANSI
  2
AcmWeldingStdANSI
  3
"AcmSymBB|Product Description: AutoCAD Mechanical 2000|Company: Autodesk"
 90
        0
280
     0
281
     0
  0
CLASS
  1
ACMIDSTANDARDANSI
  2
AcmIdStdANSI
  3
"AcmSymBB|Product Description: AutoCAD Mechanical 2000|Company: Autodesk"
 90
        0
280
     0
281
     0
  0
CLASS
  1
ACMDATUMSTANDARDANSI
  2
AcmDatumStdANSI
  3
"AcmSymBB|Product Description: AutoCAD Mechanical 2000|Company: Autodesk"
 90
        0
280
     0
281
     0
  0
CLASS
  1
ACMBOMSTANDARDANSI
  2
AcmBOMStdANSI
  3
"AcmSymBB|Product Description: AutoCAD Mechanical 2000|Company: Autodesk"
 90
        0
280
     0
281
     0
  0
CLASS
  1
ACMSTANDARDBSI
  2
AcmStandardBSI
  3
"AcmSymBB|Product Description: AutoCAD Mechanical 2000|Company: Autodesk"
 90
        0
280
     0
281
     0
  0
CLASS
  1
ACMSURFSTANDARDBSI
  2
AcmSurfTextStdBSI
  3
"AcmSymBB|Product Description: AutoCAD Mechanical 2000|Company: Autodesk"
 90
        0
280
     0
281
     0
  0
CLASS
  1
ACMFCFSTANDARDBSI
  2
AcmFCFStdBSI
  3
"AcmSymBB|Product Description: AutoCAD Mechanical 2000|Company: Autodesk"
 90
        0
280
     0
281
     0
  0
CLASS
  1
ACMWELDSTANDARDBSI
  2
AcmWeldingStdBSI
  3
"AcmSymBB|Product Description: AutoCAD Mechanical 2000|Company: Autodesk"
 90
        0
280
     0
281
     0
  0
CLASS
  1
ACMIDSTANDARDBSI
  2
AcmIdStdBSI
  3
"AcmSymBB|Product Description: AutoCAD Mechanical 2000|Company: Autodesk"
 90
        0
280
     0
281
     0
  0
CLASS
  1
ACMDATUMSTANDARDBSI
  2
AcmDatumStdBSI
  3
"AcmSymBB|Product Description: AutoCAD Mechanical 2000|Company: Autodesk"
 90
        0
280
     0
281
     0
  0
CLASS
  1
ACMBOMSTANDARDBSI
  2
AcmBOMStdBSI
  3
"AcmSymBB|Product Description: AutoCAD Mechanical 2000|Company: Autodesk"
 90
        0
280
     0
281
     0
  0
CLASS
  1
LONG_TRANSACTION
  2
AcDbLongTransaction
  3
AutoCAD 2000
 90
        0
280
     0
281
     0
  0
CLASS
  1
LWPOLYLINE
  2
AcDbPolyline
  3
AutoCAD 2000
 90
        0
280
     0
281
     1
  0
CLASS
  1
HATCH
  2
AcDbHatch
  3
AutoCAD 2000
 90
        0
280
     0
281
     1
  0
CLASS
  1
XRECORD
  2
AcDbXrecord
  3
AutoCAD 2000
 90
        0
280
     0
281
     0
  0
ENDSEC
  0
SECTION
  2
TABLES
  0
TABLE
  2
VPORT
  5
8
330
0
100
AcDbSymbolTable
 70
     3
  0
VPORT
  5
281D
330
8
100
AcDbSymbolTableRecord
100
AcDbViewportTableRecord
  2
*ACTIVE
 70
     0
 10
0.0
 20
0.0
 11
1.0
 21
1.0
 12
-16.68581061488455
 22
-7.392974342946118
 13
0.0
 23
0.0
 14
2.5
 24
2.5
 15
10.0
 25
10.0
 16
0.0
 26
0.0
 36
1.0
 17
0.0
 27
0.0
 37
0.0
 40
70.02097417856933
 41
1.56570841889117
 42
50.0
 43
0.0
 44
0.0
 50
0.0
 51
0.0
 71
     0
 72
   100
 73
     1
 74
     3
 75
     0
 76
     0
 77
     0
 78
     0
  0
ENDTAB
  0
TABLE
  2
LTYPE
  5
5
330
0
100
AcDbSymbolTable
 70
    10
  0
LTYPE
  5
14
330
5
100
AcDbSymbolTableRecord
100
AcDbLinetypeTableRecord
  2
BYBLOCK
 70
     0
  3

 72
    65
 73
     0
 40
0.0
  0
LTYPE
  5
15
330
5
100
AcDbSymbolTableRecord
100
AcDbLinetypeTableRecord
  2
BYLAYER
 70
     0
  3

 72
    65
 73
     0
 40
0.0
  0
LTYPE
  5
16
330
5
100
AcDbSymbolTableRecord
100
AcDbLinetypeTableRecord
  2
CONTINUOUS
 70
     0
  3
Solid line
 72
    65
 73
     0
 40
0.0
  0
LTYPE
  5
4B
330
5
100
AcDbSymbolTableRecord
100
AcDbLinetypeTableRecord
  2
AM_ISO02W050
 70
     0
  3
__ __ __ __ __ __ __ __ __ __ __ __ __ __ __
 72
    65
 73
     2
 40
7.5
 49
6.0
 74
     0
 49
-1.5
 74
     0
  0
LTYPE
  5
4C
330
5
100
AcDbSymbolTableRecord
100
AcDbLinetypeTableRecord
  2
AM_ISO08W050
 70
     0
  3
____ . ____ . ____ . ____ . ____ . ____ . ____
 72
    65
 73
     4
 40
18.0
 49
12.0
 74
     0
 49
-1.5
 74
     0
 49
3.0
 74
     0
 49
-1.5
 74
     0
  0
LTYPE
  5
4D
330
5
100
AcDbSymbolTableRecord
100
AcDbLinetypeTableRecord
  2
AM_ISO09W050
 70
     0
  3
_____ . . _____ . . _____ . . ____ .. ____
 72
    65
 73
     6
 40
22.5
 49
12.0
 74
     0
 49
-1.5
 74
     0
 49
3.0
 74
     0
 49
-1.5
 74
     0
 49
3.0
 74
     0
 49
-1.5
 74
     0
  0
LTYPE
  5
4E
330
5
100
AcDbSymbolTableRecord
100
AcDbLinetypeTableRecord
  2
AMCONSTR
 70
     0
  3
_______________________
 72
    65
 73
     2
 40
9999.0
 49
9999.0
 74
     0
 49
0.0
 74
     0
  0
LTYPE
  5
4F
330
5
100
AcDbSymbolTableRecord
100
AcDbLinetypeTableRecord
  2
AM_ISO02W050X2
 70
     0
  3
 _ _ _ _ _ _ _ _ _ _ _ _
 72
    65
 73
     2
 40
3.75
 49
3.0
 74
     0
 49
-0.75
 74
     0
  0
LTYPE
  5
50
330
5
100
AcDbSymbolTableRecord
100
AcDbLinetypeTableRecord
  2
AM_ISO08W050X2
 70
     0
  3
__ . __ . __ . __ . __ . __
 72
    65
 73
     4
 40
9.0
 49
6.0
 74
     0
 49
-0.75
 74
     0
 49
1.5
 74
     0
 49
-0.75
 74
     0
  0
LTYPE
  5
53
330
5
100
AcDbSymbolTableRecord
100
AcDbLinetypeTableRecord
  2
AMZIGZAG
 70
     0
  3
/\/-/\/-/\/-/\/-/\/-/\/
 72
    65
 73
     2
 40
11.00009999999999
 49
0.0001
 74
     4
 75
   135
340
52
 46
0.04
 50
0.0
 44
0.0
 45
0.0
 49
-11.0
 74
     0
  0
LTYPE
  5
166
330
5
100
AcDbSymbolTableRecord
100
AcDbLinetypeTableRecord
  2
ACJISTGL
 70
     0
  3
_ _ _ _ _
 72
    65
 73
     2
 40
3.0
 49
2.0
 74
     0
 49
-1.0
 74
     0
  0
LTYPE
  5
26A
330
5
100
AcDbSymbolTableRecord
100
AcDbLinetypeTableRecord
  2
ACJISTGB
 70
     0
  3
__ . . __ . .
 72
    65
 73
     6
 40
9.0
 49
4.0
 74
     0
 49
-1.0
 74
     0
 49
1.0
 74
     0
 49
-1.0
 74
     0
 49
1.0
 74
     0
 49
-1.0
 74
     0
  0
ENDTAB
  0
TABLE
  2
LAYER
  5
2
330
0
100
AcDbSymbolTable
 70
     8
  0
LAYER
  5
10
330
2
100
AcDbSymbolTableRecord
100
AcDbLayerTableRecord
  2
0
 70
     0
 62
     7
  6
CONTINUOUS
  0
LAYER
  5
3F9
330
2
100
AcDbSymbolTableRecord
100
AcDbLayerTableRecord
  2
AM_0
 70
     0
 62
     7
  6
CONTINUOUS
  0
LAYER
  5
BD6
330
2
100
AcDbSymbolTableRecord
100
AcDbLayerTableRecord
  2
AM_11
 70
     0
 62
     3
  6
AM_ISO09W050
  0
LAYER
  5
BD7
330
2
100
AcDbSymbolTableRecord
100
AcDbLayerTableRecord
  2
AM_7
 70
     0
 62
     4
  6
AM_ISO08W050
  0
LAYER
  5
BD8
330
2
100
AcDbSymbolTableRecord
100
AcDbLayerTableRecord
  2
AM_5
 70
     0
 62
     3
  6
CONTINUOUS
  0
LAYER
  5
BD9
330
2
100
AcDbSymbolTableRecord
100
AcDbLayerTableRecord
  2
DEFPOINTS
 70
     0
 62
     7
  6
CONTINUOUS
  0
LAYER
  5
BDA
330
2
100
AcDbSymbolTableRecord
100
AcDbLayerTableRecord
  2
AM_6
 70
     0
 62
     2
  6
CONTINUOUS
  0
LAYER
  5
1F9B
330
2
100
AcDbSymbolTableRecord
100
AcDbLayerTableRecord
  2
AM_CL
 70
     0
 62
     1
  6
AMCONSTR
  0
ENDTAB
  0
TABLE
  2
STYLE
  5
3
330
0
100
AcDbSymbolTable
 70
     5
  0
STYLE
  5
11
330
3
100
AcDbSymbolTableRecord
100
AcDbTextStyleTableRecord
  2
STANDARD
 70
     0
 40
0.0
 41
1.0
 50
0.0
 71
     0
 42
2.5
  3
simplex.shx
  4
EXTFONT.SHX
  0
STYLE
  5
52
330
3
100
AcDbSymbolTableRecord
100
AcDbTextStyleTableRecord
  2

 70
     1
 40
0.0
 41
1.0
 50
0.0
 71
     0
 42
2.5
  3
ltypeshp.shx
  4

  0
STYLE
  5
6B
330
3
100
AcDbSymbolTableRecord
100
AcDbTextStyleTableRecord
  2
ASAMI
 70
     0
 40
0.0
 41
1.0
 50
0.0
 71
     0
 42
2.5
  3
simplex.shx
  4
EXTFONT.SHX
  0
STYLE
  5
262
330
3
100
AcDbSymbolTableRecord
100
AcDbTextStyleTableRecord
  2
ACJISTS
 70
     0
 40
1.0
 41
1.0
 50
0.0
 71
     0
 42
2.5
  3
simplex.shx
  4
bigfont.shx
  0
STYLE
  5
269
330
3
100
AcDbSymbolTableRecord
100
AcDbTextStyleTableRecord
  2
ACJISGDT
 70
     0
 40
0.0
 41
1.0
 50
0.0
 71
     0
 42
2.5
  3
amgdtans.shx
  4

  0
ENDTAB
  0
TABLE
  2
VIEW
  5
6
330
0
100
AcDbSymbolTable
 70
     0
  0
ENDTAB
  0
TABLE
  2
UCS
  5
7
330
0
100
AcDbSymbolTable
 70
     0
  0
ENDTAB
  0
TABLE
  2
APPID
  5
9
330
0
100
AcDbSymbolTable
 70
    14
  0
APPID
  5
12
330
9
100
AcDbSymbolTableRecord
100
AcDbRegAppTableRecord
  2
ACAD
 70
     0
  0
APPID
  5
30
330
9
100
AcDbSymbolTableRecord
100
AcDbRegAppTableRecord
  2
MCAD_NO_VIS
 70
     0
  0
APPID
  5
31
330
9
100
AcDbSymbolTableRecord
100
AcDbRegAppTableRecord
  2
ACAD_TEMP_GRAPHIC
 70
     0
  0
APPID
  5
2C2
330
9
100
AcDbSymbolTableRecord
100
AcDbRegAppTableRecord
  2
GENIUS_GENDTOL_13
 70
     0
  0
APPID
  5
339
330
9
100
AcDbSymbolTableRecord
100
AcDbRegAppTableRecord
  2
GENIUS_GENODEF_13
 70
     0
  0
APPID
  5
33A
330
9
100
AcDbSymbolTableRecord
100
AcDbRegAppTableRecord
  2
GENIUS_GENOBJ-N-RSBK_13
 70
     0
  0
APPID
  5
33B
330
9
100
AcDbSymbolTableRecord
100
AcDbRegAppTableRecord
  2
GENIUS_GENOBJ-N-LIB_13
 70
     0
  0
APPID
  5
33C
330
9
100
AcDbSymbolTableRecord
100
AcDbRegAppTableRecord
  2
GENIUS_GENSCALE_13
 70
     0
  0
APPID
  5
378
330
9
100
AcDbSymbolTableRecord
100
AcDbRegAppTableRecord
  2
GENIUS_GENDIMSH_14
 70
     0
  0
APPID
  5
BDB
330
9
100
AcDbSymbolTableRecord
100
AcDbRegAppTableRecord
  2
GENIUS_GENOBJ-N-CEN_13
 70
     0
  0
APPID
  5
BDC
330
9
100
AcDbSymbolTableRecord
100
AcDbRegAppTableRecord
  2
GENIUS_GENFIL_13
 70
     0
  0
APPID
  5
BDD
330
9
100
AcDbSymbolTableRecord
100
AcDbRegAppTableRecord
  2
GENIUS_GENOBJ-N-FIL_13
 70
     0
  0
APPID
  5
12AD
330
9
100
AcDbSymbolTableRecord
100
AcDbRegAppTableRecord
  2
GENIUS_GENOREF_13
 70
     0
  0
APPID
  5
2464
330
9
100
AcDbSymbolTableRecord
100
AcDbRegAppTableRecord
  2
GENIUS_GENOBJ-N-CHA_13
 70
     0
  0
ENDTAB
  0
TABLE
  2
DIMSTYLE
  5
A
330
0
100
AcDbSymbolTable
 70
     8
  0
DIMSTYLE
105
58
102
{ACAD_REACTORS
330
C4F
330
18C3
330
195B
330
1CC3
330
21D2
102
}
330
A
100
AcDbSymbolTableRecord
100
AcDbDimStyleTableRecord
  2
AM_JIS
 70
     0
  3

  4
"
  5
OPEN30
  6

  7

 40
0.3333333333333333
 41
2.5
 42
1.0
 43
12.0
 44
1.0
 45
0.0
 46
0.0
 47
0.1
 48
0.1
140
3.2
141
0.0
142
0.0
143
0.0393701
144
1.0
145
0.0
146
0.71
147
1.5
 71
     0
 72
     0
 73
     0
 74
     0
 75
     0
 76
     0
 77
     3
 78
     8
170
     0
171
     2
172
     1
173
     0
174
     0
175
     0
176
   256
177
   256
178
     2
270
     2
271
     3
272
     3
273
     2
274
     2
340
6B
275
     0
280
     0
281
     0
282
     0
283
     0
284
     0
285
     0
286
     0
287
     3
288
     0
  0
DIMSTYLE
105
5F
330
A
100
AcDbSymbolTableRecord
100
AcDbDimStyleTableRecord
  2
AM_JIS$3
 70
     0
  3

  4
"
  5
OPEN30
  6

  7

 40
0.3333333333333333
 41
2.5
 42
1.0
 43
10.0
 44
1.0
 45
0.0
 46
0.0
 47
0.1
 48
0.1
140
3.2
141
0.0
142
0.0
143
0.0393701
144
1.0
145
0.0
146
0.71
147
1.5
 71
     0
 72
     0
 73
     0
 74
     1
 75
     0
 76
     0
 77
     3
 78
     8
170
     0
171
     2
172
     0
173
     0
174
     0
175
     0
176
   256
177
   256
178
     2
270
     2
271
     2
272
     3
273
     2
274
     2
340
6B
275
     0
280
     0
281
     0
282
     0
283
     0
284
     0
285
     0
286
     0
287
     0
288
     1
  0
DIMSTYLE
105
60
102
{ACAD_REACTORS
330
2347
102
}
330
A
100
AcDbSymbolTableRecord
100
AcDbDimStyleTableRecord
  2
AM_JIS$4
 70
     0
  3

  4
"
  5
OPEN30
  6

  7

 40
0.3333333333333333
 41
2.5
 42
1.0
 43
10.0
 44
1.0
 45
0.0
 46
0.0
 47
0.1
 48
0.1
140
3.2
141
0.0
142
0.0
143
0.0393701
144
1.0
145
0.0
146
0.71
147
1.5
 71
     0
 72
     0
 73
     0
 74
     1
 75
     0
 76
     0
 77
     3
 78
     8
170
     0
171
     2
172
     0
173
     0
174
     0
175
     0
176
   256
177
   256
178
     2
270
     2
271
     2
272
     3
273
     2
274
     2
340
6B
275
     0
280
     0
281
     0
282
     0
283
     0
284
     0
285
     0
286
     0
287
     0
288
     1
  0
DIMSTYLE
105
61
330
A
100
AcDbSymbolTableRecord
100
AcDbDimStyleTableRecord
  2
AM_JIS$6
 70
     0
  3

  4
"
  5
OPEN30
  6

  7

 40
0.3333333333333333
 41
2.5
 42
1.0
 43
10.0
 44
1.0
 45
0.0
 46
0.0
 47
0.1
 48
0.1
140
3.2
141
0.0
142
0.0
143
0.0393701
144
1.0
145
0.0
146
0.71
147
1.5
 71
     0
 72
     0
 73
     0
 74
     0
 75
     0
 76
     0
 77
     0
 78
     8
170
     0
171
     2
172
     1
173
     0
174
     0
175
     0
176
   256
177
   256
178
     2
270
     2
271
     2
272
     2
273
     2
274
     2
340
6B
275
     0
280
     0
281
     0
282
     0
283
     0
284
     0
285
     0
286
     0
287
     3
288
     0
  0
DIMSTYLE
105
62
330
A
100
AcDbSymbolTableRecord
100
AcDbDimStyleTableRecord
  2
AM_JIS$7
 70
     0
  3

  4
"
  5
OPEN30
  6

  7

 40
0.3333333333333333
 41
2.5
 42
1.0
 43
10.0
 44
1.0
 45
0.0
 46
0.0
 47
0.1
 48
0.1
140
3.2
141
0.0
142
0.0
143
0.0393701
144
1.0
145
0.0
146
0.71
147
1.5
 71
     0
 72
     0
 73
     0
 74
     0
 75
     0
 76
     0
 77
     3
 78
     8
170
     0
171
     2
172
     1
173
     0
174
     0
175
     0
176
   256
177
   256
178
     2
270
     2
271
     2
272
     3
273
     2
274
     2
340
6B
275
     0
280
     0
281
     0
282
     0
283
     0
284
     0
285
     0
286
     0
287
     3
288
     0
  0
DIMSTYLE
105
63
330
A
100
AcDbSymbolTableRecord
100
AcDbDimStyleTableRecord
  2
AM_JIS$SF
 70
     0
  3

  4
"
  5
OPEN30
  6

  7

 40
0.3333333333333333
 41
2.5
 42
1.0
 43
10.0
 44
1.0
 45
0.0
 46
0.0
 47
0.1
 48
0.1
140
3.2
141
0.0
142
0.0
143
0.0393701
144
1.0
145
0.0
146
0.71
147
1.5
 71
     0
 72
     0
 73
     0
 74
     0
 75
     1
 76
     1
 77
     3
 78
     8
170
     0
171
     2
172
     1
173
     0
174
     0
175
     0
176
   256
177
   256
178
     2
270
     2
271
     2
272
     2
273
     2
274
     2
340
6B
275
     0
280
     0
281
     0
282
     0
283
     0
284
     0
285
     0
286
     0
287
     3
288
     0
  0
DIMSTYLE
105
68
330
A
100
AcDbSymbolTableRecord
100
AcDbDimStyleTableRecord
  2
AM_JIS$SH
 70
     0
  3

  4
"
  5

  6
GENAXEH
  7
OPEN30
 40
0.3333333333333333
 41
2.5
 42
1.0
 43
10.0
 44
1.0
 45
0.0
 46
0.0
 47
0.1
 48
0.1
140
3.2
141
0.0
142
0.0
143
0.0393701
144
2.0
145
0.0
146
0.71
147
1.5
 71
     0
 72
     0
 73
     0
 74
     0
 75
     1
 76
     1
 77
     3
 78
     8
170
     0
171
     2
172
     1
173
     1
174
     0
175
     0
176
   256
177
   256
178
     2
270
     2
271
     2
272
     2
273
     2
274
     2
340
6B
275
     0
280
     0
281
     0
282
     0
283
     0
284
     0
285
     0
286
     0
287
     3
288
     0
  0
DIMSTYLE
105
B34
330
A
100
AcDbSymbolTableRecord
100
AcDbDimStyleTableRecord
  2
AM_JIS$2
 70
     0
  3

  4
"
  5
OPEN30
  6

  7

 40
0.3333333333333333
 41
2.5
 42
1.0
 43
12.0
 44
1.0
 45
0.0
 46
0.0
 47
0.1
 48
0.1
140
3.2
141
0.0
142
0.0
143
0.0393701
144
1.0
145
0.0
146
0.71
147
1.5
 71
     0
 72
     0
 73
     0
 74
     0
 75
     0
 76
     0
 77
     3
 78
     8
170
     0
171
     2
172
     1
173
     0
174
     0
175
     0
176
   256
177
   256
178
     2
270
     2
271
     3
272
     3
273
     2
274
     2
340
6B
275
     0
280
     0
281
     0
282
     0
283
     0
284
     0
285
     0
286
     0
287
     3
288
     0
  0
ENDTAB
  0
TABLE
  2
BLOCK_RECORD
  5
1
330
0
100
AcDbSymbolTable
 70
    11
  0
BLOCK_RECORD
  5
1F
102
{ACAD_XDICTIONARY
360
74
102
}
330
1
100
AcDbSymbolTableRecord
100
AcDbBlockTableRecord
  2
*MODEL_SPACE
  0
BLOCK_RECORD
  5
101
102
{ACAD_XDICTIONARY
360
2846
102
}
330
1
100
AcDbSymbolTableRecord
100
AcDbBlockTableRecord
  2
*PAPER_SPACE
  0
BLOCK_RECORD
  5
59
330
1
100
AcDbSymbolTableRecord
100
AcDbBlockTableRecord
  2
_OPEN30
  0
BLOCK_RECORD
  5
64
330
1
100
AcDbSymbolTableRecord
100
AcDbBlockTableRecord
  2
GENAXEH
  0
BLOCK_RECORD
  5
C75
330
1
100
AcDbSymbolTableRecord
100
AcDbBlockTableRecord
  2
*D5
  0
BLOCK_RECORD
  5
18C4
330
1
100
AcDbSymbolTableRecord
100
AcDbBlockTableRecord
  2
*D6
  0
BLOCK_RECORD
  5
195C
330
1
100
AcDbSymbolTableRecord
100
AcDbBlockTableRecord
  2
*D7
  0
BLOCK_RECORD
  5
1CC4
330
1
100
AcDbSymbolTableRecord
100
AcDbBlockTableRecord
  2
*D8
  0
BLOCK_RECORD
  5
21D3
330
1
100
AcDbSymbolTableRecord
100
AcDbBlockTableRecord
  2
*D9
  0
BLOCK_RECORD
  5
2348
330
1
100
AcDbSymbolTableRecord
100
AcDbBlockTableRecord
  2
*D10
  0
ENDTAB
  0
ENDSEC
  0
SECTION
  2
BLOCKS
  0
BLOCK
  5
20
330
1F
100
AcDbEntity
  8
0
100
AcDbBlockBegin
  2
*MODEL_SPACE
 70
     0
 10
0.0
 20
0.0
 30
0.0
  3
*MODEL_SPACE
  1

  0
ENDBLK
  5
21
330
1F
100
AcDbEntity
  8
0
100
AcDbBlockEnd
  0
BLOCK
  5
103
330
101
100
AcDbEntity
 67
     1
  8
0
100
AcDbBlockBegin
  2
*PAPER_SPACE
 70
     0
 10
0.0
 20
0.0
 30
0.0
  3
*PAPER_SPACE
  1

  0
ENDBLK
  5
104
330
101
100
AcDbEntity
 67
     1
  8
0
100
AcDbBlockEnd
  0
BLOCK
  5
5D
330
59
100
AcDbEntity
  8
0
100
AcDbBlockBegin
  2
_OPEN30
 70
     0
 10
0.0
 20
0.0
 30
0.0
  3
_OPEN30
  1

  0
LINE
  5
5A
330
59
100
AcDbEntity
  8
0
 62
     0
100
AcDbLine
 10
-1.0
 20
0.26794919
 30
0.0
 11
0.0
 21
0.0
 31
0.0
  0
LINE
  5
5B
330
59
100
AcDbEntity
  8
0
 62
     0
100
AcDbLine
 10
0.0
 20
0.0
 30
0.0
 11
-1.0
 21
-0.26794919
 31
0.0
  0
LINE
  5
5C
330
59
100
AcDbEntity
  8
0
 62
     0
100
AcDbLine
 10
0.0
 20
0.0
 30
0.0
 11
-1.0
 21
0.0
 31
0.0
  0
ENDBLK
  5
5E
330
59
100
AcDbEntity
  8
0
100
AcDbBlockEnd
  0
BLOCK
  5
66
330
64
100
AcDbEntity
  8
0
100
AcDbBlockBegin
  2
GENAXEH
 70
     0
 10
0.0
 20
0.0
 30
0.0
  3
GENAXEH
  1

  0
LINE
  5
65
330
64
100
AcDbEntity
  8
0
100
AcDbLine
 10
-1.0
 20
0.0
 30
0.0
 11
1.0
 21
0.0
 31
0.0
  0
ENDBLK
  5
67
330
64
100
AcDbEntity
  8
0
100
AcDbBlockEnd
  0
BLOCK
  5
C7F
330
C75
100
AcDbEntity
  8
0
100
AcDbBlockBegin
  2
*D5
 70
     1
 10
0.0
 20
0.0
 30
0.0
  3
*D5
  1

  0
LINE
  5
27DF
330
C75
100
AcDbEntity
  8
AM_5
100
AcDbLine
 10
-50.00000000000007
 20
-3.333333333333336
 30
0.0
 11
-50.00000000000007
 21
-19.89466893048548
 31
0.0
  0
LINE
  5
27E0
330
C75
100
AcDbEntity
  8
AM_5
100
AcDbLine
 10
-0.00000000000006
 20
-0.3333333333333369
 30
0.0
 11
-0.0000000000000612
 21
-19.89466893048548
 31
0.0
  0
LINE
  5
27E1
330
C75
100
AcDbEntity
  8
AM_5
100
AcDbLine
 10
-49.16666666666674
 20
-19.56133559715215
 30
0.0
 11
-0.8333333333333944
 21
-19.56133559715215
 31
0.0
  0
INSERT
  5
27E2
330
C75
100
AcDbEntity
  8
AM_5
100
AcDbBlockReference
  2
_OPEN30
 10
-50.00000000000007
 20
-19.56133559715215
 30
0.0
 41
0.8333333333333332
 42
0.8333333333333332
 43
0.8333333333333332
 50
180.0
  0
INSERT
  5
27E3
330
C75
100
AcDbEntity
  8
AM_5
100
AcDbBlockReference
  2
_OPEN30
 10
-0.0000000000000611
 20
-19.56133559715215
 30
0.0
 41
0.8333333333333332
 42
0.8333333333333332
 43
0.8333333333333332
  0
MTEXT
  5
27E4
330
C75
100
AcDbEntity
  8
AM_5
 62
     2
100
AcDbMText
 10
-25.00000000000006
 20
-18.52800226381882
 30
0.0
 40
1.066666666666666
 41
0.0
 71
     5
 72
     1
  1
50
  7
ASAMI
1001
ACAD
1000
MTEXTBEGIN
1070
    73
1070
     1
1070
    44
1040
1.0
1070
    74
1070
     0
1000
MTEXTEND
  0
POINT
  5
27E5
330
C75
100
AcDbEntity
  8
DEFPOINTS
 62
     0
100
AcDbPoint
 10
-50.00000000000007
 20
-3.000000000000003
 30
0.0
  0
POINT
  5
27E6
330
C75
100
AcDbEntity
  8
DEFPOINTS
 62
     0
100
AcDbPoint
 10
-0.00000000000006
 20
-0.0000000000000036
 30
0.0
  0
POINT
  5
27E7
330
C75
100
AcDbEntity
  8
DEFPOINTS
 62
     0
100
AcDbPoint
 10
-0.0000000000000611
 20
-19.56133559715215
 30
0.0
  0
ENDBLK
  5
C80
330
C75
100
AcDbEntity
  8
0
100
AcDbBlockEnd
  0
BLOCK
  5
18CE
330
18C4
100
AcDbEntity
  8
0
100
AcDbBlockBegin
  2
*D6
 70
     1
 10
0.0
 20
0.0
 30
0.0
  3
*D6
  1

  0
LINE
  5
24E2
330
18C4
100
AcDbEntity
  8
AM_5
100
AcDbLine
 10
-49.83333333333341
 20
-3.000000000000003
 30
0.0
 11
-54.50000000000007
 21
-3.000000000000002
 31
0.0
  0
LINE
  5
24E3
330
18C4
100
AcDbEntity
  8
AM_5
100
AcDbLine
 10
-49.83333333333341
 20
2.999999999999996
 30
0.0
 11
-54.50000000000007
 21
2.999999999999997
 31
0.0
  0
LINE
  5
24E4
330
18C4
100
AcDbEntity
  8
AM_5
100
AcDbLine
 10
-54.16666666666674
 20
-2.166666666666669
 30
0.0
 11
-54.16666666666674
 21
2.166666666666664
 31
0.0
  0
INSERT
  5
24E5
330
18C4
100
AcDbEntity
  8
AM_5
100
AcDbBlockReference
  2
_OPEN30
 10
-54.16666666666674
 20
-3.000000000000002
 30
0.0
 41
0.8333333333333332
 42
0.8333333333333332
 43
0.8333333333333332
 50
270.0
  0
INSERT
  5
24E6
330
18C4
100
AcDbEntity
  8
AM_5
100
AcDbBlockReference
  2
_OPEN30
 10
-54.16666666666674
 20
2.999999999999997
 30
0.0
 41
0.8333333333333332
 42
0.8333333333333332
 43
0.8333333333333332
 50
90.0
  0
MTEXT
  5
24E7
330
18C4
100
AcDbEntity
  8
AM_5
 62
     2
100
AcDbMText
 10
-55.20000000000006
 20
-0.0000000000000123
 30
0.0
 40
1.066666666666666
 41
0.0
 71
     5
 72
     1
  1
%%c6
  7
ASAMI
 11
0.0000000000000001
 21
1.0
 31
0.0
1001
ACAD
1000
MTEXTBEGIN
1070
    73
1070
     1
1070
    44
1040
1.0
1070
    74
1070
     0
1000
MTEXTEND
  0
POINT
  5
24E8
330
18C4
100
AcDbEntity
  8
DEFPOINTS
 62
     0
100
AcDbPoint
 10
-49.50000000000007
 20
-3.000000000000003
 30
0.0
  0
POINT
  5
24E9
330
18C4
100
AcDbEntity
  8
DEFPOINTS
 62
     0
100
AcDbPoint
 10
-49.50000000000007
 20
2.999999999999996
 30
0.0
  0
POINT
  5
24EA
330
18C4
100
AcDbEntity
  8
DEFPOINTS
 62
     0
100
AcDbPoint
 10
-54.16666666666674
 20
2.999999999999997
 30
0.0
  0
ENDBLK
  5
18CF
330
18C4
100
AcDbEntity
  8
0
100
AcDbBlockEnd
  0
BLOCK
  5
1968
330
195C
100
AcDbEntity
  8
0
100
AcDbBlockBegin
  2
*D7
 70
     1
 10
0.0
 20
0.0
 30
0.0
  3
*D7
  1

  0
LINE
  5
27C2
330
195C
100
AcDbEntity
  8
AM_5
100
AcDbLine
 10
-1.500000000000057
 20
-1.083333333333334
 30
0.0
 11
-1.500000000000057
 21
-11.64815403012442
 31
0.0
  0
LINE
  5
27C3
330
195C
100
AcDbEntity
  8
AM_5
100
AcDbLine
 10
-0.0000000000000569
 20
-2.208333333333336
 30
0.0
 11
-0.0000000000000574
 21
-11.64815403012442
 31
0.0
  0
LINE
  5
27C4
330
195C
100
AcDbEntity
  8
AM_5
100
AcDbLine
 10
-2.33333333333339
 20
-11.31482069679108
 30
0.0
 11
-3.166666666666724
 21
-11.31482069679108
 31
0.0
  0
LINE
  5
27C5
330
195C
100
AcDbEntity
  8
AM_5
100
AcDbLine
 10
0.8333333333332758
 20
-11.31482069679108
 30
0.0
 11
4.69841269841264
 21
-11.31482069679108
 31
0.0
  0
LINE
  5
27C6
330
195C
100
AcDbEntity
  8
AM_5
100
AcDbLine
 10
-1.500000000000057
 20
-11.31482069679108
 30
0.0
 11
-0.0000000000000574
 21
-11.31482069679108
 31
0.0
  0
INSERT
  5
27C7
330
195C
100
AcDbEntity
  8
AM_5
100
AcDbBlockReference
  2
_OPEN30
 10
-1.500000000000057
 20
-11.31482069679108
 30
0.0
 41
0.8333333333333332
 42
0.8333333333333332
 43
0.8333333333333332
  0
INSERT
  5
27C8
330
195C
100
AcDbEntity
  8
AM_5
100
AcDbBlockReference
  2
_OPEN30
 10
-0.0000000000000574
 20
-11.31482069679108
 30
0.0
 41
0.8333333333333332
 42
0.8333333333333332
 43
0.8333333333333332
 50
180.0
  0
MTEXT
  5
27C9
330
195C
100
AcDbEntity
  8
AM_5
 62
     2
100
AcDbMText
 10
3.182539682539624
 20
-10.28148736345775
 30
0.0
 40
1.066666666666666
 41
0.0
 71
     5
 72
     1
  1
1.5
  7
ASAMI
1001
ACAD
1000
MTEXTBEGIN
1070
    73
1070
     1
1070
    44
1040
1.0
1070
    74
1070
     0
1000
MTEXTEND
  0
POINT
  5
27CA
330
195C
100
AcDbEntity
  8
DEFPOINTS
 62
     0
100
AcDbPoint
 10
-1.500000000000057
 20
-0.7500000000000009
 30
0.0
  0
POINT
  5
27CB
330
195C
100
AcDbEntity
  8
DEFPOINTS
 62
     0
100
AcDbPoint
 10
-0.0000000000000568
 20
-1.875000000000003
 30
0.0
  0
POINT
  5
27CC
330
195C
100
AcDbEntity
  8
DEFPOINTS
 62
     0
100
AcDbPoint
 10
-0.0000000000000574
 20
-11.31482069679108
 30
0.0
  0
ENDBLK
  5
1969
330
195C
100
AcDbEntity
  8
0
100
AcDbBlockEnd
  0
BLOCK
  5
1CD0
330
1CC4
100
AcDbEntity
  8
0
100
AcDbBlockBegin
  2
*D8
 70
     1
 10
0.0
 20
0.0
 30
0.0
  3
*D8
  1

  0
LINE
  5
27EB
330
1CC4
100
AcDbEntity
  8
AM_5
100
AcDbLine
 10
-0.0000000000000577
 20
-0.3333333333333369
 30
0.0
 11
-0.0000000000000587
 21
-16.03496531826155
 31
0.0
  0
LINE
  5
27EC
330
1CC4
100
AcDbEntity
  8
AM_5
100
AcDbLine
 10
-4.000000000000057
 20
-1.122787990089708
 30
0.0
 11
-4.000000000000058
 21
-16.03496531826155
 31
0.0
  0
LINE
  5
27ED
330
1CC4
100
AcDbEntity
  8
AM_5
100
AcDbLine
 10
-0.8333333333333918
 20
-15.70163198492822
 30
0.0
 11
-3.166666666666725
 21
-15.70163198492822
 31
0.0
  0
INSERT
  5
27EE
330
1CC4
100
AcDbEntity
  8
AM_5
100
AcDbBlockReference
  2
_OPEN30
 10
-0.0000000000000586
 20
-15.70163198492822
 30
0.0
 41
0.8333333333333332
 42
0.8333333333333332
 43
0.8333333333333332
  0
INSERT
  5
27EF
330
1CC4
100
AcDbEntity
  8
AM_5
100
AcDbBlockReference
  2
_OPEN30
 10
-4.000000000000058
 20
-15.70163198492822
 30
0.0
 41
0.8333333333333332
 42
0.8333333333333332
 43
0.8333333333333332
 50
180.0
  0
MTEXT
  5
27F0
330
1CC4
100
AcDbEntity
  8
AM_5
 62
     2
100
AcDbMText
 10
-2.000000000000058
 20
-14.66829865159488
 30
0.0
 40
1.066666666666666
 41
0.0
 71
     5
 72
     1
  1
4
  7
ASAMI
1001
ACAD
1000
MTEXTBEGIN
1070
    73
1070
     1
1070
    44
1040
1.0
1070
    74
1070
     0
1000
MTEXTEND
  0
POINT
  5
27F1
330
1CC4
100
AcDbEntity
  8
DEFPOINTS
 62
     0
100
AcDbPoint
 10
-0.0000000000000577
 20
-0.0000000000000036
 30
0.0
  0
POINT
  5
27F2
330
1CC4
100
AcDbEntity
  8
DEFPOINTS
 62
     0
100
AcDbPoint
 10
-4.000000000000057
 20
-0.7894546567563756
 30
0.0
  0
POINT
  5
27F3
330
1CC4
100
AcDbEntity
  8
DEFPOINTS
 62
     0
100
AcDbPoint
 10
-4.000000000000058
 20
-15.70163198492822
 30
0.0
  0
ENDBLK
  5
1CD1
330
1CC4
100
AcDbEntity
  8
0
100
AcDbBlockEnd
  0
BLOCK
  5
21DF
330
21D3
100
AcDbEntity
  8
0
100
AcDbBlockBegin
  2
*D9
 70
     1
 10
0.0
 20
0.0
 30
0.0
  3
*D9
  1

  0
LINE
  5
27D2
330
21D3
100
AcDbEntity
  8
AM_5
100
AcDbLine
 10
-0.7684458491500502
 20
0.7499999999999937
 30
0.0
 11
7.333333333333277
 21
0.7499999999999912
 31
0.0
  0
LINE
  5
27D3
330
21D3
100
AcDbEntity
  8
AM_5
100
AcDbLine
 10
-0.5786914489639042
 20
-0.750000000000001
 30
0.0
 11
7.333333333333277
 21
-0.7500000000000034
 31
0.0
  0
LINE
  5
27D4
330
21D3
100
AcDbEntity
  8
AM_5
100
AcDbLine
 10
6.999999999999943
 20
-1.583333333333336
 30
0.0
 11
6.999999999999942
 21
-2.416666666666669
 31
0.0
  0
LINE
  5
27D5
330
21D3
100
AcDbEntity
  8
AM_5
100
AcDbLine
 10
6.999999999999943
 20
1.583333333333324
 30
0.0
 11
6.999999999999944
 21
7.329761904761895
 31
0.0
  0
LINE
  5
27D6
330
21D3
100
AcDbEntity
  8
AM_5
100
AcDbLine
 10
6.999999999999943
 20
-0.7500000000000031
 30
0.0
 11
6.999999999999943
 21
0.7499999999999915
 31
0.0
  0
INSERT
  5
27D7
330
21D3
100
AcDbEntity
  8
AM_5
100
AcDbBlockReference
  2
_OPEN30
 10
6.999999999999943
 20
-0.7500000000000031
 30
0.0
 41
0.8333333333333332
 42
0.8333333333333332
 43
0.8333333333333332
 50
90.0
  0
INSERT
  5
27D8
330
21D3
100
AcDbEntity
  8
AM_5
100
AcDbBlockReference
  2
_OPEN30
 10
6.999999999999943
 20
0.7499999999999915
 30
0.0
 41
0.8333333333333332
 42
0.8333333333333332
 43
0.8333333333333332
 50
270.0
  0
MTEXT
  5
27D9
330
21D3
100
AcDbEntity
  8
AM_5
 62
     2
100
AcDbMText
 10
5.966666666666609
 20
5.331349206349198
 30
0.0
 40
1.066666666666666
 41
0.0
 71
     5
 72
     1
  1
%%c1.5
  7
ASAMI
 11
0.0000000000000001
 21
1.0
 31
0.0
1001
ACAD
1000
MTEXTBEGIN
1070
    73
1070
     1
1070
    44
1040
1.0
1070
    74
1070
     0
1000
MTEXTEND
  0
POINT
  5
27DA
330
21D3
100
AcDbEntity
  8
DEFPOINTS
 62
     0
100
AcDbPoint
 10
-1.101779182483383
 20
0.7499999999999937
 30
0.0
  0
POINT
  5
27DB
330
21D3
100
AcDbEntity
  8
DEFPOINTS
 62
     0
100
AcDbPoint
 10
-0.9120247822972373
 20
-0.7500000000000009
 30
0.0
  0
POINT
  5
27DC
330
21D3
100
AcDbEntity
  8
DEFPOINTS
 62
     0
100
AcDbPoint
 10
6.999999999999943
 20
-0.7500000000000031
 30
0.0
  0
ENDBLK
  5
21E0
330
21D3
100
AcDbEntity
  8
0
100
AcDbBlockEnd
  0
BLOCK
  5
234F
330
2348
100
AcDbEntity
  8
0
100
AcDbBlockBegin
  2
*D10
 70
     1
 10
0.0
 20
0.0
 30
0.0
  3
*D10
  1

  0
LINE
  5
27CD
330
2348
100
AcDbEntity
  8
AM_5
100
AcDbLine
 10
0.26107811157818
 20
-1.218468504612161
 30
0.0
 11
5.506784390584247
 21
-7.540163942601661
 31
0.0
  0
INSERT
  5
27CE
330
2348
100
AcDbEntity
  8
AM_5
100
AcDbBlockReference
  2
_OPEN30
 10
-0.2710682629366838
 20
-0.5771692916583876
 30
0.0
 41
0.8333333333333332
 42
0.8333333333333332
 43
0.8333333333333332
 50
129.6856910759967
  0
MTEXT
  5
27CF
330
2348
100
AcDbEntity
  8
AM_5
 62
     2
100
AcDbMText
 10
4.60419507690903
 20
-4.834252568303092
 30
0.0
 40
1.066666666666666
 41
0.0
 71
     5
 72
     1
  1
R0.75
  7
ASAMI
 11
0.6385756494178364
 21
-0.7695590555445297
 31
0.0
1001
ACAD
1000
MTEXTBEGIN
1070
    73
1070
     1
1070
    44
1040
1.0
1070
    74
1070
     0
1000
MTEXTEND
  0
POINT
  5
27D0
330
2348
100
AcDbEntity
  8
DEFPOINTS
 62
     0
100
AcDbPoint
 10
-0.2710682629366838
 20
-0.5771692916583876
 30
0.0
  0
POINT
  5
27D1
330
2348
100
AcDbEntity
  8
DEFPOINTS
 62
     0
100
AcDbPoint
 10
-0.7500000000000609
 20
0.0000000000000098
 30
0.0
  0
ENDBLK
  5
2350
330
2348
100
AcDbEntity
  8
0
100
AcDbBlockEnd
  0
ENDSEC
  0
SECTION
  2
ENTITIES
  0
DIMENSION
  5
C4F
330
1F
100
AcDbEntity
  8
AM_5
100
AcDbDimension
  2
*D5
 10
-0.0000000000000611
 20
-19.56133559715215
 30
0.0
 11
-25.00000000000006
 21
-18.52800226381882
 31
0.0
 70
    32
  1
<>
  3
AM_JIS
100
AcDbAlignedDimension
 13
-50.00000000000007
 23
-3.000000000000003
 33
0.0
 14
-0.00000000000006
 24
-0.0000000000000036
 34
0.0
 50
0.0000000000002036
100
AcDbRotatedDimension
1001
GENIUS_GENDTOL_13
1000

1000
H7
1000

1040
0.0
  0
LINE
  5
C50
330
1F
100
AcDbEntity
  8
AM_7
100
AcDbLine
 10
-52.38487321524641
 20
-0.0000000000000036
 30
0.0
 11
1.32952988907452
 21
-0.0000000000000036
 31
0.0
1001
GENIUS_GENODEF_13
1002
{
1000
HIER
1070
     0
1002
}
1002
{
1000
MANEDIT
1070
     0
1002
}
1002
{
1000
NOSEL
1070
     0
1002
}
1002
{
1000
BEHIND
1070
     0
1002
}
1002
{
1000
REACTOR
1002
}
1001
GENIUS_GENOBJ-N-CEN_13
1002
{
1000
OWNER
1000
GEN
1002
}
  0
TEXT
  5
C58
330
1F
100
AcDbEntity
  8
AM_6
100
AcDbText
 10
-32.57936511726197
 20
-27.06133893465217
 30
0.0
 40
1.666666675
  1
SSBS2015ZX
 50
0.0000000000002036
 72
     4
 11
-25.00000000000006
 21
-26.22800559715214
 31
0.0
100
AcDbText
  0
DIMENSION
  5
18C3
330
1F
100
AcDbEntity
  8
AM_5
100
AcDbDimension
  2
*D6
 10
-54.16666666666674
 20
2.999999999999997
 30
0.0
 11
-54.16666666666674
 21
-0.0000000000000125
 31
0.0
 70
   160
  1
%%c<>
  3
AM_JIS
100
AcDbAlignedDimension
 13
-49.50000000000007
 23
-3.000000000000003
 33
0.0
 14
-49.50000000000007
 24
2.999999999999996
 34
0.0
 50
270.0
100
AcDbRotatedDimension
1001
ACAD
1000
DSTYLE
1002
{
1070
    48
1040
0.1
1070
    47
1040
0.1
1070
   274
1070
     2
1070
   272
1070
     3
1002
}
1001
GENIUS_GENDTOL_13
1000

1000
h6
1000

1040
0.0
  0
DIMENSION
  5
195B
330
1F
100
AcDbEntity
  8
AM_5
100
AcDbDimension
  2
*D7
 10
-0.0000000000000574
 20
-11.31482069679108
 30
0.0
 11
3.182539682539624
 21
-10.28148736345775
 31
0.0
 70
    32
  1
<>
  3
AM_JIS
100
AcDbAlignedDimension
 13
-1.500000000000057
 23
-0.7500000000000009
 33
0.0
 14
-0.0000000000000568
 24
-1.875000000000003
 34
0.0
 50
359.9999999999988
100
AcDbRotatedDimension
1001
GENIUS_GENDTOL_13
1000

1000
H7
1000

1040
0.0
  0
DIMENSION
  5
1CC3
330
1F
100
AcDbEntity
  8
AM_5
100
AcDbDimension
  2
*D8
 10
-4.000000000000058
 20
-15.70163198492822
 30
0.0
 11
-2.000000000000058
 21
-14.66829865159488
 31
0.0
 70
    32
  1
<>
  3
AM_JIS
100
AcDbAlignedDimension
 13
-0.0000000000000577
 23
-0.0000000000000036
 33
0.0
 14
-4.000000000000057
 24
-0.7894546567563756
 34
0.0
 50
0.0000000000001132
100
AcDbRotatedDimension
1001
GENIUS_GENDTOL_13
1000

1000
h7
1000

1040
0.0
  0
ARC
  5
2128
330
1F
100
AcDbEntity
  8
AM_0
100
AcDbCircle
 10
-0.0307711369261745
 20
0.0070299619681089
 30
0.0
 40
0.7798246164532806
100
AcDbArc
 50
165.040742132377
 51
216.4600123166023
  0
LINE
  5
2129
330
1F
100
AcDbEntity
  8
AM_0
100
AcDbLine
 10
-0.0000000000000568
 20
0.0000000000000098
 30
0.0
 11
-0.8903343891029527
 21
0.5140347992173409
 31
0.0
  0
LINE
  5
212A
330
1F
100
AcDbEntity
  8
AM_0
100
AcDbLine
 10
-0.1050000000000986
 20
-0.0264307020382484
 30
0.0
 11
-0.7841672041019479
 21
0.2083277473273712
 31
0.0
  0
SPLINE
  5
212B
330
1F
100
AcDbEntity
  8
AM_0
100
AcDbSpline
210
0.0
220
0.0
230
1.0
 70
     8
 71
     3
 72
     8
 73
     4
 74
     0
 42
0.0000000001
 43
0.0000000001
 40
1.794922859428793
 40
1.794922859428793
 40
1.794922859428793
 40
1.794922859428793
 40
10.83997763771114
 40
10.83997763771114
 40
10.83997763771114
 40
10.83997763771114
 10
-0.7499999999995813
 20
-0.738605814759187
 30
0.0
 10
-1.196775862078213
 20
-0.7010034811924619
 30
0.0
 10
-1.630496746240422
 20
-0.5737702048337204
 30
0.0
 10
-2.058667924103132
 20
-0.4084345731107303
 30
0.0
  0
SPLINE
  5
212D
330
1F
100
AcDbEntity
  8
AM_0
100
AcDbSpline
210
0.0
220
0.0
230
1.0
 70
     8
 71
     3
 72
     8
 73
     4
 74
     0
 42
0.0000000001
 43
0.0000000001
 40
6.513172597598655
 40
6.513172597598655
 40
6.513172597598655
 40
6.513172597598655
 40
14.99093327970741
 40
14.99093327970741
 40
14.99093327970741
 40
14.99093327970741
 10
-0.7500000000000609
 20
-0.566303189153964
 30
0.0
 10
-1.160032843669305
 20
-0.4637456492910533
 30
0.0
 10
-1.5631211387621
 20
-0.3097838490008522
 30
0.0
 10
-1.82936828483898
 20
-0.199577568495689
 30
0.0
  0
SPLINE
  5
212E
330
1F
100
AcDbEntity
  8
AM_0
100
AcDbSpline
210
0.0
220
0.0
230
1.0
 70
     8
 71
     3
 72
     8
 73
     4
 74
     0
 42
0.0000000001
 43
0.0000000001
 40
1.794922859432252
 40
1.794922859432252
 40
1.794922859432252
 40
1.794922859432252
 40
8.217791785374707
 40
8.217791785374707
 40
8.217791785374707
 40
8.217791785374707
 10
-0.7500000000000609
 20
0.7386058147591265
 30
0.0
 10
-1.067254330874486
 20
0.7119044994294663
 30
0.0
 10
-1.377925843606925
 20
0.6400078417512142
 30
0.0
 10
-1.684701861931844
 20
0.5413660728496436
 30
0.0
  0
SPLINE
  5
212F
330
1F
100
AcDbEntity
  8
AM_0
100
AcDbSpline
210
0.0
220
0.0
230
1.0
 70
     8
 71
     3
 72
     8
 73
     4
 74
     2
 42
0.0000000001
 43
0.0000000001
 44
0.0000000001
 12
0.421692687695876
 22
-0.9067388141818064
 32
0.0
 13
-0.9928045895078732
 23
-0.1197457600589821
 33
0.0
 40
0.0
 40
0.0
 40
0.0
 40
0.0
 40
0.2648129184699308
 40
0.2648129184699308
 40
0.2648129184699308
 40
0.2648129184699308
 10
-0.7500000000000609
 20
0.7386058147591265
 30
0.0
 10
-0.7127767762246695
 20
0.6585670975346436
 30
0.0
 10
-0.802698562171013
 20
0.524604873948894
 30
0.0
 10
-0.8903343891103201
 20
0.5140347992170211
 30
0.0
 11
-0.7500000000000609
 21
0.7386058147591265
 31
0.0
 11
-0.8903343891103201
 21
0.5140347992170211
 31
0.0
  0
LINE
  5
2130
330
1F
100
AcDbEntity
  8
AM_11
100
AcDbLine
 10
-1.500000000000056
 20
-0.7500000000000009
 30
0.0
 11
-0.7500000000000609
 21
-0.7500000000000009
 31
0.0
  0
LINE
  5
2131
330
1F
100
AcDbEntity
  8
AM_11
100
AcDbLine
 10
-0.7500000000000609
 20
0.7499999999999938
 30
0.0
 11
-1.500000000000056
 21
0.7499999999999937
 31
0.0
  0
ARC
  5
2132
330
1F
100
AcDbEntity
  8
AM_11
100
AcDbCircle
 10
-0.7500000000000609
 20
0.0000000000000098
 30
0.0
 40
0.75
100
AcDbArc
 50
270.0
 51
90.0
  0
ARC
  5
2133
330
1F
100
AcDbEntity
  8
AM_0
100
AcDbCircle
 10
-0.749913443367171
 20
0.0113941852398193
 30
0.0
 40
0.75
100
AcDbArc
 50
270.0000000000781
 51
359.1295148788724
  0
SPLINE
  5
2136
330
1F
100
AcDbEntity
  8
AM_0
100
AcDbSpline
210
0.0
220
0.0
230
1.0
 70
     8
 71
     3
 72
     9
 73
     5
 74
     3
 42
0.0000000001
 43
0.0000000001
 44
0.0000000001
 12
0.5867325161912577
 22
-0.8097808064185489
 32
0.0
 13
-0.8994987856269101
 23
0.4369232594583563
 33
0.0
 40
0.0
 40
0.0
 40
0.0
 40
0.0
 40
0.0672019774648469
 40
0.200199357270247
 40
0.200199357270247
 40
0.200199357270247
 40
0.200199357270247
 10
-0.6579620861225868
 20
-0.4563898754067521
 30
0.0
 10
-0.6448188910122609
 20
-0.4745294992415536
 30
0.0
 10
-0.5881240951816053
 20
-0.5393844726311872
 30
0.0
 10
-0.7101230061245547
 20
-0.5856730720486294
 30
0.0
 10
-0.7500000000000609
 20
-0.566303189153964
 30
0.0
 11
-0.6579620861225868
 21
-0.4563898754067521
 31
0.0
 11
-0.6268916386325088
 21
-0.5159779032978653
 31
0.0
 11
-0.7500000000000609
 21
-0.566303189153964
 31
0.0
  0
LINE
  5
2137
330
1F
100
AcDbEntity
  8
AM_0
100
AcDbLine
 10
-0.034500000000063
 20
-0.0264307020382484
 30
0.0
 11
-0.1050000000000986
 21
-0.0264307020382484
 31
0.0
  0
LINE
  5
2138
330
1F
100
AcDbEntity
  8
AM_0
100
AcDbLine
 10
-0.0000000000000568
 20
0.0000000000000098
 30
0.0
 11
-0.034500000000063
 21
-0.0264307020382484
 31
0.0
  0
ARC
  5
2139
330
1F
100
AcDbEntity
  8
AM_0
100
AcDbCircle
 10
-0.7499134433671044
 20
-0.0113941852411158
 30
0.0
 40
0.75
100
AcDbArc
 50
0.8704851212057906
 51
90.0
  0
ARC
  5
213A
330
1F
100
AcDbEntity
  8
AM_0
100
AcDbCircle
 10
-0.7258598323362478
 20
0.2014885387217111
 30
0.0
 40
0.6613728991401944
100
AcDbArc
 50
275.8924707062756
 51
339.8416840647174
  0
LINE
  5
213C
330
1F
100
AcDbEntity
  8
AM_0
100
AcDbLine
 10
-0.7499999999995813
 20
-0.7386058147591869
 30
0.0
 11
-0.7500000000001275
 21
-0.5663031891539641
 31
0.0
  0
LINE
  5
213D
330
1F
100
AcDbEntity
  8
AM_0
100
AcDbLine
 10
-2.698729279469825
 20
-0.7500000000000009
 30
0.0
 11
-4.000000000000056
 21
-0.7500000000000009
 31
0.0
  0
LINE
  5
213E
330
1F
100
AcDbEntity
  8
AM_0
100
AcDbLine
 10
-2.698729279469825
 20
0.7499999999999937
 30
0.0
 11
-4.000000000000056
 21
0.7499999999999937
 31
0.0
  0
LINE
  5
214F
330
1F
100
AcDbEntity
  8
AM_0
100
AcDbLine
 10
-1.829691745980139
 20
0.5463546434172916
 30
0.0
 11
-0.890334389103026
 21
0.5140347992173409
 31
0.0
  0
SPLINE
  5
2152
330
1F
100
AcDbEntity
  8
AM_0
100
AcDbSpline
210
0.0
220
0.0
230
1.0
 70
     8
 71
     3
 72
     8
 73
     4
 74
     2
 42
0.0000000001
 43
0.0000000001
 44
0.0000000001
 12
-0.8789112757303589
 22
0.4769852926391262
 32
0.0
 13
0.9988106394578339
 23
0.0487576302319218
 33
0.0
 40
0.0
 40
0.0
 40
0.0
 40
0.0
 40
0.3236174790494059
 40
0.3236174790494059
 40
0.3236174790494059
 40
0.3236174790494059
 10
-0.7841672041019545
 20
0.2083277473273978
 30
0.0
 10
-0.8789775545552732
 20
0.2597813399765703
 30
0.0
 10
-0.9980785828326425
 20
0.5087751920906748
 30
0.0
 10
-0.8903343891029527
 20
0.5140347992173674
 30
0.0
 11
-0.7841672041019545
 21
0.2083277473273978
 31
0.0
 11
-0.8903343891029527
 21
0.5140347992173674
 31
0.0
  0
LINE
  5
2153
330
1F
100
AcDbEntity
  8
AM_0
100
AcDbLine
 10
-1.82936828483898
 20
-0.4853298823592925
 30
0.0
 11
-1.82936828483898
 21
-0.1952437517595387
 31
0.0
  0
SPLINE
  5
2155
330
1F
100
AcDbEntity
  8
AM_0
100
AcDbSpline
210
0.0
220
0.0
230
1.0
 70
     8
 71
     3
 72
     8
 73
     4
 74
     0
 42
0.0000000001
 43
0.0000000001
 40
0.0
 40
0.0
 40
0.0
 40
0.0
 40
4.079693546503751
 40
4.079693546503751
 40
4.079693546503751
 40
4.079693546503751
 10
-2.698729279469825
 20
-0.7499999999999744
 30
0.0
 10
-2.409070836292732
 20
-0.7005362282228834
 30
0.0
 10
-2.009846098432178
 20
-0.6385046309687479
 30
0.0
 10
-1.591267493876932
 20
-0.5705257048371808
 30
0.0
  0
LINE
  5
2156
330
1F
100
AcDbEntity
  8
AM_7
  6
AM_ISO08W050X2
100
AcDbLine
 10
0.2012440410846548
 20
0.0000000000000098
 30
0.0
 11
-6.602421163543649
 21
0.0000000000000098
 31
0.0
1001
GENIUS_GENODEF_13
1002
{
1000
HIER
1070
     0
1002
}
1002
{
1000
MANEDIT
1070
     0
1002
}
1002
{
1000
NOSEL
1070
     0
1002
}
1002
{
1000
BEHIND
1070
     0
1002
}
1002
{
1000
REACTOR
1002
}
1001
GENIUS_GENOBJ-N-CEN_13
1002
{
1000
OWNER
1000
GEN
1002
}
  0
LINE
  5
21C2
330
1F
100
AcDbEntity
  8
AM_11
100
AcDbLine
 10
-1.500000000000056
 20
-0.7500000000000009
 30
0.0
 11
-1.500000000000056
 21
0.7499999999999937
 31
0.0
  0
LINE
  5
21CA
330
1F
100
AcDbEntity
  8
AM_0
100
AcDbLine
 10
-4.000000000000057
 20
-0.7500000000000009
 30
0.0
 11
-4.000000000000057
 21
0.7499999999999938
 31
0.0
  0
DIMENSION
  5
21D2
330
1F
100
AcDbEntity
  8
AM_5
100
AcDbDimension
  2
*D9
 10
6.999999999999943
 20
-0.7500000000000031
 30
0.0
 11
6.999999999999943
 21
5.331349206349198
 31
0.0
 70
   160
  1
%%c<>
  3
AM_JIS
100
AcDbAlignedDimension
 13
-1.101779182483383
 23
0.7499999999999937
 33
0.0
 14
-0.9120247822972373
 24
-0.7500000000000009
 34
0.0
 50
270.0
100
AcDbRotatedDimension
1001
GENIUS_GENDTOL_13
1000

1000
h7
1000

1040
0.0
  0
DIMENSION
  5
2347
330
1F
100
AcDbEntity
  8
AM_5
100
AcDbDimension
  2
*D10
 10
-0.7500000000000609
 20
0.0000000000000098
 30
0.0
 11
3.80898405284635
 21
-5.494114072701523
 31
0.0
 70
   164
  1
<>
  3
AM_JIS$4
100
AcDbRadialDimension
 15
-0.2710682629366838
 25
-0.5771692916583876
 35
0.0
 40
0.0
1001
ACAD
1000
DSTYLE
1002
{
1070
   271
1070
     3
1070
   288
1070
     1
1070
   289
1070
     0
1070
    74
1070
     0
1002
}
1001
GENIUS_GENDTOL_13
1000

1000
h7
1000

1040
0.0
  0
POLYLINE
  5
23F2
330
1F
100
AcDbEntity
  8
AM_0
100
AcDb2dPolyline
 66
     1
 10
0.0
 20
0.0
 30
0.0
  0
VERTEX
  5
23F3
330
23F2
100
AcDbEntity
  8
AM_0
100
AcDbVertex
100
AcDb2dVertex
 10
-2.047644851457507
 20
-0.412682140220578
 30
0.0
 42
0.1038890670521555
  0
VERTEX
  5
23F4
330
23F2
100
AcDbEntity
  8
AM_0
100
AcDbVertex
100
AcDb2dVertex
 10
-2.388418532583984
 20
-0.3549609195964978
 30
0.0
 42
0.037467806847825
  0
VERTEX
  5
23F5
330
23F2
100
AcDbEntity
  8
AM_0
100
AcDbVertex
100
AcDb2dVertex
 10
-2.574023829843837
 20
-0.3892105774768497
 30
0.0
 42
0.0786085520423559
  0
VERTEX
  5
23F6
330
23F2
100
AcDbEntity
  8
AM_0
100
AcDbVertex
100
AcDb2dVertex
 10
-2.685272400506478
 20
-0.449842829622015
 30
0.0
 42
0.2497286571989496
  0
VERTEX
  5
23F7
330
23F2
100
AcDbEntity
  8
AM_0
100
AcDbVertex
100
AcDb2dVertex
 10
-2.698729279469825
 20
-0.5337437262440967
 30
0.0
  0
VERTEX
  5
23F8
330
23F2
100
AcDbEntity
  8
AM_0
100
AcDbVertex
100
AcDb2dVertex
 10
-2.698729279469825
 20
-0.5337437262440967
 30
0.0
 42
0.0977771221096372
  0
VERTEX
  5
23F9
330
23F2
100
AcDbEntity
  8
AM_0
100
AcDbVertex
100
AcDb2dVertex
 10
-2.590368005089739
 20
-0.6132977383648255
 30
0.0
 42
0.0915289962939468
  0
VERTEX
  5
23FA
330
23F2
100
AcDbEntity
  8
AM_0
100
AcDbVertex
100
AcDb2dVertex
 10
-2.402844213242957
 20
-0.6727509489628761
 30
0.0
 42
0.0356552271032647
  0
VERTEX
  5
23FB
330
23F2
100
AcDbEntity
  8
AM_0
100
AcDbVertex
100
AcDb2dVertex
 10
-2.212540255893508
 20
-0.6702840551462686
 30
0.0
  0
SEQEND
  5
23FC
330
23F2
100
AcDbEntity
  8
AM_0
  0
SPLINE
  5
240D
330
1F
100
AcDbEntity
  8
AM_0
100
AcDbSpline
210
0.0
220
0.0
230
1.0
 70
     8
 71
     3
 72
     8
 73
     4
 74
     0
 42
0.0000000001
 43
0.0000000001
 40
0.0
 40
0.0
 40
0.0
 40
0.0
 40
4.656267981793611
 40
4.656267981793611
 40
4.656267981793611
 40
4.656267981793611
 10
-2.698729279469825
 20
0.7499999999999672
 30
0.0
 10
-2.414117848401104
 20
0.6842958902996193
 30
0.0
 10
-2.086169118862727
 20
0.56228688340266
 30
0.0
 10
-1.829691745980139
 20
0.5463546434172914
 30
0.0
  0
POLYLINE
  5
2440
330
1F
100
AcDbEntity
  8
AM_0
100
AcDb2dPolyline
 66
     1
 10
0.0
 20
0.0
 30
0.0
  0
VERTEX
  5
2441
330
2440
100
AcDbEntity
  8
AM_0
100
AcDbVertex
100
AcDb2dVertex
 10
-2.305263414543942
 20
0.643735183985232
 30
0.0
 42
0.0755979241988467
  0
VERTEX
  5
2442
330
2440
100
AcDbEntity
  8
AM_0
100
AcDbVertex
100
AcDb2dVertex
 10
-2.495982747194326
 20
0.6807277572944157
 30
0.0
 42
0.0770681575580261
  0
VERTEX
  5
2443
330
2440
100
AcDbEntity
  8
AM_0
100
AcDbVertex
100
AcDb2dVertex
 10
-2.658431945479836
 20
0.6623756956588336
 30
0.0
 42
0.2179099759154814
  0
VERTEX
  5
2444
330
2440
100
AcDbEntity
  8
AM_0
100
AcDbVertex
100
AcDb2dVertex
 10
-2.695199941010141
 20
0.6321245006511425
 30
0.0
 42
0.2320489978593618
  0
VERTEX
  5
2445
330
2440
100
AcDbEntity
  8
AM_0
100
AcDbVertex
100
AcDb2dVertex
 10
-2.695072696114102
 20
0.5868042313875738
 30
0.0
 42
0.0920784803092352
  0
VERTEX
  5
2446
330
2440
100
AcDbEntity
  8
AM_0
100
AcDbVertex
100
AcDb2dVertex
 10
-2.640737872967932
 20
0.4630096802200969
 30
0.0
 42
0.046637983948585
  0
VERTEX
  5
2447
330
2440
100
AcDbEntity
  8
AM_0
100
AcDbVertex
100
AcDb2dVertex
 10
-2.494833977603917
 20
0.2624317236370741
 30
0.0
 42
0.0253947623709178
  0
VERTEX
  5
2448
330
2440
100
AcDbEntity
  8
AM_0
100
AcDbVertex
100
AcDb2dVertex
 10
-2.319546938333431
 20
0.0851266101666779
 30
0.0
 42
0.0935153961038383
  0
VERTEX
  5
2449
330
2440
100
AcDbEntity
  8
AM_0
100
AcDbVertex
100
AcDb2dVertex
 10
-1.82936828483898
 20
-0.199577568495689
 30
0.0
  0
SEQEND
  5
244A
330
2440
100
AcDbEntity
  8
AM_0
  0
LINE
  5
244E
330
1F
100
AcDbEntity
  8
AM_0
100
AcDbLine
 10
-50.00000000000007
 20
-2.500000000000003
 30
0.0
 11
-50.00000000000007
 21
-0.0000000000000036
 31
0.0
  0
LINE
  5
2456
330
1F
100
AcDbEntity
  8
AM_0
100
AcDbLine
 10
-49.50000000000008
 20
-3.000000000000003
 30
0.0
 11
-12.39711431703003
 21
-3.000000000000002
 31
0.0
1001
GENIUS_GENODEF_13
1002
{
1000
HIER
1070
     0
1002
}
1002
{
1000
MANEDIT
1070
     0
1002
}
1002
{
1000
NOSEL
1070
     0
1002
}
1002
{
1000
BEHIND
1070
     0
1002
}
1002
{
1000
REACTOR
1002
}
1001
GENIUS_GENOBJ-N-CEN_13
1002
{
1000
OWNER
1000
GEN
1002
}
  0
LINE
  5
2463
330
1F
100
AcDbEntity
  8
AM_0
100
AcDbLine
 10
-49.50000000000008
 20
-3.000000000000003
 30
0.0
 11
-50.00000000000007
 21
-2.500000000000003
 31
0.0
1001
GENIUS_GENFIL_13
1070
     0
1040
0.5
1040
0.5
1040
20.0
1040
0.0
1002
{
1002
}
1001
GENIUS_GENODEF_13
1002
{
1000
HIER
1070
     0
1002
}
1002
{
1000
MANEDIT
1070
     0
1002
}
1002
{
1000
NOSEL
1070
     0
1002
}
1002
{
1000
BEHIND
1070
     0
1002
}
1002
{
1000
REACTOR
1002
}
1001
GENIUS_GENOBJ-N-CHA_13
1002
{
1000
OWNER
1000
GEN
1002
}
  0
LINE
  5
2466
330
1F
100
AcDbEntity
  8
AM_0
100
AcDbLine
 10
-49.50000000000008
 20
-3.000000000000003
 30
0.0
 11
-49.50000000000007
 21
-0.0000000000000036
 31
0.0
  0
LINE
  5
246E
330
1F
100
AcDbEntity
  8
AM_0
100
AcDbLine
 10
-12.39711431703003
 20
-3.000000000000002
 30
0.0
 11
-12.39711431703002
 21
0.0000000000001332
 31
0.0
  0
LINE
  5
246F
330
1F
100
AcDbEntity
  8
AM_0
100
AcDbLine
 10
-12.39711431703003
 20
-3.000000000000002
 30
0.0
 11
-4.000000000000056
 21
-0.7500000000000009
 31
0.0
1001
GENIUS_GENODEF_13
1002
{
1000
HIER
1070
     0
1002
}
1002
{
1000
MANEDIT
1070
     0
1002
}
1002
{
1000
NOSEL
1070
     0
1002
}
1002
{
1000
BEHIND
1070
     0
1002
}
1002
{
1000
REACTOR
1002
}
1001
GENIUS_GENOBJ-N-CEN_13
1002
{
1000
OWNER
1000
GEN
1002
}
  0
LINE
  5
2472
330
1F
100
AcDbEntity
  8
AM_0
100
AcDbLine
 10
-49.50000000000008
 20
2.999999999999996
 30
0.0
 11
-12.39711431703003
 21
2.999999999999995
 31
0.0
1001
GENIUS_GENODEF_13
1002
{
1000
HIER
1070
     0
1002
}
1002
{
1000
MANEDIT
1070
     0
1002
}
1002
{
1000
NOSEL
1070
     0
1002
}
1002
{
1000
BEHIND
1070
     0
1002
}
1002
{
1000
REACTOR
1002
}
1001
GENIUS_GENOBJ-N-CEN_13
1002
{
1000
OWNER
1000
GEN
1002
}
  0
LINE
  5
2473
330
1F
100
AcDbEntity
  8
AM_0
100
AcDbLine
 10
-12.39711431703003
 20
2.999999999999995
 30
0.0
 11
-4.000000000000056
 21
0.7499999999999938
 31
0.0
1001
GENIUS_GENODEF_13
1002
{
1000
HIER
1070
     0
1002
}
1002
{
1000
MANEDIT
1070
     0
1002
}
1002
{
1000
NOSEL
1070
     0
1002
}
1002
{
1000
BEHIND
1070
     0
1002
}
1002
{
1000
REACTOR
1002
}
1001
GENIUS_GENOBJ-N-CEN_13
1002
{
1000
OWNER
1000
GEN
1002
}
  0
LINE
  5
2474
330
1F
100
AcDbEntity
  8
AM_0
100
AcDbLine
 10
-12.39711431703003
 20
2.999999999999996
 30
0.0
 11
-12.39711431703002
 21
0.0000000000001332
 31
0.0
  0
LINE
  5
2475
330
1F
100
AcDbEntity
  8
AM_0
100
AcDbLine
 10
-49.50000000000008
 20
2.999999999999996
 30
0.0
 11
-49.50000000000007
 21
-0.0000000000000036
 31
0.0
  0
LINE
  5
2476
330
1F
100
AcDbEntity
  8
AM_0
100
AcDbLine
 10
-49.50000000000008
 20
2.999999999999996
 30
0.0
 11
-50.00000000000007
 21
2.499999999999996
 31
0.0
1001
GENIUS_GENFIL_13
1070
     0
1040
0.5
1040
0.5
1040
20.0
1040
0.0
1002
{
1002
}
1001
GENIUS_GENODEF_13
1002
{
1000
HIER
1070
     0
1002
}
1002
{
1000
MANEDIT
1070
     0
1002
}
1002
{
1000
NOSEL
1070
     0
1002
}
1002
{
1000
BEHIND
1070
     0
1002
}
1002
{
1000
REACTOR
1002
}
1001
GENIUS_GENOBJ-N-CHA_13
1002
{
1000
OWNER
1000
GEN
1002
}
  0
LINE
  5
2477
330
1F
100
AcDbEntity
  8
AM_0
100
AcDbLine
 10
-50.00000000000007
 20
2.499999999999996
 30
0.0
 11
-50.00000000000007
 21
-0.0000000000000036
 31
0.0
  0
VIEWPORT
  5
110
330
101
100
AcDbEntity
 67
     1
  8
0
100
AcDbViewport
 10
420.5
 20
297.0
 30
0.0
 40
948.9782706766916
 41
628.452
 68
     1
 69
     1
1001
ACAD
1000
MVIEW
1002
{
1070
    16
1010
0.0
1020
0.0
1030
0.0
1010
0.0
1020
0.0
1030
1.0
1040
0.0
1040
628.452
1040
420.5
1040
297.0
1040
50.0
1040
0.0
1040
0.0
1070
     0
1070
   100
1070
     1
1070
     1
1070
     0
1070
     0
1070
     0
1070
     0
1040
0.0
1040
0.0
1040
0.0
1040
10.0
1040
10.0
1040
10.0
1040
10.0
1070
     0
1002
{
1002
}
1002
}
  0
ENDSEC
  0
SECTION
  2
OBJECTS
  0
DICTIONARY
  5
C
330
0
100
AcDbDictionary
  3
ACAD_GROUP
350
D
  3
ACAD_LAYOUT
350
1A
  3
ACAD_MLINESTYLE
350
17
  3
ACAD_PLOTSETTINGS
350
19
  3
ACAD_PLOTSTYLENAME
350
E
  3
ACDBVARIABLEDICTIONARY
350
34
  3
ACMDICTIONARY
350
43
  3
AMG
350
2B
  3
AMGSNAPSETTINGS
350
6E
  3
DWGPROPS
350
2811
  3
ACDBHEADERROUNDTRIPXREC
350
281E
  0
DICTIONARY
  5
74
330
1F
100
AcDbDictionary
280
     1
  3
ACAD_INDEX
360
2813
  3
ACAD_LAYOUTSELFREF
360
2841
  0
DICTIONARY
  5
2846
330
101
100
AcDbDictionary
280
     1
  3
ACAD_LAYOUTSELFREF
360
2847
  0
DICTIONARY
  5
D
102
{ACAD_REACTORS
330
C
102
}
330
C
100
AcDbDictionary
  0
DICTIONARY
  5
1A
102
{ACAD_REACTORS
330
C
102
}
330
C
100
AcDbDictionary
  0
DICTIONARY
  5
17
102
{ACAD_REACTORS
330
C
102
}
330
C
100
AcDbDictionary
  3
STANDARD
350
18
  0
DICTIONARY
  5
19
102
{ACAD_REACTORS
330
C
102
}
330
C
100
AcDbDictionary
  0
ACDBDICTIONARYWDFLT
  5
E
102
{ACAD_REACTORS
330
C
102
}
330
C
100
AcDbDictionary
281
     1
  3
Normal
350
F
100
AcDbDictionaryWithDefault
340
F
  0
DICTIONARY
  5
34
102
{ACAD_REACTORS
330
C
102
}
330
C
100
AcDbDictionary
  3
INDEXCTL
350
35
  3
SORTENTS
350
B5E
  0
DICTIONARY
  5
43
102
{ACAD_REACTORS
330
C
102
}
330
C
100
AcDbDictionary
  3
ACMSTDDICTIONARY
350
260
  0
DICTIONARY
  5
2B
102
{ACAD_REACTORS
330
C
102
}
330
C
100
AcDbDictionary
  3
ACMGSETTINGS
350
2C
  0
DICTIONARY
  5
6E
102
{ACAD_REACTORS
330
C
102
}
330
C
100
AcDbDictionary
  0
XRECORD
  5
2811
102
{ACAD_REACTORS
330
C
102
}
330
C
100
AcDbXrecord
  1
DWGPROPS COOKIE
  2

  3

  4

  6

  7

  8

  9

300
AmdtFileType=82
301
=
302
=
303
=
304
=
305
=
306
=
307
=
308
=
309
=
 40
0.3862070717592592
 41
2452838.620506898
 42
2453045.56918897
  1

 90
        1
  0
DICTIONARY
  5
281E
102
{ACAD_REACTORS
330
C
102
}
330
C
100
AcDbDictionary
  3
TSTACKALIGN
350
281F
  3
TSTACKSIZE
350
2820
  3
HYPERLINKBASE
350
2821
  3
STYLESHEET
350
2822
  3
LAYOUTDICT
350
2823
  3
PLOTSETDICT
350
2824
  3
PLOTSTYLNAMDICT
350
2825
  3
LWETCUNION
350
2826
  3
INSUNITS
350
2827
  3
CEPSNTYPE
350
2828
  3
FINGERPRINTGUID
350
2829
  3
VERSIONGUID
350
282A
  3
PSVPSCALE
350
282B
  3
DIMSTYLEDATA
350
282C
  3
PUCSORTHOREF
350
282D
  3
PUCSORTHOVIEW
350
282E
  3
PUCSBASE
350
282F
  3
PUCSORGTOP
350
2830
  3
PUCSORGBOTTOM
350
2831
  3
PUCSORGLEFT
350
2832
  3
PUCSORGRIGHT
350
2833
  3
PUCSORGFRONT
350
2834
  3
PUCSORGBACK
350
2835
  3
UCSORTHOREF
350
2836
  3
UCSORTHOVIEW
350
2837
  3
UCSBASE
350
2838
  3
UCSORGTOP
350
2839
  3
UCSORGBOTTOM
350
283A
  3
UCSORGLEFT
350
283B
  3
UCSORGRIGHT
350
283C
  3
UCSORGFRONT
350
283D
  3
UCSORGBACK
350
283E
  0
DICTIONARY
  5
2813
102
{ACAD_REACTORS
330
74
102
}
330
74
100
AcDbDictionary
  3
*A1
350
2814
  0
XRECORD
  5
2841
102
{ACAD_REACTORS
330
74
102
}
330
74
100
AcDbXrecord
340
1F
  0
XRECORD
  5
2847
102
{ACAD_REACTORS
330
2846
102
}
330
2846
100
AcDbXrecord
340
101
  0
MLINESTYLE
  5
18
102
{ACAD_REACTORS
330
17
102
}
330
17
100
AcDbMlineStyle
  2
STANDARD
 70
     0
  3

 62
   256
 51
90.0
 52
90.0
 71
     2
 49
0.5
 62
   256
  6
BYLAYER
 49
-0.5
 62
   256
  6
BYLAYER
  0
ACDBPLACEHOLDER
  5
F
102
{ACAD_REACTORS
330
E
102
}
330
E
100
AcDbPlaceHolder
280
     0
  0
DICTIONARYVAR
  5
35
102
{ACAD_REACTORS
330
34
102
}
330
34
100
DictionaryVariables
280
     0
  1
1
  0
DICTIONARYVAR
  5
B5E
102
{ACAD_REACTORS
330
34
102
}
330
34
100
DictionaryVariables
280
     0
  1
96
  0
DICTIONARY
  5
260
102
{ACAD_REACTORS
330
43
102
}
330
43
100
AcDbDictionary
  0
DICTIONARY
  5
2C
102
{ACAD_REACTORS
330
2B
102
}
330
2B
100
AcDbDictionary
  3
DWGSETTINGS
350
2D
  0
XRECORD
  5
281F
102
{ACAD_REACTORS
330
281E
102
}
330
281E
100
AcDbXrecord
 90
        1
  0
XRECORD
  5
2820
102
{ACAD_REACTORS
330
281E
102
}
330
281E
100
AcDbXrecord
 90
       70
  0
XRECORD
  5
2821
102
{ACAD_REACTORS
330
281E
102
}
330
281E
100
AcDbXrecord
  1

  0
XRECORD
  5
2822
102
{ACAD_REACTORS
330
281E
102
}
330
281E
100
AcDbXrecord
  1
ASAMI.ctb
  0
XRECORD
  5
2823
102
{ACAD_REACTORS
330
281E
102
}
330
281E
100
AcDbXrecord
340
1A
  0
XRECORD
  5
2824
102
{ACAD_REACTORS
330
281E
102
}
330
281E
100
AcDbXrecord
340
19
  0
XRECORD
  5
2825
102
{ACAD_REACTORS
330
281E
102
}
330
281E
100
AcDbXrecord
340
E
  0
XRECORD
  5
2826
102
{ACAD_REACTORS
330
281E
102
}
330
281E
100
AcDbXrecord
 90
    10781
  0
XRECORD
  5
2827
102
{ACAD_REACTORS
330
281E
102
}
330
281E
100
AcDbXrecord
 90
        4
  0
XRECORD
  5
2828
102
{ACAD_REACTORS
330
281E
102
}
330
281E
100
AcDbXrecord
 90
        0
  0
XRECORD
  5
2829
102
{ACAD_REACTORS
330
281E
102
}
330
281E
100
AcDbXrecord
  1
{AFB28963-8C59-40AE-9337-C84526B81ACE}
  0
XRECORD
  5
282A
102
{ACAD_REACTORS
330
281E
102
}
330
281E
100
AcDbXrecord
  1
{5E4C1B19-AE54-4DBF-992C-A03AD977AD09}
  0
XRECORD
  5
282B
102
{ACAD_REACTORS
330
281E
102
}
330
281E
100
AcDbXrecord
 40
0.0
  0
XRECORD
  5
282C
102
{ACAD_REACTORS
330
281E
102
}
330
281E
100
AcDbXrecord
1000
DSTYLE
1002
{
1070
    79
 70
     2
1070
   341
340
59
1070
   342
340
59
1070
   371
 70
    -1
1070
   372
 70
    -1
1002
}
  0
XRECORD
  5
282D
102
{ACAD_REACTORS
330
281E
102
}
330
281E
100
AcDbXrecord
340
0
  0
XRECORD
  5
282E
102
{ACAD_REACTORS
330
281E
102
}
330
281E
100
AcDbXrecord
 70
     0
  0
XRECORD
  5
282F
102
{ACAD_REACTORS
330
281E
102
}
330
281E
100
AcDbXrecord
340
0
  0
XRECORD
  5
2830
102
{ACAD_REACTORS
330
281E
102
}
330
281E
100
AcDbXrecord
 10
0.0
 20
0.0
 30
0.0
  0
XRECORD
  5
2831
102
{ACAD_REACTORS
330
281E
102
}
330
281E
100
AcDbXrecord
 10
0.0
 20
0.0
 30
0.0
  0
XRECORD
  5
2832
102
{ACAD_REACTORS
330
281E
102
}
330
281E
100
AcDbXrecord
 10
0.0
 20
0.0
 30
0.0
  0
XRECORD
  5
2833
102
{ACAD_REACTORS
330
281E
102
}
330
281E
100
AcDbXrecord
 10
0.0
 20
0.0
 30
0.0
  0
XRECORD
  5
2834
102
{ACAD_REACTORS
330
281E
102
}
330
281E
100
AcDbXrecord
 10
0.0
 20
0.0
 30
0.0
  0
XRECORD
  5
2835
102
{ACAD_REACTORS
330
281E
102
}
330
281E
100
AcDbXrecord
 10
0.0
 20
0.0
 30
0.0
  0
XRECORD
  5
2836
102
{ACAD_REACTORS
330
281E
102
}
330
281E
100
AcDbXrecord
340
0
  0
XRECORD
  5
2837
102
{ACAD_REACTORS
330
281E
102
}
330
281E
100
AcDbXrecord
 70
     0
  0
XRECORD
  5
2838
102
{ACAD_REACTORS
330
281E
102
}
330
281E
100
AcDbXrecord
340
0
  0
XRECORD
  5
2839
102
{ACAD_REACTORS
330
281E
102
}
330
281E
100
AcDbXrecord
 10
0.0
 20
0.0
 30
0.0
  0
XRECORD
  5
283A
102
{ACAD_REACTORS
330
281E
102
}
330
281E
100
AcDbXrecord
 10
0.0
 20
0.0
 30
0.0
  0
XRECORD
  5
283B
102
{ACAD_REACTORS
330
281E
102
}
330
281E
100
AcDbXrecord
 10
0.0
 20
0.0
 30
0.0
  0
XRECORD
  5
283C
102
{ACAD_REACTORS
330
281E
102
}
330
281E
100
AcDbXrecord
 10
0.0
 20
0.0
 30
0.0
  0
XRECORD
  5
283D
102
{ACAD_REACTORS
330
281E
102
}
330
281E
100
AcDbXrecord
 10
0.0
 20
0.0
 30
0.0
  0
XRECORD
  5
283E
102
{ACAD_REACTORS
330
281E
102
}
330
281E
100
AcDbXrecord
 10
0.0
 20
0.0
 30
0.0
  0
LAYER_INDEX
  5
2814
102
{ACAD_REACTORS
330
2813
102
}
330
2813
100
AcDbIndex
 40
2453151.851398518
100
AcDbLayerIndex
  8
0
360
2815
 90
        0
  8
AM_0
360
2816
 90
       36
  8
AM_11
360
2817
 90
        4
  8
AM_7
360
2818
 90
        2
  8
AM_5
360
2819
 90
        6
  8
Defpoints
360
281A
 90
        0
  8
AM_6
360
281B
 90
        1
  8
AM_CL
360
281C
 90
        0
  0
XRECORD
  5
2D
102
{ACAD_REACTORS
330
2C
102
}
330
2C
100
AcDbXrecord
  1
VERSION
140
15.0
  1
PRODUCT
  2
AutoCAD Mechanical 2000
  0
IDBUFFER
  5
2815
330
0
100
AcDbIdBuffer
  0
IDBUFFER
  5
2816
330
0
100
AcDbIdBuffer
330
214F
330
2152
330
2153
330
2155
330
21CA
330
23F2
330
240D
330
2440
330
244E
330
2456
330
2463
330
2466
330
246E
330
246F
330
2472
330
2473
330
2474
330
2475
330
2476
330
2477
330
2128
330
2129
330
212A
330
212B
330
212D
330
212E
330
212F
330
2133
330
2136
330
2137
330
2138
330
2139
330
213A
330
213C
330
213D
330
213E
  0
IDBUFFER
  5
2817
330
0
100
AcDbIdBuffer
330
2130
330
2131
330
2132
330
21C2
  0
IDBUFFER
  5
2818
330
0
100
AcDbIdBuffer
330
C50
330
2156
  0
IDBUFFER
  5
2819
330
0
100
AcDbIdBuffer
330
C4F
330
18C3
330
195B
330
1CC3
330
21D2
330
2347
  0
IDBUFFER
  5
281A
330
0
100
AcDbIdBuffer
  0
IDBUFFER
  5
281B
330
0
100
AcDbIdBuffer
330
C58
  0
IDBUFFER
  5
281C
330
0
100
AcDbIdBuffer
  0
ENDSEC
  0
EOF
