  0
SECTION
  2
HEADER
  9
$ACADVER
  1
AC1014
  9
$ACADMAINTVER
 70
     9
  9
$DWGCODEPAGE
  3
ANSI_932
  9
$INSBASE
 10
0.0
 20
0.0
 30
0.0
  9
$EXTMIN
 10
-50.850001
 20
-25.75000100000007
 30
-0.00000001
  9
$EXTMAX
 10
9.551050680252135
 20
4.000000000000002
 30
0.00000001
  9
$LIMMIN
 10
-56.56383618072573
 20
-41.70190928575585
  9
$LIMMAX
 10
13.78221546386328
 20
14.56741812181201
  9
$ORTHOMODE
 70
     0
  9
$REGENMODE
 70
     1
  9
$FILLMODE
 70
     1
  9
$QTEXTMODE
 70
     0
  9
$MIRRTEXT
 70
     0
  9
$DRAGMODE
 70
     2
  9
$LTSCALE
 40
1.0
  9
$OSMODE
 70
    55
  9
$ATTMODE
 70
     1
  9
$TEXTSIZE
 40
2.5
  9
$TRACEWID
 40
1.0
  9
$TEXTSTYLE
  7
STANDARD
  9
$CLAYER
  8
AM_0
  9
$CELTYPE
  6
BYLAYER
  9
$CECOLOR
 62
   256
  9
$CELTSCALE
 40
1.0
  9
$DELOBJ
 70
     1
  9
$DISPSILH
 70
     0
  9
$DIMSCALE
 40
0.5
  9
$DIMASZ
 40
2.5
  9
$DIMEXO
 40
1.0
  9
$DIMDLI
 40
12.0
  9
$DIMRND
 40
0.0
  9
$DIMDLE
 40
0.0
  9
$DIMEXE
 40
1.0
  9
$DIMTP
 40
0.1
  9
$DIMTM
 40
0.1
  9
$DIMTXT
 40
3.2
  9
$DIMCEN
 40
0.0
  9
$DIMTSZ
 40
0.0
  9
$DIMTOL
 70
     0
  9
$DIMLIM
 70
     0
  9
$DIMTIH
 70
     0
  9
$DIMTOH
 70
     0
  9
$DIMSE1
 70
     0
  9
$DIMSE2
 70
     0
  9
$DIMTAD
 70
     3
  9
$DIMZIN
 70
     8
  9
$DIMBLK
  1
OPEN30
  9
$DIMASO
 70
     1
  9
$DIMSHO
 70
     1
  9
$DIMPOST
  1

  9
$DIMAPOST
  1
"
  9
$DIMALT
 70
     0
  9
$DIMALTD
 70
     2
  9
$DIMALTF
 40
0.0393701
  9
$DIMLFAC
 40
1.0
  9
$DIMTOFL
 70
     1
  9
$DIMTVP
 40
0.0
  9
$DIMTIX
 70
     0
  9
$DIMSOXD
 70
     0
  9
$DIMSAH
 70
     0
  9
$DIMBLK1
  1

  9
$DIMBLK2
  1

  9
$DIMSTYLE
  2
AM_JIS
  9
$DIMCLRD
 70
   256
  9
$DIMCLRE
 70
   256
  9
$DIMCLRT
 70
     2
  9
$DIMTFAC
 40
0.71
  9
$DIMGAP
 40
1.5
  9
$DIMJUST
 70
     0
  9
$DIMSD1
 70
     0
  9
$DIMSD2
 70
     0
  9
$DIMTOLJ
 70
     0
  9
$DIMTZIN
 70
     0
  9
$DIMALTZ
 70
     0
  9
$DIMALTTZ
 70
     0
  9
$DIMFIT
 70
     3
  9
$DIMUPT
 70
     0
  9
$DIMUNIT
 70
     2
  9
$DIMDEC
 70
     3
  9
$DIMTDEC
 70
     3
  9
$DIMALTU
 70
     2
  9
$DIMALTTD
 70
     2
  9
$DIMTXSTY
  7
ASAMI
  9
$DIMAUNIT
 70
     0
  9
$LUNITS
 70
     2
  9
$LUPREC
 70
     2
  9
$SKETCHINC
 40
1.0
  9
$FILLETRAD
 40
2.5
  9
$AUNITS
 70
     0
  9
$AUPREC
 70
     0
  9
$MENU
  1
.
  9
$ELEVATION
 40
0.0
  9
$PELEVATION
 40
0.0
  9
$THICKNESS
 40
0.0
  9
$LIMCHECK
 70
     0
  9
$BLIPMODE
 70
     0
  9
$CHAMFERA
 40
0.25
  9
$CHAMFERB
 40
0.25
  9
$CHAMFERC
 40
20.0
  9
$CHAMFERD
 40
0.0
  9
$SKPOLY
 70
     0
  9
$TDCREATE
 40
2452838.430434386
  9
$TDUPDATE
 40
2453151.814244606
  9
$TDINDWG
 40
0.0824160995
  9
$TDUSRTIMER
 40
0.0824160995
  9
$USRTIMER
 70
     1
  9
$ANGBASE
 50
0.0
  9
$ANGDIR
 70
     0
  9
$PDMODE
 70
     0
  9
$PDSIZE
 40
0.0
  9
$PLINEWID
 40
0.0
  9
$COORDS
 70
     1
  9
$SPLFRAME
 70
     0
  9
$SPLINETYPE
 70
     6
  9
$SPLINESEGS
 70
     8
  9
$ATTDIA
 70
     1
  9
$ATTREQ
 70
     1
  9
$HANDLING
 70
 12289
  9
$HANDSEED
  5
1664
  9
$SURFTAB1
 70
     6
  9
$SURFTAB2
 70
     6
  9
$SURFTYPE
 70
     6
  9
$SURFU
 70
     6
  9
$SURFV
 70
     6
  9
$UCSNAME
  2

  9
$UCSORG
 10
0.0
 20
0.0
 30
0.0
  9
$UCSXDIR
 10
1.0
 20
0.0
 30
0.0
  9
$UCSYDIR
 10
0.0
 20
1.0
 30
0.0
  9
$PUCSNAME
  2

  9
$PUCSORG
 10
0.0
 20
0.0
 30
0.0
  9
$PUCSXDIR
 10
1.0
 20
0.0
 30
0.0
  9
$PUCSYDIR
 10
0.0
 20
1.0
 30
0.0
  9
$USERI1
 70
     0
  9
$USERI2
 70
     0
  9
$USERI3
 70
     0
  9
$USERI4
 70
     0
  9
$USERI5
 70
     0
  9
$USERR1
 40
0.0
  9
$USERR2
 40
0.0
  9
$USERR3
 40
0.0
  9
$USERR4
 40
0.0
  9
$USERR5
 40
0.0
  9
$WORLDVIEW
 70
     1
  9
$SHADEDGE
 70
     3
  9
$SHADEDIF
 70
    70
  9
$TILEMODE
 70
     1
  9
$MAXACTVP
 70
    64
  9
$PINSBASE
 10
0.0
 20
0.0
 30
0.0
  9
$PLIMCHECK
 70
     0
  9
$PEXTMIN
 10
1.000000000000000E+20
 20
1.000000000000000E+20
 30
1.000000000000000E+20
  9
$PEXTMAX
 10
-1.000000000000000E+20
 20
-1.000000000000000E+20
 30
-1.000000000000000E+20
  9
$PLIMMIN
 10
0.0
 20
0.0
  9
$PLIMMAX
 10
841.0
 20
594.0
  9
$UNITMODE
 70
     0
  9
$VISRETAIN
 70
     1
  9
$PLINEGEN
 70
     0
  9
$PSLTSCALE
 70
     0
  9
$TREEDEPTH
 70
  3020
  9
$PICKSTYLE
 70
     0
  9
$CMLSTYLE
  2
STANDARD
  9
$CMLJUST
 70
     0
  9
$CMLSCALE
 40
20.0
  9
$PROXYGRAPHICS
 70
     1
  9
$MEASUREMENT
 70
     1
  0
ENDSEC
  0
SECTION
  2
CLASSES
  0
CLASS
  1
ACDBDICTIONARYWDFLT
  2
AcDbDictionaryWithDefault
  3
AutoCAD 2000
 90
        0
280
     0
281
     0
  0
CLASS
  1
ACDBPLACEHOLDER
  2
AcDbPlaceHolder
  3
AutoCAD 2000
 90
        0
280
     0
281
     0
  0
CLASS
  1
LAYOUT
  2
AcDbLayout
  3
AutoCAD 2000
 90
        0
280
     0
281
     0
  0
CLASS
  1
AMGSETTINGSOBJ
  2
AmgSettingsObj
  3
"AcadM|Product Description: AutoCAD Mechanical 2000|Company: Autodesk"
 90
        0
280
     0
281
     0
  0
CLASS
  1
ACME_DOCUMENT
  2
AcMeDbDoc
  3
AcMeServices
 90
        0
280
     0
281
     0
  0
CLASS
  1
ACMESCOPE
  2
AcMeScope
  3
AcMeServices
 90
        0
280
     0
281
     0
  0
CLASS
  1
ACMECOMMANDHISTORY
  2
AcMeCommandHistory
  3
AcMeServices
 90
        0
280
     0
281
     0
  0
CLASS
  1
DICTIONARYVAR
  2
AcDbDictionaryVar
  3
AutoCAD 2000
 90
        0
280
     0
281
     0
  0
CLASS
  1
ACIMSYSVARMAN
  2
AcImSysVarManager
  3
AcMeServices
 90
        0
280
     0
281
     0
  0
CLASS
  1
ACIMREALSYSVAR
  2
AcImRealSysVar
  3
AcMeServices
 90
        0
280
     0
281
     0
  0
CLASS
  1
ACIMINTSYSVAR
  2
AcImIntSysVar
  3
AcMeServices
 90
        0
280
     0
281
     0
  0
CLASS
  1
ACMEDRAWINGMAN
  2
AcMeDrawingMan
  3
AcMeServices
 90
        0
280
     0
281
     0
  0
CLASS
  1
ACMEVIEW
  2
AcMeView
  3
AcMeServices
 90
        0
280
     0
281
     0
  0
CLASS
  1
ACDBENTITYCACHE
  2
AcMeEntityCache
  3
AcMeServices
 90
        0
280
     0
281
     0
  0
CLASS
  1
GSMANAGER
  2
AcMeGSManager
  3
AcMeServices
 90
        0
280
     0
281
     0
  0
CLASS
  1
AmdtInternalReactor
  2
AmdtInternalReactor
  3
AcMeServices
 90
        0
280
     0
281
     0
  0
CLASS
  1
ACMESTATEMGR
  2
AcMeStateMgr
  3
AcMeServices
 90
        0
280
     0
281
     0
  0
CLASS
  1
ACME_DATABASE
  2
AcMeDbDatabase
  3
AcMeServices
 90
        0
280
     0
281
     0
  0
CLASS
  1
ACRFINSADJUSTERMGR
  2
AcRfInsAdjusterMgr
  3
AcMeServices
 90
        0
280
     0
281
     0
  0
CLASS
  1
ACMDATADICTIONARY
  2
AcmDataDictionary
  3
"AcmSymBB|Product Description: AutoCAD Mechanical 2000|Company: Autodesk"
 90
        0
280
     0
281
     0
  0
CLASS
  1
ACMDATAENTRYBLOCK
  2
AcmDataEntryBlock
  3
"AcmSymBB|Product Description: AutoCAD Mechanical 2000|Company: Autodesk"
 90
        0
280
     0
281
     0
  0
CLASS
  1
AMGOBJPROPCFG
  2
AmgObjPropCfg
  3
"AmgLay|Product Description: AutoCAD Mechanical 2000|Company: Autodesk"
 90
        1
280
     0
281
     0
  0
CLASS
  1
ACAMGFILTERDAT
  2
AcAmgFilterDat
  3
"AcadM|Product Description: AutoCAD Mechanical 2000|Company: Autodesk"
 90
        0
280
     0
281
     0
  0
CLASS
  1
LAYER_INDEX
  2
AcDbLayerIndex
  3
AutoCAD 2000
 90
        0
280
     0
281
     0
  0
CLASS
  1
IDBUFFER
  2
AcDbIdBuffer
  3
AutoCAD 2000
 90
        0
280
     0
281
     0
  0
CLASS
  1
ACIMSTRSYSVAR
  2
AcImStrSysVar
  3
AcMeServices
 90
        0
280
     0
281
     0
  0
CLASS
  1
ACMSTANDARDJIS
  2
AcmStandardJIS
  3
"AcmSymBB|Product Description: AutoCAD Mechanical 2000|Company: Autodesk"
 90
        0
280
     0
281
     0
  0
CLASS
  1
ACMSURFSTANDARDJIS
  2
AcmSurfTextStdJIS
  3
"AcmSymBB|Product Description: AutoCAD Mechanical 2000|Company: Autodesk"
 90
        0
280
     0
281
     0
  0
CLASS
  1
ACMFCFSTANDARDJIS
  2
AcmFCFStdJIS
  3
"AcmSymBB|Product Description: AutoCAD Mechanical 2000|Company: Autodesk"
 90
        0
280
     0
281
     0
  0
CLASS
  1
ACMWELDSTANDARDJIS
  2
AcmWeldingStdJIS
  3
"AcmSymBB|Product Description: AutoCAD Mechanical 2000|Company: Autodesk"
 90
        0
280
     0
281
     0
  0
CLASS
  1
ACMIDSTANDARDJIS
  2
AcmIdStdJIS
  3
"AcmSymBB|Product Description: AutoCAD Mechanical 2000|Company: Autodesk"
 90
        0
280
     0
281
     0
  0
CLASS
  1
ACMDATUMSTANDARDJIS
  2
AcmDatumStdJIS
  3
"AcmSymBB|Product Description: AutoCAD Mechanical 2000|Company: Autodesk"
 90
        0
280
     0
281
     0
  0
CLASS
  1
ACMBOMSTANDARDJIS
  2
AcmBOMStdJIS
  3
"AcmSymBB|Product Description: AutoCAD Mechanical 2000|Company: Autodesk"
 90
        0
280
     0
281
     0
  0
CLASS
  1
ACMSTANDARDANSI
  2
AcmStandardANSI
  3
"AcmSymBB|Product Description: AutoCAD Mechanical 2000|Company: Autodesk"
 90
        0
280
     0
281
     0
  0
CLASS
  1
ACMSURFSTANDARDANSI
  2
AcmSurfTextStdANSI
  3
"AcmSymBB|Product Description: AutoCAD Mechanical 2000|Company: Autodesk"
 90
        0
280
     0
281
     0
  0
CLASS
  1
ACMFCFSTANDARDANSI
  2
AcmFCFStdANSI
  3
"AcmSymBB|Product Description: AutoCAD Mechanical 2000|Company: Autodesk"
 90
        0
280
     0
281
     0
  0
CLASS
  1
ACMWELDSTANDARDANSI
  2
AcmWeldingStdANSI
  3
"AcmSymBB|Product Description: AutoCAD Mechanical 2000|Company: Autodesk"
 90
        0
280
     0
281
     0
  0
CLASS
  1
ACMIDSTANDARDANSI
  2
AcmIdStdANSI
  3
"AcmSymBB|Product Description: AutoCAD Mechanical 2000|Company: Autodesk"
 90
        0
280
     0
281
     0
  0
CLASS
  1
ACMDATUMSTANDARDANSI
  2
AcmDatumStdANSI
  3
"AcmSymBB|Product Description: AutoCAD Mechanical 2000|Company: Autodesk"
 90
        0
280
     0
281
     0
  0
CLASS
  1
ACMBOMSTANDARDANSI
  2
AcmBOMStdANSI
  3
"AcmSymBB|Product Description: AutoCAD Mechanical 2000|Company: Autodesk"
 90
        0
280
     0
281
     0
  0
CLASS
  1
ACMSTANDARDBSI
  2
AcmStandardBSI
  3
"AcmSymBB|Product Description: AutoCAD Mechanical 2000|Company: Autodesk"
 90
        0
280
     0
281
     0
  0
CLASS
  1
ACMSURFSTANDARDBSI
  2
AcmSurfTextStdBSI
  3
"AcmSymBB|Product Description: AutoCAD Mechanical 2000|Company: Autodesk"
 90
        0
280
     0
281
     0
  0
CLASS
  1
ACMFCFSTANDARDBSI
  2
AcmFCFStdBSI
  3
"AcmSymBB|Product Description: AutoCAD Mechanical 2000|Company: Autodesk"
 90
        0
280
     0
281
     0
  0
CLASS
  1
ACMWELDSTANDARDBSI
  2
AcmWeldingStdBSI
  3
"AcmSymBB|Product Description: AutoCAD Mechanical 2000|Company: Autodesk"
 90
        0
280
     0
281
     0
  0
CLASS
  1
ACMIDSTANDARDBSI
  2
AcmIdStdBSI
  3
"AcmSymBB|Product Description: AutoCAD Mechanical 2000|Company: Autodesk"
 90
        0
280
     0
281
     0
  0
CLASS
  1
ACMDATUMSTANDARDBSI
  2
AcmDatumStdBSI
  3
"AcmSymBB|Product Description: AutoCAD Mechanical 2000|Company: Autodesk"
 90
        0
280
     0
281
     0
  0
CLASS
  1
ACMBOMSTANDARDBSI
  2
AcmBOMStdBSI
  3
"AcmSymBB|Product Description: AutoCAD Mechanical 2000|Company: Autodesk"
 90
        0
280
     0
281
     0
  0
CLASS
  1
LONG_TRANSACTION
  2
AcDbLongTransaction
  3
AutoCAD 2000
 90
        0
280
     0
281
     0
  0
CLASS
  1
LWPOLYLINE
  2
AcDbPolyline
  3
AutoCAD 2000
 90
        0
280
     0
281
     1
  0
CLASS
  1
HATCH
  2
AcDbHatch
  3
AutoCAD 2000
 90
        0
280
     0
281
     1
  0
CLASS
  1
XRECORD
  2
AcDbXrecord
  3
AutoCAD 2000
 90
        0
280
     0
281
     0
  0
ENDSEC
  0
SECTION
  2
TABLES
  0
TABLE
  2
VPORT
  5
8
330
0
100
AcDbSymbolTable
 70
     3
  0
VPORT
  5
1639
330
8
100
AcDbSymbolTableRecord
100
AcDbViewportTableRecord
  2
*ACTIVE
 70
     0
 10
0.0
 20
0.0
 11
1.0
 21
1.0
 12
-15.5272075520384
 22
-6.283892017037409
 13
0.0
 23
0.0
 14
2.5
 24
2.5
 15
10.0
 25
10.0
 16
0.0
 26
0.0
 36
1.0
 17
0.0
 27
0.0
 37
0.0
 40
54.04145682557019
 41
1.56570841889117
 42
50.0
 43
0.0
 44
0.0
 50
0.0
 51
0.0
 71
     0
 72
   100
 73
     1
 74
     3
 75
     0
 76
     0
 77
     0
 78
     0
  0
ENDTAB
  0
TABLE
  2
LTYPE
  5
5
330
0
100
AcDbSymbolTable
 70
    10
  0
LTYPE
  5
14
330
5
100
AcDbSymbolTableRecord
100
AcDbLinetypeTableRecord
  2
BYBLOCK
 70
     0
  3

 72
    65
 73
     0
 40
0.0
  0
LTYPE
  5
15
330
5
100
AcDbSymbolTableRecord
100
AcDbLinetypeTableRecord
  2
BYLAYER
 70
     0
  3

 72
    65
 73
     0
 40
0.0
  0
LTYPE
  5
16
330
5
100
AcDbSymbolTableRecord
100
AcDbLinetypeTableRecord
  2
CONTINUOUS
 70
     0
  3
Solid line
 72
    65
 73
     0
 40
0.0
  0
LTYPE
  5
4B
330
5
100
AcDbSymbolTableRecord
100
AcDbLinetypeTableRecord
  2
AM_ISO02W050
 70
     0
  3
__ __ __ __ __ __ __ __ __ __ __ __ __ __ __
 72
    65
 73
     2
 40
7.5
 49
6.0
 74
     0
 49
-1.5
 74
     0
  0
LTYPE
  5
4C
330
5
100
AcDbSymbolTableRecord
100
AcDbLinetypeTableRecord
  2
AM_ISO08W050
 70
     0
  3
____ . ____ . ____ . ____ . ____ . ____ . ____
 72
    65
 73
     4
 40
18.0
 49
12.0
 74
     0
 49
-1.5
 74
     0
 49
3.0
 74
     0
 49
-1.5
 74
     0
  0
LTYPE
  5
4D
330
5
100
AcDbSymbolTableRecord
100
AcDbLinetypeTableRecord
  2
AM_ISO09W050
 70
     0
  3
_____ . . _____ . . _____ . . ____ .. ____
 72
    65
 73
     6
 40
22.5
 49
12.0
 74
     0
 49
-1.5
 74
     0
 49
3.0
 74
     0
 49
-1.5
 74
     0
 49
3.0
 74
     0
 49
-1.5
 74
     0
  0
LTYPE
  5
4E
330
5
100
AcDbSymbolTableRecord
100
AcDbLinetypeTableRecord
  2
AMCONSTR
 70
     0
  3
_______________________
 72
    65
 73
     2
 40
9999.0
 49
9999.0
 74
     0
 49
0.0
 74
     0
  0
LTYPE
  5
4F
330
5
100
AcDbSymbolTableRecord
100
AcDbLinetypeTableRecord
  2
AM_ISO02W050X2
 70
     0
  3
 _ _ _ _ _ _ _ _ _ _ _ _
 72
    65
 73
     2
 40
3.75
 49
3.0
 74
     0
 49
-0.75
 74
     0
  0
LTYPE
  5
50
330
5
100
AcDbSymbolTableRecord
100
AcDbLinetypeTableRecord
  2
AM_ISO08W050X2
 70
     0
  3
__ . __ . __ . __ . __ . __
 72
    65
 73
     4
 40
9.0
 49
6.0
 74
     0
 49
-0.75
 74
     0
 49
1.5
 74
     0
 49
-0.75
 74
     0
  0
LTYPE
  5
53
330
5
100
AcDbSymbolTableRecord
100
AcDbLinetypeTableRecord
  2
AMZIGZAG
 70
     0
  3
/\/-/\/-/\/-/\/-/\/-/\/
 72
    65
 73
     2
 40
11.00009999999999
 49
0.0001
 74
     4
 75
   135
340
52
 46
0.04
 50
0.0
 44
0.0
 45
0.0
 49
-11.0
 74
     0
  0
LTYPE
  5
166
330
5
100
AcDbSymbolTableRecord
100
AcDbLinetypeTableRecord
  2
ACJISTGL
 70
     0
  3
_ _ _ _ _
 72
    65
 73
     2
 40
3.0
 49
2.0
 74
     0
 49
-1.0
 74
     0
  0
LTYPE
  5
26A
330
5
100
AcDbSymbolTableRecord
100
AcDbLinetypeTableRecord
  2
ACJISTGB
 70
     0
  3
__ . . __ . .
 72
    65
 73
     6
 40
9.0
 49
4.0
 74
     0
 49
-1.0
 74
     0
 49
1.0
 74
     0
 49
-1.0
 74
     0
 49
1.0
 74
     0
 49
-1.0
 74
     0
  0
ENDTAB
  0
TABLE
  2
LAYER
  5
2
330
0
100
AcDbSymbolTable
 70
     7
  0
LAYER
  5
10
330
2
100
AcDbSymbolTableRecord
100
AcDbLayerTableRecord
  2
0
 70
     0
 62
     7
  6
CONTINUOUS
  0
LAYER
  5
3F9
330
2
100
AcDbSymbolTableRecord
100
AcDbLayerTableRecord
  2
AM_0
 70
     0
 62
     7
  6
CONTINUOUS
  0
LAYER
  5
BDD
330
2
100
AcDbSymbolTableRecord
100
AcDbLayerTableRecord
  2
AM_11
 70
     0
 62
     3
  6
AM_ISO09W050
  0
LAYER
  5
BDE
330
2
100
AcDbSymbolTableRecord
100
AcDbLayerTableRecord
  2
AM_7
 70
     0
 62
     4
  6
AM_ISO08W050
  0
LAYER
  5
BDF
330
2
100
AcDbSymbolTableRecord
100
AcDbLayerTableRecord
  2
AM_5
 70
     0
 62
     3
  6
CONTINUOUS
  0
LAYER
  5
BE0
330
2
100
AcDbSymbolTableRecord
100
AcDbLayerTableRecord
  2
DEFPOINTS
 70
     0
 62
     7
  6
CONTINUOUS
  0
LAYER
  5
14FF
330
2
100
AcDbSymbolTableRecord
100
AcDbLayerTableRecord
  2
AM_6
 70
     0
 62
     2
  6
CONTINUOUS
  0
ENDTAB
  0
TABLE
  2
STYLE
  5
3
330
0
100
AcDbSymbolTable
 70
     5
  0
STYLE
  5
11
330
3
100
AcDbSymbolTableRecord
100
AcDbTextStyleTableRecord
  2
STANDARD
 70
     0
 40
0.0
 41
1.0
 50
0.0
 71
     0
 42
2.5
  3
simplex.shx
  4
EXTFONT.SHX
  0
STYLE
  5
52
330
3
100
AcDbSymbolTableRecord
100
AcDbTextStyleTableRecord
  2

 70
     1
 40
0.0
 41
1.0
 50
0.0
 71
     0
 42
2.5
  3
ltypeshp.shx
  4

  0
STYLE
  5
6B
330
3
100
AcDbSymbolTableRecord
100
AcDbTextStyleTableRecord
  2
ASAMI
 70
     0
 40
0.0
 41
1.0
 50
0.0
 71
     0
 42
2.5
  3
simplex.shx
  4
EXTFONT.SHX
  0
STYLE
  5
262
330
3
100
AcDbSymbolTableRecord
100
AcDbTextStyleTableRecord
  2
ACJISTS
 70
     0
 40
1.0
 41
1.0
 50
0.0
 71
     0
 42
2.5
  3
simplex.shx
  4
bigfont.shx
  0
STYLE
  5
269
330
3
100
AcDbSymbolTableRecord
100
AcDbTextStyleTableRecord
  2
ACJISGDT
 70
     0
 40
0.0
 41
1.0
 50
0.0
 71
     0
 42
2.5
  3
amgdtans.shx
  4

  0
ENDTAB
  0
TABLE
  2
VIEW
  5
6
330
0
100
AcDbSymbolTable
 70
     0
  0
ENDTAB
  0
TABLE
  2
UCS
  5
7
330
0
100
AcDbSymbolTable
 70
     0
  0
ENDTAB
  0
TABLE
  2
APPID
  5
9
330
0
100
AcDbSymbolTable
 70
    12
  0
APPID
  5
12
330
9
100
AcDbSymbolTableRecord
100
AcDbRegAppTableRecord
  2
ACAD
 70
     0
  0
APPID
  5
30
330
9
100
AcDbSymbolTableRecord
100
AcDbRegAppTableRecord
  2
MCAD_NO_VIS
 70
     0
  0
APPID
  5
31
330
9
100
AcDbSymbolTableRecord
100
AcDbRegAppTableRecord
  2
ACAD_TEMP_GRAPHIC
 70
     0
  0
APPID
  5
2C2
330
9
100
AcDbSymbolTableRecord
100
AcDbRegAppTableRecord
  2
GENIUS_GENDTOL_13
 70
     0
  0
APPID
  5
339
330
9
100
AcDbSymbolTableRecord
100
AcDbRegAppTableRecord
  2
GENIUS_GENODEF_13
 70
     0
  0
APPID
  5
33A
330
9
100
AcDbSymbolTableRecord
100
AcDbRegAppTableRecord
  2
GENIUS_GENOBJ-N-RSBK_13
 70
     0
  0
APPID
  5
33B
330
9
100
AcDbSymbolTableRecord
100
AcDbRegAppTableRecord
  2
GENIUS_GENOBJ-N-LIB_13
 70
     0
  0
APPID
  5
33C
330
9
100
AcDbSymbolTableRecord
100
AcDbRegAppTableRecord
  2
GENIUS_GENSCALE_13
 70
     0
  0
APPID
  5
378
330
9
100
AcDbSymbolTableRecord
100
AcDbRegAppTableRecord
  2
GENIUS_GENDIMSH_14
 70
     0
  0
APPID
  5
BE1
330
9
100
AcDbSymbolTableRecord
100
AcDbRegAppTableRecord
  2
GENIUS_GENFIL_13
 70
     0
  0
APPID
  5
BE2
330
9
100
AcDbSymbolTableRecord
100
AcDbRegAppTableRecord
  2
GENIUS_GENOBJ-N-CHA_13
 70
     0
  0
APPID
  5
151B
330
9
100
AcDbSymbolTableRecord
100
AcDbRegAppTableRecord
  2
DCO15
 70
     0
  0
ENDTAB
  0
TABLE
  2
DIMSTYLE
  5
A
330
0
100
AcDbSymbolTable
 70
     8
  0
DIMSTYLE
105
58
102
{ACAD_REACTORS
330
1180
330
122C
330
12D8
330
10F0
102
}
330
A
100
AcDbSymbolTableRecord
100
AcDbDimStyleTableRecord
  2
AM_JIS
 70
     0
  3

  4
"
  5
OPEN30
  6

  7

 40
0.5
 41
2.5
 42
1.0
 43
12.0
 44
1.0
 45
0.0
 46
0.0
 47
0.1
 48
0.1
140
3.2
141
0.0
142
0.0
143
0.0393701
144
1.0
145
0.0
146
0.71
147
1.5
 71
     0
 72
     0
 73
     0
 74
     0
 75
     0
 76
     0
 77
     3
 78
     8
170
     0
171
     2
172
     1
173
     0
174
     0
175
     0
176
   256
177
   256
178
     2
270
     2
271
     3
272
     3
273
     2
274
     2
340
6B
275
     0
280
     0
281
     0
282
     0
283
     0
284
     0
285
     0
286
     0
287
     3
288
     0
  0
DIMSTYLE
105
5F
330
A
100
AcDbSymbolTableRecord
100
AcDbDimStyleTableRecord
  2
AM_JIS$3
 70
     0
  3

  4
"
  5
OPEN30
  6

  7

 40
0.5
 41
2.5
 42
1.0
 43
10.0
 44
1.0
 45
0.0
 46
0.0
 47
0.1
 48
0.1
140
3.2
141
0.0
142
0.0
143
0.0393701
144
1.0
145
0.0
146
0.71
147
1.5
 71
     0
 72
     0
 73
     0
 74
     1
 75
     0
 76
     0
 77
     3
 78
     8
170
     0
171
     2
172
     0
173
     0
174
     0
175
     0
176
   256
177
   256
178
     2
270
     2
271
     2
272
     3
273
     2
274
     2
340
6B
275
     0
280
     0
281
     0
282
     0
283
     0
284
     0
285
     0
286
     0
287
     0
288
     1
  0
DIMSTYLE
105
60
330
A
100
AcDbSymbolTableRecord
100
AcDbDimStyleTableRecord
  2
AM_JIS$4
 70
     0
  3

  4
"
  5
OPEN30
  6

  7

 40
0.5
 41
2.5
 42
1.0
 43
10.0
 44
1.0
 45
0.0
 46
0.0
 47
0.1
 48
0.1
140
3.2
141
0.0
142
0.0
143
0.0393701
144
1.0
145
0.0
146
0.71
147
1.5
 71
     0
 72
     0
 73
     0
 74
     1
 75
     0
 76
     0
 77
     3
 78
     8
170
     0
171
     2
172
     0
173
     0
174
     0
175
     0
176
   256
177
   256
178
     2
270
     2
271
     2
272
     3
273
     2
274
     2
340
6B
275
     0
280
     0
281
     0
282
     0
283
     0
284
     0
285
     0
286
     0
287
     0
288
     1
  0
DIMSTYLE
105
61
330
A
100
AcDbSymbolTableRecord
100
AcDbDimStyleTableRecord
  2
AM_JIS$6
 70
     0
  3

  4
"
  5
OPEN30
  6

  7

 40
0.5
 41
2.5
 42
1.0
 43
10.0
 44
1.0
 45
0.0
 46
0.0
 47
0.1
 48
0.1
140
3.2
141
0.0
142
0.0
143
0.0393701
144
1.0
145
0.0
146
0.71
147
1.5
 71
     0
 72
     0
 73
     0
 74
     0
 75
     0
 76
     0
 77
     0
 78
     8
170
     0
171
     2
172
     1
173
     0
174
     0
175
     0
176
   256
177
   256
178
     2
270
     2
271
     2
272
     2
273
     2
274
     2
340
6B
275
     0
280
     0
281
     0
282
     0
283
     0
284
     0
285
     0
286
     0
287
     3
288
     0
  0
DIMSTYLE
105
62
330
A
100
AcDbSymbolTableRecord
100
AcDbDimStyleTableRecord
  2
AM_JIS$7
 70
     0
  3

  4
"
  5
OPEN30
  6

  7

 40
0.5
 41
2.5
 42
1.0
 43
10.0
 44
1.0
 45
0.0
 46
0.0
 47
0.1
 48
0.1
140
3.2
141
0.0
142
0.0
143
0.0393701
144
1.0
145
0.0
146
0.71
147
1.5
 71
     0
 72
     0
 73
     0
 74
     0
 75
     0
 76
     0
 77
     3
 78
     8
170
     0
171
     2
172
     1
173
     0
174
     0
175
     0
176
   256
177
   256
178
     2
270
     2
271
     2
272
     3
273
     2
274
     2
340
6B
275
     0
280
     0
281
     0
282
     0
283
     0
284
     0
285
     0
286
     0
287
     3
288
     0
  0
DIMSTYLE
105
63
330
A
100
AcDbSymbolTableRecord
100
AcDbDimStyleTableRecord
  2
AM_JIS$SF
 70
     0
  3

  4
"
  5
OPEN30
  6

  7

 40
0.5
 41
2.5
 42
1.0
 43
10.0
 44
1.0
 45
0.0
 46
0.0
 47
0.1
 48
0.1
140
3.2
141
0.0
142
0.0
143
0.0393701
144
1.0
145
0.0
146
0.71
147
1.5
 71
     0
 72
     0
 73
     0
 74
     0
 75
     1
 76
     1
 77
     3
 78
     8
170
     0
171
     2
172
     1
173
     0
174
     0
175
     0
176
   256
177
   256
178
     2
270
     2
271
     2
272
     2
273
     2
274
     2
340
6B
275
     0
280
     0
281
     0
282
     0
283
     0
284
     0
285
     0
286
     0
287
     3
288
     0
  0
DIMSTYLE
105
68
330
A
100
AcDbSymbolTableRecord
100
AcDbDimStyleTableRecord
  2
AM_JIS$SH
 70
     0
  3

  4
"
  5

  6
GENAXEH
  7
OPEN30
 40
0.5
 41
2.5
 42
1.0
 43
10.0
 44
1.0
 45
0.0
 46
0.0
 47
0.1
 48
0.1
140
3.2
141
0.0
142
0.0
143
0.0393701
144
2.0
145
0.0
146
0.71
147
1.5
 71
     0
 72
     0
 73
     0
 74
     0
 75
     1
 76
     1
 77
     3
 78
     8
170
     0
171
     2
172
     1
173
     1
174
     0
175
     0
176
   256
177
   256
178
     2
270
     2
271
     2
272
     2
273
     2
274
     2
340
6B
275
     0
280
     0
281
     0
282
     0
283
     0
284
     0
285
     0
286
     0
287
     3
288
     0
  0
DIMSTYLE
105
B34
330
A
100
AcDbSymbolTableRecord
100
AcDbDimStyleTableRecord
  2
AM_JIS$2
 70
     0
  3

  4
"
  5
OPEN30
  6

  7

 40
0.5
 41
2.5
 42
1.0
 43
12.0
 44
1.0
 45
0.0
 46
0.0
 47
0.1
 48
0.1
140
3.2
141
0.0
142
0.0
143
0.0393701
144
1.0
145
0.0
146
0.71
147
1.5
 71
     0
 72
     0
 73
     0
 74
     0
 75
     0
 76
     0
 77
     3
 78
     8
170
     0
171
     2
172
     1
173
     0
174
     0
175
     0
176
   256
177
   256
178
     2
270
     2
271
     3
272
     3
273
     2
274
     2
340
6B
275
     0
280
     0
281
     0
282
     0
283
     0
284
     0
285
     0
286
     0
287
     3
288
     0
  0
ENDTAB
  0
TABLE
  2
BLOCK_RECORD
  5
1
330
0
100
AcDbSymbolTable
 70
     9
  0
BLOCK_RECORD
  5
1F
102
{ACAD_XDICTIONARY
360
74
102
}
330
1
100
AcDbSymbolTableRecord
100
AcDbBlockTableRecord
  2
*MODEL_SPACE
  0
BLOCK_RECORD
  5
101
102
{ACAD_XDICTIONARY
360
1662
102
}
330
1
100
AcDbSymbolTableRecord
100
AcDbBlockTableRecord
  2
*PAPER_SPACE
  0
BLOCK_RECORD
  5
59
330
1
100
AcDbSymbolTableRecord
100
AcDbBlockTableRecord
  2
_OPEN30
  0
BLOCK_RECORD
  5
64
330
1
100
AcDbSymbolTableRecord
100
AcDbBlockTableRecord
  2
GENAXEH
  0
BLOCK_RECORD
  5
10F1
330
1
100
AcDbSymbolTableRecord
100
AcDbBlockTableRecord
  2
*D5
  0
BLOCK_RECORD
  5
1181
330
1
100
AcDbSymbolTableRecord
100
AcDbBlockTableRecord
  2
*D6
  0
BLOCK_RECORD
  5
122D
330
1
100
AcDbSymbolTableRecord
100
AcDbBlockTableRecord
  2
*D7
  0
BLOCK_RECORD
  5
12D9
330
1
100
AcDbSymbolTableRecord
100
AcDbBlockTableRecord
  2
*D8
  0
ENDTAB
  0
ENDSEC
  0
SECTION
  2
BLOCKS
  0
BLOCK
  5
20
330
1F
100
AcDbEntity
  8
0
100
AcDbBlockBegin
  2
*MODEL_SPACE
 70
     0
 10
0.0
 20
0.0
 30
0.0
  3
*MODEL_SPACE
  1

  0
ENDBLK
  5
21
330
1F
100
AcDbEntity
  8
0
100
AcDbBlockEnd
  0
BLOCK
  5
103
330
101
100
AcDbEntity
 67
     1
  8
0
100
AcDbBlockBegin
  2
*PAPER_SPACE
 70
     0
 10
0.0
 20
0.0
 30
0.0
  3
*PAPER_SPACE
  1

  0
ENDBLK
  5
104
330
101
100
AcDbEntity
 67
     1
  8
0
100
AcDbBlockEnd
  0
BLOCK
  5
5D
330
59
100
AcDbEntity
  8
0
100
AcDbBlockBegin
  2
_OPEN30
 70
     0
 10
0.0
 20
0.0
 30
0.0
  3
_OPEN30
  1

  0
LINE
  5
5A
330
59
100
AcDbEntity
  8
0
 62
     0
100
AcDbLine
 10
-1.0
 20
0.26794919
 30
0.0
 11
0.0
 21
0.0
 31
0.0
  0
LINE
  5
5B
330
59
100
AcDbEntity
  8
0
 62
     0
100
AcDbLine
 10
0.0
 20
0.0
 30
0.0
 11
-1.0
 21
-0.26794919
 31
0.0
  0
LINE
  5
5C
330
59
100
AcDbEntity
  8
0
 62
     0
100
AcDbLine
 10
0.0
 20
0.0
 30
0.0
 11
-1.0
 21
0.0
 31
0.0
  0
ENDBLK
  5
5E
330
59
100
AcDbEntity
  8
0
100
AcDbBlockEnd
  0
BLOCK
  5
66
330
64
100
AcDbEntity
  8
0
100
AcDbBlockBegin
  2
GENAXEH
 70
     0
 10
0.0
 20
0.0
 30
0.0
  3
GENAXEH
  1

  0
LINE
  5
65
330
64
100
AcDbEntity
  8
0
100
AcDbLine
 10
-1.0
 20
0.0
 30
0.0
 11
1.0
 21
0.0
 31
0.0
  0
ENDBLK
  5
67
330
64
100
AcDbEntity
  8
0
100
AcDbBlockEnd
  0
BLOCK
  5
10FB
330
10F1
100
AcDbEntity
  8
0
100
AcDbBlockBegin
  2
*D5
 70
     1
 10
0.0
 20
0.0
 30
0.0
  3
*D5
  1

  0
LINE
  5
14EA
330
10F1
100
AcDbEntity
  8
AM_5
100
AcDbLine
 10
-40.0
 20
-1.75
 30
0.0
 11
-40.0
 21
-15.00000100000006
 31
0.0
  0
LINE
  5
14EB
330
10F1
100
AcDbEntity
  8
AM_5
100
AcDbLine
 10
0.0
 20
-0.75
 30
0.0
 11
-0.0000000000000009
 21
-15.00000100000006
 31
0.0
  0
LINE
  5
14EC
330
10F1
100
AcDbEntity
  8
AM_5
100
AcDbLine
 10
-38.75
 20
-14.50000100000005
 30
0.0
 11
-1.25
 21
-14.50000100000005
 31
0.0
  0
INSERT
  5
14ED
330
10F1
100
AcDbEntity
  8
AM_5
100
AcDbBlockReference
  2
_OPEN30
 10
-40.0
 20
-14.50000100000005
 30
0.0
 41
1.25
 42
1.25
 43
1.25
 50
180.0
  0
INSERT
  5
14EE
330
10F1
100
AcDbEntity
  8
AM_5
100
AcDbBlockReference
  2
_OPEN30
 10
-0.0000000000000009
 20
-14.50000100000005
 30
0.0
 41
1.25
 42
1.25
 43
1.25
  0
MTEXT
  5
14EF
330
10F1
100
AcDbEntity
  8
AM_5
 62
     2
100
AcDbMText
 10
-20.0
 20
-12.95000100000005
 30
0.0
 40
1.6
 41
0.0
 71
     5
 72
     1
  1
40
  7
ASAMI
1001
ACAD
1000
MTEXTBEGIN
1070
    73
1070
     1
1070
    44
1040
1.0
1070
    74
1070
     0
1000
MTEXTEND
  0
POINT
  5
14F0
330
10F1
100
AcDbEntity
  8
DEFPOINTS
 62
     0
100
AcDbPoint
 10
-40.0
 20
-1.25
 30
0.0
  0
POINT
  5
14F1
330
10F1
100
AcDbEntity
  8
DEFPOINTS
 62
     0
100
AcDbPoint
 10
0.0
 20
-0.25
 30
0.0
  0
POINT
  5
14F2
330
10F1
100
AcDbEntity
  8
DEFPOINTS
 62
     0
100
AcDbPoint
 10
-0.0000000000000009
 20
-14.50000100000005
 30
0.0
  0
ENDBLK
  5
10FC
330
10F1
100
AcDbEntity
  8
0
100
AcDbBlockEnd
  0
BLOCK
  5
118D
330
1181
100
AcDbEntity
  8
0
100
AcDbBlockBegin
  2
*D6
 70
     1
 10
0.0
 20
0.0
 30
0.0
  3
*D6
  1

  0
LINE
  5
14D4
330
1181
100
AcDbEntity
  8
AM_5
100
AcDbLine
 10
-40.25000000000001
 20
1.5
 30
0.0
 11
-49.00000099999999
 21
1.500000000000003
 31
0.0
  0
LINE
  5
14D5
330
1181
100
AcDbEntity
  8
AM_5
100
AcDbLine
 10
-40.25
 20
-1.5
 30
0.0
 11
-49.00000099999999
 21
-1.499999999999997
 31
0.0
  0
LINE
  5
14D6
330
1181
100
AcDbEntity
  8
AM_5
100
AcDbLine
 10
-48.50000099999999
 20
2.750000000000002
 30
0.0
 11
-48.50000099999999
 21
4.000000000000002
 31
0.0
  0
LINE
  5
14D7
330
1181
100
AcDbEntity
  8
AM_5
100
AcDbLine
 10
-48.50000099999999
 20
-2.749999999999998
 30
0.0
 11
-48.50000099999999
 21
-8.014285714285712
 31
0.0
  0
LINE
  5
14D8
330
1181
100
AcDbEntity
  8
AM_5
100
AcDbLine
 10
-48.50000099999999
 20
1.500000000000002
 30
0.0
 11
-48.50000099999999
 21
-1.499999999999998
 31
0.0
  0
INSERT
  5
14D9
330
1181
100
AcDbEntity
  8
AM_5
100
AcDbBlockReference
  2
_OPEN30
 10
-48.50000099999999
 20
1.500000000000002
 30
0.0
 41
1.25
 42
1.25
 43
1.25
 50
270.0
  0
INSERT
  5
14DA
330
1181
100
AcDbEntity
  8
AM_5
100
AcDbBlockReference
  2
_OPEN30
 10
-48.50000099999999
 20
-1.499999999999998
 30
0.0
 41
1.25
 42
1.25
 43
1.25
 50
90.0
  0
MTEXT
  5
14DB
330
1181
100
AcDbEntity
  8
AM_5
 62
     2
100
AcDbMText
 10
-50.050001
 20
-6.007142857142863
 30
0.0
 40
1.6
 41
0.0
 71
     5
 72
     1
  1
%%c3
  7
ASAMI
 11
0.0000000000000001
 21
1.0
 31
0.0
1001
ACAD
1000
MTEXTBEGIN
1070
    73
1070
     1
1070
    44
1040
1.0
1070
    74
1070
     0
1000
MTEXTEND
  0
POINT
  5
14DC
330
1181
100
AcDbEntity
  8
DEFPOINTS
 62
     0
100
AcDbPoint
 10
-39.75000000000001
 20
1.5
 30
0.0
  0
POINT
  5
14DD
330
1181
100
AcDbEntity
  8
DEFPOINTS
 62
     0
100
AcDbPoint
 10
-39.75
 20
-1.5
 30
0.0
  0
POINT
  5
14DE
330
1181
100
AcDbEntity
  8
DEFPOINTS
 62
     0
100
AcDbPoint
 10
-48.50000099999999
 20
-1.499999999999998
 30
0.0
  0
ENDBLK
  5
118E
330
1181
100
AcDbEntity
  8
0
100
AcDbBlockEnd
  0
BLOCK
  5
1239
330
122D
100
AcDbEntity
  8
0
100
AcDbBlockBegin
  2
*D7
 70
     1
 10
0.0
 20
0.0
 30
0.0
  3
*D7
  1

  0
LINE
  5
14DF
330
122D
100
AcDbEntity
  8
AM_5
100
AcDbLine
 10
0.5
 20
0.2499999999999999
 30
0.0
 11
9.551050680252135
 21
0.2499999999999973
 31
0.0
  0
LINE
  5
14E0
330
122D
100
AcDbEntity
  8
AM_5
100
AcDbLine
 10
0.4999999999997045
 20
-0.2500000000000002
 30
0.0
 11
9.551050680252135
 21
-0.2500000000000027
 31
0.0
  0
LINE
  5
14E1
330
122D
100
AcDbEntity
  8
AM_5
100
AcDbLine
 10
9.051050680252135
 20
1.499999999999997
 30
0.0
 11
9.051050680252135
 21
2.749999999999997
 31
0.0
  0
LINE
  5
14E2
330
122D
100
AcDbEntity
  8
AM_5
100
AcDbLine
 10
9.051050680252135
 20
-1.500000000000002
 30
0.0
 11
9.051050680252133
 21
-9.050000000000002
 31
0.0
  0
LINE
  5
14E3
330
122D
100
AcDbEntity
  8
AM_5
100
AcDbLine
 10
9.051050680252135
 20
0.2499999999999974
 30
0.0
 11
9.051050680252135
 21
-0.2500000000000026
 31
0.0
  0
INSERT
  5
14E4
330
122D
100
AcDbEntity
  8
AM_5
100
AcDbBlockReference
  2
_OPEN30
 10
9.051050680252135
 20
0.2499999999999974
 30
0.0
 41
1.25
 42
1.25
 43
1.25
 50
270.0
  0
INSERT
  5
14E5
330
122D
100
AcDbEntity
  8
AM_5
100
AcDbBlockReference
  2
_OPEN30
 10
9.051050680252135
 20
-0.2500000000000026
 30
0.0
 41
1.25
 42
1.25
 43
1.25
 50
90.0
  0
MTEXT
  5
14E6
330
122D
100
AcDbEntity
  8
AM_5
 62
     2
100
AcDbMText
 10
7.501050680252134
 20
-5.900000000000001
 30
0.0
 40
1.6
 41
0.0
 71
     5
 72
     1
  1
%%c0.5
  7
ASAMI
 11
0.0000000000000001
 21
1.0
 31
0.0
1001
ACAD
1000
MTEXTBEGIN
1070
    73
1070
     1
1070
    44
1040
1.0
1070
    74
1070
     0
1000
MTEXTEND
  0
POINT
  5
14E7
330
122D
100
AcDbEntity
  8
DEFPOINTS
 62
     0
100
AcDbPoint
 10
0.0
 20
0.25
 30
0.0
  0
POINT
  5
14E8
330
122D
100
AcDbEntity
  8
DEFPOINTS
 62
     0
100
AcDbPoint
 10
-0.0000000000002955
 20
-0.25
 30
0.0
  0
POINT
  5
14E9
330
122D
100
AcDbEntity
  8
DEFPOINTS
 62
     0
100
AcDbPoint
 10
9.051050680252135
 20
-0.2500000000000026
 30
0.0
  0
ENDBLK
  5
123A
330
122D
100
AcDbEntity
  8
0
100
AcDbBlockEnd
  0
BLOCK
  5
12E5
330
12D9
100
AcDbEntity
  8
0
100
AcDbBlockBegin
  2
*D8
 70
     1
 10
0.0
 20
0.0
 30
0.0
  3
*D8
  1

  0
LINE
  5
14F3
330
12D9
100
AcDbEntity
  8
AM_5
100
AcDbLine
 10
0.0
 20
-0.75
 30
0.0
 11
-0.0000000000000005
 21
-9.000001000000063
 31
0.0
  0
LINE
  5
14F4
330
12D9
100
AcDbEntity
  8
AM_5
100
AcDbLine
 10
-1.500000000000014
 20
-0.75
 30
0.0
 11
-1.500000000000014
 21
-9.000001000000063
 31
0.0
  0
LINE
  5
14F5
330
12D9
100
AcDbEntity
  8
AM_5
100
AcDbLine
 10
1.249999999999999
 20
-8.500001000000063
 30
0.0
 11
2.499999999999999
 21
-8.500001000000063
 31
0.0
  0
LINE
  5
14F6
330
12D9
100
AcDbEntity
  8
AM_5
100
AcDbLine
 10
-2.750000000000014
 20
-8.500001000000063
 30
0.0
 11
-8.547619047619061
 21
-8.500001000000063
 31
0.0
  0
LINE
  5
14F7
330
12D9
100
AcDbEntity
  8
AM_5
100
AcDbLine
 10
-0.0000000000000005
 20
-8.500001000000063
 30
0.0
 11
-1.500000000000014
 21
-8.500001000000063
 31
0.0
  0
INSERT
  5
14F8
330
12D9
100
AcDbEntity
  8
AM_5
100
AcDbBlockReference
  2
_OPEN30
 10
-0.0000000000000005
 20
-8.500001000000063
 30
0.0
 41
1.25
 42
1.25
 43
1.25
 50
180.0
  0
INSERT
  5
14F9
330
12D9
100
AcDbEntity
  8
AM_5
100
AcDbBlockReference
  2
_OPEN30
 10
-1.500000000000014
 20
-8.500001000000063
 30
0.0
 41
1.25
 42
1.25
 43
1.25
  0
MTEXT
  5
14FA
330
12D9
100
AcDbEntity
  8
AM_5
 62
     2
100
AcDbMText
 10
-6.273809523809537
 20
-6.950001000000063
 30
0.0
 40
1.6
 41
0.0
 71
     5
 72
     1
  1
1.5
  7
ASAMI
1001
ACAD
1000
MTEXTBEGIN
1070
    73
1070
     1
1070
    44
1040
1.0
1070
    74
1070
     0
1000
MTEXTEND
  0
POINT
  5
14FB
330
12D9
100
AcDbEntity
  8
DEFPOINTS
 62
     0
100
AcDbPoint
 10
0.0
 20
-0.25
 30
0.0
  0
POINT
  5
14FC
330
12D9
100
AcDbEntity
  8
DEFPOINTS
 62
     0
100
AcDbPoint
 10
-1.500000000000014
 20
-0.25
 30
0.0
  0
POINT
  5
14FD
330
12D9
100
AcDbEntity
  8
DEFPOINTS
 62
     0
100
AcDbPoint
 10
-1.500000000000014
 20
-8.500001000000063
 30
0.0
  0
ENDBLK
  5
12E6
330
12D9
100
AcDbEntity
  8
0
100
AcDbBlockEnd
  0
ENDSEC
  0
SECTION
  2
ENTITIES
  0
SPLINE
  5
C1D
330
1F
100
AcDbEntity
  8
AM_0
100
AcDbSpline
210
0.0
220
0.0
230
1.0
 70
     8
 71
     3
 72
     8
 73
     4
 74
     2
 42
0.0000000001
 43
0.0000000001
 44
0.0000000001
 12
-1.0
 22
0.0000000000000001
 32
0.0
 40
0.0
 40
0.0
 40
0.0
 40
0.0
 40
0.7244998274672047
 40
0.7244998274672047
 40
0.7244998274672047
 40
0.7244998274672047
 10
0.0
 20
-0.25
 30
0.0
 10
-0.2414999424890682
 20
-0.25
 30
0.0
 10
-0.4607499712445375
 20
-0.125
 30
0.0
 10
-0.6800000000000069
 20
0.0
 30
0.0
 11
0.0
 21
-0.25
 31
0.0
 11
-0.6800000000000069
 21
0.0
 31
0.0
  0
SPLINE
  5
C1F
330
1F
100
AcDbEntity
  8
AM_0
100
AcDbSpline
210
0.0
220
0.0
230
1.0
 70
     8
 71
     3
 72
     8
 73
     4
 74
     0
 42
0.0000000001
 43
0.0000000001
 40
4.219358800530717
 40
4.219358800530717
 40
4.219358800530717
 40
4.219358800530717
 40
14.36247867694493
 40
14.36247867694493
 40
14.36247867694493
 40
14.36247867694493
 10
-0.0187500000000114
 20
-0.2039110092256351
 30
0.0
 10
-0.1810541878444951
 20
-0.1630473895844489
 30
0.0
 10
-0.3366441768978632
 20
-0.0815236947922245
 30
0.0
 10
-0.4922341659512313
 20
0.0
 30
0.0
  0
SPLINE
  5
C20
330
1F
100
AcDbEntity
  8
AM_0
100
AcDbSpline
210
0.0
220
0.0
230
1.0
 70
     8
 71
     3
 72
     8
 73
     4
 74
     2
 42
0.0000000001
 43
0.0000000001
 44
0.0000000001
 12
-1.0
 22
0.0000000000000001
 32
0.0
 40
0.0
 40
0.0
 40
0.0
 40
0.0
 40
0.7077445848048408
 40
0.7077445848048408
 40
0.7077445848048408
 40
0.7077445848048408
 10
-0.8037480483079093
 20
-0.1918347729364882
 30
0.0
 10
-1.039662909909522
 20
-0.1918347729364882
 30
0.0
 10
-1.261792859940648
 20
-0.0940279596307647
 30
0.0
 10
-1.483922809971772
 20
0.0037788536749588
 30
0.0
 11
-0.8037480483079093
 21
-0.1918347729364882
 31
0.0
 11
-1.483922809971772
 21
0.0037788536749588
 31
0.0
  0
SPLINE
  5
C22
330
1F
100
AcDbEntity
  8
AM_0
100
AcDbSpline
210
0.0
220
0.0
230
1.0
 70
     8
 71
     3
 72
     8
 73
     4
 74
     0
 42
0.0000000001
 43
0.0000000001
 40
5.297458184749251
 40
5.297458184749251
 40
5.297458184749251
 40
5.297458184749251
 40
7.218994763998551
 40
7.218994763998551
 40
7.218994763998551
 40
7.218994763998551
 10
-1.671799238244148
 20
0.0799663268359439
 30
0.0
 10
-1.60217495955365
 20
0.0558468702370192
 30
0.0
 10
-1.543048884762697
 20
0.0298128619559748
 30
0.0
 10
-1.483922809971772
 20
0.0037788536749304
 30
0.0
  0
SPLINE
  5
C23
330
1F
100
AcDbEntity
  8
AM_0
100
AcDbSpline
210
0.0
220
0.0
230
1.0
 70
     8
 71
     3
 72
     8
 73
     4
 74
     0
 42
0.0000000001
 43
0.0000000001
 40
0.0
 40
0.0
 40
0.0
 40
0.0
 40
2.825513890673592
 40
2.825513890673592
 40
2.825513890673592
 40
2.825513890673592
 10
-1.360000000000013
 20
0.25
 30
0.0
 10
-1.407091898177891
 20
0.25
 30
0.0
 10
-1.453337764607355
 20
0.2452469942212979
 30
0.0
 10
-1.499998934078945
 20
0.236034823039693
 30
0.0
  0
SPLINE
  5
C25
330
1F
100
AcDbEntity
  8
AM_0
100
AcDbSpline
210
0.0
220
0.0
230
1.0
 70
     8
 71
     3
 72
     8
 73
     4
 74
     0
 42
0.0000000001
 43
0.0000000001
 40
0.7142832446738512
 40
0.7142832446738512
 40
0.7142832446738512
 40
0.7142832446738512
 40
14.36247867694493
 40
14.36247867694493
 40
14.36247867694493
 40
14.36247867694493
 10
-1.2548604299661
 20
0.2422922711426452
 30
0.0
 10
-0.9109460817678041
 20
0.2193903517737681
 30
0.0
 10
-0.7015901238595177
 20
0.109695175886884
 30
0.0
 10
-0.4922341659512313
 20
0.0
 30
0.0
  0
SPLINE
  5
C26
330
1F
100
AcDbEntity
  8
AM_0
100
AcDbSpline
210
0.0
220
0.0
230
1.0
 70
     8
 71
     3
 72
     8
 73
     4
 74
     0
 42
0.0000000001
 43
0.0000000001
 40
0.0
 40
0.0
 40
0.0
 40
0.0
 40
2.238610194515266
 40
2.238610194515266
 40
2.238610194515266
 40
2.238610194515266
 10
-0.8037480483079093
 20
-0.1918347729364882
 30
0.0
 10
-0.6537964487071122
 20
-0.1938251989358548
 30
0.0
 10
-0.4314878680178254
 20
-0.1824294738646586
 30
0.0
 10
-0.3605707777204543
 20
-0.1665354588566288
 30
0.0
  0
SPLINE
  5
C27
330
1F
100
AcDbEntity
  8
AM_0
100
AcDbSpline
210
0.0
220
0.0
230
1.0
 70
     8
 71
     3
 72
     8
 73
     4
 74
     0
 42
0.0000000001
 43
0.0000000001
 40
0.0
 40
0.0
 40
0.0
 40
0.0
 40
7.57842115059705
 40
7.57842115059705
 40
7.57842115059705
 40
7.57842115059705
 10
0.0
 20
0.25
 30
0.0
 10
-0.1263070191766076
 20
0.25
 30
0.0
 10
-0.2465277960247931
 20
0.2158074947991224
 30
0.0
 10
-0.3638454995282245
 20
0.1653055255508775
 30
0.0
  0
SPLINE
  5
C28
330
1F
100
AcDbEntity
  8
AM_0
100
AcDbSpline
210
0.0
220
0.0
230
1.0
 70
     8
 71
     3
 72
     8
 73
     4
 74
     2
 42
0.0000000001
 43
0.0000000001
 44
0.0000000001
 12
-0.6417012268563102
 22
-0.766954715384883
 32
0.0
 13
-0.9900999427831044
 23
-0.1403641809753962
 33
0.0
 40
0.0
 40
0.0
 40
0.0
 40
0.0
 40
0.1293282661808295
 40
0.1293282661808295
 40
0.1293282661808295
 40
0.1293282661808295
 10
0.0
 20
0.2037351343342095
 30
0.0
 10
-0.0276633690251459
 20
0.1706721598075634
 30
0.0
 10
-0.0751459752357976
 20
0.1564736898462343
 30
0.0
 10
-0.11782861155109
 20
0.1504226711264209
 30
0.0
 11
0.0
 21
0.2037351343342095
 31
0.0
 11
-0.11782861155109
 21
0.1504226711264209
 31
0.0
  0
SPLINE
  5
C29
330
1F
100
AcDbEntity
  8
AM_0
100
AcDbSpline
210
0.0
220
0.0
230
1.0
 70
     8
 71
     3
 72
     8
 73
     4
 74
     2
 42
0.0000000001
 43
0.0000000001
 44
0.0000000001
 12
1.0
 22
-0.0000000000000002
 32
0.0
 40
0.0
 40
0.0
 40
0.0
 40
0.0
 40
0.7244998274672047
 40
0.7244998274672047
 40
0.7244998274672047
 40
0.7244998274672047
 10
-1.360000000000013
 20
0.25
 30
0.0
 10
-1.118500057510945
 20
0.25
 30
0.0
 10
-0.8992500287554761
 20
0.125
 30
0.0
 10
-0.6800000000000069
 20
0.0
 30
0.0
 11
-1.360000000000013
 21
0.25
 31
0.0
 11
-0.6800000000000069
 21
0.0
 31
0.0
  0
SPLINE
  5
C2C
330
1F
100
AcDbEntity
  8
AM_0
100
AcDbSpline
210
0.0
220
0.0
230
1.0
 70
     8
 71
     3
 72
     8
 73
     4
 74
     0
 42
0.0000000001
 43
0.0000000001
 40
0.0
 40
0.0
 40
0.0
 40
0.0
 40
2.764560748519282
 40
2.764560748519282
 40
2.764560748519282
 40
2.764560748519282
 10
-1.499998934078961
 20
-0.249999999999988
 30
0.0
 10
-1.453922921603622
 20
-0.249999999999988
 30
0.0
 10
-1.40861584198477
 20
-0.2455548739087185
 30
0.0
 10
-1.363930471807508
 20
-0.2375157059753854
 30
0.0
  0
SPLINE
  5
C2D
330
1F
100
AcDbEntity
  8
AM_0
100
AcDbSpline
210
0.0
220
0.0
230
1.0
 70
     8
 71
     3
 72
     8
 73
     4
 74
     0
 42
0.0000000001
 43
0.0000000001
 40
0.0
 40
0.0
 40
0.0
 40
0.0
 40
2.221495395472776
 40
2.221495395472776
 40
2.221495395472776
 40
2.221495395472776
 10
-1.399505539130744
 20
-0.2383580416734667
 30
0.0
 10
-1.362480615872856
 20
-0.2383580416734667
 30
0.0
 10
-1.325911729271142
 20
-0.2355963592616939
 30
0.0
 10
-1.289728342522368
 20
-0.2305001536284004
 30
0.0
  0
LINE
  5
C2E
330
1F
100
AcDbEntity
  8
AM_7
  6
AM_ISO08W050X2
100
AcDbLine
 10
2.051049680252134
 20
0.0
 30
0.0
 11
-41.5
 21
0.0
 31
0.0
  0
LINE
  5
C38
330
1F
100
AcDbEntity
  8
AM_0
100
AcDbLine
 10
-8.589102274522858
 20
1.499999999999999
 30
0.0
 11
-1.892251270327648
 21
0.3191644821758233
 31
0.0
  0
LINE
  5
C39
330
1F
100
AcDbEntity
  8
AM_0
100
AcDbLine
 10
-8.589102274522858
 20
-1.500000000000064
 30
0.0
 11
-1.500000000000014
 21
-0.25
 31
0.0
  0
LINE
  5
C3C
330
1F
100
AcDbEntity
  8
AM_0
100
AcDbLine
 10
-0.8037480483079093
 20
-0.1918347729364882
 30
0.0
 11
-1.289728342522368
 21
-0.2305001536284004
 31
0.0
  0
LINE
  5
C3D
330
1F
100
AcDbEntity
  8
AM_0
100
AcDbLine
 10
-0.9876038823101293
 20
0.2028907544444065
 30
0.0
 11
-0.11782861155109
 21
0.1504226711264209
 31
0.0
  0
LINE
  5
C3E
330
1F
100
AcDbEntity
  8
AM_11
100
AcDbLine
 10
-0.0000000000000284
 20
0.25
 30
0.0
 11
-1.499998934078945
 21
0.25
 31
0.0
  0
LINE
  5
C3F
330
1F
100
AcDbEntity
  8
AM_11
100
AcDbLine
 10
-1.499998934078945
 20
-0.25
 30
0.0
 11
0.0
 21
-0.25
 31
0.0
  0
ARC
  5
C40
330
1F
100
AcDbEntity
  8
AM_0
100
AcDbCircle
 10
-3.433638481108933
 20
-7.997105989991604
 30
0.0
 40
8.457909262920948
100
AcDbArc
 50
70.99990992845784
 51
79.49961644455989
  0
LINE
  5
C43
330
1F
100
AcDbEntity
  8
AM_11
100
AcDbLine
 10
-1.499998934078945
 20
-0.25
 30
0.0
 11
-1.499998934078945
 21
0.25
 31
0.0
  0
ARC
  5
C46
330
1F
100
AcDbEntity
  8
AM_0
100
AcDbCircle
 10
-1.465946533487735
 20
0.537944860266347
 30
0.0
 40
0.7886803337260143
100
AcDbArc
 50
219.1411874679559
 51
267.5254035670756
  0
ARC
  5
C47
330
1F
100
AcDbEntity
  8
AM_0
100
AcDbCircle
 10
-1.50811889039881
 20
0.828013541730491
 30
0.0
 40
0.7657453179630834
100
AcDbArc
 50
217.861829287237
 51
257.6576220094731
  0
ARC
  5
C48
330
1F
100
AcDbEntity
  8
AM_0
100
AcDbCircle
 10
-1.628173412320155
 20
-0.1077781965253396
 30
0.0
 40
0.4731705808283131
100
AcDbArc
 50
136.4631321727926
 51
161.7880297673309
  0
LINE
  5
C4A
330
1F
100
AcDbEntity
  8
AM_0
100
AcDbLine
 10
0.0
 20
-0.25
 30
0.0
 11
0.0
 21
0.0099999999999909
 31
0.0
  0
LINE
  5
C4B
330
1F
100
AcDbEntity
  8
AM_0
100
AcDbLine
 10
-0.0052499999999895
 20
-0.2366720578810941
 30
0.0
 11
-0.0052499999999895
 21
0.016256706361105
 31
0.0
  0
LINE
  5
C4C
330
1F
100
AcDbEntity
  8
AM_0
100
AcDbLine
 10
-0.0052499999999895
 20
-0.2366720578810941
 30
0.0
 11
-0.0187500000000114
 21
-0.2039110092256635
 31
0.0
  0
LINE
  5
C4D
330
1F
100
AcDbEntity
  8
AM_0
100
AcDbLine
 10
0.0
 20
0.0099999999999909
 30
0.0
 11
-0.11782861155109
 21
0.1504226711264209
 31
0.0
  0
LINE
  5
C4E
330
1F
100
AcDbEntity
  8
AM_0
100
AcDbLine
 10
0.0
 20
0.0500000000000114
 30
0.0
 11
0.0
 21
0.25
 31
0.0
  0
ARC
  5
C4F
330
1F
100
AcDbEntity
  8
AM_0
100
AcDbCircle
 10
0.7103384221191505
 20
0.0010518655854241
 30
0.0
 40
0.7566260194955924
100
AcDbArc
 50
175.3635181775061
 51
195.5055110014724
  0
LINE
  5
C50
330
1F
100
AcDbEntity
  8
AM_0
100
AcDbLine
 10
-0.0167819926235495
 20
0.0300000000000011
 30
0.0
 11
0.0
 21
0.0500000000000114
 31
0.0
  0
LINE
  5
C51
330
1F
100
AcDbEntity
  8
AM_0
100
AcDbLine
 10
-0.0187500000000114
 20
-0.2039110092256635
 30
0.0
 11
-0.0187500000000114
 21
-0.2012177715566281
 31
0.0
  0
LINE
  5
C52
330
1F
100
AcDbEntity
  8
AM_0
100
AcDbLine
 10
0.0
 20
-0.25
 30
0.0
 11
-0.0052499999999895
 21
-0.2366720578810941
 31
0.0
  0
LINE
  5
F6F
330
1F
100
AcDbEntity
  8
AM_0
100
AcDbLine
 10
-8.589102274523222
 20
-1.500000000000064
 30
0.0
 11
-8.589102274523222
 21
1.499999999999935
 31
0.0
  0
LINE
  5
F72
330
1F
100
AcDbEntity
  8
AM_0
100
AcDbLine
 10
-40.0
 20
-1.25
 30
0.0
 11
-40.0
 21
1.25
 31
0.0
  0
LINE
  5
F74
330
1F
100
AcDbEntity
  8
AM_0
100
AcDbLine
 10
-39.75000000000001
 20
1.5
 30
0.0
 11
-8.589102274523227
 21
1.499999999999935
 31
0.0
  0
LINE
  5
F75
330
1F
100
AcDbEntity
  8
AM_0
100
AcDbLine
 10
-39.75
 20
-1.5
 30
0.0
 11
-8.589102274522858
 21
-1.500000000000064
 31
0.0
  0
LINE
  5
1082
330
1F
100
AcDbEntity
  8
AM_0
100
AcDbLine
 10
-39.75000000000001
 20
1.5
 30
0.0
 11
-39.75000000000001
 21
-1.5
 31
0.0
  0
LINE
  5
1089
330
1F
100
AcDbEntity
  8
AM_0
100
AcDbLine
 10
-39.75000000000001
 20
1.5
 30
0.0
 11
-40.0
 21
1.25
 31
0.0
1001
GENIUS_GENFIL_13
1070
     0
1040
0.25
1040
0.25
1040
20.0
1040
0.0
1002
{
1002
}
1001
GENIUS_GENODEF_13
1002
{
1000
HIER
1070
     0
1002
}
1002
{
1000
MANEDIT
1070
     0
1002
}
1002
{
1000
NOSEL
1070
     0
1002
}
1002
{
1000
BEHIND
1070
     0
1002
}
1002
{
1000
REACTOR
1002
}
1001
GENIUS_GENOBJ-N-CHA_13
1002
{
1000
OWNER
1000
GEN
1002
}
  0
LINE
  5
108B
330
1F
100
AcDbEntity
  8
AM_0
100
AcDbLine
 10
-39.75
 20
-1.5
 30
0.0
 11
-40.0
 21
-1.25
 31
0.0
1001
GENIUS_GENFIL_13
1070
     0
1040
0.25
1040
0.25
1040
20.0
1040
0.0
1002
{
1002
}
1001
GENIUS_GENODEF_13
1002
{
1000
HIER
1070
     0
1002
}
1002
{
1000
MANEDIT
1070
     0
1002
}
1002
{
1000
NOSEL
1070
     0
1002
}
1002
{
1000
BEHIND
1070
     0
1002
}
1002
{
1000
REACTOR
1002
}
1001
GENIUS_GENOBJ-N-CHA_13
1002
{
1000
OWNER
1000
GEN
1002
}
  0
DIMENSION
  5
10F0
330
1F
100
AcDbEntity
  8
AM_5
100
AcDbDimension
  2
*D5
 10
-0.0000000000000009
 20
-14.50000100000005
 30
0.0
 11
-20.0
 21
-12.95000100000005
 31
0.0
 70
    32
  1
<>
  3
AM_JIS
100
AcDbAlignedDimension
 13
-40.0
 23
-1.25
 33
0.0
 14
0.0
 24
-0.25
 34
0.0
 50
0.0000000000001132
100
AcDbRotatedDimension
1001
GENIUS_GENDTOL_13
1000

1000
h7
1000

1040
0.0
  0
DIMENSION
  5
1180
330
1F
100
AcDbEntity
  8
AM_5
100
AcDbDimension
  2
*D6
 10
-48.50000099999999
 20
-1.499999999999998
 30
0.0
 11
-50.050001
 21
-6.007142857142863
 31
0.0
 70
    32
  1
%%c<>
  3
AM_JIS
100
AcDbAlignedDimension
 13
-39.75000000000001
 23
1.5
 33
0.0
 14
-39.75
 24
-1.5
 34
0.0
 50
270.0
100
AcDbRotatedDimension
1001
GENIUS_GENDTOL_13
1000

1000
h7
1000

1040
0.0
  0
DIMENSION
  5
122C
330
1F
100
AcDbEntity
  8
AM_5
100
AcDbDimension
  2
*D7
 10
9.051050680252135
 20
-0.2500000000000026
 30
0.0
 11
7.501050680252134
 21
-5.900000000000001
 31
0.0
 70
    32
  1
%%c<>
  3
AM_JIS
100
AcDbAlignedDimension
 13
0.0
 23
0.25
 33
0.0
 14
-0.0000000000002955
 24
-0.25
 34
0.0
 50
90.0
100
AcDbRotatedDimension
1001
GENIUS_GENDTOL_13
1000

1000
h7
1000

1040
0.0
  0
DIMENSION
  5
12D8
330
1F
100
AcDbEntity
  8
AM_5
100
AcDbDimension
  2
*D8
 10
-1.500000000000014
 20
-8.500001000000063
 30
0.0
 11
-6.273809523809537
 21
-6.950001000000063
 31
0.0
 70
    32
  1
<>
  3
AM_JIS
100
AcDbAlignedDimension
 13
0.0
 23
-0.25
 33
0.0
 14
-1.500000000000014
 24
-0.25
 34
0.0
 50
0.0000000000001132
100
AcDbRotatedDimension
1001
GENIUS_GENDTOL_13
1000

1000
h7
1000

1040
0.0
  0
TEXT
  5
1500
330
1F
100
AcDbEntity
  8
AM_6
100
AcDbText
 10
-28.21428571428569
 20
-25.75000100000006
 30
0.0
 40
2.5
  1
SSM2005
 72
     4
 11
-19.99999999999998
 21
-24.50000100000006
 31
0.0
100
AcDbText
  0
ARC
  5
160D
330
1F
100
AcDbEntity
  8
AM_0
100
AcDbCircle
 10
-1.367606744883291
 20
0.834677327778143
 30
0.0
 40
1.073509402459332
100
AcDbArc
 50
231.0342614004891
 51
268.2972339679216
  0
VIEWPORT
  5
110
330
101
100
AcDbEntity
 67
     1
  8
0
100
AcDbViewport
 10
420.5
 20
297.0
 30
0.0
 40
948.9782706766916
 41
628.452
 68
     1
 69
     1
1001
ACAD
1000
MVIEW
1002
{
1070
    16
1010
0.0
1020
0.0
1030
0.0
1010
0.0
1020
0.0
1030
1.0
1040
0.0
1040
628.452
1040
420.5
1040
297.0
1040
50.0
1040
0.0
1040
0.0
1070
     0
1070
   100
1070
     1
1070
     1
1070
     0
1070
     0
1070
     0
1070
     0
1040
0.0
1040
0.0
1040
0.0
1040
10.0
1040
10.0
1040
10.0
1040
10.0
1070
     0
1002
{
1002
}
1002
}
  0
ENDSEC
  0
SECTION
  2
OBJECTS
  0
DICTIONARY
  5
C
330
0
100
AcDbDictionary
  3
ACAD_GROUP
350
D
  3
ACAD_LAYOUT
350
1A
  3
ACAD_MLINESTYLE
350
17
  3
ACAD_PLOTSETTINGS
350
19
  3
ACAD_PLOTSTYLENAME
350
E
  3
ACDBVARIABLEDICTIONARY
350
34
  3
ACMDICTIONARY
350
43
  3
AMG
350
2B
  3
AMGSNAPSETTINGS
350
6E
  3
ASE_INDEX_DICTIONARY
350
151A
  3
DWGPROPS
350
162E
  3
ACDBHEADERROUNDTRIPXREC
350
163A
  0
DICTIONARY
  5
74
330
1F
100
AcDbDictionary
280
     1
  3
ACAD_INDEX
360
1630
  3
ACAD_LAYOUTSELFREF
360
165D
  0
DICTIONARY
  5
1662
330
101
100
AcDbDictionary
280
     1
  3
ACAD_LAYOUTSELFREF
360
1663
  0
DICTIONARY
  5
D
102
{ACAD_REACTORS
330
C
102
}
330
C
100
AcDbDictionary
  0
DICTIONARY
  5
1A
102
{ACAD_REACTORS
330
C
102
}
330
C
100
AcDbDictionary
  0
DICTIONARY
  5
17
102
{ACAD_REACTORS
330
C
102
}
330
C
100
AcDbDictionary
  3
STANDARD
350
18
  0
DICTIONARY
  5
19
102
{ACAD_REACTORS
330
C
102
}
330
C
100
AcDbDictionary
  0
ACDBDICTIONARYWDFLT
  5
E
102
{ACAD_REACTORS
330
C
102
}
330
C
100
AcDbDictionary
281
     1
  3
Normal
350
F
100
AcDbDictionaryWithDefault
340
F
  0
DICTIONARY
  5
34
102
{ACAD_REACTORS
330
C
102
}
330
C
100
AcDbDictionary
  3
INDEXCTL
350
35
  3
SORTENTS
350
B5E
  0
DICTIONARY
  5
43
102
{ACAD_REACTORS
330
C
102
}
330
C
100
AcDbDictionary
  3
ACMSTDDICTIONARY
350
260
  0
DICTIONARY
  5
2B
102
{ACAD_REACTORS
330
C
102
}
330
C
100
AcDbDictionary
  3
ACMGSETTINGS
350
2C
  0
DICTIONARY
  5
6E
102
{ACAD_REACTORS
330
C
102
}
330
C
100
AcDbDictionary
  0
DICTIONARY
  5
151A
102
{ACAD_REACTORS
330
C
102
}
330
C
100
AcDbDictionary
  3
ASEBLOCKHIERARCHYINDEXRECORD
350
151C
1001
DCO15
1040
1471857299.937
  0
XRECORD
  5
162E
102
{ACAD_REACTORS
330
C
102
}
330
C
100
AcDbXrecord
  1
DWGPROPS COOKIE
  2

  3

  4

  6

  7

  8

  9

300
AmdtFileType=82
301
=
302
=
303
=
304
=
305
=
306
=
307
=
308
=
309
=
 40
0.0822026967592593
 41
2452838.430434386
 42
2453045.601729745
  1

 90
        1
  0
DICTIONARY
  5
163A
102
{ACAD_REACTORS
330
C
102
}
330
C
100
AcDbDictionary
  3
TSTACKALIGN
350
163B
  3
TSTACKSIZE
350
163C
  3
HYPERLINKBASE
350
163D
  3
STYLESHEET
350
163E
  3
LAYOUTDICT
350
163F
  3
PLOTSETDICT
350
1640
  3
PLOTSTYLNAMDICT
350
1641
  3
LWETCUNION
350
1642
  3
INSUNITS
350
1643
  3
CEPSNTYPE
350
1644
  3
FINGERPRINTGUID
350
1645
  3
VERSIONGUID
350
1646
  3
PSVPSCALE
350
1647
  3
DIMSTYLEDATA
350
1648
  3
PUCSORTHOREF
350
1649
  3
PUCSORTHOVIEW
350
164A
  3
PUCSBASE
350
164B
  3
PUCSORGTOP
350
164C
  3
PUCSORGBOTTOM
350
164D
  3
PUCSORGLEFT
350
164E
  3
PUCSORGRIGHT
350
164F
  3
PUCSORGFRONT
350
1650
  3
PUCSORGBACK
350
1651
  3
UCSORTHOREF
350
1652
  3
UCSORTHOVIEW
350
1653
  3
UCSBASE
350
1654
  3
UCSORGTOP
350
1655
  3
UCSORGBOTTOM
350
1656
  3
UCSORGLEFT
350
1657
  3
UCSORGRIGHT
350
1658
  3
UCSORGFRONT
350
1659
  3
UCSORGBACK
350
165A
  0
DICTIONARY
  5
1630
102
{ACAD_REACTORS
330
74
102
}
330
74
100
AcDbDictionary
  3
*A1
350
1631
  0
XRECORD
  5
165D
102
{ACAD_REACTORS
330
74
102
}
330
74
100
AcDbXrecord
340
1F
  0
XRECORD
  5
1663
102
{ACAD_REACTORS
330
1662
102
}
330
1662
100
AcDbXrecord
340
101
  0
MLINESTYLE
  5
18
102
{ACAD_REACTORS
330
17
102
}
330
17
100
AcDbMlineStyle
  2
STANDARD
 70
     0
  3

 62
   256
 51
90.0
 52
90.0
 71
     2
 49
0.5
 62
   256
  6
BYLAYER
 49
-0.5
 62
   256
  6
BYLAYER
  0
ACDBPLACEHOLDER
  5
F
102
{ACAD_REACTORS
330
E
102
}
330
E
100
AcDbPlaceHolder
280
     0
  0
DICTIONARYVAR
  5
35
102
{ACAD_REACTORS
330
34
102
}
330
34
100
DictionaryVariables
280
     0
  1
1
  0
DICTIONARYVAR
  5
B5E
102
{ACAD_REACTORS
330
34
102
}
330
34
100
DictionaryVariables
280
     0
  1
96
  0
DICTIONARY
  5
260
102
{ACAD_REACTORS
330
43
102
}
330
43
100
AcDbDictionary
  0
DICTIONARY
  5
2C
102
{ACAD_REACTORS
330
2B
102
}
330
2B
100
AcDbDictionary
  3
DWGSETTINGS
350
2D
  0
XRECORD
  5
151C
102
{ACAD_REACTORS
330
151A
102
}
330
151A
100
AcDbXrecord
330
14ED
330
14EE
330
14D9
330
14DA
330
14E4
330
14E5
330
14F8
330
14F9
  0
XRECORD
  5
163B
102
{ACAD_REACTORS
330
163A
102
}
330
163A
100
AcDbXrecord
 90
        1
  0
XRECORD
  5
163C
102
{ACAD_REACTORS
330
163A
102
}
330
163A
100
AcDbXrecord
 90
       70
  0
XRECORD
  5
163D
102
{ACAD_REACTORS
330
163A
102
}
330
163A
100
AcDbXrecord
  1

  0
XRECORD
  5
163E
102
{ACAD_REACTORS
330
163A
102
}
330
163A
100
AcDbXrecord
  1
ASAMI.ctb
  0
XRECORD
  5
163F
102
{ACAD_REACTORS
330
163A
102
}
330
163A
100
AcDbXrecord
340
1A
  0
XRECORD
  5
1640
102
{ACAD_REACTORS
330
163A
102
}
330
163A
100
AcDbXrecord
340
19
  0
XRECORD
  5
1641
102
{ACAD_REACTORS
330
163A
102
}
330
163A
100
AcDbXrecord
340
E
  0
XRECORD
  5
1642
102
{ACAD_REACTORS
330
163A
102
}
330
163A
100
AcDbXrecord
 90
    10781
  0
XRECORD
  5
1643
102
{ACAD_REACTORS
330
163A
102
}
330
163A
100
AcDbXrecord
 90
        4
  0
XRECORD
  5
1644
102
{ACAD_REACTORS
330
163A
102
}
330
163A
100
AcDbXrecord
 90
        0
  0
XRECORD
  5
1645
102
{ACAD_REACTORS
330
163A
102
}
330
163A
100
AcDbXrecord
  1
{AFB28963-8C59-40AE-9337-C84526B81ACE}
  0
XRECORD
  5
1646
102
{ACAD_REACTORS
330
163A
102
}
330
163A
100
AcDbXrecord
  1
{13936C3D-9278-4D31-AF8A-1FFEE1DF4FE4}
  0
XRECORD
  5
1647
102
{ACAD_REACTORS
330
163A
102
}
330
163A
100
AcDbXrecord
 40
0.0
  0
XRECORD
  5
1648
102
{ACAD_REACTORS
330
163A
102
}
330
163A
100
AcDbXrecord
1000
DSTYLE
1002
{
1070
    79
 70
     2
1070
   341
340
59
1070
   342
340
59
1070
   371
 70
    -1
1070
   372
 70
    -1
1002
}
  0
XRECORD
  5
1649
102
{ACAD_REACTORS
330
163A
102
}
330
163A
100
AcDbXrecord
340
0
  0
XRECORD
  5
164A
102
{ACAD_REACTORS
330
163A
102
}
330
163A
100
AcDbXrecord
 70
     0
  0
XRECORD
  5
164B
102
{ACAD_REACTORS
330
163A
102
}
330
163A
100
AcDbXrecord
340
0
  0
XRECORD
  5
164C
102
{ACAD_REACTORS
330
163A
102
}
330
163A
100
AcDbXrecord
 10
0.0
 20
0.0
 30
0.0
  0
XRECORD
  5
164D
102
{ACAD_REACTORS
330
163A
102
}
330
163A
100
AcDbXrecord
 10
0.0
 20
0.0
 30
0.0
  0
XRECORD
  5
164E
102
{ACAD_REACTORS
330
163A
102
}
330
163A
100
AcDbXrecord
 10
0.0
 20
0.0
 30
0.0
  0
XRECORD
  5
164F
102
{ACAD_REACTORS
330
163A
102
}
330
163A
100
AcDbXrecord
 10
0.0
 20
0.0
 30
0.0
  0
XRECORD
  5
1650
102
{ACAD_REACTORS
330
163A
102
}
330
163A
100
AcDbXrecord
 10
0.0
 20
0.0
 30
0.0
  0
XRECORD
  5
1651
102
{ACAD_REACTORS
330
163A
102
}
330
163A
100
AcDbXrecord
 10
0.0
 20
0.0
 30
0.0
  0
XRECORD
  5
1652
102
{ACAD_REACTORS
330
163A
102
}
330
163A
100
AcDbXrecord
340
0
  0
XRECORD
  5
1653
102
{ACAD_REACTORS
330
163A
102
}
330
163A
100
AcDbXrecord
 70
     0
  0
XRECORD
  5
1654
102
{ACAD_REACTORS
330
163A
102
}
330
163A
100
AcDbXrecord
340
0
  0
XRECORD
  5
1655
102
{ACAD_REACTORS
330
163A
102
}
330
163A
100
AcDbXrecord
 10
0.0
 20
0.0
 30
0.0
  0
XRECORD
  5
1656
102
{ACAD_REACTORS
330
163A
102
}
330
163A
100
AcDbXrecord
 10
0.0
 20
0.0
 30
0.0
  0
XRECORD
  5
1657
102
{ACAD_REACTORS
330
163A
102
}
330
163A
100
AcDbXrecord
 10
0.0
 20
0.0
 30
0.0
  0
XRECORD
  5
1658
102
{ACAD_REACTORS
330
163A
102
}
330
163A
100
AcDbXrecord
 10
0.0
 20
0.0
 30
0.0
  0
XRECORD
  5
1659
102
{ACAD_REACTORS
330
163A
102
}
330
163A
100
AcDbXrecord
 10
0.0
 20
0.0
 30
0.0
  0
XRECORD
  5
165A
102
{ACAD_REACTORS
330
163A
102
}
330
163A
100
AcDbXrecord
 10
0.0
 20
0.0
 30
0.0
  0
LAYER_INDEX
  5
1631
102
{ACAD_REACTORS
330
1630
102
}
330
1630
100
AcDbIndex
 40
2453151.814244606
100
AcDbLayerIndex
  8
0
360
1632
 90
        0
  8
AM_0
360
1633
 90
       37
  8
AM_11
360
1634
 90
        3
  8
AM_7
360
1635
 90
        1
  8
AM_5
360
1636
 90
        4
  8
Defpoints
360
1637
 90
        0
  8
AM_6
360
1638
 90
        1
  0
XRECORD
  5
2D
102
{ACAD_REACTORS
330
2C
102
}
330
2C
100
AcDbXrecord
  1
VERSION
140
15.0
  1
PRODUCT
  2
AutoCAD Mechanical 2000
  0
IDBUFFER
  5
1632
330
0
100
AcDbIdBuffer
  0
IDBUFFER
  5
1633
330
0
100
AcDbIdBuffer
330
C40
330
C46
330
C47
330
C48
330
C4A
330
C4B
330
C4C
330
C4D
330
C4E
330
C4F
330
C50
330
C51
330
C52
330
F6F
330
F72
330
F74
330
F75
330
1082
330
1089
330
108B
330
160D
330
C1D
330
C1F
330
C20
330
C22
330
C23
330
C25
330
C26
330
C27
330
C28
330
C29
330
C2C
330
C2D
330
C38
330
C39
330
C3C
330
C3D
  0
IDBUFFER
  5
1634
330
0
100
AcDbIdBuffer
330
C3E
330
C3F
330
C43
  0
IDBUFFER
  5
1635
330
0
100
AcDbIdBuffer
330
C2E
  0
IDBUFFER
  5
1636
330
0
100
AcDbIdBuffer
330
10F0
330
1180
330
122C
330
12D8
  0
IDBUFFER
  5
1637
330
0
100
AcDbIdBuffer
  0
IDBUFFER
  5
1638
330
0
100
AcDbIdBuffer
330
1500
  0
ENDSEC
  0
EOF
