  0
SECTION
  2
HEADER
  9
$ACADVER
  1
AC1014
  9
$ACADMAINTVER
 70
     9
  9
$DWGCODEPAGE
  3
ANSI_932
  9
$INSBASE
 10
0.0
 20
0.0
 30
0.0
  9
$EXTMIN
 10
-55.850001
 20
-27.25000100000002
 30
-0.00000001
  9
$EXTMAX
 10
9.551050680252135
 20
5.499999999999999
 30
0.00000001
  9
$LIMMIN
 10
-58.35645359251088
 20
-31.69916691153019
  9
$LIMMAX
 10
13.98975176278139
 20
14.33517475377579
  9
$ORTHOMODE
 70
     0
  9
$REGENMODE
 70
     1
  9
$FILLMODE
 70
     1
  9
$QTEXTMODE
 70
     0
  9
$MIRRTEXT
 70
     0
  9
$DRAGMODE
 70
     2
  9
$LTSCALE
 40
1.0
  9
$OSMODE
 70
    55
  9
$ATTMODE
 70
     1
  9
$TEXTSIZE
 40
2.5
  9
$TRACEWID
 40
1.0
  9
$TEXTSTYLE
  7
STANDARD
  9
$CLAYER
  8
AM_0
  9
$CELTYPE
  6
BYLAYER
  9
$CECOLOR
 62
   256
  9
$CELTSCALE
 40
1.0
  9
$DELOBJ
 70
     1
  9
$DISPSILH
 70
     0
  9
$DIMSCALE
 40
0.5
  9
$DIMASZ
 40
2.5
  9
$DIMEXO
 40
1.0
  9
$DIMDLI
 40
12.0
  9
$DIMRND
 40
0.0
  9
$DIMDLE
 40
0.0
  9
$DIMEXE
 40
1.0
  9
$DIMTP
 40
0.1
  9
$DIMTM
 40
0.1
  9
$DIMTXT
 40
3.2
  9
$DIMCEN
 40
0.0
  9
$DIMTSZ
 40
0.0
  9
$DIMTOL
 70
     0
  9
$DIMLIM
 70
     0
  9
$DIMTIH
 70
     0
  9
$DIMTOH
 70
     0
  9
$DIMSE1
 70
     0
  9
$DIMSE2
 70
     0
  9
$DIMTAD
 70
     3
  9
$DIMZIN
 70
     8
  9
$DIMBLK
  1
OPEN30
  9
$DIMASO
 70
     1
  9
$DIMSHO
 70
     1
  9
$DIMPOST
  1

  9
$DIMAPOST
  1
"
  9
$DIMALT
 70
     0
  9
$DIMALTD
 70
     2
  9
$DIMALTF
 40
0.0393701
  9
$DIMLFAC
 40
1.0
  9
$DIMTOFL
 70
     1
  9
$DIMTVP
 40
0.0
  9
$DIMTIX
 70
     0
  9
$DIMSOXD
 70
     0
  9
$DIMSAH
 70
     0
  9
$DIMBLK1
  1

  9
$DIMBLK2
  1

  9
$DIMSTYLE
  2
AM_JIS
  9
$DIMCLRD
 70
   256
  9
$DIMCLRE
 70
   256
  9
$DIMCLRT
 70
     2
  9
$DIMTFAC
 40
0.71
  9
$DIMGAP
 40
1.5
  9
$DIMJUST
 70
     0
  9
$DIMSD1
 70
     0
  9
$DIMSD2
 70
     0
  9
$DIMTOLJ
 70
     0
  9
$DIMTZIN
 70
     0
  9
$DIMALTZ
 70
     0
  9
$DIMALTTZ
 70
     0
  9
$DIMFIT
 70
     3
  9
$DIMUPT
 70
     0
  9
$DIMUNIT
 70
     2
  9
$DIMDEC
 70
     3
  9
$DIMTDEC
 70
     3
  9
$DIMALTU
 70
     2
  9
$DIMALTTD
 70
     2
  9
$DIMTXSTY
  7
ASAMI
  9
$DIMAUNIT
 70
     0
  9
$LUNITS
 70
     2
  9
$LUPREC
 70
     2
  9
$SKETCHINC
 40
1.0
  9
$FILLETRAD
 40
2.5
  9
$AUNITS
 70
     0
  9
$AUPREC
 70
     0
  9
$MENU
  1
.
  9
$ELEVATION
 40
0.0
  9
$PELEVATION
 40
0.0
  9
$THICKNESS
 40
0.0
  9
$LIMCHECK
 70
     0
  9
$BLIPMODE
 70
     0
  9
$CHAMFERA
 40
0.5
  9
$CHAMFERB
 40
0.5
  9
$CHAMFERC
 40
20.0
  9
$CHAMFERD
 40
0.0
  9
$SKPOLY
 70
     0
  9
$TDCREATE
 40
2452838.430434386
  9
$TDUPDATE
 40
2453151.821553102
  9
$TDINDWG
 40
0.1994269560
  9
$TDUSRTIMER
 40
0.1994269560
  9
$USRTIMER
 70
     1
  9
$ANGBASE
 50
0.0
  9
$ANGDIR
 70
     0
  9
$PDMODE
 70
     0
  9
$PDSIZE
 40
0.0
  9
$PLINEWID
 40
0.0
  9
$COORDS
 70
     1
  9
$SPLFRAME
 70
     0
  9
$SPLINETYPE
 70
     6
  9
$SPLINESEGS
 70
     8
  9
$ATTDIA
 70
     1
  9
$ATTREQ
 70
     1
  9
$HANDLING
 70
 12289
  9
$HANDSEED
  5
45C6
  9
$SURFTAB1
 70
     6
  9
$SURFTAB2
 70
     6
  9
$SURFTYPE
 70
     6
  9
$SURFU
 70
     6
  9
$SURFV
 70
     6
  9
$UCSNAME
  2

  9
$UCSORG
 10
0.0
 20
0.0
 30
0.0
  9
$UCSXDIR
 10
1.0
 20
0.0
 30
0.0
  9
$UCSYDIR
 10
0.0
 20
1.0
 30
0.0
  9
$PUCSNAME
  2

  9
$PUCSORG
 10
0.0
 20
0.0
 30
0.0
  9
$PUCSXDIR
 10
1.0
 20
0.0
 30
0.0
  9
$PUCSYDIR
 10
0.0
 20
1.0
 30
0.0
  9
$USERI1
 70
     0
  9
$USERI2
 70
     0
  9
$USERI3
 70
     0
  9
$USERI4
 70
     0
  9
$USERI5
 70
     0
  9
$USERR1
 40
0.0
  9
$USERR2
 40
0.0
  9
$USERR3
 40
0.0
  9
$USERR4
 40
0.0
  9
$USERR5
 40
0.0
  9
$WORLDVIEW
 70
     1
  9
$SHADEDGE
 70
     3
  9
$SHADEDIF
 70
    70
  9
$TILEMODE
 70
     1
  9
$MAXACTVP
 70
    64
  9
$PINSBASE
 10
0.0
 20
0.0
 30
0.0
  9
$PLIMCHECK
 70
     0
  9
$PEXTMIN
 10
1.000000000000000E+20
 20
1.000000000000000E+20
 30
1.000000000000000E+20
  9
$PEXTMAX
 10
-1.000000000000000E+20
 20
-1.000000000000000E+20
 30
-1.000000000000000E+20
  9
$PLIMMIN
 10
0.0
 20
0.0
  9
$PLIMMAX
 10
841.0
 20
594.0
  9
$UNITMODE
 70
     0
  9
$VISRETAIN
 70
     1
  9
$PLINEGEN
 70
     0
  9
$PSLTSCALE
 70
     0
  9
$TREEDEPTH
 70
  3020
  9
$PICKSTYLE
 70
     0
  9
$CMLSTYLE
  2
STANDARD
  9
$CMLJUST
 70
     0
  9
$CMLSCALE
 40
20.0
  9
$PROXYGRAPHICS
 70
     1
  9
$MEASUREMENT
 70
     1
  0
ENDSEC
  0
SECTION
  2
CLASSES
  0
CLASS
  1
ACDBDICTIONARYWDFLT
  2
AcDbDictionaryWithDefault
  3
AutoCAD 2000
 90
        0
280
     0
281
     0
  0
CLASS
  1
ACDBPLACEHOLDER
  2
AcDbPlaceHolder
  3
AutoCAD 2000
 90
        0
280
     0
281
     0
  0
CLASS
  1
LAYOUT
  2
AcDbLayout
  3
AutoCAD 2000
 90
        0
280
     0
281
     0
  0
CLASS
  1
AMGSETTINGSOBJ
  2
AmgSettingsObj
  3
"AcadM|Product Description: AutoCAD Mechanical 2000|Company: Autodesk"
 90
        0
280
     0
281
     0
  0
CLASS
  1
ACME_DOCUMENT
  2
AcMeDbDoc
  3
AcMeServices
 90
        0
280
     0
281
     0
  0
CLASS
  1
ACMESCOPE
  2
AcMeScope
  3
AcMeServices
 90
        0
280
     0
281
     0
  0
CLASS
  1
ACMECOMMANDHISTORY
  2
AcMeCommandHistory
  3
AcMeServices
 90
        0
280
     0
281
     0
  0
CLASS
  1
DICTIONARYVAR
  2
AcDbDictionaryVar
  3
AutoCAD 2000
 90
        0
280
     0
281
     0
  0
CLASS
  1
ACIMSYSVARMAN
  2
AcImSysVarManager
  3
AcMeServices
 90
        0
280
     0
281
     0
  0
CLASS
  1
ACIMREALSYSVAR
  2
AcImRealSysVar
  3
AcMeServices
 90
        0
280
     0
281
     0
  0
CLASS
  1
ACIMINTSYSVAR
  2
AcImIntSysVar
  3
AcMeServices
 90
        0
280
     0
281
     0
  0
CLASS
  1
ACMEDRAWINGMAN
  2
AcMeDrawingMan
  3
AcMeServices
 90
        0
280
     0
281
     0
  0
CLASS
  1
ACMEVIEW
  2
AcMeView
  3
AcMeServices
 90
        0
280
     0
281
     0
  0
CLASS
  1
ACDBENTITYCACHE
  2
AcMeEntityCache
  3
AcMeServices
 90
        0
280
     0
281
     0
  0
CLASS
  1
GSMANAGER
  2
AcMeGSManager
  3
AcMeServices
 90
        0
280
     0
281
     0
  0
CLASS
  1
AmdtInternalReactor
  2
AmdtInternalReactor
  3
AcMeServices
 90
        0
280
     0
281
     0
  0
CLASS
  1
ACMESTATEMGR
  2
AcMeStateMgr
  3
AcMeServices
 90
        0
280
     0
281
     0
  0
CLASS
  1
ACME_DATABASE
  2
AcMeDbDatabase
  3
AcMeServices
 90
        0
280
     0
281
     0
  0
CLASS
  1
ACRFINSADJUSTERMGR
  2
AcRfInsAdjusterMgr
  3
AcMeServices
 90
        0
280
     0
281
     0
  0
CLASS
  1
ACMDATADICTIONARY
  2
AcmDataDictionary
  3
"AcmSymBB|Product Description: AutoCAD Mechanical 2000|Company: Autodesk"
 90
        0
280
     0
281
     0
  0
CLASS
  1
ACMDATAENTRYBLOCK
  2
AcmDataEntryBlock
  3
"AcmSymBB|Product Description: AutoCAD Mechanical 2000|Company: Autodesk"
 90
        0
280
     0
281
     0
  0
CLASS
  1
AMGOBJPROPCFG
  2
AmgObjPropCfg
  3
"AmgLay|Product Description: AutoCAD Mechanical 2000|Company: Autodesk"
 90
        1
280
     0
281
     0
  0
CLASS
  1
ACAMGFILTERDAT
  2
AcAmgFilterDat
  3
"AcadM|Product Description: AutoCAD Mechanical 2000|Company: Autodesk"
 90
        0
280
     0
281
     0
  0
CLASS
  1
LAYER_INDEX
  2
AcDbLayerIndex
  3
AutoCAD 2000
 90
        0
280
     0
281
     0
  0
CLASS
  1
IDBUFFER
  2
AcDbIdBuffer
  3
AutoCAD 2000
 90
        0
280
     0
281
     0
  0
CLASS
  1
ACIMSTRSYSVAR
  2
AcImStrSysVar
  3
AcMeServices
 90
        0
280
     0
281
     0
  0
CLASS
  1
ACMSTANDARDJIS
  2
AcmStandardJIS
  3
"AcmSymBB|Product Description: AutoCAD Mechanical 2000|Company: Autodesk"
 90
        0
280
     0
281
     0
  0
CLASS
  1
ACMSURFSTANDARDJIS
  2
AcmSurfTextStdJIS
  3
"AcmSymBB|Product Description: AutoCAD Mechanical 2000|Company: Autodesk"
 90
        0
280
     0
281
     0
  0
CLASS
  1
ACMFCFSTANDARDJIS
  2
AcmFCFStdJIS
  3
"AcmSymBB|Product Description: AutoCAD Mechanical 2000|Company: Autodesk"
 90
        0
280
     0
281
     0
  0
CLASS
  1
ACMWELDSTANDARDJIS
  2
AcmWeldingStdJIS
  3
"AcmSymBB|Product Description: AutoCAD Mechanical 2000|Company: Autodesk"
 90
        0
280
     0
281
     0
  0
CLASS
  1
ACMIDSTANDARDJIS
  2
AcmIdStdJIS
  3
"AcmSymBB|Product Description: AutoCAD Mechanical 2000|Company: Autodesk"
 90
        0
280
     0
281
     0
  0
CLASS
  1
ACMDATUMSTANDARDJIS
  2
AcmDatumStdJIS
  3
"AcmSymBB|Product Description: AutoCAD Mechanical 2000|Company: Autodesk"
 90
        0
280
     0
281
     0
  0
CLASS
  1
ACMBOMSTANDARDJIS
  2
AcmBOMStdJIS
  3
"AcmSymBB|Product Description: AutoCAD Mechanical 2000|Company: Autodesk"
 90
        0
280
     0
281
     0
  0
CLASS
  1
ACMSTANDARDANSI
  2
AcmStandardANSI
  3
"AcmSymBB|Product Description: AutoCAD Mechanical 2000|Company: Autodesk"
 90
        0
280
     0
281
     0
  0
CLASS
  1
ACMSURFSTANDARDANSI
  2
AcmSurfTextStdANSI
  3
"AcmSymBB|Product Description: AutoCAD Mechanical 2000|Company: Autodesk"
 90
        0
280
     0
281
     0
  0
CLASS
  1
ACMFCFSTANDARDANSI
  2
AcmFCFStdANSI
  3
"AcmSymBB|Product Description: AutoCAD Mechanical 2000|Company: Autodesk"
 90
        0
280
     0
281
     0
  0
CLASS
  1
ACMWELDSTANDARDANSI
  2
AcmWeldingStdANSI
  3
"AcmSymBB|Product Description: AutoCAD Mechanical 2000|Company: Autodesk"
 90
        0
280
     0
281
     0
  0
CLASS
  1
ACMIDSTANDARDANSI
  2
AcmIdStdANSI
  3
"AcmSymBB|Product Description: AutoCAD Mechanical 2000|Company: Autodesk"
 90
        0
280
     0
281
     0
  0
CLASS
  1
ACMDATUMSTANDARDANSI
  2
AcmDatumStdANSI
  3
"AcmSymBB|Product Description: AutoCAD Mechanical 2000|Company: Autodesk"
 90
        0
280
     0
281
     0
  0
CLASS
  1
ACMBOMSTANDARDANSI
  2
AcmBOMStdANSI
  3
"AcmSymBB|Product Description: AutoCAD Mechanical 2000|Company: Autodesk"
 90
        0
280
     0
281
     0
  0
CLASS
  1
ACMSTANDARDBSI
  2
AcmStandardBSI
  3
"AcmSymBB|Product Description: AutoCAD Mechanical 2000|Company: Autodesk"
 90
        0
280
     0
281
     0
  0
CLASS
  1
ACMSURFSTANDARDBSI
  2
AcmSurfTextStdBSI
  3
"AcmSymBB|Product Description: AutoCAD Mechanical 2000|Company: Autodesk"
 90
        0
280
     0
281
     0
  0
CLASS
  1
ACMFCFSTANDARDBSI
  2
AcmFCFStdBSI
  3
"AcmSymBB|Product Description: AutoCAD Mechanical 2000|Company: Autodesk"
 90
        0
280
     0
281
     0
  0
CLASS
  1
ACMWELDSTANDARDBSI
  2
AcmWeldingStdBSI
  3
"AcmSymBB|Product Description: AutoCAD Mechanical 2000|Company: Autodesk"
 90
        0
280
     0
281
     0
  0
CLASS
  1
ACMIDSTANDARDBSI
  2
AcmIdStdBSI
  3
"AcmSymBB|Product Description: AutoCAD Mechanical 2000|Company: Autodesk"
 90
        0
280
     0
281
     0
  0
CLASS
  1
ACMDATUMSTANDARDBSI
  2
AcmDatumStdBSI
  3
"AcmSymBB|Product Description: AutoCAD Mechanical 2000|Company: Autodesk"
 90
        0
280
     0
281
     0
  0
CLASS
  1
ACMBOMSTANDARDBSI
  2
AcmBOMStdBSI
  3
"AcmSymBB|Product Description: AutoCAD Mechanical 2000|Company: Autodesk"
 90
        0
280
     0
281
     0
  0
CLASS
  1
LONG_TRANSACTION
  2
AcDbLongTransaction
  3
AutoCAD 2000
 90
        0
280
     0
281
     0
  0
CLASS
  1
LWPOLYLINE
  2
AcDbPolyline
  3
AutoCAD 2000
 90
        0
280
     0
281
     1
  0
CLASS
  1
HATCH
  2
AcDbHatch
  3
AutoCAD 2000
 90
        0
280
     0
281
     1
  0
CLASS
  1
XRECORD
  2
AcDbXrecord
  3
AutoCAD 2000
 90
        0
280
     0
281
     0
  0
ENDSEC
  0
SECTION
  2
TABLES
  0
TABLE
  2
VPORT
  5
8
330
0
100
AcDbSymbolTable
 70
     3
  0
VPORT
  5
459B
330
8
100
AcDbSymbolTableRecord
100
AcDbViewportTableRecord
  2
*ACTIVE
 70
     0
 10
0.0
 20
0.0
 11
1.0
 21
1.0
 12
-5.217331545612196
 22
-6.119469636782433
 13
0.0
 23
0.0
 14
2.5
 24
2.5
 15
10.0
 25
10.0
 16
0.0
 26
0.0
 36
1.0
 17
0.0
 27
0.0
 37
0.0
 40
75.75289320754915
 41
1.56570841889117
 42
50.0
 43
0.0
 44
0.0
 50
0.0
 51
0.0
 71
     0
 72
   100
 73
     1
 74
     3
 75
     0
 76
     0
 77
     0
 78
     0
  0
ENDTAB
  0
TABLE
  2
LTYPE
  5
5
330
0
100
AcDbSymbolTable
 70
    10
  0
LTYPE
  5
14
330
5
100
AcDbSymbolTableRecord
100
AcDbLinetypeTableRecord
  2
BYBLOCK
 70
     0
  3

 72
    65
 73
     0
 40
0.0
  0
LTYPE
  5
15
330
5
100
AcDbSymbolTableRecord
100
AcDbLinetypeTableRecord
  2
BYLAYER
 70
     0
  3

 72
    65
 73
     0
 40
0.0
  0
LTYPE
  5
16
330
5
100
AcDbSymbolTableRecord
100
AcDbLinetypeTableRecord
  2
CONTINUOUS
 70
     0
  3
Solid line
 72
    65
 73
     0
 40
0.0
  0
LTYPE
  5
4B
330
5
100
AcDbSymbolTableRecord
100
AcDbLinetypeTableRecord
  2
AM_ISO02W050
 70
     0
  3
__ __ __ __ __ __ __ __ __ __ __ __ __ __ __
 72
    65
 73
     2
 40
7.5
 49
6.0
 74
     0
 49
-1.5
 74
     0
  0
LTYPE
  5
4C
330
5
100
AcDbSymbolTableRecord
100
AcDbLinetypeTableRecord
  2
AM_ISO08W050
 70
     0
  3
____ . ____ . ____ . ____ . ____ . ____ . ____
 72
    65
 73
     4
 40
18.0
 49
12.0
 74
     0
 49
-1.5
 74
     0
 49
3.0
 74
     0
 49
-1.5
 74
     0
  0
LTYPE
  5
4D
330
5
100
AcDbSymbolTableRecord
100
AcDbLinetypeTableRecord
  2
AM_ISO09W050
 70
     0
  3
_____ . . _____ . . _____ . . ____ .. ____
 72
    65
 73
     6
 40
22.5
 49
12.0
 74
     0
 49
-1.5
 74
     0
 49
3.0
 74
     0
 49
-1.5
 74
     0
 49
3.0
 74
     0
 49
-1.5
 74
     0
  0
LTYPE
  5
4E
330
5
100
AcDbSymbolTableRecord
100
AcDbLinetypeTableRecord
  2
AMCONSTR
 70
     0
  3
_______________________
 72
    65
 73
     2
 40
9999.0
 49
9999.0
 74
     0
 49
0.0
 74
     0
  0
LTYPE
  5
4F
330
5
100
AcDbSymbolTableRecord
100
AcDbLinetypeTableRecord
  2
AM_ISO02W050X2
 70
     0
  3
 _ _ _ _ _ _ _ _ _ _ _ _
 72
    65
 73
     2
 40
3.75
 49
3.0
 74
     0
 49
-0.75
 74
     0
  0
LTYPE
  5
50
330
5
100
AcDbSymbolTableRecord
100
AcDbLinetypeTableRecord
  2
AM_ISO08W050X2
 70
     0
  3
__ . __ . __ . __ . __ . __
 72
    65
 73
     4
 40
9.0
 49
6.0
 74
     0
 49
-0.75
 74
     0
 49
1.5
 74
     0
 49
-0.75
 74
     0
  0
LTYPE
  5
53
330
5
100
AcDbSymbolTableRecord
100
AcDbLinetypeTableRecord
  2
AMZIGZAG
 70
     0
  3
/\/-/\/-/\/-/\/-/\/-/\/
 72
    65
 73
     2
 40
11.00009999999999
 49
0.0001
 74
     4
 75
   135
340
52
 46
0.04
 50
0.0
 44
0.0
 45
0.0
 49
-11.0
 74
     0
  0
LTYPE
  5
166
330
5
100
AcDbSymbolTableRecord
100
AcDbLinetypeTableRecord
  2
ACJISTGL
 70
     0
  3
_ _ _ _ _
 72
    65
 73
     2
 40
3.0
 49
2.0
 74
     0
 49
-1.0
 74
     0
  0
LTYPE
  5
26A
330
5
100
AcDbSymbolTableRecord
100
AcDbLinetypeTableRecord
  2
ACJISTGB
 70
     0
  3
__ . . __ . .
 72
    65
 73
     6
 40
9.0
 49
4.0
 74
     0
 49
-1.0
 74
     0
 49
1.0
 74
     0
 49
-1.0
 74
     0
 49
1.0
 74
     0
 49
-1.0
 74
     0
  0
ENDTAB
  0
TABLE
  2
LAYER
  5
2
330
0
100
AcDbSymbolTable
 70
     7
  0
LAYER
  5
10
330
2
100
AcDbSymbolTableRecord
100
AcDbLayerTableRecord
  2
0
 70
     0
 62
     7
  6
CONTINUOUS
  0
LAYER
  5
3F9
330
2
100
AcDbSymbolTableRecord
100
AcDbLayerTableRecord
  2
AM_0
 70
     0
 62
     7
  6
CONTINUOUS
  0
LAYER
  5
BDD
330
2
100
AcDbSymbolTableRecord
100
AcDbLayerTableRecord
  2
AM_11
 70
     0
 62
     3
  6
AM_ISO09W050
  0
LAYER
  5
BDE
330
2
100
AcDbSymbolTableRecord
100
AcDbLayerTableRecord
  2
AM_7
 70
     0
 62
     4
  6
AM_ISO08W050
  0
LAYER
  5
BDF
330
2
100
AcDbSymbolTableRecord
100
AcDbLayerTableRecord
  2
AM_5
 70
     0
 62
     3
  6
CONTINUOUS
  0
LAYER
  5
BE0
330
2
100
AcDbSymbolTableRecord
100
AcDbLayerTableRecord
  2
DEFPOINTS
 70
     0
 62
     7
  6
CONTINUOUS
  0
LAYER
  5
14FF
330
2
100
AcDbSymbolTableRecord
100
AcDbLayerTableRecord
  2
AM_6
 70
     0
 62
     2
  6
CONTINUOUS
  0
ENDTAB
  0
TABLE
  2
STYLE
  5
3
330
0
100
AcDbSymbolTable
 70
     5
  0
STYLE
  5
11
330
3
100
AcDbSymbolTableRecord
100
AcDbTextStyleTableRecord
  2
STANDARD
 70
     0
 40
0.0
 41
1.0
 50
0.0
 71
     0
 42
2.5
  3
simplex.shx
  4
EXTFONT.SHX
  0
STYLE
  5
52
330
3
100
AcDbSymbolTableRecord
100
AcDbTextStyleTableRecord
  2

 70
     1
 40
0.0
 41
1.0
 50
0.0
 71
     0
 42
2.5
  3
ltypeshp.shx
  4

  0
STYLE
  5
6B
330
3
100
AcDbSymbolTableRecord
100
AcDbTextStyleTableRecord
  2
ASAMI
 70
     0
 40
0.0
 41
1.0
 50
0.0
 71
     0
 42
2.5
  3
simplex.shx
  4
EXTFONT.SHX
  0
STYLE
  5
262
330
3
100
AcDbSymbolTableRecord
100
AcDbTextStyleTableRecord
  2
ACJISTS
 70
     0
 40
1.0
 41
1.0
 50
0.0
 71
     0
 42
2.5
  3
simplex.shx
  4
bigfont.shx
  0
STYLE
  5
269
330
3
100
AcDbSymbolTableRecord
100
AcDbTextStyleTableRecord
  2
ACJISGDT
 70
     0
 40
0.0
 41
1.0
 50
0.0
 71
     0
 42
2.5
  3
amgdtans.shx
  4

  0
ENDTAB
  0
TABLE
  2
VIEW
  5
6
330
0
100
AcDbSymbolTable
 70
     0
  0
ENDTAB
  0
TABLE
  2
UCS
  5
7
330
0
100
AcDbSymbolTable
 70
     0
  0
ENDTAB
  0
TABLE
  2
APPID
  5
9
330
0
100
AcDbSymbolTable
 70
    13
  0
APPID
  5
12
330
9
100
AcDbSymbolTableRecord
100
AcDbRegAppTableRecord
  2
ACAD
 70
     0
  0
APPID
  5
30
330
9
100
AcDbSymbolTableRecord
100
AcDbRegAppTableRecord
  2
MCAD_NO_VIS
 70
     0
  0
APPID
  5
31
330
9
100
AcDbSymbolTableRecord
100
AcDbRegAppTableRecord
  2
ACAD_TEMP_GRAPHIC
 70
     0
  0
APPID
  5
2C2
330
9
100
AcDbSymbolTableRecord
100
AcDbRegAppTableRecord
  2
GENIUS_GENDTOL_13
 70
     0
  0
APPID
  5
339
330
9
100
AcDbSymbolTableRecord
100
AcDbRegAppTableRecord
  2
GENIUS_GENODEF_13
 70
     0
  0
APPID
  5
33A
330
9
100
AcDbSymbolTableRecord
100
AcDbRegAppTableRecord
  2
GENIUS_GENOBJ-N-RSBK_13
 70
     0
  0
APPID
  5
33B
330
9
100
AcDbSymbolTableRecord
100
AcDbRegAppTableRecord
  2
GENIUS_GENOBJ-N-LIB_13
 70
     0
  0
APPID
  5
33C
330
9
100
AcDbSymbolTableRecord
100
AcDbRegAppTableRecord
  2
GENIUS_GENSCALE_13
 70
     0
  0
APPID
  5
378
330
9
100
AcDbSymbolTableRecord
100
AcDbRegAppTableRecord
  2
GENIUS_GENDIMSH_14
 70
     0
  0
APPID
  5
BE1
330
9
100
AcDbSymbolTableRecord
100
AcDbRegAppTableRecord
  2
GENIUS_GENFIL_13
 70
     0
  0
APPID
  5
BE2
330
9
100
AcDbSymbolTableRecord
100
AcDbRegAppTableRecord
  2
GENIUS_GENOBJ-N-CHA_13
 70
     0
  0
APPID
  5
151B
330
9
100
AcDbSymbolTableRecord
100
AcDbRegAppTableRecord
  2
DCO15
 70
     0
  0
APPID
  5
1860
330
9
100
AcDbSymbolTableRecord
100
AcDbRegAppTableRecord
  2
GENIUS_GENOBJ-N-CEN_13
 70
     0
  0
ENDTAB
  0
TABLE
  2
DIMSTYLE
  5
A
330
0
100
AcDbSymbolTable
 70
     8
  0
DIMSTYLE
105
58
102
{ACAD_REACTORS
330
10F0
330
12D8
330
1A73
330
437C
102
}
330
A
100
AcDbSymbolTableRecord
100
AcDbDimStyleTableRecord
  2
AM_JIS
 70
     0
  3

  4
"
  5
OPEN30
  6

  7

 40
0.5
 41
2.5
 42
1.0
 43
12.0
 44
1.0
 45
0.0
 46
0.0
 47
0.1
 48
0.1
140
3.2
141
0.0
142
0.0
143
0.0393701
144
1.0
145
0.0
146
0.71
147
1.5
 71
     0
 72
     0
 73
     0
 74
     0
 75
     0
 76
     0
 77
     3
 78
     8
170
     0
171
     2
172
     1
173
     0
174
     0
175
     0
176
   256
177
   256
178
     2
270
     2
271
     3
272
     3
273
     2
274
     2
340
6B
275
     0
280
     0
281
     0
282
     0
283
     0
284
     0
285
     0
286
     0
287
     3
288
     0
  0
DIMSTYLE
105
5F
330
A
100
AcDbSymbolTableRecord
100
AcDbDimStyleTableRecord
  2
AM_JIS$3
 70
     0
  3

  4
"
  5
OPEN30
  6

  7

 40
0.5
 41
2.5
 42
1.0
 43
10.0
 44
1.0
 45
0.0
 46
0.0
 47
0.1
 48
0.1
140
3.2
141
0.0
142
0.0
143
0.0393701
144
1.0
145
0.0
146
0.71
147
1.5
 71
     0
 72
     0
 73
     0
 74
     1
 75
     0
 76
     0
 77
     3
 78
     8
170
     0
171
     2
172
     0
173
     0
174
     0
175
     0
176
   256
177
   256
178
     2
270
     2
271
     2
272
     3
273
     2
274
     2
340
6B
275
     0
280
     0
281
     0
282
     0
283
     0
284
     0
285
     0
286
     0
287
     0
288
     1
  0
DIMSTYLE
105
60
330
A
100
AcDbSymbolTableRecord
100
AcDbDimStyleTableRecord
  2
AM_JIS$4
 70
     0
  3

  4
"
  5
OPEN30
  6

  7

 40
0.5
 41
2.5
 42
1.0
 43
10.0
 44
1.0
 45
0.0
 46
0.0
 47
0.1
 48
0.1
140
3.2
141
0.0
142
0.0
143
0.0393701
144
1.0
145
0.0
146
0.71
147
1.5
 71
     0
 72
     0
 73
     0
 74
     1
 75
     0
 76
     0
 77
     3
 78
     8
170
     0
171
     2
172
     0
173
     0
174
     0
175
     0
176
   256
177
   256
178
     2
270
     2
271
     2
272
     3
273
     2
274
     2
340
6B
275
     0
280
     0
281
     0
282
     0
283
     0
284
     0
285
     0
286
     0
287
     0
288
     1
  0
DIMSTYLE
105
61
330
A
100
AcDbSymbolTableRecord
100
AcDbDimStyleTableRecord
  2
AM_JIS$6
 70
     0
  3

  4
"
  5
OPEN30
  6

  7

 40
0.5
 41
2.5
 42
1.0
 43
10.0
 44
1.0
 45
0.0
 46
0.0
 47
0.1
 48
0.1
140
3.2
141
0.0
142
0.0
143
0.0393701
144
1.0
145
0.0
146
0.71
147
1.5
 71
     0
 72
     0
 73
     0
 74
     0
 75
     0
 76
     0
 77
     0
 78
     8
170
     0
171
     2
172
     1
173
     0
174
     0
175
     0
176
   256
177
   256
178
     2
270
     2
271
     2
272
     2
273
     2
274
     2
340
6B
275
     0
280
     0
281
     0
282
     0
283
     0
284
     0
285
     0
286
     0
287
     3
288
     0
  0
DIMSTYLE
105
62
330
A
100
AcDbSymbolTableRecord
100
AcDbDimStyleTableRecord
  2
AM_JIS$7
 70
     0
  3

  4
"
  5
OPEN30
  6

  7

 40
0.5
 41
2.5
 42
1.0
 43
10.0
 44
1.0
 45
0.0
 46
0.0
 47
0.1
 48
0.1
140
3.2
141
0.0
142
0.0
143
0.0393701
144
1.0
145
0.0
146
0.71
147
1.5
 71
     0
 72
     0
 73
     0
 74
     0
 75
     0
 76
     0
 77
     3
 78
     8
170
     0
171
     2
172
     1
173
     0
174
     0
175
     0
176
   256
177
   256
178
     2
270
     2
271
     2
272
     3
273
     2
274
     2
340
6B
275
     0
280
     0
281
     0
282
     0
283
     0
284
     0
285
     0
286
     0
287
     3
288
     0
  0
DIMSTYLE
105
63
330
A
100
AcDbSymbolTableRecord
100
AcDbDimStyleTableRecord
  2
AM_JIS$SF
 70
     0
  3

  4
"
  5
OPEN30
  6

  7

 40
0.5
 41
2.5
 42
1.0
 43
10.0
 44
1.0
 45
0.0
 46
0.0
 47
0.1
 48
0.1
140
3.2
141
0.0
142
0.0
143
0.0393701
144
1.0
145
0.0
146
0.71
147
1.5
 71
     0
 72
     0
 73
     0
 74
     0
 75
     1
 76
     1
 77
     3
 78
     8
170
     0
171
     2
172
     1
173
     0
174
     0
175
     0
176
   256
177
   256
178
     2
270
     2
271
     2
272
     2
273
     2
274
     2
340
6B
275
     0
280
     0
281
     0
282
     0
283
     0
284
     0
285
     0
286
     0
287
     3
288
     0
  0
DIMSTYLE
105
68
330
A
100
AcDbSymbolTableRecord
100
AcDbDimStyleTableRecord
  2
AM_JIS$SH
 70
     0
  3

  4
"
  5

  6
GENAXEH
  7
OPEN30
 40
0.5
 41
2.5
 42
1.0
 43
10.0
 44
1.0
 45
0.0
 46
0.0
 47
0.1
 48
0.1
140
3.2
141
0.0
142
0.0
143
0.0393701
144
2.0
145
0.0
146
0.71
147
1.5
 71
     0
 72
     0
 73
     0
 74
     0
 75
     1
 76
     1
 77
     3
 78
     8
170
     0
171
     2
172
     1
173
     1
174
     0
175
     0
176
   256
177
   256
178
     2
270
     2
271
     2
272
     2
273
     2
274
     2
340
6B
275
     0
280
     0
281
     0
282
     0
283
     0
284
     0
285
     0
286
     0
287
     3
288
     0
  0
DIMSTYLE
105
B34
330
A
100
AcDbSymbolTableRecord
100
AcDbDimStyleTableRecord
  2
AM_JIS$2
 70
     0
  3

  4
"
  5
OPEN30
  6

  7

 40
0.5
 41
2.5
 42
1.0
 43
12.0
 44
1.0
 45
0.0
 46
0.0
 47
0.1
 48
0.1
140
3.2
141
0.0
142
0.0
143
0.0393701
144
1.0
145
0.0
146
0.71
147
1.5
 71
     0
 72
     0
 73
     0
 74
     0
 75
     0
 76
     0
 77
     3
 78
     8
170
     0
171
     2
172
     1
173
     0
174
     0
175
     0
176
   256
177
   256
178
     2
270
     2
271
     3
272
     3
273
     2
274
     2
340
6B
275
     0
280
     0
281
     0
282
     0
283
     0
284
     0
285
     0
286
     0
287
     3
288
     0
  0
ENDTAB
  0
TABLE
  2
BLOCK_RECORD
  5
1
330
0
100
AcDbSymbolTable
 70
     9
  0
BLOCK_RECORD
  5
1F
102
{ACAD_XDICTIONARY
360
74
102
}
330
1
100
AcDbSymbolTableRecord
100
AcDbBlockTableRecord
  2
*MODEL_SPACE
  0
BLOCK_RECORD
  5
101
102
{ACAD_XDICTIONARY
360
45C4
102
}
330
1
100
AcDbSymbolTableRecord
100
AcDbBlockTableRecord
  2
*PAPER_SPACE
  0
BLOCK_RECORD
  5
59
330
1
100
AcDbSymbolTableRecord
100
AcDbBlockTableRecord
  2
_OPEN30
  0
BLOCK_RECORD
  5
64
330
1
100
AcDbSymbolTableRecord
100
AcDbBlockTableRecord
  2
GENAXEH
  0
BLOCK_RECORD
  5
10F1
330
1
100
AcDbSymbolTableRecord
100
AcDbBlockTableRecord
  2
*D5
  0
BLOCK_RECORD
  5
12D9
330
1
100
AcDbSymbolTableRecord
100
AcDbBlockTableRecord
  2
*D6
  0
BLOCK_RECORD
  5
1A74
330
1
100
AcDbSymbolTableRecord
100
AcDbBlockTableRecord
  2
*D7
  0
BLOCK_RECORD
  5
437D
330
1
100
AcDbSymbolTableRecord
100
AcDbBlockTableRecord
  2
*D8
  0
ENDTAB
  0
ENDSEC
  0
SECTION
  2
BLOCKS
  0
BLOCK
  5
20
330
1F
100
AcDbEntity
  8
0
100
AcDbBlockBegin
  2
*MODEL_SPACE
 70
     0
 10
0.0
 20
0.0
 30
0.0
  3
*MODEL_SPACE
  1

  0
ENDBLK
  5
21
330
1F
100
AcDbEntity
  8
0
100
AcDbBlockEnd
  0
BLOCK
  5
103
330
101
100
AcDbEntity
 67
     1
  8
0
100
AcDbBlockBegin
  2
*PAPER_SPACE
 70
     0
 10
0.0
 20
0.0
 30
0.0
  3
*PAPER_SPACE
  1

  0
ENDBLK
  5
104
330
101
100
AcDbEntity
 67
     1
  8
0
100
AcDbBlockEnd
  0
BLOCK
  5
5D
330
59
100
AcDbEntity
  8
0
100
AcDbBlockBegin
  2
_OPEN30
 70
     0
 10
0.0
 20
0.0
 30
0.0
  3
_OPEN30
  1

  0
LINE
  5
5A
330
59
100
AcDbEntity
  8
0
 62
     0
100
AcDbLine
 10
-1.0
 20
0.26794919
 30
0.0
 11
0.0
 21
0.0
 31
0.0
  0
LINE
  5
5B
330
59
100
AcDbEntity
  8
0
 62
     0
100
AcDbLine
 10
0.0
 20
0.0
 30
0.0
 11
-1.0
 21
-0.26794919
 31
0.0
  0
LINE
  5
5C
330
59
100
AcDbEntity
  8
0
 62
     0
100
AcDbLine
 10
0.0
 20
0.0
 30
0.0
 11
-1.0
 21
0.0
 31
0.0
  0
ENDBLK
  5
5E
330
59
100
AcDbEntity
  8
0
100
AcDbBlockEnd
  0
BLOCK
  5
66
330
64
100
AcDbEntity
  8
0
100
AcDbBlockBegin
  2
GENAXEH
 70
     0
 10
0.0
 20
0.0
 30
0.0
  3
GENAXEH
  1

  0
LINE
  5
65
330
64
100
AcDbEntity
  8
0
100
AcDbLine
 10
-1.0
 20
0.0
 30
0.0
 11
1.0
 21
0.0
 31
0.0
  0
ENDBLK
  5
67
330
64
100
AcDbEntity
  8
0
100
AcDbBlockEnd
  0
BLOCK
  5
10FB
330
10F1
100
AcDbEntity
  8
0
100
AcDbBlockBegin
  2
*D5
 70
     1
 10
0.0
 20
0.0
 30
0.0
  3
*D5
  1

  0
LINE
  5
43C3
330
10F1
100
AcDbEntity
  8
AM_5
100
AcDbLine
 10
-45.0
 20
-3.000000000000004
 30
0.0
 11
-45.0
 21
-16.50000100000001
 31
0.0
  0
LINE
  5
43C4
330
10F1
100
AcDbEntity
  8
AM_5
100
AcDbLine
 10
-0.0000000000019274
 20
-2.2
 30
0.0
 11
-0.0000000000019283
 21
-16.50000100000001
 31
0.0
  0
LINE
  5
43C5
330
10F1
100
AcDbEntity
  8
AM_5
100
AcDbLine
 10
-43.75
 20
-16.00000100000001
 30
0.0
 11
-1.250000000001928
 21
-16.00000100000001
 31
0.0
  0
INSERT
  5
43C6
330
10F1
100
AcDbEntity
  8
AM_5
100
AcDbBlockReference
  2
_OPEN30
 10
-45.0
 20
-16.00000100000001
 30
0.0
 41
1.25
 42
1.25
 43
1.25
 50
180.0
  0
INSERT
  5
43C7
330
10F1
100
AcDbEntity
  8
AM_5
100
AcDbBlockReference
  2
_OPEN30
 10
-0.0000000000019282
 20
-16.00000100000001
 30
0.0
 41
1.25
 42
1.25
 43
1.25
  0
MTEXT
  5
43C8
330
10F1
100
AcDbEntity
  8
AM_5
 62
     2
100
AcDbMText
 10
-22.50000000000096
 20
-14.45000100000001
 30
0.0
 40
1.6
 41
0.0
 71
     5
 72
     1
  1
45
  7
ASAMI
1001
ACAD
1000
MTEXTBEGIN
1070
    73
1070
     1
1070
    44
1040
1.0
1070
    74
1070
     0
1000
MTEXTEND
  0
POINT
  5
43C9
330
10F1
100
AcDbEntity
  8
DEFPOINTS
 62
     0
100
AcDbPoint
 10
-45.0
 20
-2.500000000000004
 30
0.0
  0
POINT
  5
43CA
330
10F1
100
AcDbEntity
  8
DEFPOINTS
 62
     0
100
AcDbPoint
 10
-0.0000000000019273
 20
-1.7
 30
0.0
  0
POINT
  5
43CB
330
10F1
100
AcDbEntity
  8
DEFPOINTS
 62
     0
100
AcDbPoint
 10
-0.0000000000019282
 20
-16.00000100000001
 30
0.0
  0
ENDBLK
  5
10FC
330
10F1
100
AcDbEntity
  8
0
100
AcDbBlockEnd
  0
BLOCK
  5
12E5
330
12D9
100
AcDbEntity
  8
0
100
AcDbBlockBegin
  2
*D6
 70
     1
 10
0.0
 20
0.0
 30
0.0
  3
*D6
  1

  0
LINE
  5
43CC
330
12D9
100
AcDbEntity
  8
AM_5
100
AcDbLine
 10
-0.0000000000019274
 20
-2.2
 30
0.0
 11
-0.0000000000019279
 21
-10.50000100000002
 31
0.0
  0
LINE
  5
43CD
330
12D9
100
AcDbEntity
  8
AM_5
100
AcDbLine
 10
-7.99998920286674
 20
-2.2
 30
0.0
 11
-7.999989202866741
 21
-10.50000100000002
 31
0.0
  0
LINE
  5
43CE
330
12D9
100
AcDbEntity
  8
AM_5
100
AcDbLine
 10
-1.250000000001927
 20
-10.00000100000002
 30
0.0
 11
-6.749989202866741
 21
-10.00000100000002
 31
0.0
  0
INSERT
  5
43CF
330
12D9
100
AcDbEntity
  8
AM_5
100
AcDbBlockReference
  2
_OPEN30
 10
-0.0000000000019279
 20
-10.00000100000002
 30
0.0
 41
1.25
 42
1.25
 43
1.25
  0
INSERT
  5
43D0
330
12D9
100
AcDbEntity
  8
AM_5
100
AcDbBlockReference
  2
_OPEN30
 10
-7.999989202866741
 20
-10.00000100000002
 30
0.0
 41
1.25
 42
1.25
 43
1.25
 50
180.0
  0
MTEXT
  5
43D1
330
12D9
100
AcDbEntity
  8
AM_5
 62
     2
100
AcDbMText
 10
-3.999994601434334
 20
-8.450001000000026
 30
0.0
 40
1.6
 41
0.0
 71
     5
 72
     1
  1
8
  7
ASAMI
1001
ACAD
1000
MTEXTBEGIN
1070
    73
1070
     1
1070
    44
1040
1.0
1070
    74
1070
     0
1000
MTEXTEND
  0
POINT
  5
43D2
330
12D9
100
AcDbEntity
  8
DEFPOINTS
 62
     0
100
AcDbPoint
 10
-0.0000000000019273
 20
-1.7
 30
0.0
  0
POINT
  5
43D3
330
12D9
100
AcDbEntity
  8
DEFPOINTS
 62
     0
100
AcDbPoint
 10
-7.99998920286674
 20
-1.7
 30
0.0
  0
POINT
  5
43D4
330
12D9
100
AcDbEntity
  8
DEFPOINTS
 62
     0
100
AcDbPoint
 10
-7.999989202866741
 20
-10.00000100000002
 30
0.0
  0
ENDBLK
  5
12E6
330
12D9
100
AcDbEntity
  8
0
100
AcDbBlockEnd
  0
BLOCK
  5
1A7F
330
1A74
100
AcDbEntity
  8
0
100
AcDbBlockBegin
  2
*D7
 70
     1
 10
0.0
 20
0.0
 30
0.0
  3
*D7
  1

  0
LINE
  5
40AA
330
1A74
100
AcDbEntity
  8
AM_5
100
AcDbLine
 10
-45.00000000000001
 20
2.999999999999997
 30
0.0
 11
-54.00000099999999
 21
3.0
 31
0.0
  0
LINE
  5
40AB
330
1A74
100
AcDbEntity
  8
AM_5
100
AcDbLine
 10
-44.99999999999999
 20
-3.000000000000003
 30
0.0
 11
-54.00000099999999
 21
-3.000000000000001
 31
0.0
  0
LINE
  5
40AC
330
1A74
100
AcDbEntity
  8
AM_5
100
AcDbLine
 10
-53.50000099999999
 20
4.249999999999999
 30
0.0
 11
-53.50000099999999
 21
5.499999999999999
 31
0.0
  0
LINE
  5
40AD
330
1A74
100
AcDbEntity
  8
AM_5
100
AcDbLine
 10
-53.50000099999999
 20
-4.250000000000001
 30
0.0
 11
-53.50000099999999
 21
-5.500000000000001
 31
0.0
  0
LINE
  5
40AE
330
1A74
100
AcDbEntity
  8
AM_5
100
AcDbLine
 10
-53.50000099999999
 20
3.0
 30
0.0
 11
-53.50000099999999
 21
-3.000000000000001
 31
0.0
  0
INSERT
  5
40AF
330
1A74
100
AcDbEntity
  8
AM_5
100
AcDbBlockReference
  2
_OPEN30
 10
-53.50000099999999
 20
3.0
 30
0.0
 41
1.25
 42
1.25
 43
1.25
 50
270.0
  0
INSERT
  5
40B0
330
1A74
100
AcDbEntity
  8
AM_5
100
AcDbBlockReference
  2
_OPEN30
 10
-53.50000099999999
 20
-3.000000000000001
 30
0.0
 41
1.25
 42
1.25
 43
1.25
 50
90.0
  0
MTEXT
  5
40B1
330
1A74
100
AcDbEntity
  8
AM_5
 62
     2
100
AcDbMText
 10
-55.050001
 20
-0.0000000000000044
 30
0.0
 40
1.6
 41
0.0
 71
     5
 72
     1
  1
%%c6
  7
ASAMI
 11
0.0000000000000001
 21
1.0
 31
0.0
1001
ACAD
1000
MTEXTBEGIN
1070
    73
1070
     1
1070
    44
1040
1.0
1070
    74
1070
     0
1000
MTEXTEND
  0
POINT
  5
40B2
330
1A74
100
AcDbEntity
  8
DEFPOINTS
 62
     0
100
AcDbPoint
 10
-44.50000000000001
 20
2.999999999999997
 30
0.0
  0
POINT
  5
40B3
330
1A74
100
AcDbEntity
  8
DEFPOINTS
 62
     0
100
AcDbPoint
 10
-44.49999999999999
 20
-3.000000000000003
 30
0.0
  0
POINT
  5
40B4
330
1A74
100
AcDbEntity
  8
DEFPOINTS
 62
     0
100
AcDbPoint
 10
-53.50000099999999
 20
-3.000000000000001
 30
0.0
  0
ENDBLK
  5
1A80
330
1A74
100
AcDbEntity
  8
0
100
AcDbBlockEnd
  0
BLOCK
  5
4389
330
437D
100
AcDbEntity
  8
0
100
AcDbBlockBegin
  2
*D8
 70
     1
 10
0.0
 20
0.0
 30
0.0
  3
*D8
  1

  0
LINE
  5
43AF
330
437D
100
AcDbEntity
  8
AM_5
100
AcDbLine
 10
0.5
 20
1.7
 30
0.0
 11
9.551050680252135
 21
1.699999999999997
 31
0.0
  0
LINE
  5
43B0
330
437D
100
AcDbEntity
  8
AM_5
100
AcDbLine
 10
0.5
 20
-1.7
 30
0.0
 11
9.551050680252135
 21
-1.700000000000003
 31
0.0
  0
LINE
  5
43B1
330
437D
100
AcDbEntity
  8
AM_5
100
AcDbLine
 10
9.051050680252135
 20
2.949999999999997
 30
0.0
 11
9.051050680252137
 21
4.199999999999998
 31
0.0
  0
LINE
  5
43B2
330
437D
100
AcDbEntity
  8
AM_5
100
AcDbLine
 10
9.051050680252135
 20
-2.950000000000003
 30
0.0
 11
9.051050680252133
 21
-10.57619047619047
 31
0.0
  0
LINE
  5
43B3
330
437D
100
AcDbEntity
  8
AM_5
100
AcDbLine
 10
9.051050680252135
 20
1.699999999999997
 30
0.0
 11
9.051050680252135
 21
-1.700000000000002
 31
0.0
  0
INSERT
  5
43B4
330
437D
100
AcDbEntity
  8
AM_5
100
AcDbBlockReference
  2
_OPEN30
 10
9.051050680252135
 20
1.699999999999997
 30
0.0
 41
1.25
 42
1.25
 43
1.25
 50
270.0
  0
INSERT
  5
43B5
330
437D
100
AcDbEntity
  8
AM_5
100
AcDbBlockReference
  2
_OPEN30
 10
9.051050680252135
 20
-1.700000000000002
 30
0.0
 41
1.25
 42
1.25
 43
1.25
 50
90.0
  0
MTEXT
  5
43B6
330
437D
100
AcDbEntity
  8
AM_5
 62
     2
100
AcDbMText
 10
7.501050680252133
 20
-7.38809523809524
 30
0.0
 40
1.6
 41
0.0
 71
     5
 72
     1
  1
%%c3.4
  7
ASAMI
 11
0.0000000000000001
 21
1.0
 31
0.0
1001
ACAD
1000
MTEXTBEGIN
1070
    73
1070
     1
1070
    44
1040
1.0
1070
    74
1070
     0
1000
MTEXTEND
  0
POINT
  5
43B7
330
437D
100
AcDbEntity
  8
DEFPOINTS
 62
     0
100
AcDbPoint
 10
0.0
 20
1.7
 30
0.0
  0
POINT
  5
43B8
330
437D
100
AcDbEntity
  8
DEFPOINTS
 62
     0
100
AcDbPoint
 10
0.0
 20
-1.7
 30
0.0
  0
POINT
  5
43B9
330
437D
100
AcDbEntity
  8
DEFPOINTS
 62
     0
100
AcDbPoint
 10
9.051050680252135
 20
-1.700000000000002
 30
0.0
  0
ENDBLK
  5
438A
330
437D
100
AcDbEntity
  8
0
100
AcDbBlockEnd
  0
ENDSEC
  0
SECTION
  2
ENTITIES
  0
LINE
  5
C2E
330
1F
100
AcDbEntity
  8
AM_7
  6
AM_ISO08W050X2
100
AcDbLine
 10
2.051049680252134
 20
0.0
 30
0.0
 11
-46.5
 21
-0.0000000000000038
 31
0.0
  0
DIMENSION
  5
10F0
330
1F
100
AcDbEntity
  8
AM_5
100
AcDbDimension
  2
*D5
 10
-0.0000000000019282
 20
-16.00000100000001
 30
0.0
 11
-22.50000000000096
 21
-14.45000100000001
 31
0.0
 70
    32
  1
<>
  3
AM_JIS
100
AcDbAlignedDimension
 13
-45.0
 23
-2.500000000000004
 33
0.0
 14
-0.0000000000019273
 24
-1.7
 34
0.0
 50
0.0000000000001132
100
AcDbRotatedDimension
1001
GENIUS_GENDTOL_13
1000

1000
h7
1000

1040
0.0
  0
DIMENSION
  5
12D8
330
1F
100
AcDbEntity
  8
AM_5
100
AcDbDimension
  2
*D6
 10
-7.999989202866741
 20
-10.00000100000002
 30
0.0
 11
-3.999994601434334
 21
-8.450001000000026
 31
0.0
 70
    32
  1
<>
  3
AM_JIS
100
AcDbAlignedDimension
 13
-0.0000000000019273
 23
-1.7
 33
0.0
 14
-7.99998920286674
 24
-1.7
 34
0.0
 50
0.0000000000001132
100
AcDbRotatedDimension
1001
GENIUS_GENDTOL_13
1000

1000
h7
1000

1040
0.0
  0
TEXT
  5
1500
330
1F
100
AcDbEntity
  8
AM_6
100
AcDbText
 10
-30.77380952381048
 20
-27.25000100000001
 30
0.0
 40
2.5
  1
SSM2034
 72
     4
 11
-22.50000000000096
 21
-26.00000100000001
 31
0.0
100
AcDbText
  0
DIMENSION
  5
1A73
330
1F
100
AcDbEntity
  8
AM_5
100
AcDbDimension
  2
*D7
 10
-53.50000099999999
 20
-3.000000000000001
 30
0.0
 11
-53.50000099999999
 21
-0.0000000000000046
 31
0.0
 70
   160
  1
%%c<>
  3
AM_JIS
100
AcDbAlignedDimension
 13
-44.50000000000001
 23
2.999999999999997
 33
0.0
 14
-44.49999999999999
 24
-3.000000000000003
 34
0.0
 50
270.0
100
AcDbRotatedDimension
1001
GENIUS_GENDTOL_13
1000

1000
h7
1000

1040
0.0
  0
LINE
  5
3D3C
330
1F
100
AcDbEntity
  8
AM_0
100
AcDbLine
 10
-9.92606099092098
 20
1.699999999999948
 30
0.0
 11
-12.64833395016005
 21
1.699999999999889
 31
0.0
  0
LINE
  5
3D3F
330
1F
100
AcDbEntity
  8
AM_0
100
AcDbLine
 10
-12.64833395016062
 20
-1.700000000000052
 30
0.0
 11
-8.000000000000056
 21
-1.700000000000048
 31
0.0
  0
LINE
  5
3DAD
330
1F
100
AcDbEntity
  8
AM_0
100
AcDbLine
 10
-44.99999999999999
 20
-2.500000000000003
 30
0.0
 11
-45.00000000000001
 21
2.499999999999997
 31
0.0
  0
LINE
  5
3DAF
330
1F
100
AcDbEntity
  8
AM_0
100
AcDbLine
 10
-44.49999999999999
 20
-3.000000000000003
 30
0.0
 11
-17.5
 21
-3.000000000000003
 31
0.0
  0
LINE
  5
3DB0
330
1F
100
AcDbEntity
  8
AM_0
100
AcDbLine
 10
-44.50000000000001
 20
2.999999999999997
 30
0.0
 11
-17.5
 21
3.0
 31
0.0
  0
LINE
  5
3E60
330
1F
100
AcDbEntity
  8
AM_0
100
AcDbLine
 10
-17.5
 20
3.0
 30
0.0
 11
-12.64833395016005
 21
1.699999999999889
 31
0.0
  0
LINE
  5
3E62
330
1F
100
AcDbEntity
  8
AM_0
100
AcDbLine
 10
-12.64833395016063
 20
-1.700000000000053
 30
0.0
 11
-17.49999999999999
 21
-3.000000000000001
 31
0.0
  0
LINE
  5
3E6A
330
1F
100
AcDbEntity
  8
AM_0
100
AcDbLine
 10
-12.64833395016005
 20
1.699999999999887
 30
0.0
 11
-12.64833395016005
 21
-1.700000000000052
 31
0.0
  0
LINE
  5
403B
330
1F
100
AcDbEntity
  8
AM_0
100
AcDbLine
 10
-17.49999999999999
 20
-3.000000000000002
 30
0.0
 11
-17.5
 21
3.000000000000002
 31
0.0
  0
LINE
  5
409A
330
1F
100
AcDbEntity
  8
AM_0
100
AcDbLine
 10
-44.50000000000001
 20
2.999999999999997
 30
0.0
 11
-45.00000000000001
 21
2.499999999999997
 31
0.0
1001
GENIUS_GENFIL_13
1070
     0
1040
0.5
1040
0.5
1040
20.0
1040
0.0
1002
{
1002
}
1001
GENIUS_GENODEF_13
1002
{
1000
HIER
1070
     0
1002
}
1002
{
1000
MANEDIT
1070
     0
1002
}
1002
{
1000
NOSEL
1070
     0
1002
}
1002
{
1000
BEHIND
1070
     0
1002
}
1002
{
1000
REACTOR
1002
}
1001
GENIUS_GENOBJ-N-CHA_13
1002
{
1000
OWNER
1000
GEN
1002
}
  0
LINE
  5
409C
330
1F
100
AcDbEntity
  8
AM_0
100
AcDbLine
 10
-44.99999999999999
 20
-2.500000000000003
 30
0.0
 11
-44.49999999999999
 21
-3.000000000000003
 31
0.0
1001
GENIUS_GENFIL_13
1070
     0
1040
0.5
1040
0.5
1040
20.0
1040
0.0
1002
{
1002
}
1001
GENIUS_GENODEF_13
1002
{
1000
HIER
1070
     0
1002
}
1002
{
1000
MANEDIT
1070
     0
1002
}
1002
{
1000
NOSEL
1070
     0
1002
}
1002
{
1000
BEHIND
1070
     0
1002
}
1002
{
1000
REACTOR
1002
}
1001
GENIUS_GENOBJ-N-CHA_13
1002
{
1000
OWNER
1000
GEN
1002
}
  0
LINE
  5
409D
330
1F
100
AcDbEntity
  8
AM_0
100
AcDbLine
 10
-44.50000000000001
 20
2.999999999999997
 30
0.0
 11
-44.49999999999999
 21
-3.000000000000003
 31
0.0
  0
DIMENSION
  5
437C
330
1F
100
AcDbEntity
  8
AM_5
100
AcDbDimension
  2
*D8
 10
9.051050680252135
 20
-1.700000000000002
 30
0.0
 11
7.501050680252133
 21
-7.38809523809524
 31
0.0
 70
    32
  1
%%c<>
  3
AM_JIS
100
AcDbAlignedDimension
 13
0.0
 23
1.7
 33
0.0
 14
0.0
 24
-1.7
 34
0.0
 50
90.0
100
AcDbRotatedDimension
1001
GENIUS_GENDTOL_13
1000

1000
h7
1000

1040
0.0
  0
LINE
  5
438B
330
1F
100
AcDbEntity
  8
AM_0
100
AcDbLine
 10
-0.0895039606589165
 20
0.2039999999999885
 30
0.0
 11
0.0
 21
0.3400000000000001
 31
0.0
  0
LINE
  5
438C
330
1F
100
AcDbEntity
  8
AM_0
100
AcDbLine
 10
0.0
 20
0.0679999999999962
 30
0.0
 11
-0.6284192616058455
 21
1.022874163659546
 31
0.0
  0
LINE
  5
438D
330
1F
100
AcDbEntity
  8
AM_0
100
AcDbLine
 10
-0.0999999999999979
 20
-1.386594862734512
 30
0.0
 11
-0.0999999999999979
 21
-1.36828084658509
 31
0.0
  0
LINE
  5
438E
330
1F
100
AcDbEntity
  8
AM_0
100
AcDbLine
 10
0.0
 20
-1.7
 30
0.0
 11
-0.0280000000000023
 21
-1.609369993591421
 31
0.0
  0
LINE
  5
438F
330
1F
100
AcDbEntity
  8
AM_0
100
AcDbLine
 10
-0.0280000000000023
 20
-1.609369993591421
 30
0.0
 11
-0.0999999999999979
 21
-1.386594862734512
 31
0.0
  0
LINE
  5
4390
330
1F
100
AcDbEntity
  8
AM_0
100
AcDbLine
 10
0.0
 20
-1.7
 30
0.0
 11
0.0
 21
0.0679999999999962
 31
0.0
  0
LINE
  5
4391
330
1F
100
AcDbEntity
  8
AM_0
100
AcDbLine
 10
-0.0280000000000023
 20
-1.609369993591421
 30
0.0
 11
-0.0280000000000058
 21
0.1105456032556106
 31
0.0
  0
LINE
  5
4392
330
1F
100
AcDbEntity
  8
AM_0
100
AcDbLine
 10
-4.286656257642317
 20
-1.355380375084594
 30
0.0
 11
-6.878551160119354
 21
-1.567401411703584
 31
0.0
  0
LINE
  5
4393
330
1F
100
AcDbEntity
  8
AM_0
100
AcDbLine
 10
-5.269805992542206
 20
1.38043763086883
 30
0.0
 11
-0.6284192616058455
 21
1.022874163659546
 31
0.0
  0
LINE
  5
4394
330
1F
100
AcDbEntity
  8
AM_0
100
AcDbLine
 10
0.0
 20
0.3400000000000001
 30
0.0
 11
0.0
 21
1.7
 31
0.0
  0
LINE
  5
4397
330
1F
100
AcDbEntity
  8
AM_11
100
AcDbLine
 10
-7.999994315087725
 20
-1.7
 30
0.0
 11
-7.999994315087725
 21
1.69999999999999
 31
0.0
  0
LINE
  5
4398
330
1F
100
AcDbEntity
  8
AM_11
100
AcDbLine
 10
-8.000000000000056
 20
-1.7
 30
0.0
 11
0.0
 21
-1.7
 31
0.0
  0
LINE
  5
4399
330
1F
100
AcDbEntity
  8
AM_11
100
AcDbLine
 10
-0.0000000000002061
 20
1.7
 30
0.0
 11
-7.999994315087725
 21
1.69999999999999
 31
0.0
  0
SPLINE
  5
439A
330
1F
100
AcDbEntity
  8
AM_0
100
AcDbSpline
210
0.0
220
0.0
230
1.0
 70
     8
 71
     3
 72
     8
 73
     4
 74
     0
 42
0.0000000001
 43
0.0000000001
 40
0.0
 40
0.0
 40
0.0
 40
0.0
 40
2.586565323616736
 40
2.586565323616736
 40
2.586565323616736
 40
2.586565323616736
 10
0.0
 20
1.385398913472547
 30
0.0
 10
-0.1475379681341202
 20
1.160570686691342
 30
0.0
 10
-0.4007785345909376
 20
1.064021090954277
 30
0.0
 10
-0.6284192616058455
 20
1.022874163659546
 30
0.0
  0
SPLINE
  5
439B
330
1F
100
AcDbEntity
  8
AM_0
100
AcDbSpline
210
0.0
220
0.0
230
1.0
 70
     8
 71
     3
 72
     8
 73
     4
 74
     0
 42
0.0000000001
 43
0.0000000001
 40
0.0
 40
0.0
 40
0.0
 40
0.0
 40
7.57842115059705
 40
7.57842115059705
 40
7.57842115059705
 40
7.57842115059705
 10
0.0
 20
1.7
 30
0.0
 10
-0.6736374356086295
 20
1.7
 30
0.0
 10
-1.314814912132231
 20
1.467490964634013
 30
0.0
 10
-1.940509330817107
 20
1.124077573745948
 30
0.0
  0
SPLINE
  5
439C
330
1F
100
AcDbEntity
  8
AM_0
100
AcDbSpline
210
0.0
220
0.0
230
1.0
 70
     8
 71
     3
 72
     8
 73
     4
 74
     0
 42
0.0000000001
 43
0.0000000001
 40
0.0
 40
0.0
 40
0.0
 40
0.0
 40
14.48999654934396
 40
14.48999654934396
 40
14.48999654934396
 40
14.48999654934396
 10
0.0
 20
-1.7
 30
0.0
 10
-1.287999693275018
 20
-1.7
 30
0.0
 10
-2.457333179970841
 20
-0.8500000000000001
 30
0.0
 10
-3.626666666666665
 20
0.0
 30
0.0
  0
SPLINE
  5
439E
330
1F
100
AcDbEntity
  8
AM_0
100
AcDbSpline
210
0.0
220
0.0
230
1.0
 70
     8
 71
     3
 72
     8
 73
     4
 74
     0
 42
0.0000000001
 43
0.0000000001
 40
4.219358800530717
 40
4.219358800530717
 40
4.219358800530717
 40
4.219358800530717
 40
14.36247867694493
 40
14.36247867694493
 40
14.36247867694493
 40
14.36247867694493
 10
-0.0999999999999837
 20
-1.386594862734434
 30
0.0
 10
-0.9656223351707069
 20
-1.108722249174194
 30
0.0
 10
-1.79543561012198
 20
-0.5543611245870878
 30
0.0
 10
-2.625248885073254
 20
0.0000000000000193
 30
0.0
  0
SPLINE
  5
439F
330
1F
100
AcDbEntity
  8
AM_0
100
AcDbSpline
210
0.0
220
0.0
230
1.0
 70
     8
 71
     3
 72
     8
 73
     4
 74
     0
 42
0.0000000001
 43
0.0000000001
 40
0.0
 40
0.0
 40
0.0
 40
0.0
 40
2.764560748519282
 40
2.764560748519282
 40
2.764560748519282
 40
2.764560748519282
 10
-7.999994315087758
 20
-1.700000367030496
 30
0.0
 10
-7.754255581886046
 20
-1.700000367030496
 30
0.0
 10
-7.512617823918849
 20
-1.669773509609883
 30
0.0
 10
-7.274295849640023
 20
-1.615107167663121
 30
0.0
  0
SPLINE
  5
43A0
330
1F
100
AcDbEntity
  8
AM_0
100
AcDbSpline
210
0.0
220
0.0
230
1.0
 70
     8
 71
     3
 72
     8
 73
     4
 74
     0
 42
0.0000000001
 43
0.0000000001
 40
0.0
 40
0.0
 40
0.0
 40
0.0
 40
2.221495395472776
 40
2.221495395472776
 40
2.221495395472776
 40
2.221495395472776
 10
-7.464029542026243
 20
-1.620835050409379
 30
0.0
 10
-7.266563284650882
 20
-1.620835050409379
 30
0.0
 10
-7.071529222775002
 20
-1.602055610009284
 30
0.0
 10
-6.878551160114885
 20
-1.567401411702773
 30
0.0
  0
SPLINE
  5
43A2
330
1F
100
AcDbEntity
  8
AM_0
100
AcDbSpline
210
0.0
220
0.0
230
1.0
 70
     8
 71
     3
 72
     8
 73
     4
 74
     0
 42
0.0000000001
 43
0.0000000001
 40
0.0
 40
0.0
 40
0.0
 40
0.0
 40
14.48999654934395
 40
14.48999654934395
 40
14.48999654934395
 40
14.48999654934395
 10
-7.25333333333333
 20
1.700000000000029
 30
0.0
 10
-5.965333640058311
 20
1.700000000000029
 30
0.0
 10
-4.796000153362491
 20
0.8500000000000291
 30
0.0
 10
-3.626666666666665
 20
0.0000000000000387
 30
0.0
  0
SPLINE
  5
43A4
330
1F
100
AcDbEntity
  8
AM_0
100
AcDbSpline
210
0.0
220
0.0
230
1.0
 70
     8
 71
     3
 72
     8
 73
     4
 74
     0
 42
0.0000000001
 43
0.0000000001
 40
0.7142832446738512
 40
0.7142832446738512
 40
0.7142832446738512
 40
0.7142832446738512
 40
14.36247867694493
 40
14.36247867694493
 40
14.36247867694493
 40
14.36247867694493
 10
-6.692588959819246
 20
1.6475874437699
 30
0.0
 10
-4.858379102761595
 20
1.491854392061671
 30
0.0
 10
-3.741813993917425
 20
0.7459271960308504
 30
0.0
 10
-2.625248885073254
 20
0.0000000000000193
 30
0.0
  0
SPLINE
  5
43A5
330
1F
100
AcDbEntity
  8
AM_0
100
AcDbSpline
210
0.0
220
0.0
230
1.0
 70
     8
 71
     3
 72
     8
 73
     4
 74
     0
 42
0.0000000001
 43
0.0000000001
 40
0.0
 40
0.0
 40
0.0
 40
0.0
 40
2.238610194515266
 40
2.238610194515266
 40
2.238610194515266
 40
2.238610194515266
 10
-4.286656257642317
 20
-1.355380375084594
 30
0.0
 10
-3.469078832661182
 20
-1.359264537118292
 30
0.0
 10
-2.691521717691035
 20
-1.277263077510724
 30
0.0
 10
-1.923044147842336
 20
-1.132441120225133
 30
0.0
  0
SPLINE
  5
43A6
330
1F
100
AcDbEntity
  8
AM_0
100
AcDbSpline
210
0.0
220
0.0
230
1.0
 70
     8
 71
     3
 72
     8
 73
     4
 74
     0
 42
0.0000000001
 43
0.0000000001
 40
5.297458184749251
 40
5.297458184749251
 40
5.297458184749251
 40
5.297458184749251
 40
7.218994763998551
 40
7.218994763998551
 40
7.218994763998551
 40
7.218994763998551
 10
-8.952199353804026
 20
0.3239995384203719
 30
0.0
 10
-8.617856276386817
 20
0.180883353004674
 30
0.0
 10
-8.272608837102522
 20
-0.0197225250354618
 30
0.0
 10
-7.914511019849101
 20
-0.2064348138210335
 30
0.0
  0
SPLINE
  5
43A7
330
1F
100
AcDbEntity
  8
AM_0
100
AcDbSpline
210
0.0
220
0.0
230
1.0
 70
     8
 71
     3
 72
     8
 73
     4
 74
     0
 42
0.0000000001
 43
0.0000000001
 40
0.0
 40
0.0
 40
0.0
 40
0.0
 40
14.15489169609656
 40
14.15489169609656
 40
14.15489169609656
 40
14.15489169609656
 10
-4.286656257642317
 20
-1.355380375084594
 30
0.0
 10
-5.544868852850901
 20
-1.355380375084604
 30
0.0
 10
-6.756480285308441
 20
-0.7956685102850827
 30
0.0
 10
-7.914511019849101
 20
-0.2064348138209561
 30
0.0
  0
ELLIPSE
  5
43A9
330
1F
100
AcDbEntity
  8
AM_0
100
AcDbEllipse
 10
3.788471584635377
 20
0.0071526859808455
 30
0.0
 11
0.0000000000000292
 21
5.145056932569933
 31
0.0
210
0.0
220
0.0
230
1.0
 40
0.7843137254902099
 41
1.489874453283514
 42
1.841418545974799
  0
ELLIPSE
  5
43AA
330
1F
100
AcDbEntity
  8
AM_0
100
AcDbEllipse
 10
-7.779599731469642
 20
3.849431658392734
 30
0.0
 11
0.0000000000000097
 21
5.556541959140961
 31
0.0
210
0.0
220
0.0
230
1.0
 40
0.7843137254901979
 41
2.282147587728571
 42
3.090999494916656
  0
ELLIPSE
  5
43AB
330
1F
100
AcDbEntity
  8
AM_0
100
AcDbEllipse
 10
-9.41413052957843
 20
-0.3080120650202467
 30
0.0
 11
1.160701759805422
 21
1.6372213028971
 31
0.0
210
0.0
220
0.0
230
1.0
 40
0.8609030259754019
 41
1.30267275137312
 42
1.838919902216702
  0
ELLIPSE
  5
43AC
330
1F
100
AcDbEntity
  8
AM_0
100
AcDbEllipse
 10
-1.51446910096718
 20
27.02961517221264
 30
0.0
 11
6.867704323404857
 21
26.88094099730655
 31
0.0
210
0.0
220
0.0
230
1.0
 40
0.471600890769922
 41
2.900442035076812
 42
3.096050092335449
  0
ELLIPSE
  5
43AD
330
1F
100
AcDbEntity
  8
AM_0
100
AcDbEllipse
 10
-9.60304463393799
 20
-16.19081616760319
 30
0.0
 11
-0.012843383430755
 21
17.89540567344065
 31
0.0
210
0.0
220
0.0
230
1.0
 40
0.7846259901194872
 41
-0.440574198130647
 42
0.0220922237009289
  0
SPLINE
  5
43AE
330
1F
100
AcDbEntity
  8
AM_0
100
AcDbSpline
210
0.0
220
0.0
230
1.0
 70
     8
 71
     3
 72
     8
 73
     4
 74
     0
 42
0.0000000001
 43
0.0000000001
 40
0.0
 40
0.0
 40
0.0
 40
0.0
 40
1.875170891973597
 40
1.875170891973597
 40
1.875170891973597
 40
1.875170891973597
 10
-7.25333333333333
 20
1.69999999999999
 30
0.0
 10
-7.420015190397644
 20
1.69999999999999
 30
0.0
 10
-7.584709707337156
 20
1.685764783801721
 30
0.0
 10
-7.887585221634981
 20
1.569764374598364
 30
0.0
  0
ARC
  5
4576
330
1F
100
AcDbEntity
  8
AM_0
100
AcDbCircle
 10
-6.941112419110615
 20
3.876319344776675
 30
0.0
 40
5.521969645149391
100
AcDbArc
 50
221.4384115254761
 51
264.5660864580447
  0
VIEWPORT
  5
110
330
101
100
AcDbEntity
 67
     1
  8
0
100
AcDbViewport
 10
420.5
 20
297.0
 30
0.0
 40
948.9782706766916
 41
628.452
 68
     1
 69
     1
1001
ACAD
1000
MVIEW
1002
{
1070
    16
1010
0.0
1020
0.0
1030
0.0
1010
0.0
1020
0.0
1030
1.0
1040
0.0
1040
628.452
1040
420.5
1040
297.0
1040
50.0
1040
0.0
1040
0.0
1070
     0
1070
   100
1070
     1
1070
     1
1070
     0
1070
     0
1070
     0
1070
     0
1040
0.0
1040
0.0
1040
0.0
1040
10.0
1040
10.0
1040
10.0
1040
10.0
1070
     0
1002
{
1002
}
1002
}
  0
ENDSEC
  0
SECTION
  2
OBJECTS
  0
DICTIONARY
  5
C
330
0
100
AcDbDictionary
  3
ACAD_GROUP
350
D
  3
ACAD_LAYOUT
350
1A
  3
ACAD_MLINESTYLE
350
17
  3
ACAD_PLOTSETTINGS
350
19
  3
ACAD_PLOTSTYLENAME
350
E
  3
ACDBVARIABLEDICTIONARY
350
34
  3
ACMDICTIONARY
350
43
  3
AMG
350
2B
  3
AMGSNAPSETTINGS
350
6E
  3
ASE_INDEX_DICTIONARY
350
151A
  3
DWGPROPS
350
4590
  3
ACDBHEADERROUNDTRIPXREC
350
459C
  0
DICTIONARY
  5
74
330
1F
100
AcDbDictionary
280
     1
  3
ACAD_INDEX
360
4592
  3
ACAD_LAYOUTSELFREF
360
45BF
  0
DICTIONARY
  5
45C4
330
101
100
AcDbDictionary
280
     1
  3
ACAD_LAYOUTSELFREF
360
45C5
  0
DICTIONARY
  5
D
102
{ACAD_REACTORS
330
C
102
}
330
C
100
AcDbDictionary
  0
DICTIONARY
  5
1A
102
{ACAD_REACTORS
330
C
102
}
330
C
100
AcDbDictionary
  0
DICTIONARY
  5
17
102
{ACAD_REACTORS
330
C
102
}
330
C
100
AcDbDictionary
  3
STANDARD
350
18
  0
DICTIONARY
  5
19
102
{ACAD_REACTORS
330
C
102
}
330
C
100
AcDbDictionary
  0
ACDBDICTIONARYWDFLT
  5
E
102
{ACAD_REACTORS
330
C
102
}
330
C
100
AcDbDictionary
281
     1
  3
Normal
350
F
100
AcDbDictionaryWithDefault
340
F
  0
DICTIONARY
  5
34
102
{ACAD_REACTORS
330
C
102
}
330
C
100
AcDbDictionary
  3
INDEXCTL
350
35
  3
SORTENTS
350
B5E
  0
DICTIONARY
  5
43
102
{ACAD_REACTORS
330
C
102
}
330
C
100
AcDbDictionary
  3
ACMSTDDICTIONARY
350
260
  0
DICTIONARY
  5
2B
102
{ACAD_REACTORS
330
C
102
}
330
C
100
AcDbDictionary
  3
ACMGSETTINGS
350
2C
  0
DICTIONARY
  5
6E
102
{ACAD_REACTORS
330
C
102
}
330
C
100
AcDbDictionary
  0
DICTIONARY
  5
151A
102
{ACAD_REACTORS
330
C
102
}
330
C
100
AcDbDictionary
  3
ASEBLOCKHIERARCHYINDEXRECORD
350
151C
1001
DCO15
1040
1471862535.906
  0
XRECORD
  5
4590
102
{ACAD_REACTORS
330
C
102
}
330
C
100
AcDbXrecord
  1
DWGPROPS COOKIE
  2

  3

  4

  6

  7

  8

  9

300
AmdtFileType=82
301
=
302
=
303
=
304
=
305
=
306
=
307
=
308
=
309
=
 40
0.1992086689814815
 41
2452838.430434386
 42
2453045.6028814
  1

 90
        1
  0
DICTIONARY
  5
459C
102
{ACAD_REACTORS
330
C
102
}
330
C
100
AcDbDictionary
  3
TSTACKALIGN
350
459D
  3
TSTACKSIZE
350
459E
  3
HYPERLINKBASE
350
459F
  3
STYLESHEET
350
45A0
  3
LAYOUTDICT
350
45A1
  3
PLOTSETDICT
350
45A2
  3
PLOTSTYLNAMDICT
350
45A3
  3
LWETCUNION
350
45A4
  3
INSUNITS
350
45A5
  3
CEPSNTYPE
350
45A6
  3
FINGERPRINTGUID
350
45A7
  3
VERSIONGUID
350
45A8
  3
PSVPSCALE
350
45A9
  3
DIMSTYLEDATA
350
45AA
  3
PUCSORTHOREF
350
45AB
  3
PUCSORTHOVIEW
350
45AC
  3
PUCSBASE
350
45AD
  3
PUCSORGTOP
350
45AE
  3
PUCSORGBOTTOM
350
45AF
  3
PUCSORGLEFT
350
45B0
  3
PUCSORGRIGHT
350
45B1
  3
PUCSORGFRONT
350
45B2
  3
PUCSORGBACK
350
45B3
  3
UCSORTHOREF
350
45B4
  3
UCSORTHOVIEW
350
45B5
  3
UCSBASE
350
45B6
  3
UCSORGTOP
350
45B7
  3
UCSORGBOTTOM
350
45B8
  3
UCSORGLEFT
350
45B9
  3
UCSORGRIGHT
350
45BA
  3
UCSORGFRONT
350
45BB
  3
UCSORGBACK
350
45BC
  0
DICTIONARY
  5
4592
102
{ACAD_REACTORS
330
74
102
}
330
74
100
AcDbDictionary
  3
*A1
350
4593
  0
XRECORD
  5
45BF
102
{ACAD_REACTORS
330
74
102
}
330
74
100
AcDbXrecord
340
1F
  0
XRECORD
  5
45C5
102
{ACAD_REACTORS
330
45C4
102
}
330
45C4
100
AcDbXrecord
340
101
  0
MLINESTYLE
  5
18
102
{ACAD_REACTORS
330
17
102
}
330
17
100
AcDbMlineStyle
  2
STANDARD
 70
     0
  3

 62
   256
 51
90.0
 52
90.0
 71
     2
 49
0.5
 62
   256
  6
BYLAYER
 49
-0.5
 62
   256
  6
BYLAYER
  0
ACDBPLACEHOLDER
  5
F
102
{ACAD_REACTORS
330
E
102
}
330
E
100
AcDbPlaceHolder
280
     0
  0
DICTIONARYVAR
  5
35
102
{ACAD_REACTORS
330
34
102
}
330
34
100
DictionaryVariables
280
     0
  1
1
  0
DICTIONARYVAR
  5
B5E
102
{ACAD_REACTORS
330
34
102
}
330
34
100
DictionaryVariables
280
     0
  1
96
  0
DICTIONARY
  5
260
102
{ACAD_REACTORS
330
43
102
}
330
43
100
AcDbDictionary
  0
DICTIONARY
  5
2C
102
{ACAD_REACTORS
330
2B
102
}
330
2B
100
AcDbDictionary
  3
DWGSETTINGS
350
2D
  0
XRECORD
  5
151C
102
{ACAD_REACTORS
330
151A
102
}
330
151A
100
AcDbXrecord
330
0
330
0
330
0
330
0
330
0
330
0
330
0
330
0
  0
XRECORD
  5
459D
102
{ACAD_REACTORS
330
459C
102
}
330
459C
100
AcDbXrecord
 90
        1
  0
XRECORD
  5
459E
102
{ACAD_REACTORS
330
459C
102
}
330
459C
100
AcDbXrecord
 90
       70
  0
XRECORD
  5
459F
102
{ACAD_REACTORS
330
459C
102
}
330
459C
100
AcDbXrecord
  1

  0
XRECORD
  5
45A0
102
{ACAD_REACTORS
330
459C
102
}
330
459C
100
AcDbXrecord
  1
ASAMI.ctb
  0
XRECORD
  5
45A1
102
{ACAD_REACTORS
330
459C
102
}
330
459C
100
AcDbXrecord
340
1A
  0
XRECORD
  5
45A2
102
{ACAD_REACTORS
330
459C
102
}
330
459C
100
AcDbXrecord
340
19
  0
XRECORD
  5
45A3
102
{ACAD_REACTORS
330
459C
102
}
330
459C
100
AcDbXrecord
340
E
  0
XRECORD
  5
45A4
102
{ACAD_REACTORS
330
459C
102
}
330
459C
100
AcDbXrecord
 90
    10781
  0
XRECORD
  5
45A5
102
{ACAD_REACTORS
330
459C
102
}
330
459C
100
AcDbXrecord
 90
        4
  0
XRECORD
  5
45A6
102
{ACAD_REACTORS
330
459C
102
}
330
459C
100
AcDbXrecord
 90
        0
  0
XRECORD
  5
45A7
102
{ACAD_REACTORS
330
459C
102
}
330
459C
100
AcDbXrecord
  1
{AFB28963-8C59-40AE-9337-C84526B81ACE}
  0
XRECORD
  5
45A8
102
{ACAD_REACTORS
330
459C
102
}
330
459C
100
AcDbXrecord
  1
{5271C4FB-F4F4-4282-AA0E-61D81AAD1C60}
  0
XRECORD
  5
45A9
102
{ACAD_REACTORS
330
459C
102
}
330
459C
100
AcDbXrecord
 40
0.0
  0
XRECORD
  5
45AA
102
{ACAD_REACTORS
330
459C
102
}
330
459C
100
AcDbXrecord
1000
DSTYLE
1002
{
1070
    79
 70
     2
1070
   341
340
59
1070
   342
340
59
1070
   371
 70
    -1
1070
   372
 70
    -1
1002
}
  0
XRECORD
  5
45AB
102
{ACAD_REACTORS
330
459C
102
}
330
459C
100
AcDbXrecord
340
0
  0
XRECORD
  5
45AC
102
{ACAD_REACTORS
330
459C
102
}
330
459C
100
AcDbXrecord
 70
     0
  0
XRECORD
  5
45AD
102
{ACAD_REACTORS
330
459C
102
}
330
459C
100
AcDbXrecord
340
0
  0
XRECORD
  5
45AE
102
{ACAD_REACTORS
330
459C
102
}
330
459C
100
AcDbXrecord
 10
0.0
 20
0.0
 30
0.0
  0
XRECORD
  5
45AF
102
{ACAD_REACTORS
330
459C
102
}
330
459C
100
AcDbXrecord
 10
0.0
 20
0.0
 30
0.0
  0
XRECORD
  5
45B0
102
{ACAD_REACTORS
330
459C
102
}
330
459C
100
AcDbXrecord
 10
0.0
 20
0.0
 30
0.0
  0
XRECORD
  5
45B1
102
{ACAD_REACTORS
330
459C
102
}
330
459C
100
AcDbXrecord
 10
0.0
 20
0.0
 30
0.0
  0
XRECORD
  5
45B2
102
{ACAD_REACTORS
330
459C
102
}
330
459C
100
AcDbXrecord
 10
0.0
 20
0.0
 30
0.0
  0
XRECORD
  5
45B3
102
{ACAD_REACTORS
330
459C
102
}
330
459C
100
AcDbXrecord
 10
0.0
 20
0.0
 30
0.0
  0
XRECORD
  5
45B4
102
{ACAD_REACTORS
330
459C
102
}
330
459C
100
AcDbXrecord
340
0
  0
XRECORD
  5
45B5
102
{ACAD_REACTORS
330
459C
102
}
330
459C
100
AcDbXrecord
 70
     0
  0
XRECORD
  5
45B6
102
{ACAD_REACTORS
330
459C
102
}
330
459C
100
AcDbXrecord
340
0
  0
XRECORD
  5
45B7
102
{ACAD_REACTORS
330
459C
102
}
330
459C
100
AcDbXrecord
 10
0.0
 20
0.0
 30
0.0
  0
XRECORD
  5
45B8
102
{ACAD_REACTORS
330
459C
102
}
330
459C
100
AcDbXrecord
 10
0.0
 20
0.0
 30
0.0
  0
XRECORD
  5
45B9
102
{ACAD_REACTORS
330
459C
102
}
330
459C
100
AcDbXrecord
 10
0.0
 20
0.0
 30
0.0
  0
XRECORD
  5
45BA
102
{ACAD_REACTORS
330
459C
102
}
330
459C
100
AcDbXrecord
 10
0.0
 20
0.0
 30
0.0
  0
XRECORD
  5
45BB
102
{ACAD_REACTORS
330
459C
102
}
330
459C
100
AcDbXrecord
 10
0.0
 20
0.0
 30
0.0
  0
XRECORD
  5
45BC
102
{ACAD_REACTORS
330
459C
102
}
330
459C
100
AcDbXrecord
 10
0.0
 20
0.0
 30
0.0
  0
LAYER_INDEX
  5
4593
102
{ACAD_REACTORS
330
4592
102
}
330
4592
100
AcDbIndex
 40
2453151.821553102
100
AcDbLayerIndex
  8
0
360
4594
 90
        0
  8
AM_0
360
4595
 90
       40
  8
AM_11
360
4596
 90
        3
  8
AM_7
360
4597
 90
        1
  8
AM_5
360
4598
 90
        4
  8
Defpoints
360
4599
 90
        0
  8
AM_6
360
459A
 90
        1
  0
XRECORD
  5
2D
102
{ACAD_REACTORS
330
2C
102
}
330
2C
100
AcDbXrecord
  1
VERSION
140
15.0
  1
PRODUCT
  2
AutoCAD Mechanical 2000
  0
IDBUFFER
  5
4594
330
0
100
AcDbIdBuffer
  0
IDBUFFER
  5
4595
330
0
100
AcDbIdBuffer
330
438F
330
4390
330
4391
330
4392
330
4393
330
4394
330
439A
330
439B
330
439C
330
439E
330
439F
330
43A0
330
43A2
330
43A4
330
43A5
330
43A6
330
43A7
330
43A9
330
43AA
330
43AB
330
43AC
330
43AD
330
43AE
330
4576
330
3D3C
330
3D3F
330
3DAD
330
3DAF
330
3DB0
330
3E60
330
3E62
330
3E6A
330
403B
330
409A
330
409C
330
409D
330
438B
330
438C
330
438D
330
438E
  0
IDBUFFER
  5
4596
330
0
100
AcDbIdBuffer
330
4397
330
4398
330
4399
  0
IDBUFFER
  5
4597
330
0
100
AcDbIdBuffer
330
C2E
  0
IDBUFFER
  5
4598
330
0
100
AcDbIdBuffer
330
10F0
330
12D8
330
1A73
330
437C
  0
IDBUFFER
  5
4599
330
0
100
AcDbIdBuffer
  0
IDBUFFER
  5
459A
330
0
100
AcDbIdBuffer
330
1500
  0
ENDSEC
  0
EOF
