  0
SECTION
  2
HEADER
  9
$ACADVER
  1
AC1014
  9
$ACADMAINTVER
 70
     9
  9
$DWGCODEPAGE
  3
ANSI_932
  9
$INSBASE
 10
0.0
 20
0.0
 30
0.0
  9
$EXTMIN
 10
-60.850001
 20
-27.25000099999997
 30
-0.00000001
  9
$EXTMAX
 10
9.551050680252128
 20
5.499999999999995
 30
0.00000001
  9
$LIMMIN
 10
-63.21145186255034
 20
-33.001636763335
  9
$LIMMAX
 10
14.78626612014704
 20
15.21074974471775
  9
$ORTHOMODE
 70
     0
  9
$REGENMODE
 70
     1
  9
$FILLMODE
 70
     1
  9
$QTEXTMODE
 70
     0
  9
$MIRRTEXT
 70
     0
  9
$DRAGMODE
 70
     2
  9
$LTSCALE
 40
1.0
  9
$OSMODE
 70
    55
  9
$ATTMODE
 70
     1
  9
$TEXTSIZE
 40
2.5
  9
$TRACEWID
 40
1.0
  9
$TEXTSTYLE
  7
STANDARD
  9
$CLAYER
  8
AM_0
  9
$CELTYPE
  6
BYLAYER
  9
$CECOLOR
 62
   256
  9
$CELTSCALE
 40
1.0
  9
$DELOBJ
 70
     1
  9
$DISPSILH
 70
     0
  9
$DIMSCALE
 40
0.5
  9
$DIMASZ
 40
2.5
  9
$DIMEXO
 40
1.0
  9
$DIMDLI
 40
12.0
  9
$DIMRND
 40
0.0
  9
$DIMDLE
 40
0.0
  9
$DIMEXE
 40
1.0
  9
$DIMTP
 40
0.1
  9
$DIMTM
 40
0.1
  9
$DIMTXT
 40
3.2
  9
$DIMCEN
 40
0.0
  9
$DIMTSZ
 40
0.0
  9
$DIMTOL
 70
     0
  9
$DIMLIM
 70
     0
  9
$DIMTIH
 70
     0
  9
$DIMTOH
 70
     0
  9
$DIMSE1
 70
     0
  9
$DIMSE2
 70
     0
  9
$DIMTAD
 70
     3
  9
$DIMZIN
 70
     8
  9
$DIMBLK
  1
OPEN30
  9
$DIMASO
 70
     1
  9
$DIMSHO
 70
     1
  9
$DIMPOST
  1

  9
$DIMAPOST
  1
"
  9
$DIMALT
 70
     0
  9
$DIMALTD
 70
     2
  9
$DIMALTF
 40
0.0393701
  9
$DIMLFAC
 40
1.0
  9
$DIMTOFL
 70
     1
  9
$DIMTVP
 40
0.0
  9
$DIMTIX
 70
     0
  9
$DIMSOXD
 70
     0
  9
$DIMSAH
 70
     0
  9
$DIMBLK1
  1

  9
$DIMBLK2
  1

  9
$DIMSTYLE
  2
AM_JIS
  9
$DIMCLRD
 70
   256
  9
$DIMCLRE
 70
   256
  9
$DIMCLRT
 70
     2
  9
$DIMTFAC
 40
0.71
  9
$DIMGAP
 40
1.5
  9
$DIMJUST
 70
     0
  9
$DIMSD1
 70
     0
  9
$DIMSD2
 70
     0
  9
$DIMTOLJ
 70
     0
  9
$DIMTZIN
 70
     0
  9
$DIMALTZ
 70
     0
  9
$DIMALTTZ
 70
     0
  9
$DIMFIT
 70
     3
  9
$DIMUPT
 70
     0
  9
$DIMUNIT
 70
     2
  9
$DIMDEC
 70
     3
  9
$DIMTDEC
 70
     3
  9
$DIMALTU
 70
     2
  9
$DIMALTTD
 70
     2
  9
$DIMTXSTY
  7
ASAMI
  9
$DIMAUNIT
 70
     0
  9
$LUNITS
 70
     2
  9
$LUPREC
 70
     2
  9
$SKETCHINC
 40
1.0
  9
$FILLETRAD
 40
2.5
  9
$AUNITS
 70
     0
  9
$AUPREC
 70
     0
  9
$MENU
  1
.
  9
$ELEVATION
 40
0.0
  9
$PELEVATION
 40
0.0
  9
$THICKNESS
 40
0.0
  9
$LIMCHECK
 70
     0
  9
$BLIPMODE
 70
     0
  9
$CHAMFERA
 40
0.5
  9
$CHAMFERB
 40
0.5
  9
$CHAMFERC
 40
20.0
  9
$CHAMFERD
 40
0.0
  9
$SKPOLY
 70
     0
  9
$TDCREATE
 40
2452838.430434386
  9
$TDUPDATE
 40
2453151.826103090
  9
$TDINDWG
 40
0.2455264583
  9
$TDUSRTIMER
 40
0.2455264583
  9
$USRTIMER
 70
     1
  9
$ANGBASE
 50
0.0
  9
$ANGDIR
 70
     0
  9
$PDMODE
 70
     0
  9
$PDSIZE
 40
0.0
  9
$PLINEWID
 40
0.0
  9
$COORDS
 70
     1
  9
$SPLFRAME
 70
     0
  9
$SPLINETYPE
 70
     6
  9
$SPLINESEGS
 70
     8
  9
$ATTDIA
 70
     1
  9
$ATTREQ
 70
     1
  9
$HANDLING
 70
 12289
  9
$HANDSEED
  5
5BC6
  9
$SURFTAB1
 70
     6
  9
$SURFTAB2
 70
     6
  9
$SURFTYPE
 70
     6
  9
$SURFU
 70
     6
  9
$SURFV
 70
     6
  9
$UCSNAME
  2

  9
$UCSORG
 10
0.0
 20
0.0
 30
0.0
  9
$UCSXDIR
 10
1.0
 20
0.0
 30
0.0
  9
$UCSYDIR
 10
0.0
 20
1.0
 30
0.0
  9
$PUCSNAME
  2

  9
$PUCSORG
 10
0.0
 20
0.0
 30
0.0
  9
$PUCSXDIR
 10
1.0
 20
0.0
 30
0.0
  9
$PUCSYDIR
 10
0.0
 20
1.0
 30
0.0
  9
$USERI1
 70
     0
  9
$USERI2
 70
     0
  9
$USERI3
 70
     0
  9
$USERI4
 70
     0
  9
$USERI5
 70
     0
  9
$USERR1
 40
0.0
  9
$USERR2
 40
0.0
  9
$USERR3
 40
0.0
  9
$USERR4
 40
0.0
  9
$USERR5
 40
0.0
  9
$WORLDVIEW
 70
     1
  9
$SHADEDGE
 70
     3
  9
$SHADEDIF
 70
    70
  9
$TILEMODE
 70
     1
  9
$MAXACTVP
 70
    64
  9
$PINSBASE
 10
0.0
 20
0.0
 30
0.0
  9
$PLIMCHECK
 70
     0
  9
$PEXTMIN
 10
1.000000000000000E+20
 20
1.000000000000000E+20
 30
1.000000000000000E+20
  9
$PEXTMAX
 10
-1.000000000000000E+20
 20
-1.000000000000000E+20
 30
-1.000000000000000E+20
  9
$PLIMMIN
 10
0.0
 20
0.0
  9
$PLIMMAX
 10
841.0
 20
594.0
  9
$UNITMODE
 70
     0
  9
$VISRETAIN
 70
     1
  9
$PLINEGEN
 70
     0
  9
$PSLTSCALE
 70
     0
  9
$TREEDEPTH
 70
  3020
  9
$PICKSTYLE
 70
     0
  9
$CMLSTYLE
  2
STANDARD
  9
$CMLJUST
 70
     0
  9
$CMLSCALE
 40
20.0
  9
$PROXYGRAPHICS
 70
     1
  9
$MEASUREMENT
 70
     1
  0
ENDSEC
  0
SECTION
  2
CLASSES
  0
CLASS
  1
ACDBDICTIONARYWDFLT
  2
AcDbDictionaryWithDefault
  3
AutoCAD 2000
 90
        0
280
     0
281
     0
  0
CLASS
  1
ACDBPLACEHOLDER
  2
AcDbPlaceHolder
  3
AutoCAD 2000
 90
        0
280
     0
281
     0
  0
CLASS
  1
LAYOUT
  2
AcDbLayout
  3
AutoCAD 2000
 90
        0
280
     0
281
     0
  0
CLASS
  1
AMGSETTINGSOBJ
  2
AmgSettingsObj
  3
"AcadM|Product Description: AutoCAD Mechanical 2000|Company: Autodesk"
 90
        0
280
     0
281
     0
  0
CLASS
  1
ACME_DOCUMENT
  2
AcMeDbDoc
  3
AcMeServices
 90
        0
280
     0
281
     0
  0
CLASS
  1
ACMESCOPE
  2
AcMeScope
  3
AcMeServices
 90
        0
280
     0
281
     0
  0
CLASS
  1
ACMECOMMANDHISTORY
  2
AcMeCommandHistory
  3
AcMeServices
 90
        0
280
     0
281
     0
  0
CLASS
  1
DICTIONARYVAR
  2
AcDbDictionaryVar
  3
AutoCAD 2000
 90
        0
280
     0
281
     0
  0
CLASS
  1
ACIMSYSVARMAN
  2
AcImSysVarManager
  3
AcMeServices
 90
        0
280
     0
281
     0
  0
CLASS
  1
ACIMREALSYSVAR
  2
AcImRealSysVar
  3
AcMeServices
 90
        0
280
     0
281
     0
  0
CLASS
  1
ACIMINTSYSVAR
  2
AcImIntSysVar
  3
AcMeServices
 90
        0
280
     0
281
     0
  0
CLASS
  1
ACMEDRAWINGMAN
  2
AcMeDrawingMan
  3
AcMeServices
 90
        0
280
     0
281
     0
  0
CLASS
  1
ACMEVIEW
  2
AcMeView
  3
AcMeServices
 90
        0
280
     0
281
     0
  0
CLASS
  1
ACDBENTITYCACHE
  2
AcMeEntityCache
  3
AcMeServices
 90
        0
280
     0
281
     0
  0
CLASS
  1
GSMANAGER
  2
AcMeGSManager
  3
AcMeServices
 90
        0
280
     0
281
     0
  0
CLASS
  1
AmdtInternalReactor
  2
AmdtInternalReactor
  3
AcMeServices
 90
        0
280
     0
281
     0
  0
CLASS
  1
ACMESTATEMGR
  2
AcMeStateMgr
  3
AcMeServices
 90
        0
280
     0
281
     0
  0
CLASS
  1
ACME_DATABASE
  2
AcMeDbDatabase
  3
AcMeServices
 90
        0
280
     0
281
     0
  0
CLASS
  1
ACRFINSADJUSTERMGR
  2
AcRfInsAdjusterMgr
  3
AcMeServices
 90
        0
280
     0
281
     0
  0
CLASS
  1
ACMDATADICTIONARY
  2
AcmDataDictionary
  3
"AcmSymBB|Product Description: AutoCAD Mechanical 2000|Company: Autodesk"
 90
        0
280
     0
281
     0
  0
CLASS
  1
ACMDATAENTRYBLOCK
  2
AcmDataEntryBlock
  3
"AcmSymBB|Product Description: AutoCAD Mechanical 2000|Company: Autodesk"
 90
        0
280
     0
281
     0
  0
CLASS
  1
AMGOBJPROPCFG
  2
AmgObjPropCfg
  3
"AmgLay|Product Description: AutoCAD Mechanical 2000|Company: Autodesk"
 90
        1
280
     0
281
     0
  0
CLASS
  1
ACAMGFILTERDAT
  2
AcAmgFilterDat
  3
"AcadM|Product Description: AutoCAD Mechanical 2000|Company: Autodesk"
 90
        0
280
     0
281
     0
  0
CLASS
  1
LAYER_INDEX
  2
AcDbLayerIndex
  3
AutoCAD 2000
 90
        0
280
     0
281
     0
  0
CLASS
  1
IDBUFFER
  2
AcDbIdBuffer
  3
AutoCAD 2000
 90
        0
280
     0
281
     0
  0
CLASS
  1
ACIMSTRSYSVAR
  2
AcImStrSysVar
  3
AcMeServices
 90
        0
280
     0
281
     0
  0
CLASS
  1
ACMSTANDARDJIS
  2
AcmStandardJIS
  3
"AcmSymBB|Product Description: AutoCAD Mechanical 2000|Company: Autodesk"
 90
        0
280
     0
281
     0
  0
CLASS
  1
ACMSURFSTANDARDJIS
  2
AcmSurfTextStdJIS
  3
"AcmSymBB|Product Description: AutoCAD Mechanical 2000|Company: Autodesk"
 90
        0
280
     0
281
     0
  0
CLASS
  1
ACMFCFSTANDARDJIS
  2
AcmFCFStdJIS
  3
"AcmSymBB|Product Description: AutoCAD Mechanical 2000|Company: Autodesk"
 90
        0
280
     0
281
     0
  0
CLASS
  1
ACMWELDSTANDARDJIS
  2
AcmWeldingStdJIS
  3
"AcmSymBB|Product Description: AutoCAD Mechanical 2000|Company: Autodesk"
 90
        0
280
     0
281
     0
  0
CLASS
  1
ACMIDSTANDARDJIS
  2
AcmIdStdJIS
  3
"AcmSymBB|Product Description: AutoCAD Mechanical 2000|Company: Autodesk"
 90
        0
280
     0
281
     0
  0
CLASS
  1
ACMDATUMSTANDARDJIS
  2
AcmDatumStdJIS
  3
"AcmSymBB|Product Description: AutoCAD Mechanical 2000|Company: Autodesk"
 90
        0
280
     0
281
     0
  0
CLASS
  1
ACMBOMSTANDARDJIS
  2
AcmBOMStdJIS
  3
"AcmSymBB|Product Description: AutoCAD Mechanical 2000|Company: Autodesk"
 90
        0
280
     0
281
     0
  0
CLASS
  1
ACMSTANDARDANSI
  2
AcmStandardANSI
  3
"AcmSymBB|Product Description: AutoCAD Mechanical 2000|Company: Autodesk"
 90
        0
280
     0
281
     0
  0
CLASS
  1
ACMSURFSTANDARDANSI
  2
AcmSurfTextStdANSI
  3
"AcmSymBB|Product Description: AutoCAD Mechanical 2000|Company: Autodesk"
 90
        0
280
     0
281
     0
  0
CLASS
  1
ACMFCFSTANDARDANSI
  2
AcmFCFStdANSI
  3
"AcmSymBB|Product Description: AutoCAD Mechanical 2000|Company: Autodesk"
 90
        0
280
     0
281
     0
  0
CLASS
  1
ACMWELDSTANDARDANSI
  2
AcmWeldingStdANSI
  3
"AcmSymBB|Product Description: AutoCAD Mechanical 2000|Company: Autodesk"
 90
        0
280
     0
281
     0
  0
CLASS
  1
ACMIDSTANDARDANSI
  2
AcmIdStdANSI
  3
"AcmSymBB|Product Description: AutoCAD Mechanical 2000|Company: Autodesk"
 90
        0
280
     0
281
     0
  0
CLASS
  1
ACMDATUMSTANDARDANSI
  2
AcmDatumStdANSI
  3
"AcmSymBB|Product Description: AutoCAD Mechanical 2000|Company: Autodesk"
 90
        0
280
     0
281
     0
  0
CLASS
  1
ACMBOMSTANDARDANSI
  2
AcmBOMStdANSI
  3
"AcmSymBB|Product Description: AutoCAD Mechanical 2000|Company: Autodesk"
 90
        0
280
     0
281
     0
  0
CLASS
  1
ACMSTANDARDBSI
  2
AcmStandardBSI
  3
"AcmSymBB|Product Description: AutoCAD Mechanical 2000|Company: Autodesk"
 90
        0
280
     0
281
     0
  0
CLASS
  1
ACMSURFSTANDARDBSI
  2
AcmSurfTextStdBSI
  3
"AcmSymBB|Product Description: AutoCAD Mechanical 2000|Company: Autodesk"
 90
        0
280
     0
281
     0
  0
CLASS
  1
ACMFCFSTANDARDBSI
  2
AcmFCFStdBSI
  3
"AcmSymBB|Product Description: AutoCAD Mechanical 2000|Company: Autodesk"
 90
        0
280
     0
281
     0
  0
CLASS
  1
ACMWELDSTANDARDBSI
  2
AcmWeldingStdBSI
  3
"AcmSymBB|Product Description: AutoCAD Mechanical 2000|Company: Autodesk"
 90
        0
280
     0
281
     0
  0
CLASS
  1
ACMIDSTANDARDBSI
  2
AcmIdStdBSI
  3
"AcmSymBB|Product Description: AutoCAD Mechanical 2000|Company: Autodesk"
 90
        0
280
     0
281
     0
  0
CLASS
  1
ACMDATUMSTANDARDBSI
  2
AcmDatumStdBSI
  3
"AcmSymBB|Product Description: AutoCAD Mechanical 2000|Company: Autodesk"
 90
        0
280
     0
281
     0
  0
CLASS
  1
ACMBOMSTANDARDBSI
  2
AcmBOMStdBSI
  3
"AcmSymBB|Product Description: AutoCAD Mechanical 2000|Company: Autodesk"
 90
        0
280
     0
281
     0
  0
CLASS
  1
LONG_TRANSACTION
  2
AcDbLongTransaction
  3
AutoCAD 2000
 90
        0
280
     0
281
     0
  0
CLASS
  1
LWPOLYLINE
  2
AcDbPolyline
  3
AutoCAD 2000
 90
        0
280
     0
281
     1
  0
CLASS
  1
HATCH
  2
AcDbHatch
  3
AutoCAD 2000
 90
        0
280
     0
281
     1
  0
CLASS
  1
XRECORD
  2
AcDbXrecord
  3
AutoCAD 2000
 90
        0
280
     0
281
     0
  0
ENDSEC
  0
SECTION
  2
TABLES
  0
TABLE
  2
VPORT
  5
8
330
0
100
AcDbSymbolTable
 70
     3
  0
VPORT
  5
5B9B
330
8
100
AcDbSymbolTableRecord
100
AcDbViewportTableRecord
  2
*ACTIVE
 70
     0
 10
0.0
 20
0.0
 11
1.0
 21
1.0
 12
-23.07294965952547
 22
-7.863327643498699
 13
0.0
 23
0.0
 14
2.5
 24
2.5
 15
10.0
 25
10.0
 16
0.0
 26
0.0
 36
1.0
 17
0.0
 27
0.0
 37
0.0
 40
95.4246472004746
 41
1.56570841889117
 42
50.0
 43
0.0
 44
0.0
 50
0.0
 51
0.0
 71
     0
 72
   100
 73
     1
 74
     3
 75
     0
 76
     0
 77
     0
 78
     0
  0
ENDTAB
  0
TABLE
  2
LTYPE
  5
5
330
0
100
AcDbSymbolTable
 70
    10
  0
LTYPE
  5
14
330
5
100
AcDbSymbolTableRecord
100
AcDbLinetypeTableRecord
  2
BYBLOCK
 70
     0
  3

 72
    65
 73
     0
 40
0.0
  0
LTYPE
  5
15
330
5
100
AcDbSymbolTableRecord
100
AcDbLinetypeTableRecord
  2
BYLAYER
 70
     0
  3

 72
    65
 73
     0
 40
0.0
  0
LTYPE
  5
16
330
5
100
AcDbSymbolTableRecord
100
AcDbLinetypeTableRecord
  2
CONTINUOUS
 70
     0
  3
Solid line
 72
    65
 73
     0
 40
0.0
  0
LTYPE
  5
4B
330
5
100
AcDbSymbolTableRecord
100
AcDbLinetypeTableRecord
  2
AM_ISO02W050
 70
     0
  3
__ __ __ __ __ __ __ __ __ __ __ __ __ __ __
 72
    65
 73
     2
 40
7.5
 49
6.0
 74
     0
 49
-1.5
 74
     0
  0
LTYPE
  5
4C
330
5
100
AcDbSymbolTableRecord
100
AcDbLinetypeTableRecord
  2
AM_ISO08W050
 70
     0
  3
____ . ____ . ____ . ____ . ____ . ____ . ____
 72
    65
 73
     4
 40
18.0
 49
12.0
 74
     0
 49
-1.5
 74
     0
 49
3.0
 74
     0
 49
-1.5
 74
     0
  0
LTYPE
  5
4D
330
5
100
AcDbSymbolTableRecord
100
AcDbLinetypeTableRecord
  2
AM_ISO09W050
 70
     0
  3
_____ . . _____ . . _____ . . ____ .. ____
 72
    65
 73
     6
 40
22.5
 49
12.0
 74
     0
 49
-1.5
 74
     0
 49
3.0
 74
     0
 49
-1.5
 74
     0
 49
3.0
 74
     0
 49
-1.5
 74
     0
  0
LTYPE
  5
4E
330
5
100
AcDbSymbolTableRecord
100
AcDbLinetypeTableRecord
  2
AMCONSTR
 70
     0
  3
_______________________
 72
    65
 73
     2
 40
9999.0
 49
9999.0
 74
     0
 49
0.0
 74
     0
  0
LTYPE
  5
4F
330
5
100
AcDbSymbolTableRecord
100
AcDbLinetypeTableRecord
  2
AM_ISO02W050X2
 70
     0
  3
 _ _ _ _ _ _ _ _ _ _ _ _
 72
    65
 73
     2
 40
3.75
 49
3.0
 74
     0
 49
-0.75
 74
     0
  0
LTYPE
  5
50
330
5
100
AcDbSymbolTableRecord
100
AcDbLinetypeTableRecord
  2
AM_ISO08W050X2
 70
     0
  3
__ . __ . __ . __ . __ . __
 72
    65
 73
     4
 40
9.0
 49
6.0
 74
     0
 49
-0.75
 74
     0
 49
1.5
 74
     0
 49
-0.75
 74
     0
  0
LTYPE
  5
53
330
5
100
AcDbSymbolTableRecord
100
AcDbLinetypeTableRecord
  2
AMZIGZAG
 70
     0
  3
/\/-/\/-/\/-/\/-/\/-/\/
 72
    65
 73
     2
 40
11.00009999999999
 49
0.0001
 74
     4
 75
   135
340
52
 46
0.04
 50
0.0
 44
0.0
 45
0.0
 49
-11.0
 74
     0
  0
LTYPE
  5
166
330
5
100
AcDbSymbolTableRecord
100
AcDbLinetypeTableRecord
  2
ACJISTGL
 70
     0
  3
_ _ _ _ _
 72
    65
 73
     2
 40
3.0
 49
2.0
 74
     0
 49
-1.0
 74
     0
  0
LTYPE
  5
26A
330
5
100
AcDbSymbolTableRecord
100
AcDbLinetypeTableRecord
  2
ACJISTGB
 70
     0
  3
__ . . __ . .
 72
    65
 73
     6
 40
9.0
 49
4.0
 74
     0
 49
-1.0
 74
     0
 49
1.0
 74
     0
 49
-1.0
 74
     0
 49
1.0
 74
     0
 49
-1.0
 74
     0
  0
ENDTAB
  0
TABLE
  2
LAYER
  5
2
330
0
100
AcDbSymbolTable
 70
     7
  0
LAYER
  5
10
330
2
100
AcDbSymbolTableRecord
100
AcDbLayerTableRecord
  2
0
 70
     0
 62
     7
  6
CONTINUOUS
  0
LAYER
  5
3F9
330
2
100
AcDbSymbolTableRecord
100
AcDbLayerTableRecord
  2
AM_0
 70
     0
 62
     7
  6
CONTINUOUS
  0
LAYER
  5
BDD
330
2
100
AcDbSymbolTableRecord
100
AcDbLayerTableRecord
  2
AM_11
 70
     0
 62
     3
  6
AM_ISO09W050
  0
LAYER
  5
BDE
330
2
100
AcDbSymbolTableRecord
100
AcDbLayerTableRecord
  2
AM_7
 70
     0
 62
     4
  6
AM_ISO08W050
  0
LAYER
  5
BDF
330
2
100
AcDbSymbolTableRecord
100
AcDbLayerTableRecord
  2
AM_5
 70
     0
 62
     3
  6
CONTINUOUS
  0
LAYER
  5
BE0
330
2
100
AcDbSymbolTableRecord
100
AcDbLayerTableRecord
  2
DEFPOINTS
 70
     0
 62
     7
  6
CONTINUOUS
  0
LAYER
  5
14FF
330
2
100
AcDbSymbolTableRecord
100
AcDbLayerTableRecord
  2
AM_6
 70
     0
 62
     2
  6
CONTINUOUS
  0
ENDTAB
  0
TABLE
  2
STYLE
  5
3
330
0
100
AcDbSymbolTable
 70
     5
  0
STYLE
  5
11
330
3
100
AcDbSymbolTableRecord
100
AcDbTextStyleTableRecord
  2
STANDARD
 70
     0
 40
0.0
 41
1.0
 50
0.0
 71
     0
 42
2.5
  3
simplex.shx
  4
EXTFONT.SHX
  0
STYLE
  5
52
330
3
100
AcDbSymbolTableRecord
100
AcDbTextStyleTableRecord
  2

 70
     1
 40
0.0
 41
1.0
 50
0.0
 71
     0
 42
2.5
  3
ltypeshp.shx
  4

  0
STYLE
  5
6B
330
3
100
AcDbSymbolTableRecord
100
AcDbTextStyleTableRecord
  2
ASAMI
 70
     0
 40
0.0
 41
1.0
 50
0.0
 71
     0
 42
2.5
  3
simplex.shx
  4
EXTFONT.SHX
  0
STYLE
  5
262
330
3
100
AcDbSymbolTableRecord
100
AcDbTextStyleTableRecord
  2
ACJISTS
 70
     0
 40
1.0
 41
1.0
 50
0.0
 71
     0
 42
2.5
  3
simplex.shx
  4
bigfont.shx
  0
STYLE
  5
269
330
3
100
AcDbSymbolTableRecord
100
AcDbTextStyleTableRecord
  2
ACJISGDT
 70
     0
 40
0.0
 41
1.0
 50
0.0
 71
     0
 42
2.5
  3
amgdtans.shx
  4

  0
ENDTAB
  0
TABLE
  2
VIEW
  5
6
330
0
100
AcDbSymbolTable
 70
     0
  0
ENDTAB
  0
TABLE
  2
UCS
  5
7
330
0
100
AcDbSymbolTable
 70
     0
  0
ENDTAB
  0
TABLE
  2
APPID
  5
9
330
0
100
AcDbSymbolTable
 70
    13
  0
APPID
  5
12
330
9
100
AcDbSymbolTableRecord
100
AcDbRegAppTableRecord
  2
ACAD
 70
     0
  0
APPID
  5
30
330
9
100
AcDbSymbolTableRecord
100
AcDbRegAppTableRecord
  2
MCAD_NO_VIS
 70
     0
  0
APPID
  5
31
330
9
100
AcDbSymbolTableRecord
100
AcDbRegAppTableRecord
  2
ACAD_TEMP_GRAPHIC
 70
     0
  0
APPID
  5
2C2
330
9
100
AcDbSymbolTableRecord
100
AcDbRegAppTableRecord
  2
GENIUS_GENDTOL_13
 70
     0
  0
APPID
  5
339
330
9
100
AcDbSymbolTableRecord
100
AcDbRegAppTableRecord
  2
GENIUS_GENODEF_13
 70
     0
  0
APPID
  5
33A
330
9
100
AcDbSymbolTableRecord
100
AcDbRegAppTableRecord
  2
GENIUS_GENOBJ-N-RSBK_13
 70
     0
  0
APPID
  5
33B
330
9
100
AcDbSymbolTableRecord
100
AcDbRegAppTableRecord
  2
GENIUS_GENOBJ-N-LIB_13
 70
     0
  0
APPID
  5
33C
330
9
100
AcDbSymbolTableRecord
100
AcDbRegAppTableRecord
  2
GENIUS_GENSCALE_13
 70
     0
  0
APPID
  5
378
330
9
100
AcDbSymbolTableRecord
100
AcDbRegAppTableRecord
  2
GENIUS_GENDIMSH_14
 70
     0
  0
APPID
  5
BE1
330
9
100
AcDbSymbolTableRecord
100
AcDbRegAppTableRecord
  2
GENIUS_GENFIL_13
 70
     0
  0
APPID
  5
BE2
330
9
100
AcDbSymbolTableRecord
100
AcDbRegAppTableRecord
  2
GENIUS_GENOBJ-N-CHA_13
 70
     0
  0
APPID
  5
151B
330
9
100
AcDbSymbolTableRecord
100
AcDbRegAppTableRecord
  2
DCO15
 70
     0
  0
APPID
  5
1860
330
9
100
AcDbSymbolTableRecord
100
AcDbRegAppTableRecord
  2
GENIUS_GENOBJ-N-CEN_13
 70
     0
  0
ENDTAB
  0
TABLE
  2
DIMSTYLE
  5
A
330
0
100
AcDbSymbolTable
 70
     8
  0
DIMSTYLE
105
58
102
{ACAD_REACTORS
330
10F0
330
12D8
330
1A73
330
596F
102
}
330
A
100
AcDbSymbolTableRecord
100
AcDbDimStyleTableRecord
  2
AM_JIS
 70
     0
  3

  4
"
  5
OPEN30
  6

  7

 40
0.5
 41
2.5
 42
1.0
 43
12.0
 44
1.0
 45
0.0
 46
0.0
 47
0.1
 48
0.1
140
3.2
141
0.0
142
0.0
143
0.0393701
144
1.0
145
0.0
146
0.71
147
1.5
 71
     0
 72
     0
 73
     0
 74
     0
 75
     0
 76
     0
 77
     3
 78
     8
170
     0
171
     2
172
     1
173
     0
174
     0
175
     0
176
   256
177
   256
178
     2
270
     2
271
     3
272
     3
273
     2
274
     2
340
6B
275
     0
280
     0
281
     0
282
     0
283
     0
284
     0
285
     0
286
     0
287
     3
288
     0
  0
DIMSTYLE
105
5F
330
A
100
AcDbSymbolTableRecord
100
AcDbDimStyleTableRecord
  2
AM_JIS$3
 70
     0
  3

  4
"
  5
OPEN30
  6

  7

 40
0.5
 41
2.5
 42
1.0
 43
10.0
 44
1.0
 45
0.0
 46
0.0
 47
0.1
 48
0.1
140
3.2
141
0.0
142
0.0
143
0.0393701
144
1.0
145
0.0
146
0.71
147
1.5
 71
     0
 72
     0
 73
     0
 74
     1
 75
     0
 76
     0
 77
     3
 78
     8
170
     0
171
     2
172
     0
173
     0
174
     0
175
     0
176
   256
177
   256
178
     2
270
     2
271
     2
272
     3
273
     2
274
     2
340
6B
275
     0
280
     0
281
     0
282
     0
283
     0
284
     0
285
     0
286
     0
287
     0
288
     1
  0
DIMSTYLE
105
60
330
A
100
AcDbSymbolTableRecord
100
AcDbDimStyleTableRecord
  2
AM_JIS$4
 70
     0
  3

  4
"
  5
OPEN30
  6

  7

 40
0.5
 41
2.5
 42
1.0
 43
10.0
 44
1.0
 45
0.0
 46
0.0
 47
0.1
 48
0.1
140
3.2
141
0.0
142
0.0
143
0.0393701
144
1.0
145
0.0
146
0.71
147
1.5
 71
     0
 72
     0
 73
     0
 74
     1
 75
     0
 76
     0
 77
     3
 78
     8
170
     0
171
     2
172
     0
173
     0
174
     0
175
     0
176
   256
177
   256
178
     2
270
     2
271
     2
272
     3
273
     2
274
     2
340
6B
275
     0
280
     0
281
     0
282
     0
283
     0
284
     0
285
     0
286
     0
287
     0
288
     1
  0
DIMSTYLE
105
61
330
A
100
AcDbSymbolTableRecord
100
AcDbDimStyleTableRecord
  2
AM_JIS$6
 70
     0
  3

  4
"
  5
OPEN30
  6

  7

 40
0.5
 41
2.5
 42
1.0
 43
10.0
 44
1.0
 45
0.0
 46
0.0
 47
0.1
 48
0.1
140
3.2
141
0.0
142
0.0
143
0.0393701
144
1.0
145
0.0
146
0.71
147
1.5
 71
     0
 72
     0
 73
     0
 74
     0
 75
     0
 76
     0
 77
     0
 78
     8
170
     0
171
     2
172
     1
173
     0
174
     0
175
     0
176
   256
177
   256
178
     2
270
     2
271
     2
272
     2
273
     2
274
     2
340
6B
275
     0
280
     0
281
     0
282
     0
283
     0
284
     0
285
     0
286
     0
287
     3
288
     0
  0
DIMSTYLE
105
62
330
A
100
AcDbSymbolTableRecord
100
AcDbDimStyleTableRecord
  2
AM_JIS$7
 70
     0
  3

  4
"
  5
OPEN30
  6

  7

 40
0.5
 41
2.5
 42
1.0
 43
10.0
 44
1.0
 45
0.0
 46
0.0
 47
0.1
 48
0.1
140
3.2
141
0.0
142
0.0
143
0.0393701
144
1.0
145
0.0
146
0.71
147
1.5
 71
     0
 72
     0
 73
     0
 74
     0
 75
     0
 76
     0
 77
     3
 78
     8
170
     0
171
     2
172
     1
173
     0
174
     0
175
     0
176
   256
177
   256
178
     2
270
     2
271
     2
272
     3
273
     2
274
     2
340
6B
275
     0
280
     0
281
     0
282
     0
283
     0
284
     0
285
     0
286
     0
287
     3
288
     0
  0
DIMSTYLE
105
63
330
A
100
AcDbSymbolTableRecord
100
AcDbDimStyleTableRecord
  2
AM_JIS$SF
 70
     0
  3

  4
"
  5
OPEN30
  6

  7

 40
0.5
 41
2.5
 42
1.0
 43
10.0
 44
1.0
 45
0.0
 46
0.0
 47
0.1
 48
0.1
140
3.2
141
0.0
142
0.0
143
0.0393701
144
1.0
145
0.0
146
0.71
147
1.5
 71
     0
 72
     0
 73
     0
 74
     0
 75
     1
 76
     1
 77
     3
 78
     8
170
     0
171
     2
172
     1
173
     0
174
     0
175
     0
176
   256
177
   256
178
     2
270
     2
271
     2
272
     2
273
     2
274
     2
340
6B
275
     0
280
     0
281
     0
282
     0
283
     0
284
     0
285
     0
286
     0
287
     3
288
     0
  0
DIMSTYLE
105
68
330
A
100
AcDbSymbolTableRecord
100
AcDbDimStyleTableRecord
  2
AM_JIS$SH
 70
     0
  3

  4
"
  5

  6
GENAXEH
  7
OPEN30
 40
0.5
 41
2.5
 42
1.0
 43
10.0
 44
1.0
 45
0.0
 46
0.0
 47
0.1
 48
0.1
140
3.2
141
0.0
142
0.0
143
0.0393701
144
2.0
145
0.0
146
0.71
147
1.5
 71
     0
 72
     0
 73
     0
 74
     0
 75
     1
 76
     1
 77
     3
 78
     8
170
     0
171
     2
172
     1
173
     1
174
     0
175
     0
176
   256
177
   256
178
     2
270
     2
271
     2
272
     2
273
     2
274
     2
340
6B
275
     0
280
     0
281
     0
282
     0
283
     0
284
     0
285
     0
286
     0
287
     3
288
     0
  0
DIMSTYLE
105
B34
330
A
100
AcDbSymbolTableRecord
100
AcDbDimStyleTableRecord
  2
AM_JIS$2
 70
     0
  3

  4
"
  5
OPEN30
  6

  7

 40
0.5
 41
2.5
 42
1.0
 43
12.0
 44
1.0
 45
0.0
 46
0.0
 47
0.1
 48
0.1
140
3.2
141
0.0
142
0.0
143
0.0393701
144
1.0
145
0.0
146
0.71
147
1.5
 71
     0
 72
     0
 73
     0
 74
     0
 75
     0
 76
     0
 77
     3
 78
     8
170
     0
171
     2
172
     1
173
     0
174
     0
175
     0
176
   256
177
   256
178
     2
270
     2
271
     3
272
     3
273
     2
274
     2
340
6B
275
     0
280
     0
281
     0
282
     0
283
     0
284
     0
285
     0
286
     0
287
     3
288
     0
  0
ENDTAB
  0
TABLE
  2
BLOCK_RECORD
  5
1
330
0
100
AcDbSymbolTable
 70
     9
  0
BLOCK_RECORD
  5
1F
102
{ACAD_XDICTIONARY
360
74
102
}
330
1
100
AcDbSymbolTableRecord
100
AcDbBlockTableRecord
  2
*MODEL_SPACE
  0
BLOCK_RECORD
  5
101
102
{ACAD_XDICTIONARY
360
5BC4
102
}
330
1
100
AcDbSymbolTableRecord
100
AcDbBlockTableRecord
  2
*PAPER_SPACE
  0
BLOCK_RECORD
  5
59
330
1
100
AcDbSymbolTableRecord
100
AcDbBlockTableRecord
  2
_OPEN30
  0
BLOCK_RECORD
  5
64
330
1
100
AcDbSymbolTableRecord
100
AcDbBlockTableRecord
  2
GENAXEH
  0
BLOCK_RECORD
  5
10F1
330
1
100
AcDbSymbolTableRecord
100
AcDbBlockTableRecord
  2
*D5
  0
BLOCK_RECORD
  5
12D9
330
1
100
AcDbSymbolTableRecord
100
AcDbBlockTableRecord
  2
*D6
  0
BLOCK_RECORD
  5
1A74
330
1
100
AcDbSymbolTableRecord
100
AcDbBlockTableRecord
  2
*D7
  0
BLOCK_RECORD
  5
5970
330
1
100
AcDbSymbolTableRecord
100
AcDbBlockTableRecord
  2
*D8
  0
ENDTAB
  0
ENDSEC
  0
SECTION
  2
BLOCKS
  0
BLOCK
  5
20
330
1F
100
AcDbEntity
  8
0
100
AcDbBlockBegin
  2
*MODEL_SPACE
 70
     0
 10
0.0
 20
0.0
 30
0.0
  3
*MODEL_SPACE
  1

  0
ENDBLK
  5
21
330
1F
100
AcDbEntity
  8
0
100
AcDbBlockEnd
  0
BLOCK
  5
103
330
101
100
AcDbEntity
 67
     1
  8
0
100
AcDbBlockBegin
  2
*PAPER_SPACE
 70
     0
 10
0.0
 20
0.0
 30
0.0
  3
*PAPER_SPACE
  1

  0
ENDBLK
  5
104
330
101
100
AcDbEntity
 67
     1
  8
0
100
AcDbBlockEnd
  0
BLOCK
  5
5D
330
59
100
AcDbEntity
  8
0
100
AcDbBlockBegin
  2
_OPEN30
 70
     0
 10
0.0
 20
0.0
 30
0.0
  3
_OPEN30
  1

  0
LINE
  5
5A
330
59
100
AcDbEntity
  8
0
 62
     0
100
AcDbLine
 10
-1.0
 20
0.26794919
 30
0.0
 11
0.0
 21
0.0
 31
0.0
  0
LINE
  5
5B
330
59
100
AcDbEntity
  8
0
 62
     0
100
AcDbLine
 10
0.0
 20
0.0
 30
0.0
 11
-1.0
 21
-0.26794919
 31
0.0
  0
LINE
  5
5C
330
59
100
AcDbEntity
  8
0
 62
     0
100
AcDbLine
 10
0.0
 20
0.0
 30
0.0
 11
-1.0
 21
0.0
 31
0.0
  0
ENDBLK
  5
5E
330
59
100
AcDbEntity
  8
0
100
AcDbBlockEnd
  0
BLOCK
  5
66
330
64
100
AcDbEntity
  8
0
100
AcDbBlockBegin
  2
GENAXEH
 70
     0
 10
0.0
 20
0.0
 30
0.0
  3
GENAXEH
  1

  0
LINE
  5
65
330
64
100
AcDbEntity
  8
0
100
AcDbLine
 10
-1.0
 20
0.0
 30
0.0
 11
1.0
 21
0.0
 31
0.0
  0
ENDBLK
  5
67
330
64
100
AcDbEntity
  8
0
100
AcDbBlockEnd
  0
BLOCK
  5
10FB
330
10F1
100
AcDbEntity
  8
0
100
AcDbBlockBegin
  2
*D5
 70
     1
 10
0.0
 20
0.0
 30
0.0
  3
*D5
  1

  0
LINE
  5
5A56
330
10F1
100
AcDbEntity
  8
AM_5
100
AcDbLine
 10
-50.0
 20
-3.000000000000008
 30
0.0
 11
-50.0
 21
-16.50000099999996
 31
0.0
  0
LINE
  5
5A57
330
10F1
100
AcDbEntity
  8
AM_5
100
AcDbLine
 10
-0.0000000000039666
 20
-3.049999999990087
 30
0.0
 11
-0.0000000000039674
 21
-16.50000099999996
 31
0.0
  0
LINE
  5
5A58
330
10F1
100
AcDbEntity
  8
AM_5
100
AcDbLine
 10
-48.75
 20
-16.00000099999996
 30
0.0
 11
-1.250000000003967
 21
-16.00000099999996
 31
0.0
  0
INSERT
  5
5A59
330
10F1
100
AcDbEntity
  8
AM_5
100
AcDbBlockReference
  2
_OPEN30
 10
-50.0
 20
-16.00000099999996
 30
0.0
 41
1.25
 42
1.25
 43
1.25
 50
180.0
  0
INSERT
  5
5A5A
330
10F1
100
AcDbEntity
  8
AM_5
100
AcDbBlockReference
  2
_OPEN30
 10
-0.0000000000039674
 20
-16.00000099999996
 30
0.0
 41
1.25
 42
1.25
 43
1.25
  0
MTEXT
  5
5A5B
330
10F1
100
AcDbEntity
  8
AM_5
 62
     2
100
AcDbMText
 10
-25.00000000000198
 20
-14.45000099999996
 30
0.0
 40
1.6
 41
0.0
 71
     5
 72
     1
  1
50
  7
ASAMI
1001
ACAD
1000
MTEXTBEGIN
1070
    73
1070
     1
1070
    44
1040
1.0
1070
    74
1070
     0
1000
MTEXTEND
  0
POINT
  5
5A5C
330
10F1
100
AcDbEntity
  8
DEFPOINTS
 62
     0
100
AcDbPoint
 10
-50.0
 20
-2.500000000000008
 30
0.0
  0
POINT
  5
5A5D
330
10F1
100
AcDbEntity
  8
DEFPOINTS
 62
     0
100
AcDbPoint
 10
-0.0000000000039665
 20
-2.549999999990087
 30
0.0
  0
POINT
  5
5A5E
330
10F1
100
AcDbEntity
  8
DEFPOINTS
 62
     0
100
AcDbPoint
 10
-0.0000000000039674
 20
-16.00000099999996
 30
0.0
  0
ENDBLK
  5
10FC
330
10F1
100
AcDbEntity
  8
0
100
AcDbBlockEnd
  0
BLOCK
  5
12E5
330
12D9
100
AcDbEntity
  8
0
100
AcDbBlockBegin
  2
*D6
 70
     1
 10
0.0
 20
0.0
 30
0.0
  3
*D6
  1

  0
LINE
  5
5A5F
330
12D9
100
AcDbEntity
  8
AM_5
100
AcDbLine
 10
-0.000000000003828
 20
-3.049999999990087
 30
0.0
 11
-0.0000000000038285
 21
-10.50000099999998
 31
0.0
  0
LINE
  5
5A60
330
12D9
100
AcDbEntity
  8
AM_5
100
AcDbLine
 10
-12.00000000000011
 20
-3.049999999999358
 30
0.0
 11
-12.00000000000011
 21
-10.50000099999998
 31
0.0
  0
LINE
  5
5A61
330
12D9
100
AcDbEntity
  8
AM_5
100
AcDbLine
 10
-1.250000000003828
 20
-10.00000099999998
 30
0.0
 11
-10.75000000000011
 21
-10.00000099999998
 31
0.0
  0
INSERT
  5
5A62
330
12D9
100
AcDbEntity
  8
AM_5
100
AcDbBlockReference
  2
_OPEN30
 10
-0.0000000000038284
 20
-10.00000099999998
 30
0.0
 41
1.25
 42
1.25
 43
1.25
  0
INSERT
  5
5A63
330
12D9
100
AcDbEntity
  8
AM_5
100
AcDbBlockReference
  2
_OPEN30
 10
-12.00000000000011
 20
-10.00000099999998
 30
0.0
 41
1.25
 42
1.25
 43
1.25
 50
180.0
  0
MTEXT
  5
5A64
330
12D9
100
AcDbEntity
  8
AM_5
 62
     2
100
AcDbMText
 10
-6.00000000000197
 20
-8.450000999999986
 30
0.0
 40
1.6
 41
0.0
 71
     5
 72
     1
  1
12
  7
ASAMI
1001
ACAD
1000
MTEXTBEGIN
1070
    73
1070
     1
1070
    44
1040
1.0
1070
    74
1070
     0
1000
MTEXTEND
  0
POINT
  5
5A65
330
12D9
100
AcDbEntity
  8
DEFPOINTS
 62
     0
100
AcDbPoint
 10
-0.000000000003828
 20
-2.549999999990087
 30
0.0
  0
POINT
  5
5A66
330
12D9
100
AcDbEntity
  8
DEFPOINTS
 62
     0
100
AcDbPoint
 10
-12.00000000000011
 20
-2.549999999999358
 30
0.0
  0
POINT
  5
5A67
330
12D9
100
AcDbEntity
  8
DEFPOINTS
 62
     0
100
AcDbPoint
 10
-12.00000000000011
 20
-10.00000099999998
 30
0.0
  0
ENDBLK
  5
12E6
330
12D9
100
AcDbEntity
  8
0
100
AcDbBlockEnd
  0
BLOCK
  5
1A7F
330
1A74
100
AcDbEntity
  8
0
100
AcDbBlockBegin
  2
*D7
 70
     1
 10
0.0
 20
0.0
 30
0.0
  3
*D7
  1

  0
LINE
  5
544B
330
1A74
100
AcDbEntity
  8
AM_5
100
AcDbLine
 10
-50.00000000000001
 20
2.999999999999993
 30
0.0
 11
-59.00000099999999
 21
2.999999999999996
 31
0.0
  0
LINE
  5
544C
330
1A74
100
AcDbEntity
  8
AM_5
100
AcDbLine
 10
-50.0
 20
-3.000000000000007
 30
0.0
 11
-59.00000099999999
 21
-3.000000000000005
 31
0.0
  0
LINE
  5
544D
330
1A74
100
AcDbEntity
  8
AM_5
100
AcDbLine
 10
-58.50000099999999
 20
4.249999999999995
 30
0.0
 11
-58.50000099999999
 21
5.499999999999995
 31
0.0
  0
LINE
  5
544E
330
1A74
100
AcDbEntity
  8
AM_5
100
AcDbLine
 10
-58.50000099999999
 20
-4.250000000000005
 30
0.0
 11
-58.50000099999999
 21
-5.500000000000005
 31
0.0
  0
LINE
  5
544F
330
1A74
100
AcDbEntity
  8
AM_5
100
AcDbLine
 10
-58.50000099999999
 20
2.999999999999995
 30
0.0
 11
-58.50000099999999
 21
-3.000000000000005
 31
0.0
  0
INSERT
  5
5450
330
1A74
100
AcDbEntity
  8
AM_5
100
AcDbBlockReference
  2
_OPEN30
 10
-58.50000099999999
 20
2.999999999999995
 30
0.0
 41
1.25
 42
1.25
 43
1.25
 50
270.0
  0
INSERT
  5
5451
330
1A74
100
AcDbEntity
  8
AM_5
100
AcDbBlockReference
  2
_OPEN30
 10
-58.50000099999999
 20
-3.000000000000005
 30
0.0
 41
1.25
 42
1.25
 43
1.25
 50
90.0
  0
MTEXT
  5
5452
330
1A74
100
AcDbEntity
  8
AM_5
 62
     2
100
AcDbMText
 10
-60.050001
 20
-0.0000000000000082
 30
0.0
 40
1.6
 41
0.0
 71
     5
 72
     1
  1
%%c6
  7
ASAMI
 11
0.0000000000000001
 21
1.0
 31
0.0
1001
ACAD
1000
MTEXTBEGIN
1070
    73
1070
     1
1070
    44
1040
1.0
1070
    74
1070
     0
1000
MTEXTEND
  0
POINT
  5
5453
330
1A74
100
AcDbEntity
  8
DEFPOINTS
 62
     0
100
AcDbPoint
 10
-49.50000000000001
 20
2.999999999999993
 30
0.0
  0
POINT
  5
5454
330
1A74
100
AcDbEntity
  8
DEFPOINTS
 62
     0
100
AcDbPoint
 10
-49.49999999999999
 20
-3.000000000000007
 30
0.0
  0
POINT
  5
5455
330
1A74
100
AcDbEntity
  8
DEFPOINTS
 62
     0
100
AcDbPoint
 10
-58.50000099999999
 20
-3.000000000000005
 30
0.0
  0
ENDBLK
  5
1A80
330
1A74
100
AcDbEntity
  8
0
100
AcDbBlockEnd
  0
BLOCK
  5
597B
330
5970
100
AcDbEntity
  8
0
100
AcDbBlockBegin
  2
*D8
 70
     1
 10
0.0
 20
0.0
 30
0.0
  3
*D8
  1

  0
LINE
  5
599C
330
5970
100
AcDbEntity
  8
AM_5
100
AcDbLine
 10
0.5
 20
2.549999999999999
 30
0.0
 11
9.551050680252128
 21
2.549999999999997
 31
0.0
  0
LINE
  5
599D
330
5970
100
AcDbEntity
  8
AM_5
100
AcDbLine
 10
0.4999999999998385
 20
-2.549999999989728
 30
0.0
 11
9.551050680252128
 21
-2.549999999989731
 31
0.0
  0
LINE
  5
599E
330
5970
100
AcDbEntity
  8
AM_5
100
AcDbLine
 10
9.051050680252128
 20
1.299999999999997
 30
0.0
 11
9.051050680252128
 21
-1.299999999989731
 31
0.0
  0
LINE
  5
599F
330
5970
100
AcDbEntity
  8
AM_5
100
AcDbLine
 10
9.051050680252128
 20
-2.549999999989731
 30
0.0
 11
9.051050680252126
 21
-9.414285714275445
 31
0.0
  0
INSERT
  5
59A0
330
5970
100
AcDbEntity
  8
AM_5
100
AcDbBlockReference
  2
_OPEN30
 10
9.051050680252128
 20
2.549999999999997
 30
0.0
 41
1.25
 42
1.25
 43
1.25
 50
90.0
  0
INSERT
  5
59A1
330
5970
100
AcDbEntity
  8
AM_5
100
AcDbBlockReference
  2
_OPEN30
 10
9.051050680252128
 20
-2.549999999989731
 30
0.0
 41
1.25
 42
1.25
 43
1.25
 50
270.0
  0
MTEXT
  5
59A2
330
5970
100
AcDbEntity
  8
AM_5
 62
     2
100
AcDbMText
 10
7.501050680252127
 20
-6.607142857132587
 30
0.0
 40
1.6
 41
0.0
 71
     5
 72
     1
  1
%%c5.1
  7
ASAMI
 11
0.0000000000000001
 21
1.0
 31
0.0
1001
ACAD
1000
MTEXTBEGIN
1070
    73
1070
     1
1070
    44
1040
1.0
1070
    74
1070
     0
1000
MTEXTEND
  0
POINT
  5
59A3
330
5970
100
AcDbEntity
  8
DEFPOINTS
 62
     0
100
AcDbPoint
 10
0.0
 20
2.549999999999999
 30
0.0
  0
POINT
  5
59A4
330
5970
100
AcDbEntity
  8
DEFPOINTS
 62
     0
100
AcDbPoint
 10
-0.0000000000001616
 20
-2.549999999989728
 30
0.0
  0
POINT
  5
59A5
330
5970
100
AcDbEntity
  8
DEFPOINTS
 62
     0
100
AcDbPoint
 10
9.051050680252128
 20
-2.549999999989731
 30
0.0
  0
ENDBLK
  5
597C
330
5970
100
AcDbEntity
  8
0
100
AcDbBlockEnd
  0
ENDSEC
  0
SECTION
  2
ENTITIES
  0
LINE
  5
C2E
330
1F
100
AcDbEntity
  8
AM_7
  6
AM_ISO08W050X2
100
AcDbLine
 10
2.051049680252134
 20
0.0
 30
0.0
 11
-51.5
 21
-0.0000000000000077
 31
0.0
  0
DIMENSION
  5
10F0
330
1F
100
AcDbEntity
  8
AM_5
100
AcDbDimension
  2
*D5
 10
-0.0000000000039674
 20
-16.00000099999996
 30
0.0
 11
-25.00000000000198
 21
-14.45000099999996
 31
0.0
 70
    32
  1
<>
  3
AM_JIS
100
AcDbAlignedDimension
 13
-50.0
 23
-2.500000000000008
 33
0.0
 14
-0.0000000000039665
 24
-2.549999999990087
 34
0.0
 50
0.0000000000001132
100
AcDbRotatedDimension
1001
GENIUS_GENDTOL_13
1000

1000
h7
1000

1040
0.0
  0
DIMENSION
  5
12D8
330
1F
100
AcDbEntity
  8
AM_5
100
AcDbDimension
  2
*D6
 10
-12.00000000000011
 20
-10.00000099999998
 30
0.0
 11
-6.00000000000197
 21
-8.450000999999986
 31
0.0
 70
    32
  1
<>
  3
AM_JIS
100
AcDbAlignedDimension
 13
-0.000000000003828
 23
-2.549999999990087
 33
0.0
 14
-12.00000000000011
 24
-2.549999999999358
 34
0.0
 50
0.0000000000001132
100
AcDbRotatedDimension
1001
GENIUS_GENDTOL_13
1000

1000
h7
1000

1040
0.0
  0
TEXT
  5
1500
330
1F
100
AcDbEntity
  8
AM_6
100
AcDbText
 10
-32.67857142857339
 20
-27.25000099999996
 30
0.0
 40
2.5
  1
SSM2051
 72
     4
 11
-25.00000000000197
 21
-26.00000099999996
 31
0.0
100
AcDbText
  0
DIMENSION
  5
1A73
330
1F
100
AcDbEntity
  8
AM_5
100
AcDbDimension
  2
*D7
 10
-58.50000099999999
 20
-3.000000000000005
 30
0.0
 11
-58.50000099999999
 21
-0.0000000000000084
 31
0.0
 70
   160
  1
%%c<>
  3
AM_JIS
100
AcDbAlignedDimension
 13
-49.50000000000001
 23
2.999999999999993
 33
0.0
 14
-49.49999999999999
 24
-3.000000000000007
 34
0.0
 50
270.0
100
AcDbRotatedDimension
1001
GENIUS_GENDTOL_13
1000

1000
h7
1000

1040
0.0
  0
LINE
  5
3D3C
330
1F
100
AcDbEntity
  8
AM_0
100
AcDbLine
 10
-13.60000000000058
 20
2.549999999999968
 30
0.0
 11
-18.3205771365935
 21
2.549999999999864
 31
0.0
  0
LINE
  5
3D3F
330
1F
100
AcDbEntity
  8
AM_0
100
AcDbLine
 10
-18.320577136594
 20
-2.549999999999365
 30
0.0
 11
-11.99999999998581
 21
-2.549999999999359
 31
0.0
  0
LINE
  5
3DAD
330
1F
100
AcDbEntity
  8
AM_0
100
AcDbLine
 10
-50.0
 20
-2.500000000000007
 30
0.0
 11
-50.00000000000001
 21
2.499999999999993
 31
0.0
  0
LINE
  5
3DAF
330
1F
100
AcDbEntity
  8
AM_0
100
AcDbLine
 10
-49.49999999999999
 20
-3.000000000000007
 30
0.0
 11
-20.0
 21
-3.000000000000003
 31
0.0
  0
LINE
  5
3DB0
330
1F
100
AcDbEntity
  8
AM_0
100
AcDbLine
 10
-49.50000000000001
 20
2.999999999999993
 30
0.0
 11
-20.0
 21
3.0
 31
0.0
  0
LINE
  5
3E60
330
1F
100
AcDbEntity
  8
AM_0
100
AcDbLine
 10
-20.0
 20
2.999999999999999
 30
0.0
 11
-18.3205771365935
 21
2.549999999999864
 31
0.0
  0
LINE
  5
3E62
330
1F
100
AcDbEntity
  8
AM_0
100
AcDbLine
 10
-18.320577136594
 20
-2.550000000000005
 30
0.0
 11
-19.99999999999999
 21
-3.000000000000001
 31
0.0
  0
LINE
  5
403B
330
1F
100
AcDbEntity
  8
AM_0
100
AcDbLine
 10
-20.0
 20
-3.000000000000003
 30
0.0
 11
-20.0
 21
3.000000000000001
 31
0.0
  0
LINE
  5
409A
330
1F
100
AcDbEntity
  8
AM_0
100
AcDbLine
 10
-49.50000000000001
 20
2.999999999999993
 30
0.0
 11
-50.00000000000001
 21
2.499999999999993
 31
0.0
1001
GENIUS_GENFIL_13
1070
     0
1040
0.5
1040
0.5
1040
20.0
1040
0.0
1002
{
1002
}
1001
GENIUS_GENODEF_13
1002
{
1000
HIER
1070
     0
1002
}
1002
{
1000
MANEDIT
1070
     0
1002
}
1002
{
1000
NOSEL
1070
     0
1002
}
1002
{
1000
BEHIND
1070
     0
1002
}
1002
{
1000
REACTOR
1002
}
1001
GENIUS_GENOBJ-N-CHA_13
1002
{
1000
OWNER
1000
GEN
1002
}
  0
LINE
  5
409C
330
1F
100
AcDbEntity
  8
AM_0
100
AcDbLine
 10
-50.0
 20
-2.500000000000007
 30
0.0
 11
-49.49999999999999
 21
-3.000000000000007
 31
0.0
1001
GENIUS_GENFIL_13
1070
     0
1040
0.5
1040
0.5
1040
20.0
1040
0.0
1002
{
1002
}
1001
GENIUS_GENODEF_13
1002
{
1000
HIER
1070
     0
1002
}
1002
{
1000
MANEDIT
1070
     0
1002
}
1002
{
1000
NOSEL
1070
     0
1002
}
1002
{
1000
BEHIND
1070
     0
1002
}
1002
{
1000
REACTOR
1002
}
1001
GENIUS_GENOBJ-N-CHA_13
1002
{
1000
OWNER
1000
GEN
1002
}
  0
LINE
  5
409D
330
1F
100
AcDbEntity
  8
AM_0
100
AcDbLine
 10
-49.50000000000001
 20
2.999999999999993
 30
0.0
 11
-49.49999999999999
 21
-3.000000000000007
 31
0.0
  0
LINE
  5
4601
330
1F
100
AcDbEntity
  8
AM_0
100
AcDbLine
 10
-18.3205771365935
 20
2.549999999999865
 30
0.0
 11
-18.320577136594
 21
-2.550000000000004
 31
0.0
  0
DIMENSION
  5
596F
330
1F
100
AcDbEntity
  8
AM_5
100
AcDbDimension
  2
*D8
 10
9.051050680252128
 20
-2.549999999989731
 30
0.0
 11
7.501050680252127
 21
-6.607142857132587
 31
0.0
 70
    32
  1
%%c<>
  3
AM_JIS
100
AcDbAlignedDimension
 13
0.0
 23
2.549999999999999
 33
0.0
 14
-0.0000000000001616
 24
-2.549999999989728
 34
0.0
 50
90.0
100
AcDbRotatedDimension
1001
GENIUS_GENDTOL_13
1000

1000
h7
1000

1040
0.0
  0
LINE
  5
597D
330
1F
100
AcDbEntity
  8
AM_0
100
AcDbLine
 10
0.0
 20
0.51
 30
0.0
 11
0.0
 21
2.549999999999999
 31
0.0
  0
ELLIPSE
  5
597E
330
1F
100
AcDbEntity
  8
AM_0
100
AcDbEllipse
 10
7.10338422119133
 20
0.0107290289712682
 30
0.0
 11
-0.0000000000000973
 21
7.717585398855058
 31
0.0
210
0.0
220
0.0
230
1.0
 40
0.980392156862743
 41
1.489874453283498
 42
1.841418545974781
  0
LINE
  5
597F
330
1F
100
AcDbEntity
  8
AM_0
100
AcDbLine
 10
0.0
 20
0.1019999999999942
 30
0.0
 11
-1.178286115510957
 21
1.534311245489319
 31
0.0
  0
LINE
  5
5980
330
1F
100
AcDbEntity
  8
AM_0
100
AcDbLine
 10
-0.1678199262354667
 20
0.3059999999999826
 30
0.0
 11
0.0
 21
0.51
 31
0.0
  0
LINE
  5
5981
330
1F
100
AcDbEntity
  8
AM_0
100
AcDbLine
 10
0.0
 20
-2.549999999999999
 30
0.0
 11
0.0
 21
0.1019999999999942
 31
0.0
  0
LINE
  5
5982
330
1F
100
AcDbEntity
  8
AM_0
100
AcDbLine
 10
-0.0525000000000091
 20
-2.414054990387131
 30
0.0
 11
-0.0525000000000091
 21
0.1658184048834158
 31
0.0
  0
LINE
  5
5983
330
1F
100
AcDbEntity
  8
AM_0
100
AcDbLine
 10
-0.0525000000000091
 20
-2.414054990387131
 30
0.0
 11
-0.1875
 21
-2.079892294101767
 31
0.0
  0
LINE
  5
5984
330
1F
100
AcDbEntity
  8
AM_0
100
AcDbLine
 10
0.0
 20
-2.549999999999999
 30
0.0
 11
-0.0525000000000091
 21
-2.414054990387131
 31
0.0
  0
LINE
  5
5985
330
1F
100
AcDbEntity
  8
AM_0
100
AcDbLine
 10
-0.1875
 20
-2.079892294101767
 30
0.0
 11
-0.1875
 21
-2.052421269877636
 31
0.0
  0
LINE
  5
5986
330
1F
100
AcDbEntity
  8
AM_11
100
AcDbLine
 10
-12.00000000000011
 20
-2.549999999999358
 30
0.0
 11
-12.00000000000011
 21
2.550000000000003
 31
0.0
  0
ELLIPSE
  5
5988
330
1F
100
AcDbEntity
  8
AM_0
100
AcDbEllipse
 10
-14.3017595704361
 20
20.1351509755192
 30
0.0
 11
0.0000000000000514
 21
22.80631962912659
 31
0.0
210
0.0
220
0.0
230
1.0
 40
0.980392156862743
 41
3.244720275918944
 42
3.355196271424654
  0
ELLIPSE
  5
5989
330
1F
100
AcDbEntity
  8
AM_0
100
AcDbEllipse
 10
6.410938619741747
 20
41.05100436299722
 30
0.0
 11
0.0000000000328208
 21
45.70131951533341
 31
0.0
210
0.0
220
0.0
230
1.0
 40
0.9803921568627284
 41
2.592099274283917
 42
2.686557308636722
  0
ELLIPSE
  5
598A
330
1F
100
AcDbEntity
  8
AM_0
100
AcDbEllipse
 10
-12.25236708346256
 20
-1.910336704535739
 30
0.0
 11
1.034849510318613
 21
3.356723822307813
 31
0.0
210
0.0
220
0.0
230
0.9999999999999998
 40
0.8725984481126886
 41
1.057935938060289
 42
1.646457201001022
  0
ELLIPSE
  5
598B
330
1F
100
AcDbEntity
  8
AM_0
100
AcDbEllipse
 10
-11.87667373172377
 20
3.984617139983032
 30
0.0
 11
0.000000000000043
 21
6.276327401576957
 31
0.0
210
0.0
220
0.0
230
1.0
 40
0.9803921568627441
 41
2.561112004778909
 42
3.215132800571169
  0
ELLIPSE
  5
598C
330
1F
100
AcDbEntity
  8
AM_0
100
AcDbEllipse
 10
-11.54080377383615
 20
3.575512728891938
 30
0.0
 11
0.0000000000000326
 21
6.143393700339178
 31
0.0
210
0.0
220
0.0
230
1.0
 40
0.9803921568627449
 41
2.477864006398942
 42
3.065277325949167
  0
LINE
  5
598D
330
1F
100
AcDbEntity
  8
AM_11
100
AcDbLine
 10
-0.0000000000003837
 20
2.549999999999999
 30
0.0
 11
-12.00000000000011
 21
2.550000000000003
 31
0.0
  0
LINE
  5
598E
330
1F
100
AcDbEntity
  8
AM_0
100
AcDbLine
 10
-6.564766751284347
 20
-1.956714683952266
 30
0.0
 11
-11.42456969342878
 21
-2.274746238880733
 31
0.0
  0
LINE
  5
598F
330
1F
100
AcDbEntity
  8
AM_0
100
AcDbLine
 10
-9.545877283273668
 20
2.050634799951032
 30
0.0
 11
-1.178286115510957
 21
1.534311245489319
 31
0.0
  0
LINE
  5
5990
330
1F
100
AcDbEntity
  8
AM_11
100
AcDbLine
 10
-12.00000000000011
 20
-2.549999999999962
 30
0.0
 11
0.0
 21
-2.549999999999999
 31
0.0
  0
SPLINE
  5
5991
330
1F
100
AcDbEntity
  8
AM_0
100
AcDbSpline
210
0.0
220
0.0
230
1.0
 70
     8
 71
     3
 72
     8
 73
     4
 74
     0
 42
0.0000000001
 43
0.0000000001
 40
0.0
 40
0.0
 40
0.0
 40
0.0
 40
7.244998274671979
 40
7.244998274671979
 40
7.244998274671979
 40
7.244998274671979
 10
-13.59999999999999
 20
2.550000000000061
 30
0.0
 10
-11.18500057510933
 20
2.550000000000061
 30
0.0
 10
-8.992500287554666
 20
1.275000000000061
 30
0.0
 10
-6.799999999999997
 20
0.0000000000000616
 30
0.0
  0
SPLINE
  5
5992
330
1F
100
AcDbEntity
  8
AM_0
100
AcDbSpline
210
0.0
220
0.0
230
1.0
 70
     8
 71
     3
 72
     8
 73
     4
 74
     0
 42
0.0000000001
 43
0.0000000001
 40
0.3581103616548037
 40
0.3581103616548037
 40
0.3581103616548037
 40
0.3581103616548037
 40
14.43901837670146
 40
14.43901837670146
 40
14.43901837670146
 40
14.43901837670146
 10
-12.54860429966109
 20
2.471381165654868
 30
0.0
 10
-10.21180691323297
 20
2.412294394107147
 30
0.0
 10
-8.069541261117834
 20
1.20614719705359
 30
0.0
 10
-5.927275609002691
 20
0.000000000000029
 30
0.0
  0
SPLINE
  5
5993
330
1F
100
AcDbEntity
  8
AM_0
100
AcDbSpline
210
0.0
220
0.0
230
1.0
 70
     8
 71
     3
 72
     8
 73
     4
 74
     0
 42
0.0000000001
 43
0.0000000001
 40
0.0
 40
0.0
 40
0.0
 40
0.0
 40
1.293282661808369
 40
1.293282661808369
 40
1.293282661808369
 40
1.293282661808369
 10
0.0
 20
2.078098370208821
 30
0.0
 10
-0.2766336902514751
 20
1.740856030037011
 30
0.0
 10
-0.7514597523580079
 20
1.596031636431419
 30
0.0
 10
-1.178286115510957
 20
1.534311245489319
 30
0.0
  0
SPLINE
  5
5994
330
1F
100
AcDbEntity
  8
AM_0
100
AcDbSpline
210
0.0
220
0.0
230
1.0
 70
     8
 71
     3
 72
     8
 73
     4
 74
     0
 42
0.0000000001
 43
0.0000000001
 40
0.0
 40
0.0
 40
0.0
 40
0.0
 40
7.57842115059705
 40
7.57842115059705
 40
7.57842115059705
 40
7.57842115059705
 10
0.0
 20
2.549999999999999
 30
0.0
 10
-1.263070191766175
 20
2.549999999999999
 30
0.0
 10
-2.465277960247931
 20
2.201236446951019
 30
0.0
 10
-3.638454995282074
 20
1.686116360618921
 30
0.0
  0
SPLINE
  5
5995
330
1F
100
AcDbEntity
  8
AM_0
100
AcDbSpline
210
0.0
220
0.0
230
1.0
 70
     8
 71
     3
 72
     8
 73
     4
 74
     0
 42
0.0000000001
 43
0.0000000001
 40
0.7142832446738512
 40
0.7142832446738512
 40
0.7142832446738512
 40
0.7142832446738512
 40
14.36247867694493
 40
14.36247867694493
 40
14.36247867694493
 40
14.36247867694493
 10
-11.36659098623553
 20
2.346304872810392
 30
0.0
 10
-9.109460817677998
 20
2.237781588092524
 30
0.0
 10
-7.015901238595176
 20
1.118890794046278
 30
0.0
 10
-4.922341659512355
 20
0.000000000000029
 30
0.0
  0
SPLINE
  5
5996
330
1F
100
AcDbEntity
  8
AM_0
100
AcDbSpline
210
0.0
220
0.0
230
1.0
 70
     8
 71
     3
 72
     8
 73
     4
 74
     0
 42
0.0000000001
 43
0.0000000001
 40
0.0
 40
0.0
 40
0.0
 40
0.0
 40
5.192508374738713
 40
5.192508374738713
 40
5.192508374738713
 40
5.192508374738713
 10
-13.59999999999999
 20
2.550000000000003
 30
0.0
 10
-14.46541806245642
 20
2.550000000000003
 30
0.0
 10
-15.36237880090328
 20
2.437244413536149
 30
0.0
 10
-16.98882048942189
 20
2.077411886417408
 30
0.0
  0
SPLINE
  5
5997
330
1F
100
AcDbEntity
  8
AM_0
100
AcDbSpline
210
0.0
220
0.0
230
1.0
 70
     8
 71
     3
 72
     8
 73
     4
 74
     0
 42
0.0000000001
 43
0.0000000001
 40
0.0
 40
0.0
 40
0.0
 40
0.0
 40
7.24499827467198
 40
7.24499827467198
 40
7.24499827467198
 40
7.24499827467198
 10
0.0
 20
-2.549999999999999
 30
0.0
 10
-2.41499942489066
 20
-2.549999999999999
 30
0.0
 10
-4.607499712445329
 20
-1.274999999999997
 30
0.0
 10
-6.799999999999997
 20
0.0000000000000036
 30
0.0
  0
SPLINE
  5
5998
330
1F
100
AcDbEntity
  8
AM_0
100
AcDbSpline
210
0.0
220
0.0
230
1.0
 70
     8
 71
     3
 72
     8
 73
     4
 74
     0
 42
0.0000000001
 43
0.0000000001
 40
1.870660592686466
 40
1.870660592686466
 40
1.870660592686466
 40
1.870660592686466
 40
14.43901837670146
 40
14.43901837670146
 40
14.43901837670146
 40
14.43901837670146
 10
-0.0524999999999949
 20
-2.414054990387102
 30
0.0
 10
-2.10298229561441
 20
-2.153169312171754
 30
0.0
 10
-4.015128952308558
 20
-1.076584656085862
 30
0.0
 10
-5.927275609002691
 20
0.000000000000029
 30
0.0
  0
SPLINE
  5
5999
330
1F
100
AcDbEntity
  8
AM_0
100
AcDbSpline
210
0.0
220
0.0
230
1.0
 70
     8
 71
     3
 72
     8
 73
     4
 74
     0
 42
0.0000000001
 43
0.0000000001
 40
4.219358800530717
 40
4.219358800530717
 40
4.219358800530717
 40
4.219358800530717
 40
14.36247867694493
 40
14.36247867694493
 40
14.36247867694493
 40
14.36247867694493
 10
-0.1874999999999716
 20
-2.079892294101651
 30
0.0
 10
-1.810541878445079
 20
-1.663083373761291
 30
0.0
 10
-3.366441768978717
 20
-0.8315416868806313
 30
0.0
 10
-4.922341659512355
 20
0.000000000000029
 30
0.0
  0
SPLINE
  5
599A
330
1F
100
AcDbEntity
  8
AM_0
100
AcDbSpline
210
0.0
220
0.0
230
1.0
 70
     8
 71
     3
 72
     8
 73
     4
 74
     0
 42
0.0000000001
 43
0.0000000001
 40
0.0
 40
0.0
 40
0.0
 40
0.0
 40
2.238610194515266
 40
2.238610194515266
 40
2.238610194515266
 40
2.238610194515266
 10
-6.564766751284347
 20
-1.956714683952266
 30
0.0
 10
-5.033194792198244
 20
-1.956714683952266
 30
0.0
 10
-4.314878680178097
 20
-1.86078063341972
 30
0.0
 10
-3.605707777204386
 20
-1.6986616803377
 30
0.0
  0
SPLINE
  5
599B
330
1F
100
AcDbEntity
  8
AM_0
100
AcDbSpline
210
0.0
220
0.0
230
1.0
 70
     8
 71
     3
 72
     8
 73
     4
 74
     0
 42
0.0000000001
 43
0.0000000001
 40
0.0
 40
0.0
 40
0.0
 40
0.0
 40
13.97258598406841
 40
13.97258598406841
 40
13.97258598406841
 40
13.97258598406841
 10
-6.564766751284347
 20
-1.956714683952266
 30
0.0
 10
-8.89353108196243
 20
-1.956714683952263
 30
0.0
 10
-11.08797424308873
 20
-0.9846173298343011
 30
0.0
 10
-13.28068743573622
 20
0.0000000000000326
 30
0.0
  0
VIEWPORT
  5
110
330
101
100
AcDbEntity
 67
     1
  8
0
100
AcDbViewport
 10
420.5
 20
297.0
 30
0.0
 40
948.9782706766916
 41
628.452
 68
     1
 69
     1
1001
ACAD
1000
MVIEW
1002
{
1070
    16
1010
0.0
1020
0.0
1030
0.0
1010
0.0
1020
0.0
1030
1.0
1040
0.0
1040
628.452
1040
420.5
1040
297.0
1040
50.0
1040
0.0
1040
0.0
1070
     0
1070
   100
1070
     1
1070
     1
1070
     0
1070
     0
1070
     0
1070
     0
1040
0.0
1040
0.0
1040
0.0
1040
10.0
1040
10.0
1040
10.0
1040
10.0
1070
     0
1002
{
1002
}
1002
}
  0
ENDSEC
  0
SECTION
  2
OBJECTS
  0
DICTIONARY
  5
C
330
0
100
AcDbDictionary
  3
ACAD_GROUP
350
D
  3
ACAD_LAYOUT
350
1A
  3
ACAD_MLINESTYLE
350
17
  3
ACAD_PLOTSETTINGS
350
19
  3
ACAD_PLOTSTYLENAME
350
E
  3
ACDBVARIABLEDICTIONARY
350
34
  3
ACMDICTIONARY
350
43
  3
AMG
350
2B
  3
AMGSNAPSETTINGS
350
6E
  3
ASE_INDEX_DICTIONARY
350
151A
  3
DWGPROPS
350
5B90
  3
ACDBHEADERROUNDTRIPXREC
350
5B9C
  0
DICTIONARY
  5
74
330
1F
100
AcDbDictionary
280
     1
  3
ACAD_INDEX
360
5B92
  3
ACAD_LAYOUTSELFREF
360
5BBF
  0
DICTIONARY
  5
5BC4
330
101
100
AcDbDictionary
280
     1
  3
ACAD_LAYOUTSELFREF
360
5BC5
  0
DICTIONARY
  5
D
102
{ACAD_REACTORS
330
C
102
}
330
C
100
AcDbDictionary
  0
DICTIONARY
  5
1A
102
{ACAD_REACTORS
330
C
102
}
330
C
100
AcDbDictionary
  0
DICTIONARY
  5
17
102
{ACAD_REACTORS
330
C
102
}
330
C
100
AcDbDictionary
  3
STANDARD
350
18
  0
DICTIONARY
  5
19
102
{ACAD_REACTORS
330
C
102
}
330
C
100
AcDbDictionary
  0
ACDBDICTIONARYWDFLT
  5
E
102
{ACAD_REACTORS
330
C
102
}
330
C
100
AcDbDictionary
281
     1
  3
Normal
350
F
100
AcDbDictionaryWithDefault
340
F
  0
DICTIONARY
  5
34
102
{ACAD_REACTORS
330
C
102
}
330
C
100
AcDbDictionary
  3
INDEXCTL
350
35
  3
SORTENTS
350
B5E
  0
DICTIONARY
  5
43
102
{ACAD_REACTORS
330
C
102
}
330
C
100
AcDbDictionary
  3
ACMSTDDICTIONARY
350
260
  0
DICTIONARY
  5
2B
102
{ACAD_REACTORS
330
C
102
}
330
C
100
AcDbDictionary
  3
ACMGSETTINGS
350
2C
  0
DICTIONARY
  5
6E
102
{ACAD_REACTORS
330
C
102
}
330
C
100
AcDbDictionary
  0
DICTIONARY
  5
151A
102
{ACAD_REACTORS
330
C
102
}
330
C
100
AcDbDictionary
  3
ASEBLOCKHIERARCHYINDEXRECORD
350
151C
1001
DCO15
1040
1471862535.906
  0
XRECORD
  5
5B90
102
{ACAD_REACTORS
330
C
102
}
330
C
100
AcDbXrecord
  1
DWGPROPS COOKIE
  2

  3

  4

  6

  7

  8

  9

300
AmdtFileType=82
301
=
302
=
303
=
304
=
305
=
306
=
307
=
308
=
309
=
 40
0.2452996759259259
 41
2452838.430434386
 42
2453045.603344572
  1

 90
        1
  0
DICTIONARY
  5
5B9C
102
{ACAD_REACTORS
330
C
102
}
330
C
100
AcDbDictionary
  3
TSTACKALIGN
350
5B9D
  3
TSTACKSIZE
350
5B9E
  3
HYPERLINKBASE
350
5B9F
  3
STYLESHEET
350
5BA0
  3
LAYOUTDICT
350
5BA1
  3
PLOTSETDICT
350
5BA2
  3
PLOTSTYLNAMDICT
350
5BA3
  3
LWETCUNION
350
5BA4
  3
INSUNITS
350
5BA5
  3
CEPSNTYPE
350
5BA6
  3
FINGERPRINTGUID
350
5BA7
  3
VERSIONGUID
350
5BA8
  3
PSVPSCALE
350
5BA9
  3
DIMSTYLEDATA
350
5BAA
  3
PUCSORTHOREF
350
5BAB
  3
PUCSORTHOVIEW
350
5BAC
  3
PUCSBASE
350
5BAD
  3
PUCSORGTOP
350
5BAE
  3
PUCSORGBOTTOM
350
5BAF
  3
PUCSORGLEFT
350
5BB0
  3
PUCSORGRIGHT
350
5BB1
  3
PUCSORGFRONT
350
5BB2
  3
PUCSORGBACK
350
5BB3
  3
UCSORTHOREF
350
5BB4
  3
UCSORTHOVIEW
350
5BB5
  3
UCSBASE
350
5BB6
  3
UCSORGTOP
350
5BB7
  3
UCSORGBOTTOM
350
5BB8
  3
UCSORGLEFT
350
5BB9
  3
UCSORGRIGHT
350
5BBA
  3
UCSORGFRONT
350
5BBB
  3
UCSORGBACK
350
5BBC
  0
DICTIONARY
  5
5B92
102
{ACAD_REACTORS
330
74
102
}
330
74
100
AcDbDictionary
  3
*A1
350
5B93
  0
XRECORD
  5
5BBF
102
{ACAD_REACTORS
330
74
102
}
330
74
100
AcDbXrecord
340
1F
  0
XRECORD
  5
5BC5
102
{ACAD_REACTORS
330
5BC4
102
}
330
5BC4
100
AcDbXrecord
340
101
  0
MLINESTYLE
  5
18
102
{ACAD_REACTORS
330
17
102
}
330
17
100
AcDbMlineStyle
  2
STANDARD
 70
     0
  3

 62
   256
 51
90.0
 52
90.0
 71
     2
 49
0.5
 62
   256
  6
BYLAYER
 49
-0.5
 62
   256
  6
BYLAYER
  0
ACDBPLACEHOLDER
  5
F
102
{ACAD_REACTORS
330
E
102
}
330
E
100
AcDbPlaceHolder
280
     0
  0
DICTIONARYVAR
  5
35
102
{ACAD_REACTORS
330
34
102
}
330
34
100
DictionaryVariables
280
     0
  1
1
  0
DICTIONARYVAR
  5
B5E
102
{ACAD_REACTORS
330
34
102
}
330
34
100
DictionaryVariables
280
     0
  1
96
  0
DICTIONARY
  5
260
102
{ACAD_REACTORS
330
43
102
}
330
43
100
AcDbDictionary
  0
DICTIONARY
  5
2C
102
{ACAD_REACTORS
330
2B
102
}
330
2B
100
AcDbDictionary
  3
DWGSETTINGS
350
2D
  0
XRECORD
  5
151C
102
{ACAD_REACTORS
330
151A
102
}
330
151A
100
AcDbXrecord
330
0
330
0
330
0
330
0
330
0
330
0
330
0
330
0
  0
XRECORD
  5
5B9D
102
{ACAD_REACTORS
330
5B9C
102
}
330
5B9C
100
AcDbXrecord
 90
        1
  0
XRECORD
  5
5B9E
102
{ACAD_REACTORS
330
5B9C
102
}
330
5B9C
100
AcDbXrecord
 90
       70
  0
XRECORD
  5
5B9F
102
{ACAD_REACTORS
330
5B9C
102
}
330
5B9C
100
AcDbXrecord
  1

  0
XRECORD
  5
5BA0
102
{ACAD_REACTORS
330
5B9C
102
}
330
5B9C
100
AcDbXrecord
  1
ASAMI.ctb
  0
XRECORD
  5
5BA1
102
{ACAD_REACTORS
330
5B9C
102
}
330
5B9C
100
AcDbXrecord
340
1A
  0
XRECORD
  5
5BA2
102
{ACAD_REACTORS
330
5B9C
102
}
330
5B9C
100
AcDbXrecord
340
19
  0
XRECORD
  5
5BA3
102
{ACAD_REACTORS
330
5B9C
102
}
330
5B9C
100
AcDbXrecord
340
E
  0
XRECORD
  5
5BA4
102
{ACAD_REACTORS
330
5B9C
102
}
330
5B9C
100
AcDbXrecord
 90
    10781
  0
XRECORD
  5
5BA5
102
{ACAD_REACTORS
330
5B9C
102
}
330
5B9C
100
AcDbXrecord
 90
        4
  0
XRECORD
  5
5BA6
102
{ACAD_REACTORS
330
5B9C
102
}
330
5B9C
100
AcDbXrecord
 90
        0
  0
XRECORD
  5
5BA7
102
{ACAD_REACTORS
330
5B9C
102
}
330
5B9C
100
AcDbXrecord
  1
{AFB28963-8C59-40AE-9337-C84526B81ACE}
  0
XRECORD
  5
5BA8
102
{ACAD_REACTORS
330
5B9C
102
}
330
5B9C
100
AcDbXrecord
  1
{3026C852-C16C-4D3B-975D-A97529D6734C}
  0
XRECORD
  5
5BA9
102
{ACAD_REACTORS
330
5B9C
102
}
330
5B9C
100
AcDbXrecord
 40
0.0
  0
XRECORD
  5
5BAA
102
{ACAD_REACTORS
330
5B9C
102
}
330
5B9C
100
AcDbXrecord
1000
DSTYLE
1002
{
1070
    79
 70
     2
1070
   341
340
59
1070
   342
340
59
1070
   371
 70
    -1
1070
   372
 70
    -1
1002
}
  0
XRECORD
  5
5BAB
102
{ACAD_REACTORS
330
5B9C
102
}
330
5B9C
100
AcDbXrecord
340
0
  0
XRECORD
  5
5BAC
102
{ACAD_REACTORS
330
5B9C
102
}
330
5B9C
100
AcDbXrecord
 70
     0
  0
XRECORD
  5
5BAD
102
{ACAD_REACTORS
330
5B9C
102
}
330
5B9C
100
AcDbXrecord
340
0
  0
XRECORD
  5
5BAE
102
{ACAD_REACTORS
330
5B9C
102
}
330
5B9C
100
AcDbXrecord
 10
0.0
 20
0.0
 30
0.0
  0
XRECORD
  5
5BAF
102
{ACAD_REACTORS
330
5B9C
102
}
330
5B9C
100
AcDbXrecord
 10
0.0
 20
0.0
 30
0.0
  0
XRECORD
  5
5BB0
102
{ACAD_REACTORS
330
5B9C
102
}
330
5B9C
100
AcDbXrecord
 10
0.0
 20
0.0
 30
0.0
  0
XRECORD
  5
5BB1
102
{ACAD_REACTORS
330
5B9C
102
}
330
5B9C
100
AcDbXrecord
 10
0.0
 20
0.0
 30
0.0
  0
XRECORD
  5
5BB2
102
{ACAD_REACTORS
330
5B9C
102
}
330
5B9C
100
AcDbXrecord
 10
0.0
 20
0.0
 30
0.0
  0
XRECORD
  5
5BB3
102
{ACAD_REACTORS
330
5B9C
102
}
330
5B9C
100
AcDbXrecord
 10
0.0
 20
0.0
 30
0.0
  0
XRECORD
  5
5BB4
102
{ACAD_REACTORS
330
5B9C
102
}
330
5B9C
100
AcDbXrecord
340
0
  0
XRECORD
  5
5BB5
102
{ACAD_REACTORS
330
5B9C
102
}
330
5B9C
100
AcDbXrecord
 70
     0
  0
XRECORD
  5
5BB6
102
{ACAD_REACTORS
330
5B9C
102
}
330
5B9C
100
AcDbXrecord
340
0
  0
XRECORD
  5
5BB7
102
{ACAD_REACTORS
330
5B9C
102
}
330
5B9C
100
AcDbXrecord
 10
0.0
 20
0.0
 30
0.0
  0
XRECORD
  5
5BB8
102
{ACAD_REACTORS
330
5B9C
102
}
330
5B9C
100
AcDbXrecord
 10
0.0
 20
0.0
 30
0.0
  0
XRECORD
  5
5BB9
102
{ACAD_REACTORS
330
5B9C
102
}
330
5B9C
100
AcDbXrecord
 10
0.0
 20
0.0
 30
0.0
  0
XRECORD
  5
5BBA
102
{ACAD_REACTORS
330
5B9C
102
}
330
5B9C
100
AcDbXrecord
 10
0.0
 20
0.0
 30
0.0
  0
XRECORD
  5
5BBB
102
{ACAD_REACTORS
330
5B9C
102
}
330
5B9C
100
AcDbXrecord
 10
0.0
 20
0.0
 30
0.0
  0
XRECORD
  5
5BBC
102
{ACAD_REACTORS
330
5B9C
102
}
330
5B9C
100
AcDbXrecord
 10
0.0
 20
0.0
 30
0.0
  0
LAYER_INDEX
  5
5B93
102
{ACAD_REACTORS
330
5B92
102
}
330
5B92
100
AcDbIndex
 40
2453151.82610309
100
AcDbLayerIndex
  8
0
360
5B94
 90
        0
  8
AM_0
360
5B95
 90
       39
  8
AM_11
360
5B96
 90
        3
  8
AM_7
360
5B97
 90
        1
  8
AM_5
360
5B98
 90
        4
  8
Defpoints
360
5B99
 90
        0
  8
AM_6
360
5B9A
 90
        1
  0
XRECORD
  5
2D
102
{ACAD_REACTORS
330
2C
102
}
330
2C
100
AcDbXrecord
  1
VERSION
140
15.0
  1
PRODUCT
  2
AutoCAD Mechanical 2000
  0
IDBUFFER
  5
5B94
330
0
100
AcDbIdBuffer
  0
IDBUFFER
  5
5B95
330
0
100
AcDbIdBuffer
330
5981
330
5982
330
5983
330
5984
330
5985
330
5988
330
5989
330
598A
330
598B
330
598C
330
598E
330
598F
330
5991
330
5992
330
5993
330
5994
330
5995
330
5996
330
5997
330
5998
330
5999
330
599A
330
599B
330
3D3C
330
3D3F
330
3DAD
330
3DAF
330
3DB0
330
3E60
330
3E62
330
403B
330
409A
330
409C
330
409D
330
4601
330
597D
330
597E
330
597F
330
5980
  0
IDBUFFER
  5
5B96
330
0
100
AcDbIdBuffer
330
5986
330
598D
330
5990
  0
IDBUFFER
  5
5B97
330
0
100
AcDbIdBuffer
330
C2E
  0
IDBUFFER
  5
5B98
330
0
100
AcDbIdBuffer
330
10F0
330
12D8
330
1A73
330
596F
  0
IDBUFFER
  5
5B99
330
0
100
AcDbIdBuffer
  0
IDBUFFER
  5
5B9A
330
0
100
AcDbIdBuffer
330
1500
  0
ENDSEC
  0
EOF
