  0
SECTION
  2
HEADER
  9
$ACADVER
  1
AC1014
  9
$ACADMAINTVER
 70
     9
  9
$DWGCODEPAGE
  3
ANSI_932
  9
$INSBASE
 10
0.0
 20
0.0
 30
0.0
  9
$EXTMIN
 10
-65.85000099999999
 20
-29.25000099999996
 30
-0.00000001
  9
$EXTMAX
 10
9.551050680252131
 20
5.000000000000004
 30
0.00000001
  9
$LIMMIN
 10
-72.84511067439154
 20
-38.01012831914536
  9
$LIMMAX
 10
17.06122657198113
 20
24.15591876139316
  9
$ORTHOMODE
 70
     0
  9
$REGENMODE
 70
     1
  9
$FILLMODE
 70
     1
  9
$QTEXTMODE
 70
     0
  9
$MIRRTEXT
 70
     0
  9
$DRAGMODE
 70
     2
  9
$LTSCALE
 40
1.0
  9
$OSMODE
 70
    55
  9
$ATTMODE
 70
     1
  9
$TEXTSIZE
 40
2.5
  9
$TRACEWID
 40
1.0
  9
$TEXTSTYLE
  7
STANDARD
  9
$CLAYER
  8
AM_0
  9
$CELTYPE
  6
BYLAYER
  9
$CECOLOR
 62
   256
  9
$CELTSCALE
 40
1.0
  9
$DELOBJ
 70
     1
  9
$DISPSILH
 70
     0
  9
$DIMSCALE
 40
0.5
  9
$DIMASZ
 40
2.5
  9
$DIMEXO
 40
1.0
  9
$DIMDLI
 40
12.0
  9
$DIMRND
 40
0.0
  9
$DIMDLE
 40
0.0
  9
$DIMEXE
 40
1.0
  9
$DIMTP
 40
0.1
  9
$DIMTM
 40
0.1
  9
$DIMTXT
 40
3.2
  9
$DIMCEN
 40
0.0
  9
$DIMTSZ
 40
0.0
  9
$DIMTOL
 70
     0
  9
$DIMLIM
 70
     0
  9
$DIMTIH
 70
     0
  9
$DIMTOH
 70
     0
  9
$DIMSE1
 70
     0
  9
$DIMSE2
 70
     0
  9
$DIMTAD
 70
     3
  9
$DIMZIN
 70
     8
  9
$DIMBLK
  1
OPEN30
  9
$DIMASO
 70
     1
  9
$DIMSHO
 70
     1
  9
$DIMPOST
  1

  9
$DIMAPOST
  1
"
  9
$DIMALT
 70
     0
  9
$DIMALTD
 70
     2
  9
$DIMALTF
 40
0.0393701
  9
$DIMLFAC
 40
1.0
  9
$DIMTOFL
 70
     1
  9
$DIMTVP
 40
0.0
  9
$DIMTIX
 70
     0
  9
$DIMSOXD
 70
     0
  9
$DIMSAH
 70
     0
  9
$DIMBLK1
  1

  9
$DIMBLK2
  1

  9
$DIMSTYLE
  2
AM_JIS
  9
$DIMCLRD
 70
   256
  9
$DIMCLRE
 70
   256
  9
$DIMCLRT
 70
     2
  9
$DIMTFAC
 40
0.71
  9
$DIMGAP
 40
1.5
  9
$DIMJUST
 70
     0
  9
$DIMSD1
 70
     0
  9
$DIMSD2
 70
     0
  9
$DIMTOLJ
 70
     0
  9
$DIMTZIN
 70
     0
  9
$DIMALTZ
 70
     0
  9
$DIMALTTZ
 70
     0
  9
$DIMFIT
 70
     3
  9
$DIMUPT
 70
     0
  9
$DIMUNIT
 70
     2
  9
$DIMDEC
 70
     3
  9
$DIMTDEC
 70
     3
  9
$DIMALTU
 70
     2
  9
$DIMALTTD
 70
     2
  9
$DIMTXSTY
  7
ASAMI
  9
$DIMAUNIT
 70
     0
  9
$LUNITS
 70
     2
  9
$LUPREC
 70
     2
  9
$SKETCHINC
 40
1.0
  9
$FILLETRAD
 40
2.5
  9
$AUNITS
 70
     0
  9
$AUPREC
 70
     0
  9
$MENU
  1
.
  9
$ELEVATION
 40
0.0
  9
$PELEVATION
 40
0.0
  9
$THICKNESS
 40
0.0
  9
$LIMCHECK
 70
     0
  9
$BLIPMODE
 70
     0
  9
$CHAMFERA
 40
0.5
  9
$CHAMFERB
 40
0.5
  9
$CHAMFERC
 40
20.0
  9
$CHAMFERD
 40
0.0
  9
$SKPOLY
 70
     0
  9
$TDCREATE
 40
2452838.430434386
  9
$TDUPDATE
 40
2453151.834441157
  9
$TDINDWG
 40
0.3283000347
  9
$TDUSRTIMER
 40
0.3283000347
  9
$USRTIMER
 70
     1
  9
$ANGBASE
 50
0.0
  9
$ANGDIR
 70
     0
  9
$PDMODE
 70
     0
  9
$PDSIZE
 40
0.0
  9
$PLINEWID
 40
0.0
  9
$COORDS
 70
     1
  9
$SPLFRAME
 70
     0
  9
$SPLINETYPE
 70
     6
  9
$SPLINESEGS
 70
     8
  9
$ATTDIA
 70
     1
  9
$ATTREQ
 70
     1
  9
$HANDLING
 70
 12289
  9
$HANDSEED
  5
8C35
  9
$SURFTAB1
 70
     6
  9
$SURFTAB2
 70
     6
  9
$SURFTYPE
 70
     6
  9
$SURFU
 70
     6
  9
$SURFV
 70
     6
  9
$UCSNAME
  2

  9
$UCSORG
 10
0.0
 20
0.0
 30
0.0
  9
$UCSXDIR
 10
1.0
 20
0.0
 30
0.0
  9
$UCSYDIR
 10
0.0
 20
1.0
 30
0.0
  9
$PUCSNAME
  2

  9
$PUCSORG
 10
0.0
 20
0.0
 30
0.0
  9
$PUCSXDIR
 10
1.0
 20
0.0
 30
0.0
  9
$PUCSYDIR
 10
0.0
 20
1.0
 30
0.0
  9
$USERI1
 70
     0
  9
$USERI2
 70
     0
  9
$USERI3
 70
     0
  9
$USERI4
 70
     0
  9
$USERI5
 70
     0
  9
$USERR1
 40
0.0
  9
$USERR2
 40
0.0
  9
$USERR3
 40
0.0
  9
$USERR4
 40
0.0
  9
$USERR5
 40
0.0
  9
$WORLDVIEW
 70
     1
  9
$SHADEDGE
 70
     3
  9
$SHADEDIF
 70
    70
  9
$TILEMODE
 70
     1
  9
$MAXACTVP
 70
    64
  9
$PINSBASE
 10
0.0
 20
0.0
 30
0.0
  9
$PLIMCHECK
 70
     0
  9
$PEXTMIN
 10
1.000000000000000E+20
 20
1.000000000000000E+20
 30
1.000000000000000E+20
  9
$PEXTMAX
 10
-1.000000000000000E+20
 20
-1.000000000000000E+20
 30
-1.000000000000000E+20
  9
$PLIMMIN
 10
0.0
 20
0.0
  9
$PLIMMAX
 10
841.0
 20
594.0
  9
$UNITMODE
 70
     0
  9
$VISRETAIN
 70
     1
  9
$PLINEGEN
 70
     0
  9
$PSLTSCALE
 70
     0
  9
$TREEDEPTH
 70
  3020
  9
$PICKSTYLE
 70
     0
  9
$CMLSTYLE
  2
STANDARD
  9
$CMLJUST
 70
     0
  9
$CMLSCALE
 40
20.0
  9
$PROXYGRAPHICS
 70
     1
  9
$MEASUREMENT
 70
     1
  0
ENDSEC
  0
SECTION
  2
CLASSES
  0
CLASS
  1
ACDBDICTIONARYWDFLT
  2
AcDbDictionaryWithDefault
  3
AutoCAD 2000
 90
        0
280
     0
281
     0
  0
CLASS
  1
ACDBPLACEHOLDER
  2
AcDbPlaceHolder
  3
AutoCAD 2000
 90
        0
280
     0
281
     0
  0
CLASS
  1
LAYOUT
  2
AcDbLayout
  3
AutoCAD 2000
 90
        0
280
     0
281
     0
  0
CLASS
  1
AMGSETTINGSOBJ
  2
AmgSettingsObj
  3
"AcadM|Product Description: AutoCAD Mechanical 2000|Company: Autodesk"
 90
        0
280
     0
281
     0
  0
CLASS
  1
ACME_DOCUMENT
  2
AcMeDbDoc
  3
AcMeServices
 90
        0
280
     0
281
     0
  0
CLASS
  1
ACMESCOPE
  2
AcMeScope
  3
AcMeServices
 90
        0
280
     0
281
     0
  0
CLASS
  1
ACMECOMMANDHISTORY
  2
AcMeCommandHistory
  3
AcMeServices
 90
        0
280
     0
281
     0
  0
CLASS
  1
DICTIONARYVAR
  2
AcDbDictionaryVar
  3
AutoCAD 2000
 90
        0
280
     0
281
     0
  0
CLASS
  1
ACIMSYSVARMAN
  2
AcImSysVarManager
  3
AcMeServices
 90
        0
280
     0
281
     0
  0
CLASS
  1
ACIMREALSYSVAR
  2
AcImRealSysVar
  3
AcMeServices
 90
        0
280
     0
281
     0
  0
CLASS
  1
ACIMINTSYSVAR
  2
AcImIntSysVar
  3
AcMeServices
 90
        0
280
     0
281
     0
  0
CLASS
  1
ACMEDRAWINGMAN
  2
AcMeDrawingMan
  3
AcMeServices
 90
        0
280
     0
281
     0
  0
CLASS
  1
ACMEVIEW
  2
AcMeView
  3
AcMeServices
 90
        0
280
     0
281
     0
  0
CLASS
  1
ACDBENTITYCACHE
  2
AcMeEntityCache
  3
AcMeServices
 90
        0
280
     0
281
     0
  0
CLASS
  1
GSMANAGER
  2
AcMeGSManager
  3
AcMeServices
 90
        0
280
     0
281
     0
  0
CLASS
  1
AmdtInternalReactor
  2
AmdtInternalReactor
  3
AcMeServices
 90
        0
280
     0
281
     0
  0
CLASS
  1
ACMESTATEMGR
  2
AcMeStateMgr
  3
AcMeServices
 90
        0
280
     0
281
     0
  0
CLASS
  1
ACME_DATABASE
  2
AcMeDbDatabase
  3
AcMeServices
 90
        0
280
     0
281
     0
  0
CLASS
  1
ACRFINSADJUSTERMGR
  2
AcRfInsAdjusterMgr
  3
AcMeServices
 90
        0
280
     0
281
     0
  0
CLASS
  1
ACMDATADICTIONARY
  2
AcmDataDictionary
  3
"AcmSymBB|Product Description: AutoCAD Mechanical 2000|Company: Autodesk"
 90
        0
280
     0
281
     0
  0
CLASS
  1
ACMDATAENTRYBLOCK
  2
AcmDataEntryBlock
  3
"AcmSymBB|Product Description: AutoCAD Mechanical 2000|Company: Autodesk"
 90
        0
280
     0
281
     0
  0
CLASS
  1
AMGOBJPROPCFG
  2
AmgObjPropCfg
  3
"AmgLay|Product Description: AutoCAD Mechanical 2000|Company: Autodesk"
 90
        1
280
     0
281
     0
  0
CLASS
  1
ACAMGFILTERDAT
  2
AcAmgFilterDat
  3
"AcadM|Product Description: AutoCAD Mechanical 2000|Company: Autodesk"
 90
        0
280
     0
281
     0
  0
CLASS
  1
LAYER_INDEX
  2
AcDbLayerIndex
  3
AutoCAD 2000
 90
        0
280
     0
281
     0
  0
CLASS
  1
IDBUFFER
  2
AcDbIdBuffer
  3
AutoCAD 2000
 90
        0
280
     0
281
     0
  0
CLASS
  1
ACIMSTRSYSVAR
  2
AcImStrSysVar
  3
AcMeServices
 90
        0
280
     0
281
     0
  0
CLASS
  1
ACMSTANDARDJIS
  2
AcmStandardJIS
  3
"AcmSymBB|Product Description: AutoCAD Mechanical 2000|Company: Autodesk"
 90
        0
280
     0
281
     0
  0
CLASS
  1
ACMSURFSTANDARDJIS
  2
AcmSurfTextStdJIS
  3
"AcmSymBB|Product Description: AutoCAD Mechanical 2000|Company: Autodesk"
 90
        0
280
     0
281
     0
  0
CLASS
  1
ACMFCFSTANDARDJIS
  2
AcmFCFStdJIS
  3
"AcmSymBB|Product Description: AutoCAD Mechanical 2000|Company: Autodesk"
 90
        0
280
     0
281
     0
  0
CLASS
  1
ACMWELDSTANDARDJIS
  2
AcmWeldingStdJIS
  3
"AcmSymBB|Product Description: AutoCAD Mechanical 2000|Company: Autodesk"
 90
        0
280
     0
281
     0
  0
CLASS
  1
ACMIDSTANDARDJIS
  2
AcmIdStdJIS
  3
"AcmSymBB|Product Description: AutoCAD Mechanical 2000|Company: Autodesk"
 90
        0
280
     0
281
     0
  0
CLASS
  1
ACMDATUMSTANDARDJIS
  2
AcmDatumStdJIS
  3
"AcmSymBB|Product Description: AutoCAD Mechanical 2000|Company: Autodesk"
 90
        0
280
     0
281
     0
  0
CLASS
  1
ACMBOMSTANDARDJIS
  2
AcmBOMStdJIS
  3
"AcmSymBB|Product Description: AutoCAD Mechanical 2000|Company: Autodesk"
 90
        0
280
     0
281
     0
  0
CLASS
  1
ACMSTANDARDANSI
  2
AcmStandardANSI
  3
"AcmSymBB|Product Description: AutoCAD Mechanical 2000|Company: Autodesk"
 90
        0
280
     0
281
     0
  0
CLASS
  1
ACMSURFSTANDARDANSI
  2
AcmSurfTextStdANSI
  3
"AcmSymBB|Product Description: AutoCAD Mechanical 2000|Company: Autodesk"
 90
        0
280
     0
281
     0
  0
CLASS
  1
ACMFCFSTANDARDANSI
  2
AcmFCFStdANSI
  3
"AcmSymBB|Product Description: AutoCAD Mechanical 2000|Company: Autodesk"
 90
        0
280
     0
281
     0
  0
CLASS
  1
ACMWELDSTANDARDANSI
  2
AcmWeldingStdANSI
  3
"AcmSymBB|Product Description: AutoCAD Mechanical 2000|Company: Autodesk"
 90
        0
280
     0
281
     0
  0
CLASS
  1
ACMIDSTANDARDANSI
  2
AcmIdStdANSI
  3
"AcmSymBB|Product Description: AutoCAD Mechanical 2000|Company: Autodesk"
 90
        0
280
     0
281
     0
  0
CLASS
  1
ACMDATUMSTANDARDANSI
  2
AcmDatumStdANSI
  3
"AcmSymBB|Product Description: AutoCAD Mechanical 2000|Company: Autodesk"
 90
        0
280
     0
281
     0
  0
CLASS
  1
ACMBOMSTANDARDANSI
  2
AcmBOMStdANSI
  3
"AcmSymBB|Product Description: AutoCAD Mechanical 2000|Company: Autodesk"
 90
        0
280
     0
281
     0
  0
CLASS
  1
ACMSTANDARDBSI
  2
AcmStandardBSI
  3
"AcmSymBB|Product Description: AutoCAD Mechanical 2000|Company: Autodesk"
 90
        0
280
     0
281
     0
  0
CLASS
  1
ACMSURFSTANDARDBSI
  2
AcmSurfTextStdBSI
  3
"AcmSymBB|Product Description: AutoCAD Mechanical 2000|Company: Autodesk"
 90
        0
280
     0
281
     0
  0
CLASS
  1
ACMFCFSTANDARDBSI
  2
AcmFCFStdBSI
  3
"AcmSymBB|Product Description: AutoCAD Mechanical 2000|Company: Autodesk"
 90
        0
280
     0
281
     0
  0
CLASS
  1
ACMWELDSTANDARDBSI
  2
AcmWeldingStdBSI
  3
"AcmSymBB|Product Description: AutoCAD Mechanical 2000|Company: Autodesk"
 90
        0
280
     0
281
     0
  0
CLASS
  1
ACMIDSTANDARDBSI
  2
AcmIdStdBSI
  3
"AcmSymBB|Product Description: AutoCAD Mechanical 2000|Company: Autodesk"
 90
        0
280
     0
281
     0
  0
CLASS
  1
ACMDATUMSTANDARDBSI
  2
AcmDatumStdBSI
  3
"AcmSymBB|Product Description: AutoCAD Mechanical 2000|Company: Autodesk"
 90
        0
280
     0
281
     0
  0
CLASS
  1
ACMBOMSTANDARDBSI
  2
AcmBOMStdBSI
  3
"AcmSymBB|Product Description: AutoCAD Mechanical 2000|Company: Autodesk"
 90
        0
280
     0
281
     0
  0
CLASS
  1
LONG_TRANSACTION
  2
AcDbLongTransaction
  3
AutoCAD 2000
 90
        0
280
     0
281
     0
  0
CLASS
  1
LWPOLYLINE
  2
AcDbPolyline
  3
AutoCAD 2000
 90
        0
280
     0
281
     1
  0
CLASS
  1
HATCH
  2
AcDbHatch
  3
AutoCAD 2000
 90
        0
280
     0
281
     1
  0
CLASS
  1
XRECORD
  2
AcDbXrecord
  3
AutoCAD 2000
 90
        0
280
     0
281
     0
  0
ENDSEC
  0
SECTION
  2
TABLES
  0
TABLE
  2
VPORT
  5
8
330
0
100
AcDbSymbolTable
 70
     3
  0
VPORT
  5
8C0A
330
8
100
AcDbSymbolTableRecord
100
AcDbViewportTableRecord
  2
*ACTIVE
 70
     0
 10
0.0
 20
0.0
 11
1.0
 21
1.0
 12
-21.0767700604951
 22
-5.531615496088392
 13
0.0
 23
0.0
 14
2.5
 24
2.5
 15
10.0
 25
10.0
 16
0.0
 26
0.0
 36
1.0
 17
0.0
 27
0.0
 37
0.0
 40
63.91914643469319
 41
1.56570841889117
 42
50.0
 43
0.0
 44
0.0
 50
0.0
 51
0.0
 71
     0
 72
   100
 73
     1
 74
     3
 75
     0
 76
     0
 77
     0
 78
     0
  0
ENDTAB
  0
TABLE
  2
LTYPE
  5
5
330
0
100
AcDbSymbolTable
 70
    10
  0
LTYPE
  5
14
330
5
100
AcDbSymbolTableRecord
100
AcDbLinetypeTableRecord
  2
BYBLOCK
 70
     0
  3

 72
    65
 73
     0
 40
0.0
  0
LTYPE
  5
15
330
5
100
AcDbSymbolTableRecord
100
AcDbLinetypeTableRecord
  2
BYLAYER
 70
     0
  3

 72
    65
 73
     0
 40
0.0
  0
LTYPE
  5
16
330
5
100
AcDbSymbolTableRecord
100
AcDbLinetypeTableRecord
  2
CONTINUOUS
 70
     0
  3
Solid line
 72
    65
 73
     0
 40
0.0
  0
LTYPE
  5
4B
330
5
100
AcDbSymbolTableRecord
100
AcDbLinetypeTableRecord
  2
AM_ISO02W050
 70
     0
  3
__ __ __ __ __ __ __ __ __ __ __ __ __ __ __
 72
    65
 73
     2
 40
7.5
 49
6.0
 74
     0
 49
-1.5
 74
     0
  0
LTYPE
  5
4C
330
5
100
AcDbSymbolTableRecord
100
AcDbLinetypeTableRecord
  2
AM_ISO08W050
 70
     0
  3
____ . ____ . ____ . ____ . ____ . ____ . ____
 72
    65
 73
     4
 40
18.0
 49
12.0
 74
     0
 49
-1.5
 74
     0
 49
3.0
 74
     0
 49
-1.5
 74
     0
  0
LTYPE
  5
4D
330
5
100
AcDbSymbolTableRecord
100
AcDbLinetypeTableRecord
  2
AM_ISO09W050
 70
     0
  3
_____ . . _____ . . _____ . . ____ .. ____
 72
    65
 73
     6
 40
22.5
 49
12.0
 74
     0
 49
-1.5
 74
     0
 49
3.0
 74
     0
 49
-1.5
 74
     0
 49
3.0
 74
     0
 49
-1.5
 74
     0
  0
LTYPE
  5
4E
330
5
100
AcDbSymbolTableRecord
100
AcDbLinetypeTableRecord
  2
AMCONSTR
 70
     0
  3
_______________________
 72
    65
 73
     2
 40
9999.0
 49
9999.0
 74
     0
 49
0.0
 74
     0
  0
LTYPE
  5
4F
330
5
100
AcDbSymbolTableRecord
100
AcDbLinetypeTableRecord
  2
AM_ISO02W050X2
 70
     0
  3
 _ _ _ _ _ _ _ _ _ _ _ _
 72
    65
 73
     2
 40
3.75
 49
3.0
 74
     0
 49
-0.75
 74
     0
  0
LTYPE
  5
50
330
5
100
AcDbSymbolTableRecord
100
AcDbLinetypeTableRecord
  2
AM_ISO08W050X2
 70
     0
  3
__ . __ . __ . __ . __ . __
 72
    65
 73
     4
 40
9.0
 49
6.0
 74
     0
 49
-0.75
 74
     0
 49
1.5
 74
     0
 49
-0.75
 74
     0
  0
LTYPE
  5
53
330
5
100
AcDbSymbolTableRecord
100
AcDbLinetypeTableRecord
  2
AMZIGZAG
 70
     0
  3
/\/-/\/-/\/-/\/-/\/-/\/
 72
    65
 73
     2
 40
11.00009999999999
 49
0.0001
 74
     4
 75
   135
340
52
 46
0.04
 50
0.0
 44
0.0
 45
0.0
 49
-11.0
 74
     0
  0
LTYPE
  5
166
330
5
100
AcDbSymbolTableRecord
100
AcDbLinetypeTableRecord
  2
ACJISTGL
 70
     0
  3
_ _ _ _ _
 72
    65
 73
     2
 40
3.0
 49
2.0
 74
     0
 49
-1.0
 74
     0
  0
LTYPE
  5
26A
330
5
100
AcDbSymbolTableRecord
100
AcDbLinetypeTableRecord
  2
ACJISTGB
 70
     0
  3
__ . . __ . .
 72
    65
 73
     6
 40
9.0
 49
4.0
 74
     0
 49
-1.0
 74
     0
 49
1.0
 74
     0
 49
-1.0
 74
     0
 49
1.0
 74
     0
 49
-1.0
 74
     0
  0
ENDTAB
  0
TABLE
  2
LAYER
  5
2
330
0
100
AcDbSymbolTable
 70
     7
  0
LAYER
  5
10
330
2
100
AcDbSymbolTableRecord
100
AcDbLayerTableRecord
  2
0
 70
     0
 62
     7
  6
CONTINUOUS
  0
LAYER
  5
3F9
330
2
100
AcDbSymbolTableRecord
100
AcDbLayerTableRecord
  2
AM_0
 70
     0
 62
     7
  6
CONTINUOUS
  0
LAYER
  5
BDD
330
2
100
AcDbSymbolTableRecord
100
AcDbLayerTableRecord
  2
AM_11
 70
     0
 62
     3
  6
AM_ISO09W050
  0
LAYER
  5
BDE
330
2
100
AcDbSymbolTableRecord
100
AcDbLayerTableRecord
  2
AM_7
 70
     0
 62
     4
  6
AM_ISO08W050
  0
LAYER
  5
BDF
330
2
100
AcDbSymbolTableRecord
100
AcDbLayerTableRecord
  2
AM_5
 70
     0
 62
     3
  6
CONTINUOUS
  0
LAYER
  5
BE0
330
2
100
AcDbSymbolTableRecord
100
AcDbLayerTableRecord
  2
DEFPOINTS
 70
     0
 62
     7
  6
CONTINUOUS
  0
LAYER
  5
14FF
330
2
100
AcDbSymbolTableRecord
100
AcDbLayerTableRecord
  2
AM_6
 70
     0
 62
     2
  6
CONTINUOUS
  0
ENDTAB
  0
TABLE
  2
STYLE
  5
3
330
0
100
AcDbSymbolTable
 70
     5
  0
STYLE
  5
11
330
3
100
AcDbSymbolTableRecord
100
AcDbTextStyleTableRecord
  2
STANDARD
 70
     0
 40
0.0
 41
1.0
 50
0.0
 71
     0
 42
2.5
  3
simplex.shx
  4
EXTFONT.SHX
  0
STYLE
  5
52
330
3
100
AcDbSymbolTableRecord
100
AcDbTextStyleTableRecord
  2

 70
     1
 40
0.0
 41
1.0
 50
0.0
 71
     0
 42
2.5
  3
ltypeshp.shx
  4

  0
STYLE
  5
6B
330
3
100
AcDbSymbolTableRecord
100
AcDbTextStyleTableRecord
  2
ASAMI
 70
     0
 40
0.0
 41
1.0
 50
0.0
 71
     0
 42
2.5
  3
simplex.shx
  4
EXTFONT.SHX
  0
STYLE
  5
262
330
3
100
AcDbSymbolTableRecord
100
AcDbTextStyleTableRecord
  2
ACJISTS
 70
     0
 40
1.0
 41
1.0
 50
0.0
 71
     0
 42
2.5
  3
simplex.shx
  4
bigfont.shx
  0
STYLE
  5
269
330
3
100
AcDbSymbolTableRecord
100
AcDbTextStyleTableRecord
  2
ACJISGDT
 70
     0
 40
0.0
 41
1.0
 50
0.0
 71
     0
 42
2.5
  3
amgdtans.shx
  4

  0
ENDTAB
  0
TABLE
  2
VIEW
  5
6
330
0
100
AcDbSymbolTable
 70
     0
  0
ENDTAB
  0
TABLE
  2
UCS
  5
7
330
0
100
AcDbSymbolTable
 70
     0
  0
ENDTAB
  0
TABLE
  2
APPID
  5
9
330
0
100
AcDbSymbolTable
 70
    13
  0
APPID
  5
12
330
9
100
AcDbSymbolTableRecord
100
AcDbRegAppTableRecord
  2
ACAD
 70
     0
  0
APPID
  5
30
330
9
100
AcDbSymbolTableRecord
100
AcDbRegAppTableRecord
  2
MCAD_NO_VIS
 70
     0
  0
APPID
  5
31
330
9
100
AcDbSymbolTableRecord
100
AcDbRegAppTableRecord
  2
ACAD_TEMP_GRAPHIC
 70
     0
  0
APPID
  5
2C2
330
9
100
AcDbSymbolTableRecord
100
AcDbRegAppTableRecord
  2
GENIUS_GENDTOL_13
 70
     0
  0
APPID
  5
339
330
9
100
AcDbSymbolTableRecord
100
AcDbRegAppTableRecord
  2
GENIUS_GENODEF_13
 70
     0
  0
APPID
  5
33A
330
9
100
AcDbSymbolTableRecord
100
AcDbRegAppTableRecord
  2
GENIUS_GENOBJ-N-RSBK_13
 70
     0
  0
APPID
  5
33B
330
9
100
AcDbSymbolTableRecord
100
AcDbRegAppTableRecord
  2
GENIUS_GENOBJ-N-LIB_13
 70
     0
  0
APPID
  5
33C
330
9
100
AcDbSymbolTableRecord
100
AcDbRegAppTableRecord
  2
GENIUS_GENSCALE_13
 70
     0
  0
APPID
  5
378
330
9
100
AcDbSymbolTableRecord
100
AcDbRegAppTableRecord
  2
GENIUS_GENDIMSH_14
 70
     0
  0
APPID
  5
BE1
330
9
100
AcDbSymbolTableRecord
100
AcDbRegAppTableRecord
  2
GENIUS_GENFIL_13
 70
     0
  0
APPID
  5
BE2
330
9
100
AcDbSymbolTableRecord
100
AcDbRegAppTableRecord
  2
GENIUS_GENOBJ-N-CHA_13
 70
     0
  0
APPID
  5
151B
330
9
100
AcDbSymbolTableRecord
100
AcDbRegAppTableRecord
  2
DCO15
 70
     0
  0
APPID
  5
1860
330
9
100
AcDbSymbolTableRecord
100
AcDbRegAppTableRecord
  2
GENIUS_GENOBJ-N-CEN_13
 70
     0
  0
ENDTAB
  0
TABLE
  2
DIMSTYLE
  5
A
330
0
100
AcDbSymbolTable
 70
     8
  0
DIMSTYLE
105
58
102
{ACAD_REACTORS
330
10F0
330
12D8
330
1A73
330
8A80
102
}
330
A
100
AcDbSymbolTableRecord
100
AcDbDimStyleTableRecord
  2
AM_JIS
 70
     0
  3

  4
"
  5
OPEN30
  6

  7

 40
0.5
 41
2.5
 42
1.0
 43
12.0
 44
1.0
 45
0.0
 46
0.0
 47
0.1
 48
0.1
140
3.2
141
0.0
142
0.0
143
0.0393701
144
1.0
145
0.0
146
0.71
147
1.5
 71
     0
 72
     0
 73
     0
 74
     0
 75
     0
 76
     0
 77
     3
 78
     8
170
     0
171
     2
172
     1
173
     0
174
     0
175
     0
176
   256
177
   256
178
     2
270
     2
271
     3
272
     3
273
     2
274
     2
340
6B
275
     0
280
     0
281
     0
282
     0
283
     0
284
     0
285
     0
286
     0
287
     3
288
     0
  0
DIMSTYLE
105
5F
330
A
100
AcDbSymbolTableRecord
100
AcDbDimStyleTableRecord
  2
AM_JIS$3
 70
     0
  3

  4
"
  5
OPEN30
  6

  7

 40
0.5
 41
2.5
 42
1.0
 43
10.0
 44
1.0
 45
0.0
 46
0.0
 47
0.1
 48
0.1
140
3.2
141
0.0
142
0.0
143
0.0393701
144
1.0
145
0.0
146
0.71
147
1.5
 71
     0
 72
     0
 73
     0
 74
     1
 75
     0
 76
     0
 77
     3
 78
     8
170
     0
171
     2
172
     0
173
     0
174
     0
175
     0
176
   256
177
   256
178
     2
270
     2
271
     2
272
     3
273
     2
274
     2
340
6B
275
     0
280
     0
281
     0
282
     0
283
     0
284
     0
285
     0
286
     0
287
     0
288
     1
  0
DIMSTYLE
105
60
330
A
100
AcDbSymbolTableRecord
100
AcDbDimStyleTableRecord
  2
AM_JIS$4
 70
     0
  3

  4
"
  5
OPEN30
  6

  7

 40
0.5
 41
2.5
 42
1.0
 43
10.0
 44
1.0
 45
0.0
 46
0.0
 47
0.1
 48
0.1
140
3.2
141
0.0
142
0.0
143
0.0393701
144
1.0
145
0.0
146
0.71
147
1.5
 71
     0
 72
     0
 73
     0
 74
     1
 75
     0
 76
     0
 77
     3
 78
     8
170
     0
171
     2
172
     0
173
     0
174
     0
175
     0
176
   256
177
   256
178
     2
270
     2
271
     2
272
     3
273
     2
274
     2
340
6B
275
     0
280
     0
281
     0
282
     0
283
     0
284
     0
285
     0
286
     0
287
     0
288
     1
  0
DIMSTYLE
105
61
330
A
100
AcDbSymbolTableRecord
100
AcDbDimStyleTableRecord
  2
AM_JIS$6
 70
     0
  3

  4
"
  5
OPEN30
  6

  7

 40
0.5
 41
2.5
 42
1.0
 43
10.0
 44
1.0
 45
0.0
 46
0.0
 47
0.1
 48
0.1
140
3.2
141
0.0
142
0.0
143
0.0393701
144
1.0
145
0.0
146
0.71
147
1.5
 71
     0
 72
     0
 73
     0
 74
     0
 75
     0
 76
     0
 77
     0
 78
     8
170
     0
171
     2
172
     1
173
     0
174
     0
175
     0
176
   256
177
   256
178
     2
270
     2
271
     2
272
     2
273
     2
274
     2
340
6B
275
     0
280
     0
281
     0
282
     0
283
     0
284
     0
285
     0
286
     0
287
     3
288
     0
  0
DIMSTYLE
105
62
330
A
100
AcDbSymbolTableRecord
100
AcDbDimStyleTableRecord
  2
AM_JIS$7
 70
     0
  3

  4
"
  5
OPEN30
  6

  7

 40
0.5
 41
2.5
 42
1.0
 43
10.0
 44
1.0
 45
0.0
 46
0.0
 47
0.1
 48
0.1
140
3.2
141
0.0
142
0.0
143
0.0393701
144
1.0
145
0.0
146
0.71
147
1.5
 71
     0
 72
     0
 73
     0
 74
     0
 75
     0
 76
     0
 77
     3
 78
     8
170
     0
171
     2
172
     1
173
     0
174
     0
175
     0
176
   256
177
   256
178
     2
270
     2
271
     2
272
     3
273
     2
274
     2
340
6B
275
     0
280
     0
281
     0
282
     0
283
     0
284
     0
285
     0
286
     0
287
     3
288
     0
  0
DIMSTYLE
105
63
330
A
100
AcDbSymbolTableRecord
100
AcDbDimStyleTableRecord
  2
AM_JIS$SF
 70
     0
  3

  4
"
  5
OPEN30
  6

  7

 40
0.5
 41
2.5
 42
1.0
 43
10.0
 44
1.0
 45
0.0
 46
0.0
 47
0.1
 48
0.1
140
3.2
141
0.0
142
0.0
143
0.0393701
144
1.0
145
0.0
146
0.71
147
1.5
 71
     0
 72
     0
 73
     0
 74
     0
 75
     1
 76
     1
 77
     3
 78
     8
170
     0
171
     2
172
     1
173
     0
174
     0
175
     0
176
   256
177
   256
178
     2
270
     2
271
     2
272
     2
273
     2
274
     2
340
6B
275
     0
280
     0
281
     0
282
     0
283
     0
284
     0
285
     0
286
     0
287
     3
288
     0
  0
DIMSTYLE
105
68
330
A
100
AcDbSymbolTableRecord
100
AcDbDimStyleTableRecord
  2
AM_JIS$SH
 70
     0
  3

  4
"
  5

  6
GENAXEH
  7
OPEN30
 40
0.5
 41
2.5
 42
1.0
 43
10.0
 44
1.0
 45
0.0
 46
0.0
 47
0.1
 48
0.1
140
3.2
141
0.0
142
0.0
143
0.0393701
144
2.0
145
0.0
146
0.71
147
1.5
 71
     0
 72
     0
 73
     0
 74
     0
 75
     1
 76
     1
 77
     3
 78
     8
170
     0
171
     2
172
     1
173
     1
174
     0
175
     0
176
   256
177
   256
178
     2
270
     2
271
     2
272
     2
273
     2
274
     2
340
6B
275
     0
280
     0
281
     0
282
     0
283
     0
284
     0
285
     0
286
     0
287
     3
288
     0
  0
DIMSTYLE
105
B34
330
A
100
AcDbSymbolTableRecord
100
AcDbDimStyleTableRecord
  2
AM_JIS$2
 70
     0
  3

  4
"
  5
OPEN30
  6

  7

 40
0.5
 41
2.5
 42
1.0
 43
12.0
 44
1.0
 45
0.0
 46
0.0
 47
0.1
 48
0.1
140
3.2
141
0.0
142
0.0
143
0.0393701
144
1.0
145
0.0
146
0.71
147
1.5
 71
     0
 72
     0
 73
     0
 74
     0
 75
     0
 76
     0
 77
     3
 78
     8
170
     0
171
     2
172
     1
173
     0
174
     0
175
     0
176
   256
177
   256
178
     2
270
     2
271
     3
272
     3
273
     2
274
     2
340
6B
275
     0
280
     0
281
     0
282
     0
283
     0
284
     0
285
     0
286
     0
287
     3
288
     0
  0
ENDTAB
  0
TABLE
  2
BLOCK_RECORD
  5
1
330
0
100
AcDbSymbolTable
 70
     9
  0
BLOCK_RECORD
  5
1F
102
{ACAD_XDICTIONARY
360
74
102
}
330
1
100
AcDbSymbolTableRecord
100
AcDbBlockTableRecord
  2
*MODEL_SPACE
  0
BLOCK_RECORD
  5
101
102
{ACAD_XDICTIONARY
360
8C33
102
}
330
1
100
AcDbSymbolTableRecord
100
AcDbBlockTableRecord
  2
*PAPER_SPACE
  0
BLOCK_RECORD
  5
59
330
1
100
AcDbSymbolTableRecord
100
AcDbBlockTableRecord
  2
_OPEN30
  0
BLOCK_RECORD
  5
64
330
1
100
AcDbSymbolTableRecord
100
AcDbBlockTableRecord
  2
GENAXEH
  0
BLOCK_RECORD
  5
10F1
330
1
100
AcDbSymbolTableRecord
100
AcDbBlockTableRecord
  2
*D5
  0
BLOCK_RECORD
  5
12D9
330
1
100
AcDbSymbolTableRecord
100
AcDbBlockTableRecord
  2
*D6
  0
BLOCK_RECORD
  5
1A74
330
1
100
AcDbSymbolTableRecord
100
AcDbBlockTableRecord
  2
*D7
  0
BLOCK_RECORD
  5
8A81
330
1
100
AcDbSymbolTableRecord
100
AcDbBlockTableRecord
  2
*D8
  0
ENDTAB
  0
ENDSEC
  0
SECTION
  2
BLOCKS
  0
BLOCK
  5
20
330
1F
100
AcDbEntity
  8
0
100
AcDbBlockBegin
  2
*MODEL_SPACE
 70
     0
 10
0.0
 20
0.0
 30
0.0
  3
*MODEL_SPACE
  1

  0
ENDBLK
  5
21
330
1F
100
AcDbEntity
  8
0
100
AcDbBlockEnd
  0
BLOCK
  5
103
330
101
100
AcDbEntity
 67
     1
  8
0
100
AcDbBlockBegin
  2
*PAPER_SPACE
 70
     0
 10
0.0
 20
0.0
 30
0.0
  3
*PAPER_SPACE
  1

  0
ENDBLK
  5
104
330
101
100
AcDbEntity
 67
     1
  8
0
100
AcDbBlockEnd
  0
BLOCK
  5
5D
330
59
100
AcDbEntity
  8
0
100
AcDbBlockBegin
  2
_OPEN30
 70
     0
 10
0.0
 20
0.0
 30
0.0
  3
_OPEN30
  1

  0
LINE
  5
5A
330
59
100
AcDbEntity
  8
0
 62
     0
100
AcDbLine
 10
-1.0
 20
0.26794919
 30
0.0
 11
0.0
 21
0.0
 31
0.0
  0
LINE
  5
5B
330
59
100
AcDbEntity
  8
0
 62
     0
100
AcDbLine
 10
0.0
 20
0.0
 30
0.0
 11
-1.0
 21
-0.26794919
 31
0.0
  0
LINE
  5
5C
330
59
100
AcDbEntity
  8
0
 62
     0
100
AcDbLine
 10
0.0
 20
0.0
 30
0.0
 11
-1.0
 21
0.0
 31
0.0
  0
ENDBLK
  5
5E
330
59
100
AcDbEntity
  8
0
100
AcDbBlockEnd
  0
BLOCK
  5
66
330
64
100
AcDbEntity
  8
0
100
AcDbBlockBegin
  2
GENAXEH
 70
     0
 10
0.0
 20
0.0
 30
0.0
  3
GENAXEH
  1

  0
LINE
  5
65
330
64
100
AcDbEntity
  8
0
100
AcDbLine
 10
-1.0
 20
0.0
 30
0.0
 11
1.0
 21
0.0
 31
0.0
  0
ENDBLK
  5
67
330
64
100
AcDbEntity
  8
0
100
AcDbBlockEnd
  0
BLOCK
  5
10FB
330
10F1
100
AcDbEntity
  8
0
100
AcDbBlockBegin
  2
*D5
 70
     1
 10
0.0
 20
0.0
 30
0.0
  3
*D5
  1

  0
LINE
  5
8AE2
330
10F1
100
AcDbEntity
  8
AM_5
100
AcDbLine
 10
-54.99999999999999
 20
-5.000000000000013
 30
0.0
 11
-54.99999999999999
 21
-18.50000099999995
 31
0.0
  0
LINE
  5
8AE3
330
10F1
100
AcDbEntity
  8
AM_5
100
AcDbLine
 10
-0.0000000000005436
 20
-4.650000000000001
 30
0.0
 11
-0.0000000000005444
 21
-18.50000099999995
 31
0.0
  0
LINE
  5
8AE4
330
10F1
100
AcDbEntity
  8
AM_5
100
AcDbLine
 10
-53.74999999999999
 20
-18.00000099999995
 30
0.0
 11
-1.250000000000544
 21
-18.00000099999995
 31
0.0
  0
INSERT
  5
8AE5
330
10F1
100
AcDbEntity
  8
AM_5
100
AcDbBlockReference
  2
_OPEN30
 10
-54.99999999999999
 20
-18.00000099999995
 30
0.0
 41
1.25
 42
1.25
 43
1.25
 50
180.0
  0
INSERT
  5
8AE6
330
10F1
100
AcDbEntity
  8
AM_5
100
AcDbBlockReference
  2
_OPEN30
 10
-0.0000000000005444
 20
-18.00000099999995
 30
0.0
 41
1.25
 42
1.25
 43
1.25
  0
MTEXT
  5
8AE7
330
10F1
100
AcDbEntity
  8
AM_5
 62
     2
100
AcDbMText
 10
-27.50000000000026
 20
-16.45000099999995
 30
0.0
 40
1.6
 41
0.0
 71
     5
 72
     1
  1
55
  7
ASAMI
1001
ACAD
1000
MTEXTBEGIN
1070
    73
1070
     1
1070
    44
1040
1.0
1070
    74
1070
     0
1000
MTEXTEND
  0
POINT
  5
8AE8
330
10F1
100
AcDbEntity
  8
DEFPOINTS
 62
     0
100
AcDbPoint
 10
-54.99999999999999
 20
-4.500000000000013
 30
0.0
  0
POINT
  5
8AE9
330
10F1
100
AcDbEntity
  8
DEFPOINTS
 62
     0
100
AcDbPoint
 10
-0.0000000000005436
 20
-4.150000000000001
 30
0.0
  0
POINT
  5
8AEA
330
10F1
100
AcDbEntity
  8
DEFPOINTS
 62
     0
100
AcDbPoint
 10
-0.0000000000005444
 20
-18.00000099999995
 30
0.0
  0
ENDBLK
  5
10FC
330
10F1
100
AcDbEntity
  8
0
100
AcDbBlockEnd
  0
BLOCK
  5
12E5
330
12D9
100
AcDbEntity
  8
0
100
AcDbBlockBegin
  2
*D6
 70
     1
 10
0.0
 20
0.0
 30
0.0
  3
*D6
  1

  0
LINE
  5
8ABE
330
12D9
100
AcDbEntity
  8
AM_5
100
AcDbLine
 10
-0.0000000000005436
 20
-4.650000000000001
 30
0.0
 11
-0.0000000000005441
 21
-12.50000099999998
 31
0.0
  0
LINE
  5
8ABF
330
12D9
100
AcDbEntity
  8
AM_5
100
AcDbLine
 10
-14.99999999999999
 20
-4.65000000000001
 30
0.0
 11
-14.99999999999999
 21
-12.50000099999998
 31
0.0
  0
LINE
  5
8AC0
330
12D9
100
AcDbEntity
  8
AM_5
100
AcDbLine
 10
-1.250000000000544
 20
-12.00000099999998
 30
0.0
 11
-13.74999999999999
 21
-12.00000099999998
 31
0.0
  0
INSERT
  5
8AC1
330
12D9
100
AcDbEntity
  8
AM_5
100
AcDbBlockReference
  2
_OPEN30
 10
-0.000000000000544
 20
-12.00000099999998
 30
0.0
 41
1.25
 42
1.25
 43
1.25
  0
INSERT
  5
8AC2
330
12D9
100
AcDbEntity
  8
AM_5
100
AcDbBlockReference
  2
_OPEN30
 10
-14.99999999999999
 20
-12.00000099999998
 30
0.0
 41
1.25
 42
1.25
 43
1.25
 50
180.0
  0
MTEXT
  5
8AC3
330
12D9
100
AcDbEntity
  8
AM_5
 62
     2
100
AcDbMText
 10
-7.50000000000027
 20
-10.45000099999998
 30
0.0
 40
1.6
 41
0.0
 71
     5
 72
     1
  1
15
  7
ASAMI
1001
ACAD
1000
MTEXTBEGIN
1070
    73
1070
     1
1070
    44
1040
1.0
1070
    74
1070
     0
1000
MTEXTEND
  0
POINT
  5
8AC4
330
12D9
100
AcDbEntity
  8
DEFPOINTS
 62
     0
100
AcDbPoint
 10
-0.0000000000005436
 20
-4.150000000000001
 30
0.0
  0
POINT
  5
8AC5
330
12D9
100
AcDbEntity
  8
DEFPOINTS
 62
     0
100
AcDbPoint
 10
-14.99999999999999
 20
-4.15000000000001
 30
0.0
  0
POINT
  5
8AC6
330
12D9
100
AcDbEntity
  8
DEFPOINTS
 62
     0
100
AcDbPoint
 10
-14.99999999999999
 20
-12.00000099999998
 30
0.0
  0
ENDBLK
  5
12E6
330
12D9
100
AcDbEntity
  8
0
100
AcDbBlockEnd
  0
BLOCK
  5
1A7F
330
1A74
100
AcDbEntity
  8
0
100
AcDbBlockBegin
  2
*D7
 70
     1
 10
0.0
 20
0.0
 30
0.0
  3
*D7
  1

  0
LINE
  5
87E9
330
1A74
100
AcDbEntity
  8
AM_5
100
AcDbLine
 10
-55.00000000000001
 20
4.999999999999989
 30
0.0
 11
-64.00000099999999
 21
4.999999999999992
 31
0.0
  0
LINE
  5
87EA
330
1A74
100
AcDbEntity
  8
AM_5
100
AcDbLine
 10
-55.0
 20
-5.000000000000012
 30
0.0
 11
-64.00000099999999
 21
-5.000000000000009
 31
0.0
  0
LINE
  5
87EB
330
1A74
100
AcDbEntity
  8
AM_5
100
AcDbLine
 10
-63.50000099999999
 20
3.749999999999992
 30
0.0
 11
-63.50000099999999
 21
-3.750000000000009
 31
0.0
  0
INSERT
  5
87EC
330
1A74
100
AcDbEntity
  8
AM_5
100
AcDbBlockReference
  2
_OPEN30
 10
-63.50000099999999
 20
4.999999999999992
 30
0.0
 41
1.25
 42
1.25
 43
1.25
 50
90.0
  0
INSERT
  5
87ED
330
1A74
100
AcDbEntity
  8
AM_5
100
AcDbBlockReference
  2
_OPEN30
 10
-63.50000099999999
 20
-5.000000000000009
 30
0.0
 41
1.25
 42
1.25
 43
1.25
 50
270.0
  0
MTEXT
  5
87EE
330
1A74
100
AcDbEntity
  8
AM_5
 62
     2
100
AcDbMText
 10
-65.050001
 20
-0.0000000000000073
 30
0.0
 40
1.6
 41
0.0
 71
     5
 72
     1
  1
%%c10
  7
ASAMI
 11
0.0000000000000001
 21
1.0
 31
0.0
1001
ACAD
1000
MTEXTBEGIN
1070
    73
1070
     1
1070
    44
1040
1.0
1070
    74
1070
     0
1000
MTEXTEND
  0
POINT
  5
87EF
330
1A74
100
AcDbEntity
  8
DEFPOINTS
 62
     0
100
AcDbPoint
 10
-54.50000000000001
 20
4.999999999999989
 30
0.0
  0
POINT
  5
87F0
330
1A74
100
AcDbEntity
  8
DEFPOINTS
 62
     0
100
AcDbPoint
 10
-54.49999999999999
 20
-5.000000000000012
 30
0.0
  0
POINT
  5
87F1
330
1A74
100
AcDbEntity
  8
DEFPOINTS
 62
     0
100
AcDbPoint
 10
-63.50000099999999
 20
-5.000000000000009
 30
0.0
  0
ENDBLK
  5
1A80
330
1A74
100
AcDbEntity
  8
0
100
AcDbBlockEnd
  0
BLOCK
  5
8A8B
330
8A81
100
AcDbEntity
  8
0
100
AcDbBlockBegin
  2
*D8
 70
     1
 10
0.0
 20
0.0
 30
0.0
  3
*D8
  1

  0
LINE
  5
8AA3
330
8A81
100
AcDbEntity
  8
AM_5
100
AcDbLine
 10
0.4999999999999929
 20
4.149999999999988
 30
0.0
 11
9.551050680252131
 21
4.149999999999986
 31
0.0
  0
LINE
  5
8AA4
330
8A81
100
AcDbEntity
  8
AM_5
100
AcDbLine
 10
0.5000000000000071
 20
-4.150000000000012
 30
0.0
 11
9.551050680252128
 21
-4.150000000000015
 31
0.0
  0
LINE
  5
8AA5
330
8A81
100
AcDbEntity
  8
AM_5
100
AcDbLine
 10
9.05105068025213
 20
2.899999999999985
 30
0.0
 11
9.05105068025213
 21
-2.900000000000015
 31
0.0
  0
INSERT
  5
8AA6
330
8A81
100
AcDbEntity
  8
AM_5
100
AcDbBlockReference
  2
_OPEN30
 10
9.051050680252131
 20
4.149999999999986
 30
0.0
 41
1.25
 42
1.25
 43
1.25
 50
90.0
  0
INSERT
  5
8AA7
330
8A81
100
AcDbEntity
  8
AM_5
100
AcDbBlockReference
  2
_OPEN30
 10
9.051050680252128
 20
-4.150000000000015
 30
0.0
 41
1.25
 42
1.25
 43
1.25
 50
270.0
  0
MTEXT
  5
8AA8
330
8A81
100
AcDbEntity
  8
AM_5
 62
     2
100
AcDbMText
 10
7.501050680252129
 20
-0.0000000000000132
 30
0.0
 40
1.6
 41
0.0
 71
     5
 72
     1
  1
%%c8.3
  7
ASAMI
 11
0.0000000000000001
 21
1.0
 31
0.0
1001
ACAD
1000
MTEXTBEGIN
1070
    73
1070
     1
1070
    44
1040
1.0
1070
    74
1070
     0
1000
MTEXTEND
  0
POINT
  5
8AA9
330
8A81
100
AcDbEntity
  8
DEFPOINTS
 62
     0
100
AcDbPoint
 10
-0.0000000000000071
 20
4.149999999999988
 30
0.0
  0
POINT
  5
8AAA
330
8A81
100
AcDbEntity
  8
DEFPOINTS
 62
     0
100
AcDbPoint
 10
0.0000000000000071
 20
-4.150000000000012
 30
0.0
  0
POINT
  5
8AAB
330
8A81
100
AcDbEntity
  8
DEFPOINTS
 62
     0
100
AcDbPoint
 10
9.051050680252128
 20
-4.150000000000015
 30
0.0
  0
ENDBLK
  5
8A8C
330
8A81
100
AcDbEntity
  8
0
100
AcDbBlockEnd
  0
ENDSEC
  0
SECTION
  2
ENTITIES
  0
LINE
  5
C2E
330
1F
100
AcDbEntity
  8
AM_7
  6
AM_ISO08W050X2
100
AcDbLine
 10
2.051049680252134
 20
0.0
 30
0.0
 11
-56.5
 21
-0.0000000000000117
 31
0.0
  0
DIMENSION
  5
10F0
330
1F
100
AcDbEntity
  8
AM_5
100
AcDbDimension
  2
*D5
 10
-0.0000000000005444
 20
-18.00000099999995
 30
0.0
 11
-27.50000000000026
 21
-16.45000099999995
 31
0.0
 70
    32
  1
<>
  3
AM_JIS
100
AcDbAlignedDimension
 13
-54.99999999999999
 23
-4.500000000000013
 33
0.0
 14
-0.0000000000005436
 24
-4.150000000000001
 34
0.0
 50
0.0000000000001132
100
AcDbRotatedDimension
1001
GENIUS_GENDTOL_13
1000

1000
h7
1000

1040
0.0
  0
DIMENSION
  5
12D8
330
1F
100
AcDbEntity
  8
AM_5
100
AcDbDimension
  2
*D6
 10
-14.99999999999999
 20
-12.00000099999998
 30
0.0
 11
-7.50000000000027
 21
-10.45000099999998
 31
0.0
 70
    32
  1
<>
  3
AM_JIS
100
AcDbAlignedDimension
 13
-0.0000000000005436
 23
-4.150000000000001
 33
0.0
 14
-14.99999999999999
 24
-4.15000000000001
 34
0.0
 50
0.0000000000001132
100
AcDbRotatedDimension
1001
GENIUS_GENDTOL_13
1000

1000
h7
1000

1040
0.0
  0
TEXT
  5
1500
330
1F
100
AcDbEntity
  8
AM_6
100
AcDbText
 10
-35.71428571428597
 20
-29.25000099999995
 30
0.0
 40
2.5
  1
SSM2083
 72
     4
 11
-27.50000000000026
 21
-28.00000099999995
 31
0.0
100
AcDbText
  0
DIMENSION
  5
1A73
330
1F
100
AcDbEntity
  8
AM_5
100
AcDbDimension
  2
*D7
 10
-63.50000099999999
 20
-5.000000000000009
 30
0.0
 11
-63.50000099999999
 21
-0.0000000000000075
 31
0.0
 70
   160
  1
%%c<>
  3
AM_JIS
100
AcDbAlignedDimension
 13
-54.50000000000001
 23
4.999999999999989
 33
0.0
 14
-54.49999999999999
 24
-5.000000000000012
 34
0.0
 50
270.0
100
AcDbRotatedDimension
1001
GENIUS_GENDTOL_13
1000

1000
h7
1000

1040
0.0
  0
LINE
  5
87DC
330
1F
100
AcDbEntity
  8
AM_0
100
AcDbLine
 10
-54.99999999999999
 20
-4.500000000000013
 30
0.0
 11
-55.00000000000002
 21
4.49999999999999
 31
0.0
  0
LINE
  5
87DD
330
1F
100
AcDbEntity
  8
AM_0
100
AcDbLine
 10
-54.50000000000001
 20
4.999999999999989
 30
0.0
 11
-54.49999999999999
 21
-5.000000000000012
 31
0.0
  0
LINE
  5
87DE
330
1F
100
AcDbEntity
  8
AM_0
100
AcDbLine
 10
-54.50000000000002
 20
4.99999999999999
 30
0.0
 11
-25.00000000000002
 21
5.000000000000004
 31
0.0
  0
LINE
  5
87DF
330
1F
100
AcDbEntity
  8
AM_0
100
AcDbLine
 10
-54.49999999999999
 20
-5.000000000000013
 30
0.0
 11
-24.99999999999999
 21
-5.000000000000001
 31
0.0
  0
LINE
  5
8802
330
1F
100
AcDbEntity
  8
AM_0
100
AcDbLine
 10
-24.99999999999999
 20
-5.000000000000001
 30
0.0
 11
-25.00000000000001
 21
5.000000000000004
 31
0.0
  0
LINE
  5
888A
330
1F
100
AcDbEntity
  8
AM_0
100
AcDbLine
 10
-25.00000000000001
 20
5.000000000000004
 30
0.0
 11
-22.66464419346355
 21
4.149999999999992
 31
0.0
  0
LINE
  5
888B
330
1F
100
AcDbEntity
  8
AM_0
100
AcDbLine
 10
-22.66464419346355
 20
4.149999999999992
 30
0.0
 11
-22.66464419346355
 21
3.95822961775447
 31
0.0
  0
LINE
  5
888C
330
1F
100
AcDbEntity
  8
AM_0
100
AcDbLine
 10
-22.66464419346355
 20
-4.150000000000016
 30
0.0
 11
-24.99999999999999
 21
-5.000000000000002
 31
0.0
  0
LINE
  5
8891
330
1F
100
AcDbEntity
  8
AM_0
100
AcDbLine
 10
-22.66464419346355
 20
4.149999999999992
 30
0.0
 11
-20.94400000000049
 21
4.149999999999992
 31
0.0
  0
LINE
  5
8892
330
1F
100
AcDbEntity
  8
AM_0
100
AcDbLine
 10
-22.66464419346353
 20
-4.150000000000011
 30
0.0
 11
-15.70799999999942
 21
-4.15000000000001
 31
0.0
  0
LINE
  5
8893
330
1F
100
AcDbEntity
  8
AM_0
100
AcDbLine
 10
-22.66464419346355
 20
1.779555584468209
 30
0.0
 11
-22.66464419346354
 21
-4.150000000000016
 31
0.0
  0
LINE
  5
8A78
330
1F
100
AcDbEntity
  8
AM_0
100
AcDbLine
 10
-0.2584426864024003
 20
0.4980000000001185
 30
0.0
 11
0.0
 21
0.8300000000000034
 31
0.0
  0
LINE
  5
8A79
330
1F
100
AcDbEntity
  8
AM_0
100
AcDbLine
 10
0.0
 20
0.8300000000000034
 30
0.0
 11
-0.0000000000000036
 21
4.150000000000001
 31
0.0
  0
LINE
  5
8A7A
330
1F
100
AcDbEntity
  8
AM_0
100
AcDbLine
 10
0.0
 20
0.1660000000000421
 30
0.0
 11
-1.814560617886787
 21
2.497016340698397
 31
0.0
  0
LINE
  5
8A7B
330
1F
100
AcDbEntity
  8
AM_0
100
AcDbLine
 10
0.0000000000000071
 20
-4.150000000000001
 30
0.0
 11
-0.0808500000000088
 21
-3.928756160825972
 31
0.0
  0
LINE
  5
8A7C
330
1F
100
AcDbEntity
  8
AM_0
100
AcDbLine
 10
-0.0808500000000088
 20
-3.928756160825972
 30
0.0
 11
-0.2887499999999932
 21
-3.384922753145914
 31
0.0
  0
LINE
  5
8A7D
330
1F
100
AcDbEntity
  8
AM_0
100
AcDbLine
 10
-0.2887499999999932
 20
-3.384922753145914
 30
0.0
 11
-0.2887499999999932
 21
-3.340215007840023
 31
0.0
  0
LINE
  5
8A7E
330
1F
100
AcDbEntity
  8
AM_0
100
AcDbLine
 10
0.0000000000000071
 20
-4.150000000000001
 30
0.0
 11
0.0
 21
0.1660000000000421
 31
0.0
  0
LINE
  5
8A7F
330
1F
100
AcDbEntity
  8
AM_0
100
AcDbLine
 10
-0.0808500000000088
 20
-3.928756160825972
 30
0.0
 11
-0.0808500000000123
 21
0.2698613255947197
 31
0.0
  0
DIMENSION
  5
8A80
330
1F
100
AcDbEntity
  8
AM_5
100
AcDbDimension
  2
*D8
 10
9.051050680252128
 20
-4.150000000000015
 30
0.0
 11
7.501050680252129
 21
-0.0000000000000132
 31
0.0
 70
    32
  1
%%c<>
  3
AM_JIS
100
AcDbAlignedDimension
 13
-0.0000000000000071
 23
4.149999999999988
 33
0.0
 14
0.0000000000000071
 24
-4.150000000000012
 34
0.0
 50
90.0
100
AcDbRotatedDimension
1001
GENIUS_GENDTOL_13
1000

1000
h7
1000

1040
0.0
  0
SPLINE
  5
8A8D
330
1F
100
AcDbEntity
  8
AM_0
100
AcDbSpline
210
0.0
220
0.0
230
1.0
 70
     8
 71
     3
 72
     8
 73
     4
 74
     0
 42
0.0000000001
 43
0.0000000001
 40
1.870660592686466
 40
1.870660592686466
 40
1.870660592686466
 40
1.870660592686466
 40
14.43901837670146
 40
14.43901837670146
 40
14.43901837670146
 40
14.43901837670146
 10
-0.0808500000000088
 20
-3.928756160825972
 30
0.0
 10
-3.238592735246033
 20
-3.504177508044091
 30
0.0
 10
-6.183298586555068
 20
-1.752088754022045
 30
0.0
 10
-9.128004437864102
 20
0.0000000000001762
 30
0.0
  0
SPLINE
  5
8A8E
330
1F
100
AcDbEntity
  8
AM_0
100
AcDbSpline
210
0.0
220
0.0
230
1.0
 70
     8
 71
     3
 72
     8
 73
     4
 74
     0
 42
0.0000000001
 43
0.0000000001
 40
4.219358800530717
 40
4.219358800530717
 40
4.219358800530717
 40
4.219358800530717
 40
14.36247867694493
 40
14.36247867694493
 40
14.36247867694493
 40
14.36247867694493
 10
-0.2887499999999932
 20
-3.384922753145731
 30
0.0
 10
-2.788234492805393
 20
-2.706586667101658
 30
0.0
 10
-5.184320324227002
 20
-1.353293333550737
 30
0.0
 10
-7.580406155648962
 20
0.0000000000001762
 30
0.0
  0
SPLINE
  5
8A8F
330
1F
100
AcDbEntity
  8
AM_0
100
AcDbSpline
210
0.0
220
0.0
230
1.0
 70
     8
 71
     3
 72
     8
 73
     4
 74
     0
 42
0.0000000001
 43
0.0000000001
 40
0.0
 40
0.0
 40
0.0
 40
0.0
 40
2.238610194515266
 40
2.238610194515266
 40
2.238610194515266
 40
2.238610194515266
 10
-8.877740796990526
 20
-3.184457230745846
 30
0.0
 10
-7.751119979985379
 20
-3.184457230745838
 30
0.0
 10
-6.644913167474349
 20
-3.028329266153658
 30
0.0
 10
-5.552789976894835
 20
-2.764488617020178
 30
0.0
  0
SPLINE
  5
8A90
330
1F
100
AcDbEntity
  8
AM_0
100
AcDbSpline
210
0.0
220
0.0
230
1.0
 70
     8
 71
     3
 72
     8
 73
     4
 74
     0
 42
0.0000000001
 43
0.0000000001
 40
0.0
 40
0.0
 40
0.0
 40
0.0
 40
1.991655299184809
 40
1.991655299184809
 40
1.991655299184809
 40
1.991655299184809
 10
-0.0000000000000036
 20
3.382003229947787
 30
0.0
 10
-0.4260158829872573
 20
2.833157852805451
 30
0.0
 10
-1.157248018631272
 20
2.597463251447301
 30
0.0
 10
-1.814560617886787
 20
2.497016340698397
 30
0.0
  0
SPLINE
  5
8A91
330
1F
100
AcDbEntity
  8
AM_0
100
AcDbSpline
210
0.0
220
0.0
230
1.0
 70
     8
 71
     3
 72
     8
 73
     4
 74
     0
 42
0.0000000001
 43
0.0000000001
 40
0.0
 40
0.0
 40
0.0
 40
0.0
 40
7.57842115059705
 40
7.57842115059705
 40
7.57842115059705
 40
7.57842115059705
 10
-0.0000000000000071
 20
4.150000000000001
 30
0.0
 10
-1.945128095319674
 20
4.150000000000001
 30
0.0
 10
-3.796528058781817
 20
3.582404413665519
 30
0.0
 10
-5.603220692734311
 20
2.744071724144557
 30
0.0
  0
ELLIPSE
  5
8A92
330
1F
100
AcDbEntity
  8
AM_0
100
AcDbEllipse
 10
10.93921170063474
 20
0.0174609687179641
 30
0.0
 11
-0.0000000000001359
 21
12.55999192362693
 31
0.0
210
0.0
220
0.0
230
1.0
 40
0.9277108433734857
 41
1.489874453283504
 42
1.841418545974959
  0
LINE
  5
8A93
330
1F
100
AcDbEntity
  8
AM_11
100
AcDbLine
 10
-15.0
 20
4.149999999999992
 30
0.0
 11
-14.99999999999999
 21
-4.15000000000001
 31
0.0
  0
SPLINE
  5
8A94
330
1F
100
AcDbEntity
  8
AM_0
100
AcDbSpline
210
0.0
220
0.0
230
1.0
 70
     8
 71
     3
 72
     8
 73
     4
 74
     0
 42
0.0000000001
 43
0.0000000001
 40
0.0
 40
0.0
 40
0.0
 40
0.0
 40
11.15729734299484
 40
11.15729734299484
 40
11.15729734299484
 40
11.15729734299484
 10
-21.03060254037838
 20
4.149999999999992
 30
0.0
 10
-17.22490088566846
 20
4.099390243902518
 30
0.0
 10
-13.84845044283427
 20
2.0496951219513
 30
0.0
 10
-10.47200000000008
 20
0.0000000000000832
 30
0.0
  0
ELLIPSE
  5
8A95
330
1F
100
AcDbEntity
  8
AM_0
100
AcDbEllipse
 10
-17.55521293736359
 20
-2.663965613026057
 30
0.0
 11
2.390333609417027
 21
4.431662406968303
 31
0.0
210
0.0
220
0.0
230
1.0
 40
0.6211072339991797
 41
1.263117732355846
 42
1.763716063476867
  0
ELLIPSE
  5
8A96
330
1F
100
AcDbEntity
  8
AM_0
100
AcDbEllipse
 10
-15.00083781172042
 20
5.81897169603988
 30
0.0
 11
-0.0000000000001749
 21
9.998072100551999
 31
0.0
210
0.0
220
0.0
230
1.0
 40
0.9277108433734976
 41
2.477864006398919
 42
3.065277325949141
  0
ELLIPSE
  5
8A97
330
1F
100
AcDbEntity
  8
AM_0
100
AcDbEllipse
 10
-15.42743291842304
 20
6.683184301599982
 30
0.0
 11
-0.0000000000003976
 21
10.43395057142154
 31
0.0
210
0.0
220
0.0
230
1.0
 40
0.9277108433734992
 41
2.563710528490222
 42
3.044909616383457
  0
ELLIPSE
  5
8A98
330
1F
100
AcDbEntity
  8
AM_0
100
AcDbEllipse
 10
-15.60936935396469
 20
0.1885746953101795
 30
0.0
 11
-0.00000000000001
 21
4.339877130833543
 31
0.0
210
0.0
220
0.0
230
1.0
 40
0.9277108433734939
 41
3.117092700142874
 42
3.694936940561193
  0
SPLINE
  5
8A99
330
1F
100
AcDbEntity
  8
AM_0
100
AcDbSpline
210
0.0
220
0.0
230
1.0
 70
     8
 71
     3
 72
     8
 73
     4
 74
     0
 42
0.0000000001
 43
0.0000000001
 40
0.0
 40
0.0
 40
0.0
 40
0.0
 40
13.97258598406841
 40
13.97258598406841
 40
13.97258598406841
 40
13.97258598406841
 10
-8.877740796990526
 20
-3.184457230745846
 30
0.0
 10
-12.46403786623477
 20
-3.184457230745846
 30
0.0
 10
-15.84348033436928
 20
-1.87817733546489
 30
0.0
 10
-19.22025865104641
 20
0.0000000000000383
 30
0.0
  0
SPLINE
  5
8A9A
330
1F
100
AcDbEntity
  8
AM_0
100
AcDbSpline
210
0.0
220
0.0
230
1.0
 70
     8
 71
     3
 72
     8
 73
     4
 74
     0
 42
0.0000000001
 43
0.0000000001
 40
0.0
 40
0.0
 40
0.0
 40
0.0
 40
11.15729734299479
 40
11.15729734299479
 40
11.15729734299479
 40
11.15729734299479
 10
0.0000000000000071
 20
-4.150000000000001
 30
0.0
 10
-3.719099114331589
 20
-4.150000000000006
 30
0.0
 10
-7.09554955716576
 20
-2.075000000000006
 30
0.0
 10
-10.47199999999993
 20
-0.0000000000000077
 30
0.0
  0
LINE
  5
8A9B
330
1F
100
AcDbEntity
  8
AM_11
100
AcDbLine
 10
-14.99999999999999
 20
-4.150000000000019
 30
0.0
 11
0.0000000000000071
 21
-4.150000000000001
 31
0.0
  0
LINE
  5
8A9C
330
1F
100
AcDbEntity
  8
AM_0
100
AcDbLine
 10
-8.877740796990639
 20
-3.184457230745777
 30
0.0
 11
-16.36183732789307
 21
-3.702037996609759
 31
0.0
  0
LINE
  5
8A9D
330
1F
100
AcDbEntity
  8
AM_11
100
AcDbLine
 10
-0.0000000000007034
 20
4.150000000000001
 30
0.0
 11
-15.0
 21
4.149999999999992
 31
0.0
  0
SPLINE
  5
8A9E
330
1F
100
AcDbEntity
  8
AM_0
100
AcDbSpline
210
0.0
220
0.0
230
1.0
 70
     8
 71
     3
 72
     8
 73
     4
 74
     0
 42
0.0000000001
 43
0.0000000001
 40
0.3581103616548037
 40
0.3581103616548037
 40
0.3581103616548037
 40
0.3581103616548037
 40
14.43901837670146
 40
14.43901837670146
 40
14.43901837670146
 40
14.43901837670146
 10
-19.49133496363528
 20
4.022051700967706
 30
0.0
 10
-15.72618264637887
 20
3.925890876684156
 30
0.0
 10
-12.42709354212155
 20
1.962945438342101
 30
0.0
 10
-9.12800443786423
 20
0.0000000000000383
 30
0.0
  0
SPLINE
  5
8A9F
330
1F
100
AcDbEntity
  8
AM_0
100
AcDbSpline
210
0.0
220
0.0
230
1.0
 70
     8
 71
     3
 72
     8
 73
     4
 74
     0
 42
0.0000000001
 43
0.0000000001
 40
0.7142832446738512
 40
0.7142832446738512
 40
0.7142832446738512
 40
0.7142832446738512
 40
14.36247867694493
 40
14.36247867694493
 40
14.36247867694493
 40
14.36247867694493
 10
-17.59943380529354
 20
3.818496165554147
 30
0.0
 10
-14.0285696592242
 20
3.641879839444681
 30
0.0
 10
-10.80448790743665
 20
1.820939919722363
 30
0.0
 10
-7.580406155649114
 20
0.000000000000046
 30
0.0
  0
LINE
  5
8AA0
330
1F
100
AcDbEntity
  8
AM_0
100
AcDbLine
 10
-14.71244515581241
 20
3.330415225100901
 30
0.0
 11
-1.814560617886812
 21
2.497016340698305
 31
0.0
  0
SPLINE
  5
8AA1
330
1F
100
AcDbEntity
  8
AM_0
100
AcDbSpline
210
0.0
220
0.0
230
1.0
 70
     8
 71
     3
 72
     8
 73
     4
 74
     0
 42
0.0000000001
 43
0.0000000001
 40
0.0
 40
0.0
 40
0.0
 40
0.0
 40
5.192508374738713
 40
5.192508374738713
 40
5.192508374738713
 40
5.192508374738713
 10
-20.94400000000007
 20
4.149999999999978
 30
0.0
 10
-22.27674381618297
 20
4.149999999999978
 30
0.0
 10
-23.56548619135025
 20
3.883537591993269
 30
0.0
 10
-24.32162041115379
 20
3.001780272781382
 30
0.0
  0
ELLIPSE
  5
8AA2
330
1F
100
AcDbEntity
  8
AM_0
100
AcDbEllipse
 10
-12.75084500648062
 20
19.31208463979493
 30
0.0
 11
0.0
 21
20.53257527212478
 31
0.0
210
0.0
220
0.0
230
1.0
 40
0.9277108433734932
 41
2.488753428281208
 42
2.795066823490721
  0
LINE
  5
8ADD
330
1F
100
AcDbEntity
  8
AM_0
100
AcDbLine
 10
-54.50000000000002
 20
4.99999999999999
 30
0.0
 11
-55.00000000000002
 21
4.49999999999999
 31
0.0
1001
GENIUS_GENFIL_13
1070
     0
1040
0.5
1040
0.5
1040
20.0
1040
0.0
1002
{
1002
}
1001
GENIUS_GENODEF_13
1002
{
1000
HIER
1070
     0
1002
}
1002
{
1000
MANEDIT
1070
     0
1002
}
1002
{
1000
NOSEL
1070
     0
1002
}
1002
{
1000
BEHIND
1070
     0
1002
}
1002
{
1000
REACTOR
1002
}
1001
GENIUS_GENOBJ-N-CHA_13
1002
{
1000
OWNER
1000
GEN
1002
}
  0
LINE
  5
8AE0
330
1F
100
AcDbEntity
  8
AM_0
100
AcDbLine
 10
-54.99999999999999
 20
-4.500000000000013
 30
0.0
 11
-54.49999999999999
 21
-5.000000000000013
 31
0.0
1001
GENIUS_GENFIL_13
1070
     0
1040
0.5
1040
0.5
1040
20.0
1040
0.0
1002
{
1002
}
1001
GENIUS_GENODEF_13
1002
{
1000
HIER
1070
     0
1002
}
1002
{
1000
MANEDIT
1070
     0
1002
}
1002
{
1000
NOSEL
1070
     0
1002
}
1002
{
1000
BEHIND
1070
     0
1002
}
1002
{
1000
REACTOR
1002
}
1001
GENIUS_GENOBJ-N-CHA_13
1002
{
1000
OWNER
1000
GEN
1002
}
  0
VIEWPORT
  5
110
330
101
100
AcDbEntity
 67
     1
  8
0
100
AcDbViewport
 10
420.5
 20
297.0
 30
0.0
 40
948.9782706766916
 41
628.452
 68
     1
 69
     1
1001
ACAD
1000
MVIEW
1002
{
1070
    16
1010
0.0
1020
0.0
1030
0.0
1010
0.0
1020
0.0
1030
1.0
1040
0.0
1040
628.452
1040
420.5
1040
297.0
1040
50.0
1040
0.0
1040
0.0
1070
     0
1070
   100
1070
     1
1070
     1
1070
     0
1070
     0
1070
     0
1070
     0
1040
0.0
1040
0.0
1040
0.0
1040
10.0
1040
10.0
1040
10.0
1040
10.0
1070
     0
1002
{
1002
}
1002
}
  0
ENDSEC
  0
SECTION
  2
OBJECTS
  0
DICTIONARY
  5
C
330
0
100
AcDbDictionary
  3
ACAD_GROUP
350
D
  3
ACAD_LAYOUT
350
1A
  3
ACAD_MLINESTYLE
350
17
  3
ACAD_PLOTSETTINGS
350
19
  3
ACAD_PLOTSTYLENAME
350
E
  3
ACDBVARIABLEDICTIONARY
350
34
  3
ACMDICTIONARY
350
43
  3
AMG
350
2B
  3
AMGSNAPSETTINGS
350
6E
  3
ASE_INDEX_DICTIONARY
350
151A
  3
DWGPROPS
350
8BFF
  3
ACDBHEADERROUNDTRIPXREC
350
8C0B
  0
DICTIONARY
  5
74
330
1F
100
AcDbDictionary
280
     1
  3
ACAD_INDEX
360
8C01
  3
ACAD_LAYOUTSELFREF
360
8C2E
  0
DICTIONARY
  5
8C33
330
101
100
AcDbDictionary
280
     1
  3
ACAD_LAYOUTSELFREF
360
8C34
  0
DICTIONARY
  5
D
102
{ACAD_REACTORS
330
C
102
}
330
C
100
AcDbDictionary
  0
DICTIONARY
  5
1A
102
{ACAD_REACTORS
330
C
102
}
330
C
100
AcDbDictionary
  0
DICTIONARY
  5
17
102
{ACAD_REACTORS
330
C
102
}
330
C
100
AcDbDictionary
  3
STANDARD
350
18
  0
DICTIONARY
  5
19
102
{ACAD_REACTORS
330
C
102
}
330
C
100
AcDbDictionary
  0
ACDBDICTIONARYWDFLT
  5
E
102
{ACAD_REACTORS
330
C
102
}
330
C
100
AcDbDictionary
281
     1
  3
Normal
350
F
100
AcDbDictionaryWithDefault
340
F
  0
DICTIONARY
  5
34
102
{ACAD_REACTORS
330
C
102
}
330
C
100
AcDbDictionary
  3
INDEXCTL
350
35
  3
SORTENTS
350
B5E
  0
DICTIONARY
  5
43
102
{ACAD_REACTORS
330
C
102
}
330
C
100
AcDbDictionary
  3
ACMSTDDICTIONARY
350
260
  0
DICTIONARY
  5
2B
102
{ACAD_REACTORS
330
C
102
}
330
C
100
AcDbDictionary
  3
ACMGSETTINGS
350
2C
  0
DICTIONARY
  5
6E
102
{ACAD_REACTORS
330
C
102
}
330
C
100
AcDbDictionary
  0
DICTIONARY
  5
151A
102
{ACAD_REACTORS
330
C
102
}
330
C
100
AcDbDictionary
  3
ASEBLOCKHIERARCHYINDEXRECORD
350
151C
1001
DCO15
1040
1471862535.906
  0
XRECORD
  5
8BFF
102
{ACAD_REACTORS
330
C
102
}
330
C
100
AcDbXrecord
  1
DWGPROPS COOKIE
  2

  3

  4

  6

  7

  8

  9

300
AmdtFileType=82
301
=
302
=
303
=
304
=
305
=
306
=
307
=
308
=
309
=
 40
0.3280690856481481
 41
2452838.430434386
 42
2453045.604109212
  1

 90
        1
  0
DICTIONARY
  5
8C0B
102
{ACAD_REACTORS
330
C
102
}
330
C
100
AcDbDictionary
  3
TSTACKALIGN
350
8C0C
  3
TSTACKSIZE
350
8C0D
  3
HYPERLINKBASE
350
8C0E
  3
STYLESHEET
350
8C0F
  3
LAYOUTDICT
350
8C10
  3
PLOTSETDICT
350
8C11
  3
PLOTSTYLNAMDICT
350
8C12
  3
LWETCUNION
350
8C13
  3
INSUNITS
350
8C14
  3
CEPSNTYPE
350
8C15
  3
FINGERPRINTGUID
350
8C16
  3
VERSIONGUID
350
8C17
  3
PSVPSCALE
350
8C18
  3
DIMSTYLEDATA
350
8C19
  3
PUCSORTHOREF
350
8C1A
  3
PUCSORTHOVIEW
350
8C1B
  3
PUCSBASE
350
8C1C
  3
PUCSORGTOP
350
8C1D
  3
PUCSORGBOTTOM
350
8C1E
  3
PUCSORGLEFT
350
8C1F
  3
PUCSORGRIGHT
350
8C20
  3
PUCSORGFRONT
350
8C21
  3
PUCSORGBACK
350
8C22
  3
UCSORTHOREF
350
8C23
  3
UCSORTHOVIEW
350
8C24
  3
UCSBASE
350
8C25
  3
UCSORGTOP
350
8C26
  3
UCSORGBOTTOM
350
8C27
  3
UCSORGLEFT
350
8C28
  3
UCSORGRIGHT
350
8C29
  3
UCSORGFRONT
350
8C2A
  3
UCSORGBACK
350
8C2B
  0
DICTIONARY
  5
8C01
102
{ACAD_REACTORS
330
74
102
}
330
74
100
AcDbDictionary
  3
*A1
350
8C02
  0
XRECORD
  5
8C2E
102
{ACAD_REACTORS
330
74
102
}
330
74
100
AcDbXrecord
340
1F
  0
XRECORD
  5
8C34
102
{ACAD_REACTORS
330
8C33
102
}
330
8C33
100
AcDbXrecord
340
101
  0
MLINESTYLE
  5
18
102
{ACAD_REACTORS
330
17
102
}
330
17
100
AcDbMlineStyle
  2
STANDARD
 70
     0
  3

 62
   256
 51
90.0
 52
90.0
 71
     2
 49
0.5
 62
   256
  6
BYLAYER
 49
-0.5
 62
   256
  6
BYLAYER
  0
ACDBPLACEHOLDER
  5
F
102
{ACAD_REACTORS
330
E
102
}
330
E
100
AcDbPlaceHolder
280
     0
  0
DICTIONARYVAR
  5
35
102
{ACAD_REACTORS
330
34
102
}
330
34
100
DictionaryVariables
280
     0
  1
1
  0
DICTIONARYVAR
  5
B5E
102
{ACAD_REACTORS
330
34
102
}
330
34
100
DictionaryVariables
280
     0
  1
96
  0
DICTIONARY
  5
260
102
{ACAD_REACTORS
330
43
102
}
330
43
100
AcDbDictionary
  0
DICTIONARY
  5
2C
102
{ACAD_REACTORS
330
2B
102
}
330
2B
100
AcDbDictionary
  3
DWGSETTINGS
350
2D
  0
XRECORD
  5
151C
102
{ACAD_REACTORS
330
151A
102
}
330
151A
100
AcDbXrecord
330
0
330
0
330
0
330
0
330
0
330
0
330
0
330
0
  0
XRECORD
  5
8C0C
102
{ACAD_REACTORS
330
8C0B
102
}
330
8C0B
100
AcDbXrecord
 90
        1
  0
XRECORD
  5
8C0D
102
{ACAD_REACTORS
330
8C0B
102
}
330
8C0B
100
AcDbXrecord
 90
       70
  0
XRECORD
  5
8C0E
102
{ACAD_REACTORS
330
8C0B
102
}
330
8C0B
100
AcDbXrecord
  1

  0
XRECORD
  5
8C0F
102
{ACAD_REACTORS
330
8C0B
102
}
330
8C0B
100
AcDbXrecord
  1
ASAMI.ctb
  0
XRECORD
  5
8C10
102
{ACAD_REACTORS
330
8C0B
102
}
330
8C0B
100
AcDbXrecord
340
1A
  0
XRECORD
  5
8C11
102
{ACAD_REACTORS
330
8C0B
102
}
330
8C0B
100
AcDbXrecord
340
19
  0
XRECORD
  5
8C12
102
{ACAD_REACTORS
330
8C0B
102
}
330
8C0B
100
AcDbXrecord
340
E
  0
XRECORD
  5
8C13
102
{ACAD_REACTORS
330
8C0B
102
}
330
8C0B
100
AcDbXrecord
 90
    10781
  0
XRECORD
  5
8C14
102
{ACAD_REACTORS
330
8C0B
102
}
330
8C0B
100
AcDbXrecord
 90
        4
  0
XRECORD
  5
8C15
102
{ACAD_REACTORS
330
8C0B
102
}
330
8C0B
100
AcDbXrecord
 90
        0
  0
XRECORD
  5
8C16
102
{ACAD_REACTORS
330
8C0B
102
}
330
8C0B
100
AcDbXrecord
  1
{AFB28963-8C59-40AE-9337-C84526B81ACE}
  0
XRECORD
  5
8C17
102
{ACAD_REACTORS
330
8C0B
102
}
330
8C0B
100
AcDbXrecord
  1
{97DBBA72-4DEC-4955-ADE2-7DCEB0CB6768}
  0
XRECORD
  5
8C18
102
{ACAD_REACTORS
330
8C0B
102
}
330
8C0B
100
AcDbXrecord
 40
0.0
  0
XRECORD
  5
8C19
102
{ACAD_REACTORS
330
8C0B
102
}
330
8C0B
100
AcDbXrecord
1000
DSTYLE
1002
{
1070
    79
 70
     2
1070
   341
340
59
1070
   342
340
59
1070
   371
 70
    -1
1070
   372
 70
    -1
1002
}
  0
XRECORD
  5
8C1A
102
{ACAD_REACTORS
330
8C0B
102
}
330
8C0B
100
AcDbXrecord
340
0
  0
XRECORD
  5
8C1B
102
{ACAD_REACTORS
330
8C0B
102
}
330
8C0B
100
AcDbXrecord
 70
     0
  0
XRECORD
  5
8C1C
102
{ACAD_REACTORS
330
8C0B
102
}
330
8C0B
100
AcDbXrecord
340
0
  0
XRECORD
  5
8C1D
102
{ACAD_REACTORS
330
8C0B
102
}
330
8C0B
100
AcDbXrecord
 10
0.0
 20
0.0
 30
0.0
  0
XRECORD
  5
8C1E
102
{ACAD_REACTORS
330
8C0B
102
}
330
8C0B
100
AcDbXrecord
 10
0.0
 20
0.0
 30
0.0
  0
XRECORD
  5
8C1F
102
{ACAD_REACTORS
330
8C0B
102
}
330
8C0B
100
AcDbXrecord
 10
0.0
 20
0.0
 30
0.0
  0
XRECORD
  5
8C20
102
{ACAD_REACTORS
330
8C0B
102
}
330
8C0B
100
AcDbXrecord
 10
0.0
 20
0.0
 30
0.0
  0
XRECORD
  5
8C21
102
{ACAD_REACTORS
330
8C0B
102
}
330
8C0B
100
AcDbXrecord
 10
0.0
 20
0.0
 30
0.0
  0
XRECORD
  5
8C22
102
{ACAD_REACTORS
330
8C0B
102
}
330
8C0B
100
AcDbXrecord
 10
0.0
 20
0.0
 30
0.0
  0
XRECORD
  5
8C23
102
{ACAD_REACTORS
330
8C0B
102
}
330
8C0B
100
AcDbXrecord
340
0
  0
XRECORD
  5
8C24
102
{ACAD_REACTORS
330
8C0B
102
}
330
8C0B
100
AcDbXrecord
 70
     0
  0
XRECORD
  5
8C25
102
{ACAD_REACTORS
330
8C0B
102
}
330
8C0B
100
AcDbXrecord
340
0
  0
XRECORD
  5
8C26
102
{ACAD_REACTORS
330
8C0B
102
}
330
8C0B
100
AcDbXrecord
 10
0.0
 20
0.0
 30
0.0
  0
XRECORD
  5
8C27
102
{ACAD_REACTORS
330
8C0B
102
}
330
8C0B
100
AcDbXrecord
 10
0.0
 20
0.0
 30
0.0
  0
XRECORD
  5
8C28
102
{ACAD_REACTORS
330
8C0B
102
}
330
8C0B
100
AcDbXrecord
 10
0.0
 20
0.0
 30
0.0
  0
XRECORD
  5
8C29
102
{ACAD_REACTORS
330
8C0B
102
}
330
8C0B
100
AcDbXrecord
 10
0.0
 20
0.0
 30
0.0
  0
XRECORD
  5
8C2A
102
{ACAD_REACTORS
330
8C0B
102
}
330
8C0B
100
AcDbXrecord
 10
0.0
 20
0.0
 30
0.0
  0
XRECORD
  5
8C2B
102
{ACAD_REACTORS
330
8C0B
102
}
330
8C0B
100
AcDbXrecord
 10
0.0
 20
0.0
 30
0.0
  0
LAYER_INDEX
  5
8C02
102
{ACAD_REACTORS
330
8C01
102
}
330
8C01
100
AcDbIndex
 40
2453151.834441157
100
AcDbLayerIndex
  8
0
360
8C03
 90
        0
  8
AM_0
360
8C04
 90
       40
  8
AM_11
360
8C05
 90
        3
  8
AM_7
360
8C06
 90
        1
  8
AM_5
360
8C07
 90
        4
  8
Defpoints
360
8C08
 90
        0
  8
AM_6
360
8C09
 90
        1
  0
XRECORD
  5
2D
102
{ACAD_REACTORS
330
2C
102
}
330
2C
100
AcDbXrecord
  1
VERSION
140
15.0
  1
PRODUCT
  2
AutoCAD Mechanical 2000
  0
IDBUFFER
  5
8C03
330
0
100
AcDbIdBuffer
  0
IDBUFFER
  5
8C04
330
0
100
AcDbIdBuffer
330
8A7D
330
8A7E
330
8A7F
330
8A8D
330
8A8E
330
8A8F
330
8A90
330
8A91
330
8A92
330
8A94
330
8A95
330
8A96
330
8A97
330
8A98
330
8A99
330
8A9A
330
8A9C
330
8A9E
330
8A9F
330
8AA0
330
8AA1
330
8AA2
330
8ADD
330
8AE0
330
87DC
330
87DD
330
87DE
330
87DF
330
8802
330
888A
330
888B
330
888C
330
8891
330
8892
330
8893
330
8A78
330
8A79
330
8A7A
330
8A7B
330
8A7C
  0
IDBUFFER
  5
8C05
330
0
100
AcDbIdBuffer
330
8A93
330
8A9B
330
8A9D
  0
IDBUFFER
  5
8C06
330
0
100
AcDbIdBuffer
330
C2E
  0
IDBUFFER
  5
8C07
330
0
100
AcDbIdBuffer
330
10F0
330
12D8
330
1A73
330
8A80
  0
IDBUFFER
  5
8C08
330
0
100
AcDbIdBuffer
  0
IDBUFFER
  5
8C09
330
0
100
AcDbIdBuffer
330
1500
  0
ENDSEC
  0
EOF
