  0
SECTION
  2
HEADER
  9
$ACADVER
  1
AC1014
  9
$ACADMAINTVER
 70
     9
  9
$DWGCODEPAGE
  3
ANSI_932
  9
$INSBASE
 10
0.0
 20
0.0
 30
0.0
  9
$EXTMIN
 10
-94.98869838927438
 20
-32.25000099999994
 30
-0.00000001
  9
$EXTMAX
 10
9.551050680252144
 20
8.000000000000008
 30
0.00000001
  9
$LIMMIN
 10
-104.8089408648131
 20
-41.38583014457583
  9
$LIMMAX
 10
21.54801614238511
 20
26.86395957642452
  9
$ORTHOMODE
 70
     0
  9
$REGENMODE
 70
     1
  9
$FILLMODE
 70
     1
  9
$QTEXTMODE
 70
     0
  9
$MIRRTEXT
 70
     0
  9
$DRAGMODE
 70
     2
  9
$LTSCALE
 40
1.0
  9
$OSMODE
 70
    55
  9
$ATTMODE
 70
     1
  9
$TEXTSIZE
 40
2.5
  9
$TRACEWID
 40
1.0
  9
$TEXTSTYLE
  7
STANDARD
  9
$CLAYER
  8
AM_0
  9
$CELTYPE
  6
BYLAYER
  9
$CECOLOR
 62
   256
  9
$CELTSCALE
 40
1.0
  9
$DELOBJ
 70
     1
  9
$DISPSILH
 70
     0
  9
$DIMSCALE
 40
0.5
  9
$DIMASZ
 40
2.5
  9
$DIMEXO
 40
1.0
  9
$DIMDLI
 40
12.0
  9
$DIMRND
 40
0.0
  9
$DIMDLE
 40
0.0
  9
$DIMEXE
 40
1.0
  9
$DIMTP
 40
0.1
  9
$DIMTM
 40
0.1
  9
$DIMTXT
 40
3.2
  9
$DIMCEN
 40
0.0
  9
$DIMTSZ
 40
0.0
  9
$DIMTOL
 70
     0
  9
$DIMLIM
 70
     0
  9
$DIMTIH
 70
     0
  9
$DIMTOH
 70
     0
  9
$DIMSE1
 70
     0
  9
$DIMSE2
 70
     0
  9
$DIMTAD
 70
     3
  9
$DIMZIN
 70
     8
  9
$DIMBLK
  1
OPEN30
  9
$DIMASO
 70
     1
  9
$DIMSHO
 70
     1
  9
$DIMPOST
  1

  9
$DIMAPOST
  1
"
  9
$DIMALT
 70
     0
  9
$DIMALTD
 70
     2
  9
$DIMALTF
 40
0.0393701
  9
$DIMLFAC
 40
1.0
  9
$DIMTOFL
 70
     1
  9
$DIMTVP
 40
0.0
  9
$DIMTIX
 70
     0
  9
$DIMSOXD
 70
     0
  9
$DIMSAH
 70
     0
  9
$DIMBLK1
  1

  9
$DIMBLK2
  1

  9
$DIMSTYLE
  2
AM_JIS
  9
$DIMCLRD
 70
   256
  9
$DIMCLRE
 70
   256
  9
$DIMCLRT
 70
     2
  9
$DIMTFAC
 40
0.71
  9
$DIMGAP
 40
1.5
  9
$DIMJUST
 70
     0
  9
$DIMSD1
 70
     0
  9
$DIMSD2
 70
     0
  9
$DIMTOLJ
 70
     0
  9
$DIMTZIN
 70
     0
  9
$DIMALTZ
 70
     0
  9
$DIMALTTZ
 70
     0
  9
$DIMFIT
 70
     3
  9
$DIMUPT
 70
     0
  9
$DIMUNIT
 70
     2
  9
$DIMDEC
 70
     3
  9
$DIMTDEC
 70
     3
  9
$DIMALTU
 70
     2
  9
$DIMALTTD
 70
     2
  9
$DIMTXSTY
  7
ASAMI
  9
$DIMAUNIT
 70
     0
  9
$LUNITS
 70
     2
  9
$LUPREC
 70
     2
  9
$SKETCHINC
 40
1.0
  9
$FILLETRAD
 40
2.5
  9
$AUNITS
 70
     0
  9
$AUPREC
 70
     0
  9
$MENU
  1
.
  9
$ELEVATION
 40
0.0
  9
$PELEVATION
 40
0.0
  9
$THICKNESS
 40
0.0
  9
$LIMCHECK
 70
     0
  9
$BLIPMODE
 70
     0
  9
$CHAMFERA
 40
1.25
  9
$CHAMFERB
 40
1.25
  9
$CHAMFERC
 40
20.0
  9
$CHAMFERD
 40
0.0
  9
$SKPOLY
 70
     0
  9
$TDCREATE
 40
2452838.430434386
  9
$TDUPDATE
 40
2453151.841400972
  9
$TDINDWG
 40
0.4135025926
  9
$TDUSRTIMER
 40
0.4135025926
  9
$USRTIMER
 70
     1
  9
$ANGBASE
 50
0.0
  9
$ANGDIR
 70
     0
  9
$PDMODE
 70
     0
  9
$PDSIZE
 40
0.0
  9
$PLINEWID
 40
0.0
  9
$COORDS
 70
     1
  9
$SPLFRAME
 70
     0
  9
$SPLINETYPE
 70
     6
  9
$SPLINESEGS
 70
     8
  9
$ATTDIA
 70
     1
  9
$ATTREQ
 70
     1
  9
$HANDLING
 70
 12289
  9
$HANDSEED
  5
B227
  9
$SURFTAB1
 70
     6
  9
$SURFTAB2
 70
     6
  9
$SURFTYPE
 70
     6
  9
$SURFU
 70
     6
  9
$SURFV
 70
     6
  9
$UCSNAME
  2

  9
$UCSORG
 10
0.0
 20
0.0
 30
0.0
  9
$UCSXDIR
 10
1.0
 20
0.0
 30
0.0
  9
$UCSYDIR
 10
0.0
 20
1.0
 30
0.0
  9
$PUCSNAME
  2

  9
$PUCSORG
 10
0.0
 20
0.0
 30
0.0
  9
$PUCSXDIR
 10
1.0
 20
0.0
 30
0.0
  9
$PUCSYDIR
 10
0.0
 20
1.0
 30
0.0
  9
$USERI1
 70
     0
  9
$USERI2
 70
     0
  9
$USERI3
 70
     0
  9
$USERI4
 70
     0
  9
$USERI5
 70
     0
  9
$USERR1
 40
0.0
  9
$USERR2
 40
0.0
  9
$USERR3
 40
0.0
  9
$USERR4
 40
0.0
  9
$USERR5
 40
0.0
  9
$WORLDVIEW
 70
     1
  9
$SHADEDGE
 70
     3
  9
$SHADEDIF
 70
    70
  9
$TILEMODE
 70
     1
  9
$MAXACTVP
 70
    64
  9
$PINSBASE
 10
0.0
 20
0.0
 30
0.0
  9
$PLIMCHECK
 70
     0
  9
$PEXTMIN
 10
1.000000000000000E+20
 20
1.000000000000000E+20
 30
1.000000000000000E+20
  9
$PEXTMAX
 10
-1.000000000000000E+20
 20
-1.000000000000000E+20
 30
-1.000000000000000E+20
  9
$PLIMMIN
 10
0.0
 20
0.0
  9
$PLIMMAX
 10
841.0
 20
594.0
  9
$UNITMODE
 70
     0
  9
$VISRETAIN
 70
     1
  9
$PLINEGEN
 70
     0
  9
$PSLTSCALE
 70
     0
  9
$TREEDEPTH
 70
  3020
  9
$PICKSTYLE
 70
     0
  9
$CMLSTYLE
  2
STANDARD
  9
$CMLJUST
 70
     0
  9
$CMLSCALE
 40
20.0
  9
$PROXYGRAPHICS
 70
     1
  9
$MEASUREMENT
 70
     1
  0
ENDSEC
  0
SECTION
  2
CLASSES
  0
CLASS
  1
ACDBDICTIONARYWDFLT
  2
AcDbDictionaryWithDefault
  3
AutoCAD 2000
 90
        0
280
     0
281
     0
  0
CLASS
  1
ACDBPLACEHOLDER
  2
AcDbPlaceHolder
  3
AutoCAD 2000
 90
        0
280
     0
281
     0
  0
CLASS
  1
LAYOUT
  2
AcDbLayout
  3
AutoCAD 2000
 90
        0
280
     0
281
     0
  0
CLASS
  1
AMGSETTINGSOBJ
  2
AmgSettingsObj
  3
"AcadM|Product Description: AutoCAD Mechanical 2000|Company: Autodesk"
 90
        0
280
     0
281
     0
  0
CLASS
  1
ACME_DOCUMENT
  2
AcMeDbDoc
  3
AcMeServices
 90
        0
280
     0
281
     0
  0
CLASS
  1
ACMESCOPE
  2
AcMeScope
  3
AcMeServices
 90
        0
280
     0
281
     0
  0
CLASS
  1
ACMECOMMANDHISTORY
  2
AcMeCommandHistory
  3
AcMeServices
 90
        0
280
     0
281
     0
  0
CLASS
  1
DICTIONARYVAR
  2
AcDbDictionaryVar
  3
AutoCAD 2000
 90
        0
280
     0
281
     0
  0
CLASS
  1
ACIMSYSVARMAN
  2
AcImSysVarManager
  3
AcMeServices
 90
        0
280
     0
281
     0
  0
CLASS
  1
ACIMREALSYSVAR
  2
AcImRealSysVar
  3
AcMeServices
 90
        0
280
     0
281
     0
  0
CLASS
  1
ACIMINTSYSVAR
  2
AcImIntSysVar
  3
AcMeServices
 90
        0
280
     0
281
     0
  0
CLASS
  1
ACMEDRAWINGMAN
  2
AcMeDrawingMan
  3
AcMeServices
 90
        0
280
     0
281
     0
  0
CLASS
  1
ACMEVIEW
  2
AcMeView
  3
AcMeServices
 90
        0
280
     0
281
     0
  0
CLASS
  1
ACDBENTITYCACHE
  2
AcMeEntityCache
  3
AcMeServices
 90
        0
280
     0
281
     0
  0
CLASS
  1
GSMANAGER
  2
AcMeGSManager
  3
AcMeServices
 90
        0
280
     0
281
     0
  0
CLASS
  1
AmdtInternalReactor
  2
AmdtInternalReactor
  3
AcMeServices
 90
        0
280
     0
281
     0
  0
CLASS
  1
ACMESTATEMGR
  2
AcMeStateMgr
  3
AcMeServices
 90
        0
280
     0
281
     0
  0
CLASS
  1
ACME_DATABASE
  2
AcMeDbDatabase
  3
AcMeServices
 90
        0
280
     0
281
     0
  0
CLASS
  1
ACRFINSADJUSTERMGR
  2
AcRfInsAdjusterMgr
  3
AcMeServices
 90
        0
280
     0
281
     0
  0
CLASS
  1
ACMDATADICTIONARY
  2
AcmDataDictionary
  3
"AcmSymBB|Product Description: AutoCAD Mechanical 2000|Company: Autodesk"
 90
        0
280
     0
281
     0
  0
CLASS
  1
ACMDATAENTRYBLOCK
  2
AcmDataEntryBlock
  3
"AcmSymBB|Product Description: AutoCAD Mechanical 2000|Company: Autodesk"
 90
        0
280
     0
281
     0
  0
CLASS
  1
AMGOBJPROPCFG
  2
AmgObjPropCfg
  3
"AmgLay|Product Description: AutoCAD Mechanical 2000|Company: Autodesk"
 90
        1
280
     0
281
     0
  0
CLASS
  1
ACAMGFILTERDAT
  2
AcAmgFilterDat
  3
"AcadM|Product Description: AutoCAD Mechanical 2000|Company: Autodesk"
 90
        0
280
     0
281
     0
  0
CLASS
  1
LAYER_INDEX
  2
AcDbLayerIndex
  3
AutoCAD 2000
 90
        0
280
     0
281
     0
  0
CLASS
  1
IDBUFFER
  2
AcDbIdBuffer
  3
AutoCAD 2000
 90
        0
280
     0
281
     0
  0
CLASS
  1
ACIMSTRSYSVAR
  2
AcImStrSysVar
  3
AcMeServices
 90
        0
280
     0
281
     0
  0
CLASS
  1
ACMSTANDARDJIS
  2
AcmStandardJIS
  3
"AcmSymBB|Product Description: AutoCAD Mechanical 2000|Company: Autodesk"
 90
        0
280
     0
281
     0
  0
CLASS
  1
ACMSURFSTANDARDJIS
  2
AcmSurfTextStdJIS
  3
"AcmSymBB|Product Description: AutoCAD Mechanical 2000|Company: Autodesk"
 90
        0
280
     0
281
     0
  0
CLASS
  1
ACMFCFSTANDARDJIS
  2
AcmFCFStdJIS
  3
"AcmSymBB|Product Description: AutoCAD Mechanical 2000|Company: Autodesk"
 90
        0
280
     0
281
     0
  0
CLASS
  1
ACMWELDSTANDARDJIS
  2
AcmWeldingStdJIS
  3
"AcmSymBB|Product Description: AutoCAD Mechanical 2000|Company: Autodesk"
 90
        0
280
     0
281
     0
  0
CLASS
  1
ACMIDSTANDARDJIS
  2
AcmIdStdJIS
  3
"AcmSymBB|Product Description: AutoCAD Mechanical 2000|Company: Autodesk"
 90
        0
280
     0
281
     0
  0
CLASS
  1
ACMDATUMSTANDARDJIS
  2
AcmDatumStdJIS
  3
"AcmSymBB|Product Description: AutoCAD Mechanical 2000|Company: Autodesk"
 90
        0
280
     0
281
     0
  0
CLASS
  1
ACMBOMSTANDARDJIS
  2
AcmBOMStdJIS
  3
"AcmSymBB|Product Description: AutoCAD Mechanical 2000|Company: Autodesk"
 90
        0
280
     0
281
     0
  0
CLASS
  1
ACMSTANDARDANSI
  2
AcmStandardANSI
  3
"AcmSymBB|Product Description: AutoCAD Mechanical 2000|Company: Autodesk"
 90
        0
280
     0
281
     0
  0
CLASS
  1
ACMSURFSTANDARDANSI
  2
AcmSurfTextStdANSI
  3
"AcmSymBB|Product Description: AutoCAD Mechanical 2000|Company: Autodesk"
 90
        0
280
     0
281
     0
  0
CLASS
  1
ACMFCFSTANDARDANSI
  2
AcmFCFStdANSI
  3
"AcmSymBB|Product Description: AutoCAD Mechanical 2000|Company: Autodesk"
 90
        0
280
     0
281
     0
  0
CLASS
  1
ACMWELDSTANDARDANSI
  2
AcmWeldingStdANSI
  3
"AcmSymBB|Product Description: AutoCAD Mechanical 2000|Company: Autodesk"
 90
        0
280
     0
281
     0
  0
CLASS
  1
ACMIDSTANDARDANSI
  2
AcmIdStdANSI
  3
"AcmSymBB|Product Description: AutoCAD Mechanical 2000|Company: Autodesk"
 90
        0
280
     0
281
     0
  0
CLASS
  1
ACMDATUMSTANDARDANSI
  2
AcmDatumStdANSI
  3
"AcmSymBB|Product Description: AutoCAD Mechanical 2000|Company: Autodesk"
 90
        0
280
     0
281
     0
  0
CLASS
  1
ACMBOMSTANDARDANSI
  2
AcmBOMStdANSI
  3
"AcmSymBB|Product Description: AutoCAD Mechanical 2000|Company: Autodesk"
 90
        0
280
     0
281
     0
  0
CLASS
  1
ACMSTANDARDBSI
  2
AcmStandardBSI
  3
"AcmSymBB|Product Description: AutoCAD Mechanical 2000|Company: Autodesk"
 90
        0
280
     0
281
     0
  0
CLASS
  1
ACMSURFSTANDARDBSI
  2
AcmSurfTextStdBSI
  3
"AcmSymBB|Product Description: AutoCAD Mechanical 2000|Company: Autodesk"
 90
        0
280
     0
281
     0
  0
CLASS
  1
ACMFCFSTANDARDBSI
  2
AcmFCFStdBSI
  3
"AcmSymBB|Product Description: AutoCAD Mechanical 2000|Company: Autodesk"
 90
        0
280
     0
281
     0
  0
CLASS
  1
ACMWELDSTANDARDBSI
  2
AcmWeldingStdBSI
  3
"AcmSymBB|Product Description: AutoCAD Mechanical 2000|Company: Autodesk"
 90
        0
280
     0
281
     0
  0
CLASS
  1
ACMIDSTANDARDBSI
  2
AcmIdStdBSI
  3
"AcmSymBB|Product Description: AutoCAD Mechanical 2000|Company: Autodesk"
 90
        0
280
     0
281
     0
  0
CLASS
  1
ACMDATUMSTANDARDBSI
  2
AcmDatumStdBSI
  3
"AcmSymBB|Product Description: AutoCAD Mechanical 2000|Company: Autodesk"
 90
        0
280
     0
281
     0
  0
CLASS
  1
ACMBOMSTANDARDBSI
  2
AcmBOMStdBSI
  3
"AcmSymBB|Product Description: AutoCAD Mechanical 2000|Company: Autodesk"
 90
        0
280
     0
281
     0
  0
CLASS
  1
LONG_TRANSACTION
  2
AcDbLongTransaction
  3
AutoCAD 2000
 90
        0
280
     0
281
     0
  0
CLASS
  1
LWPOLYLINE
  2
AcDbPolyline
  3
AutoCAD 2000
 90
        0
280
     0
281
     1
  0
CLASS
  1
HATCH
  2
AcDbHatch
  3
AutoCAD 2000
 90
        0
280
     0
281
     1
  0
CLASS
  1
XRECORD
  2
AcDbXrecord
  3
AutoCAD 2000
 90
        0
280
     0
281
     0
  0
ENDSEC
  0
SECTION
  2
TABLES
  0
TABLE
  2
VPORT
  5
8
330
0
100
AcDbSymbolTable
 70
     3
  0
VPORT
  5
B1FC
330
8
100
AcDbSymbolTableRecord
100
AcDbViewportTableRecord
  2
*ACTIVE
 70
     0
 10
0.0
 20
0.0
 11
1.0
 21
1.0
 12
-43.25879731133759
 22
-12.75916527862404
 13
0.0
 23
0.0
 14
2.5
 24
2.5
 15
10.0
 25
10.0
 16
0.0
 26
0.0
 36
1.0
 17
0.0
 27
0.0
 37
0.0
 40
82.68213726498528
 41
1.56570841889117
 42
50.0
 43
0.0
 44
0.0
 50
0.0
 51
0.0
 71
     0
 72
   100
 73
     1
 74
     3
 75
     0
 76
     0
 77
     0
 78
     0
  0
ENDTAB
  0
TABLE
  2
LTYPE
  5
5
330
0
100
AcDbSymbolTable
 70
    10
  0
LTYPE
  5
14
330
5
100
AcDbSymbolTableRecord
100
AcDbLinetypeTableRecord
  2
BYBLOCK
 70
     0
  3

 72
    65
 73
     0
 40
0.0
  0
LTYPE
  5
15
330
5
100
AcDbSymbolTableRecord
100
AcDbLinetypeTableRecord
  2
BYLAYER
 70
     0
  3

 72
    65
 73
     0
 40
0.0
  0
LTYPE
  5
16
330
5
100
AcDbSymbolTableRecord
100
AcDbLinetypeTableRecord
  2
CONTINUOUS
 70
     0
  3
Solid line
 72
    65
 73
     0
 40
0.0
  0
LTYPE
  5
4B
330
5
100
AcDbSymbolTableRecord
100
AcDbLinetypeTableRecord
  2
AM_ISO02W050
 70
     0
  3
__ __ __ __ __ __ __ __ __ __ __ __ __ __ __
 72
    65
 73
     2
 40
7.5
 49
6.0
 74
     0
 49
-1.5
 74
     0
  0
LTYPE
  5
4C
330
5
100
AcDbSymbolTableRecord
100
AcDbLinetypeTableRecord
  2
AM_ISO08W050
 70
     0
  3
____ . ____ . ____ . ____ . ____ . ____ . ____
 72
    65
 73
     4
 40
18.0
 49
12.0
 74
     0
 49
-1.5
 74
     0
 49
3.0
 74
     0
 49
-1.5
 74
     0
  0
LTYPE
  5
4D
330
5
100
AcDbSymbolTableRecord
100
AcDbLinetypeTableRecord
  2
AM_ISO09W050
 70
     0
  3
_____ . . _____ . . _____ . . ____ .. ____
 72
    65
 73
     6
 40
22.5
 49
12.0
 74
     0
 49
-1.5
 74
     0
 49
3.0
 74
     0
 49
-1.5
 74
     0
 49
3.0
 74
     0
 49
-1.5
 74
     0
  0
LTYPE
  5
4E
330
5
100
AcDbSymbolTableRecord
100
AcDbLinetypeTableRecord
  2
AMCONSTR
 70
     0
  3
_______________________
 72
    65
 73
     2
 40
9999.0
 49
9999.0
 74
     0
 49
0.0
 74
     0
  0
LTYPE
  5
4F
330
5
100
AcDbSymbolTableRecord
100
AcDbLinetypeTableRecord
  2
AM_ISO02W050X2
 70
     0
  3
 _ _ _ _ _ _ _ _ _ _ _ _
 72
    65
 73
     2
 40
3.75
 49
3.0
 74
     0
 49
-0.75
 74
     0
  0
LTYPE
  5
50
330
5
100
AcDbSymbolTableRecord
100
AcDbLinetypeTableRecord
  2
AM_ISO08W050X2
 70
     0
  3
__ . __ . __ . __ . __ . __
 72
    65
 73
     4
 40
9.0
 49
6.0
 74
     0
 49
-0.75
 74
     0
 49
1.5
 74
     0
 49
-0.75
 74
     0
  0
LTYPE
  5
53
330
5
100
AcDbSymbolTableRecord
100
AcDbLinetypeTableRecord
  2
AMZIGZAG
 70
     0
  3
/\/-/\/-/\/-/\/-/\/-/\/
 72
    65
 73
     2
 40
11.00009999999999
 49
0.0001
 74
     4
 75
   135
340
52
 46
0.04
 50
0.0
 44
0.0
 45
0.0
 49
-11.0
 74
     0
  0
LTYPE
  5
166
330
5
100
AcDbSymbolTableRecord
100
AcDbLinetypeTableRecord
  2
ACJISTGL
 70
     0
  3
_ _ _ _ _
 72
    65
 73
     2
 40
3.0
 49
2.0
 74
     0
 49
-1.0
 74
     0
  0
LTYPE
  5
26A
330
5
100
AcDbSymbolTableRecord
100
AcDbLinetypeTableRecord
  2
ACJISTGB
 70
     0
  3
__ . . __ . .
 72
    65
 73
     6
 40
9.0
 49
4.0
 74
     0
 49
-1.0
 74
     0
 49
1.0
 74
     0
 49
-1.0
 74
     0
 49
1.0
 74
     0
 49
-1.0
 74
     0
  0
ENDTAB
  0
TABLE
  2
LAYER
  5
2
330
0
100
AcDbSymbolTable
 70
     8
  0
LAYER
  5
10
330
2
100
AcDbSymbolTableRecord
100
AcDbLayerTableRecord
  2
0
 70
     0
 62
     7
  6
CONTINUOUS
  0
LAYER
  5
3F9
330
2
100
AcDbSymbolTableRecord
100
AcDbLayerTableRecord
  2
AM_0
 70
     0
 62
     7
  6
CONTINUOUS
  0
LAYER
  5
BDD
330
2
100
AcDbSymbolTableRecord
100
AcDbLayerTableRecord
  2
AM_11
 70
     0
 62
     3
  6
AM_ISO09W050
  0
LAYER
  5
BDE
330
2
100
AcDbSymbolTableRecord
100
AcDbLayerTableRecord
  2
AM_7
 70
     0
 62
     4
  6
AM_ISO08W050
  0
LAYER
  5
BDF
330
2
100
AcDbSymbolTableRecord
100
AcDbLayerTableRecord
  2
AM_5
 70
     0
 62
     3
  6
CONTINUOUS
  0
LAYER
  5
BE0
330
2
100
AcDbSymbolTableRecord
100
AcDbLayerTableRecord
  2
DEFPOINTS
 70
     0
 62
     7
  6
CONTINUOUS
  0
LAYER
  5
14FF
330
2
100
AcDbSymbolTableRecord
100
AcDbLayerTableRecord
  2
AM_6
 70
     0
 62
     2
  6
CONTINUOUS
  0
LAYER
  5
B1B4
330
2
100
AcDbSymbolTableRecord
100
AcDbLayerTableRecord
  2
AM_CL
 70
     0
 62
     1
  6
AMCONSTR
  0
ENDTAB
  0
TABLE
  2
STYLE
  5
3
330
0
100
AcDbSymbolTable
 70
     5
  0
STYLE
  5
11
330
3
100
AcDbSymbolTableRecord
100
AcDbTextStyleTableRecord
  2
STANDARD
 70
     0
 40
0.0
 41
1.0
 50
0.0
 71
     0
 42
2.5
  3
simplex.shx
  4
EXTFONT.SHX
  0
STYLE
  5
52
330
3
100
AcDbSymbolTableRecord
100
AcDbTextStyleTableRecord
  2

 70
     1
 40
0.0
 41
1.0
 50
0.0
 71
     0
 42
2.5
  3
ltypeshp.shx
  4

  0
STYLE
  5
6B
330
3
100
AcDbSymbolTableRecord
100
AcDbTextStyleTableRecord
  2
ASAMI
 70
     0
 40
0.0
 41
1.0
 50
0.0
 71
     0
 42
2.5
  3
simplex.shx
  4
EXTFONT.SHX
  0
STYLE
  5
262
330
3
100
AcDbSymbolTableRecord
100
AcDbTextStyleTableRecord
  2
ACJISTS
 70
     0
 40
1.0
 41
1.0
 50
0.0
 71
     0
 42
2.5
  3
simplex.shx
  4
bigfont.shx
  0
STYLE
  5
269
330
3
100
AcDbSymbolTableRecord
100
AcDbTextStyleTableRecord
  2
ACJISGDT
 70
     0
 40
0.0
 41
1.0
 50
0.0
 71
     0
 42
2.5
  3
amgdtans.shx
  4

  0
ENDTAB
  0
TABLE
  2
VIEW
  5
6
330
0
100
AcDbSymbolTable
 70
     0
  0
ENDTAB
  0
TABLE
  2
UCS
  5
7
330
0
100
AcDbSymbolTable
 70
     0
  0
ENDTAB
  0
TABLE
  2
APPID
  5
9
330
0
100
AcDbSymbolTable
 70
    13
  0
APPID
  5
12
330
9
100
AcDbSymbolTableRecord
100
AcDbRegAppTableRecord
  2
ACAD
 70
     0
  0
APPID
  5
30
330
9
100
AcDbSymbolTableRecord
100
AcDbRegAppTableRecord
  2
MCAD_NO_VIS
 70
     0
  0
APPID
  5
31
330
9
100
AcDbSymbolTableRecord
100
AcDbRegAppTableRecord
  2
ACAD_TEMP_GRAPHIC
 70
     0
  0
APPID
  5
2C2
330
9
100
AcDbSymbolTableRecord
100
AcDbRegAppTableRecord
  2
GENIUS_GENDTOL_13
 70
     0
  0
APPID
  5
339
330
9
100
AcDbSymbolTableRecord
100
AcDbRegAppTableRecord
  2
GENIUS_GENODEF_13
 70
     0
  0
APPID
  5
33A
330
9
100
AcDbSymbolTableRecord
100
AcDbRegAppTableRecord
  2
GENIUS_GENOBJ-N-RSBK_13
 70
     0
  0
APPID
  5
33B
330
9
100
AcDbSymbolTableRecord
100
AcDbRegAppTableRecord
  2
GENIUS_GENOBJ-N-LIB_13
 70
     0
  0
APPID
  5
33C
330
9
100
AcDbSymbolTableRecord
100
AcDbRegAppTableRecord
  2
GENIUS_GENSCALE_13
 70
     0
  0
APPID
  5
378
330
9
100
AcDbSymbolTableRecord
100
AcDbRegAppTableRecord
  2
GENIUS_GENDIMSH_14
 70
     0
  0
APPID
  5
BE1
330
9
100
AcDbSymbolTableRecord
100
AcDbRegAppTableRecord
  2
GENIUS_GENFIL_13
 70
     0
  0
APPID
  5
BE2
330
9
100
AcDbSymbolTableRecord
100
AcDbRegAppTableRecord
  2
GENIUS_GENOBJ-N-CHA_13
 70
     0
  0
APPID
  5
151B
330
9
100
AcDbSymbolTableRecord
100
AcDbRegAppTableRecord
  2
DCO15
 70
     0
  0
APPID
  5
1860
330
9
100
AcDbSymbolTableRecord
100
AcDbRegAppTableRecord
  2
GENIUS_GENOBJ-N-CEN_13
 70
     0
  0
ENDTAB
  0
TABLE
  2
DIMSTYLE
  5
A
330
0
100
AcDbSymbolTable
 70
     8
  0
DIMSTYLE
105
58
102
{ACAD_REACTORS
330
10F0
330
12D8
330
A446
330
AAEF
102
}
330
A
100
AcDbSymbolTableRecord
100
AcDbDimStyleTableRecord
  2
AM_JIS
 70
     0
  3

  4
"
  5
OPEN30
  6

  7

 40
0.5
 41
2.5
 42
1.0
 43
12.0
 44
1.0
 45
0.0
 46
0.0
 47
0.1
 48
0.1
140
3.2
141
0.0
142
0.0
143
0.0393701
144
1.0
145
0.0
146
0.71
147
1.5
 71
     0
 72
     0
 73
     0
 74
     0
 75
     0
 76
     0
 77
     3
 78
     8
170
     0
171
     2
172
     1
173
     0
174
     0
175
     0
176
   256
177
   256
178
     2
270
     2
271
     3
272
     3
273
     2
274
     2
340
6B
275
     0
280
     0
281
     0
282
     0
283
     0
284
     0
285
     0
286
     0
287
     3
288
     0
  0
DIMSTYLE
105
5F
330
A
100
AcDbSymbolTableRecord
100
AcDbDimStyleTableRecord
  2
AM_JIS$3
 70
     0
  3

  4
"
  5
OPEN30
  6

  7

 40
0.5
 41
2.5
 42
1.0
 43
10.0
 44
1.0
 45
0.0
 46
0.0
 47
0.1
 48
0.1
140
3.2
141
0.0
142
0.0
143
0.0393701
144
1.0
145
0.0
146
0.71
147
1.5
 71
     0
 72
     0
 73
     0
 74
     1
 75
     0
 76
     0
 77
     3
 78
     8
170
     0
171
     2
172
     0
173
     0
174
     0
175
     0
176
   256
177
   256
178
     2
270
     2
271
     2
272
     3
273
     2
274
     2
340
6B
275
     0
280
     0
281
     0
282
     0
283
     0
284
     0
285
     0
286
     0
287
     0
288
     1
  0
DIMSTYLE
105
60
330
A
100
AcDbSymbolTableRecord
100
AcDbDimStyleTableRecord
  2
AM_JIS$4
 70
     0
  3

  4
"
  5
OPEN30
  6

  7

 40
0.5
 41
2.5
 42
1.0
 43
10.0
 44
1.0
 45
0.0
 46
0.0
 47
0.1
 48
0.1
140
3.2
141
0.0
142
0.0
143
0.0393701
144
1.0
145
0.0
146
0.71
147
1.5
 71
     0
 72
     0
 73
     0
 74
     1
 75
     0
 76
     0
 77
     3
 78
     8
170
     0
171
     2
172
     0
173
     0
174
     0
175
     0
176
   256
177
   256
178
     2
270
     2
271
     2
272
     3
273
     2
274
     2
340
6B
275
     0
280
     0
281
     0
282
     0
283
     0
284
     0
285
     0
286
     0
287
     0
288
     1
  0
DIMSTYLE
105
61
330
A
100
AcDbSymbolTableRecord
100
AcDbDimStyleTableRecord
  2
AM_JIS$6
 70
     0
  3

  4
"
  5
OPEN30
  6

  7

 40
0.5
 41
2.5
 42
1.0
 43
10.0
 44
1.0
 45
0.0
 46
0.0
 47
0.1
 48
0.1
140
3.2
141
0.0
142
0.0
143
0.0393701
144
1.0
145
0.0
146
0.71
147
1.5
 71
     0
 72
     0
 73
     0
 74
     0
 75
     0
 76
     0
 77
     0
 78
     8
170
     0
171
     2
172
     1
173
     0
174
     0
175
     0
176
   256
177
   256
178
     2
270
     2
271
     2
272
     2
273
     2
274
     2
340
6B
275
     0
280
     0
281
     0
282
     0
283
     0
284
     0
285
     0
286
     0
287
     3
288
     0
  0
DIMSTYLE
105
62
330
A
100
AcDbSymbolTableRecord
100
AcDbDimStyleTableRecord
  2
AM_JIS$7
 70
     0
  3

  4
"
  5
OPEN30
  6

  7

 40
0.5
 41
2.5
 42
1.0
 43
10.0
 44
1.0
 45
0.0
 46
0.0
 47
0.1
 48
0.1
140
3.2
141
0.0
142
0.0
143
0.0393701
144
1.0
145
0.0
146
0.71
147
1.5
 71
     0
 72
     0
 73
     0
 74
     0
 75
     0
 76
     0
 77
     3
 78
     8
170
     0
171
     2
172
     1
173
     0
174
     0
175
     0
176
   256
177
   256
178
     2
270
     2
271
     2
272
     3
273
     2
274
     2
340
6B
275
     0
280
     0
281
     0
282
     0
283
     0
284
     0
285
     0
286
     0
287
     3
288
     0
  0
DIMSTYLE
105
63
330
A
100
AcDbSymbolTableRecord
100
AcDbDimStyleTableRecord
  2
AM_JIS$SF
 70
     0
  3

  4
"
  5
OPEN30
  6

  7

 40
0.5
 41
2.5
 42
1.0
 43
10.0
 44
1.0
 45
0.0
 46
0.0
 47
0.1
 48
0.1
140
3.2
141
0.0
142
0.0
143
0.0393701
144
1.0
145
0.0
146
0.71
147
1.5
 71
     0
 72
     0
 73
     0
 74
     0
 75
     1
 76
     1
 77
     3
 78
     8
170
     0
171
     2
172
     1
173
     0
174
     0
175
     0
176
   256
177
   256
178
     2
270
     2
271
     2
272
     2
273
     2
274
     2
340
6B
275
     0
280
     0
281
     0
282
     0
283
     0
284
     0
285
     0
286
     0
287
     3
288
     0
  0
DIMSTYLE
105
68
330
A
100
AcDbSymbolTableRecord
100
AcDbDimStyleTableRecord
  2
AM_JIS$SH
 70
     0
  3

  4
"
  5

  6
GENAXEH
  7
OPEN30
 40
0.5
 41
2.5
 42
1.0
 43
10.0
 44
1.0
 45
0.0
 46
0.0
 47
0.1
 48
0.1
140
3.2
141
0.0
142
0.0
143
0.0393701
144
2.0
145
0.0
146
0.71
147
1.5
 71
     0
 72
     0
 73
     0
 74
     0
 75
     1
 76
     1
 77
     3
 78
     8
170
     0
171
     2
172
     1
173
     1
174
     0
175
     0
176
   256
177
   256
178
     2
270
     2
271
     2
272
     2
273
     2
274
     2
340
6B
275
     0
280
     0
281
     0
282
     0
283
     0
284
     0
285
     0
286
     0
287
     3
288
     0
  0
DIMSTYLE
105
B34
330
A
100
AcDbSymbolTableRecord
100
AcDbDimStyleTableRecord
  2
AM_JIS$2
 70
     0
  3

  4
"
  5
OPEN30
  6

  7

 40
0.5
 41
2.5
 42
1.0
 43
12.0
 44
1.0
 45
0.0
 46
0.0
 47
0.1
 48
0.1
140
3.2
141
0.0
142
0.0
143
0.0393701
144
1.0
145
0.0
146
0.71
147
1.5
 71
     0
 72
     0
 73
     0
 74
     0
 75
     0
 76
     0
 77
     3
 78
     8
170
     0
171
     2
172
     1
173
     0
174
     0
175
     0
176
   256
177
   256
178
     2
270
     2
271
     3
272
     3
273
     2
274
     2
340
6B
275
     0
280
     0
281
     0
282
     0
283
     0
284
     0
285
     0
286
     0
287
     3
288
     0
  0
ENDTAB
  0
TABLE
  2
BLOCK_RECORD
  5
1
330
0
100
AcDbSymbolTable
 70
     9
  0
BLOCK_RECORD
  5
1F
102
{ACAD_XDICTIONARY
360
74
102
}
330
1
100
AcDbSymbolTableRecord
100
AcDbBlockTableRecord
  2
*MODEL_SPACE
  0
BLOCK_RECORD
  5
101
102
{ACAD_XDICTIONARY
360
B225
102
}
330
1
100
AcDbSymbolTableRecord
100
AcDbBlockTableRecord
  2
*PAPER_SPACE
  0
BLOCK_RECORD
  5
59
330
1
100
AcDbSymbolTableRecord
100
AcDbBlockTableRecord
  2
_OPEN30
  0
BLOCK_RECORD
  5
64
330
1
100
AcDbSymbolTableRecord
100
AcDbBlockTableRecord
  2
GENAXEH
  0
BLOCK_RECORD
  5
10F1
330
1
100
AcDbSymbolTableRecord
100
AcDbBlockTableRecord
  2
*D5
  0
BLOCK_RECORD
  5
12D9
330
1
100
AcDbSymbolTableRecord
100
AcDbBlockTableRecord
  2
*D6
  0
BLOCK_RECORD
  5
A447
330
1
100
AcDbSymbolTableRecord
100
AcDbBlockTableRecord
  2
*D7
  0
BLOCK_RECORD
  5
AAF0
330
1
100
AcDbSymbolTableRecord
100
AcDbBlockTableRecord
  2
*D8
  0
ENDTAB
  0
ENDSEC
  0
SECTION
  2
BLOCKS
  0
BLOCK
  5
20
330
1F
100
AcDbEntity
  8
0
100
AcDbBlockBegin
  2
*MODEL_SPACE
 70
     0
 10
0.0
 20
0.0
 30
0.0
  3
*MODEL_SPACE
  1

  0
ENDBLK
  5
21
330
1F
100
AcDbEntity
  8
0
100
AcDbBlockEnd
  0
BLOCK
  5
103
330
101
100
AcDbEntity
 67
     1
  8
0
100
AcDbBlockBegin
  2
*PAPER_SPACE
 70
     0
 10
0.0
 20
0.0
 30
0.0
  3
*PAPER_SPACE
  1

  0
ENDBLK
  5
104
330
101
100
AcDbEntity
 67
     1
  8
0
100
AcDbBlockEnd
  0
BLOCK
  5
5D
330
59
100
AcDbEntity
  8
0
100
AcDbBlockBegin
  2
_OPEN30
 70
     0
 10
0.0
 20
0.0
 30
0.0
  3
_OPEN30
  1

  0
LINE
  5
5A
330
59
100
AcDbEntity
  8
0
 62
     0
100
AcDbLine
 10
-1.0
 20
0.26794919
 30
0.0
 11
0.0
 21
0.0
 31
0.0
  0
LINE
  5
5B
330
59
100
AcDbEntity
  8
0
 62
     0
100
AcDbLine
 10
0.0
 20
0.0
 30
0.0
 11
-1.0
 21
-0.26794919
 31
0.0
  0
LINE
  5
5C
330
59
100
AcDbEntity
  8
0
 62
     0
100
AcDbLine
 10
0.0
 20
0.0
 30
0.0
 11
-1.0
 21
0.0
 31
0.0
  0
ENDBLK
  5
5E
330
59
100
AcDbEntity
  8
0
100
AcDbBlockEnd
  0
BLOCK
  5
66
330
64
100
AcDbEntity
  8
0
100
AcDbBlockBegin
  2
GENAXEH
 70
     0
 10
0.0
 20
0.0
 30
0.0
  3
GENAXEH
  1

  0
LINE
  5
65
330
64
100
AcDbEntity
  8
0
100
AcDbLine
 10
-1.0
 20
0.0
 30
0.0
 11
1.0
 21
0.0
 31
0.0
  0
ENDBLK
  5
67
330
64
100
AcDbEntity
  8
0
100
AcDbBlockEnd
  0
BLOCK
  5
10FB
330
10F1
100
AcDbEntity
  8
0
100
AcDbBlockBegin
  2
*D5
 70
     1
 10
0.0
 20
0.0
 30
0.0
  3
*D5
  1

  0
LINE
  5
B042
330
10F1
100
AcDbEntity
  8
AM_5
100
AcDbLine
 10
-80.0
 20
-7.166666666666692
 30
0.0
 11
-80.0
 21
-21.50000099999992
 31
0.0
  0
LINE
  5
B043
330
10F1
100
AcDbEntity
  8
AM_5
100
AcDbLine
 10
-0.000000000000874
 20
-7.749999999999985
 30
0.0
 11
-0.0000000000008748
 21
-21.50000099999992
 31
0.0
  0
LINE
  5
B044
330
10F1
100
AcDbEntity
  8
AM_5
100
AcDbLine
 10
-78.75
 20
-21.00000099999992
 30
0.0
 11
-1.250000000000874
 21
-21.00000099999992
 31
0.0
  0
INSERT
  5
B045
330
10F1
100
AcDbEntity
  8
AM_5
100
AcDbBlockReference
  2
_OPEN30
 10
-80.0
 20
-21.00000099999992
 30
0.0
 41
1.25
 42
1.25
 43
1.25
 50
180.0
  0
INSERT
  5
B046
330
10F1
100
AcDbEntity
  8
AM_5
100
AcDbBlockReference
  2
_OPEN30
 10
-0.0000000000008748
 20
-21.00000099999992
 30
0.0
 41
1.25
 42
1.25
 43
1.25
  0
MTEXT
  5
B047
330
10F1
100
AcDbEntity
  8
AM_5
 62
     2
100
AcDbMText
 10
-40.00000000000044
 20
-19.45000099999992
 30
0.0
 40
1.6
 41
0.0
 71
     5
 72
     1
  1
80
  7
ASAMI
1001
ACAD
1000
MTEXTBEGIN
1070
    73
1070
     1
1070
    44
1040
1.0
1070
    74
1070
     0
1000
MTEXTEND
  0
POINT
  5
B048
330
10F1
100
AcDbEntity
  8
DEFPOINTS
 62
     0
100
AcDbPoint
 10
-80.0
 20
-6.666666666666692
 30
0.0
  0
POINT
  5
B049
330
10F1
100
AcDbEntity
  8
DEFPOINTS
 62
     0
100
AcDbPoint
 10
-0.000000000000874
 20
-7.249999999999985
 30
0.0
  0
POINT
  5
B04A
330
10F1
100
AcDbEntity
  8
DEFPOINTS
 62
     0
100
AcDbPoint
 10
-0.0000000000008748
 20
-21.00000099999992
 30
0.0
  0
ENDBLK
  5
10FC
330
10F1
100
AcDbEntity
  8
0
100
AcDbBlockEnd
  0
BLOCK
  5
12E5
330
12D9
100
AcDbEntity
  8
0
100
AcDbBlockBegin
  2
*D6
 70
     1
 10
0.0
 20
0.0
 30
0.0
  3
*D6
  1

  0
LINE
  5
B039
330
12D9
100
AcDbEntity
  8
AM_5
100
AcDbLine
 10
0.0000000000003346
 20
-7.750000000000835
 30
0.0
 11
0.0000000000003342
 21
-15.50000099999996
 31
0.0
  0
LINE
  5
B03A
330
12D9
100
AcDbEntity
  8
AM_5
100
AcDbLine
 10
-25.0
 20
-7.750000000000007
 30
0.0
 11
-25.0
 21
-15.50000099999996
 31
0.0
  0
LINE
  5
B03B
330
12D9
100
AcDbEntity
  8
AM_5
100
AcDbLine
 10
-1.249999999999665
 20
-15.00000099999996
 30
0.0
 11
-23.75
 21
-15.00000099999996
 31
0.0
  0
INSERT
  5
B03C
330
12D9
100
AcDbEntity
  8
AM_5
100
AcDbBlockReference
  2
_OPEN30
 10
0.0000000000003342
 20
-15.00000099999996
 30
0.0
 41
1.25
 42
1.25
 43
1.25
  0
INSERT
  5
B03D
330
12D9
100
AcDbEntity
  8
AM_5
100
AcDbBlockReference
  2
_OPEN30
 10
-25.0
 20
-15.00000099999996
 30
0.0
 41
1.25
 42
1.25
 43
1.25
 50
180.0
  0
MTEXT
  5
B03E
330
12D9
100
AcDbEntity
  8
AM_5
 62
     2
100
AcDbMText
 10
-12.49999999999983
 20
-13.45000099999996
 30
0.0
 40
1.6
 41
0.0
 71
     5
 72
     1
  1
25
  7
ASAMI
1001
ACAD
1000
MTEXTBEGIN
1070
    73
1070
     1
1070
    44
1040
1.0
1070
    74
1070
     0
1000
MTEXTEND
  0
POINT
  5
B03F
330
12D9
100
AcDbEntity
  8
DEFPOINTS
 62
     0
100
AcDbPoint
 10
0.0000000000003347
 20
-7.250000000000835
 30
0.0
  0
POINT
  5
B040
330
12D9
100
AcDbEntity
  8
DEFPOINTS
 62
     0
100
AcDbPoint
 10
-25.0
 20
-7.250000000000007
 30
0.0
  0
POINT
  5
B041
330
12D9
100
AcDbEntity
  8
DEFPOINTS
 62
     0
100
AcDbPoint
 10
-25.0
 20
-15.00000099999996
 30
0.0
  0
ENDBLK
  5
12E6
330
12D9
100
AcDbEntity
  8
0
100
AcDbBlockEnd
  0
BLOCK
  5
A451
330
A447
100
AcDbEntity
  8
0
100
AcDbBlockBegin
  2
*D7
 70
     1
 10
0.0
 20
0.0
 30
0.0
  3
*D7
  1

  0
LINE
  5
A6E8
330
A447
100
AcDbEntity
  8
AM_5
100
AcDbLine
 10
-79.25
 20
7.999999999999976
 30
0.0
 11
-93.13869838927438
 21
7.99999999999998
 31
0.0
  0
LINE
  5
A6E9
330
A447
100
AcDbEntity
  8
AM_5
100
AcDbLine
 10
-79.24999999999998
 20
-8.000000000000026
 30
0.0
 11
-93.13869838927438
 21
-8.000000000000023
 31
0.0
  0
LINE
  5
A6EA
330
A447
100
AcDbEntity
  8
AM_5
100
AcDbLine
 10
-92.63869838927439
 20
6.74999999999998
 30
0.0
 11
-92.63869838927439
 21
-6.750000000000023
 31
0.0
  0
INSERT
  5
A6EB
330
A447
100
AcDbEntity
  8
AM_5
100
AcDbBlockReference
  2
_OPEN30
 10
-92.63869838927439
 20
7.99999999999998
 30
0.0
 41
1.25
 42
1.25
 43
1.25
 50
90.0
  0
INSERT
  5
A6EC
330
A447
100
AcDbEntity
  8
AM_5
100
AcDbBlockReference
  2
_OPEN30
 10
-92.63869838927439
 20
-8.000000000000023
 30
0.0
 41
1.25
 42
1.25
 43
1.25
 50
270.0
  0
MTEXT
  5
A6ED
330
A447
100
AcDbEntity
  8
AM_5
 62
     2
100
AcDbMText
 10
-94.18869838927438
 20
-0.0000000000000089
 30
0.0
 40
1.6
 41
0.0
 71
     5
 72
     1
  1
%%c16
  7
ASAMI
 11
0.0000000000000001
 21
1.0
 31
0.0
1001
ACAD
1000
MTEXTBEGIN
1070
    73
1070
     1
1070
    44
1040
1.0
1070
    74
1070
     0
1000
MTEXTEND
  0
POINT
  5
A6EE
330
A447
100
AcDbEntity
  8
DEFPOINTS
 62
     0
100
AcDbPoint
 10
-78.75
 20
7.999999999999976
 30
0.0
  0
POINT
  5
A6EF
330
A447
100
AcDbEntity
  8
DEFPOINTS
 62
     0
100
AcDbPoint
 10
-78.74999999999999
 20
-8.000000000000026
 30
0.0
  0
POINT
  5
A6F0
330
A447
100
AcDbEntity
  8
DEFPOINTS
 62
     0
100
AcDbPoint
 10
-92.63869838927439
 20
-8.000000000000023
 30
0.0
  0
ENDBLK
  5
A452
330
A447
100
AcDbEntity
  8
0
100
AcDbBlockEnd
  0
BLOCK
  5
AAFA
330
AAF0
100
AcDbEntity
  8
0
100
AcDbBlockBegin
  2
*D8
 70
     1
 10
0.0
 20
0.0
 30
0.0
  3
*D8
  1

  0
LINE
  5
B030
330
AAF0
100
AcDbEntity
  8
AM_5
100
AcDbLine
 10
0.4999999999999929
 20
7.250000000000007
 30
0.0
 11
9.551050680252144
 21
7.250000000000004
 31
0.0
  0
LINE
  5
B031
330
AAF0
100
AcDbEntity
  8
AM_5
100
AcDbLine
 10
0.4999999999991262
 20
-7.249999999999944
 30
0.0
 11
9.55105068025214
 21
-7.249999999999946
 31
0.0
  0
LINE
  5
B032
330
AAF0
100
AcDbEntity
  8
AM_5
100
AcDbLine
 10
9.051050680252144
 20
6.000000000000004
 30
0.0
 11
9.05105068025214
 21
-5.999999999999946
 31
0.0
  0
INSERT
  5
B033
330
AAF0
100
AcDbEntity
  8
AM_5
100
AcDbBlockReference
  2
_OPEN30
 10
9.051050680252144
 20
7.250000000000004
 30
0.0
 41
1.25
 42
1.25
 43
1.25
 50
90.0
  0
INSERT
  5
B034
330
AAF0
100
AcDbEntity
  8
AM_5
100
AcDbBlockReference
  2
_OPEN30
 10
9.05105068025214
 20
-7.249999999999946
 30
0.0
 41
1.25
 42
1.25
 43
1.25
 50
270.0
  0
MTEXT
  5
B035
330
AAF0
100
AcDbEntity
  8
AM_5
 62
     2
100
AcDbMText
 10
7.501050680252141
 20
0.0000000000000303
 30
0.0
 40
1.6
 41
0.0
 71
     5
 72
     1
  1
%%c14.5
  7
ASAMI
 11
0.0000000000000001
 21
1.0
 31
0.0
1001
ACAD
1000
MTEXTBEGIN
1070
    73
1070
     1
1070
    44
1040
1.0
1070
    74
1070
     0
1000
MTEXTEND
  0
POINT
  5
B036
330
AAF0
100
AcDbEntity
  8
DEFPOINTS
 62
     0
100
AcDbPoint
 10
-0.0000000000000071
 20
7.250000000000007
 30
0.0
  0
POINT
  5
B037
330
AAF0
100
AcDbEntity
  8
DEFPOINTS
 62
     0
100
AcDbPoint
 10
-0.0000000000008738
 20
-7.249999999999944
 30
0.0
  0
POINT
  5
B038
330
AAF0
100
AcDbEntity
  8
DEFPOINTS
 62
     0
100
AcDbPoint
 10
9.05105068025214
 20
-7.249999999999946
 30
0.0
  0
ENDBLK
  5
AAFB
330
AAF0
100
AcDbEntity
  8
0
100
AcDbBlockEnd
  0
ENDSEC
  0
SECTION
  2
ENTITIES
  0
LINE
  5
C2E
330
1F
100
AcDbEntity
  8
AM_7
  6
AM_ISO08W050X2
100
AcDbLine
 10
2.051049680252134
 20
0.0
 30
0.0
 11
-81.5
 21
-0.0000000000000248
 31
0.0
  0
DIMENSION
  5
10F0
330
1F
100
AcDbEntity
  8
AM_5
100
AcDbDimension
  2
*D5
 10
-0.0000000000008748
 20
-21.00000099999992
 30
0.0
 11
-40.00000000000044
 21
-19.45000099999992
 31
0.0
 70
    32
  1
<>
  3
AM_JIS
100
AcDbAlignedDimension
 13
-80.0
 23
-6.666666666666692
 33
0.0
 14
-0.000000000000874
 24
-7.249999999999985
 34
0.0
 50
0.0000000000001132
100
AcDbRotatedDimension
1001
GENIUS_GENDTOL_13
1000

1000
h7
1000

1040
0.0
  0
DIMENSION
  5
12D8
330
1F
100
AcDbEntity
  8
AM_5
100
AcDbDimension
  2
*D6
 10
-25.0
 20
-15.00000099999996
 30
0.0
 11
-12.49999999999983
 21
-13.45000099999996
 31
0.0
 70
    32
  1
<>
  3
AM_JIS
100
AcDbAlignedDimension
 13
0.0000000000003347
 23
-7.250000000000835
 33
0.0
 14
-25.0
 24
-7.250000000000007
 34
0.0
 50
0.0000000000001132
100
AcDbRotatedDimension
1001
GENIUS_GENDTOL_13
1000

1000
h7
1000

1040
0.0
  0
TEXT
  5
1500
330
1F
100
AcDbEntity
  8
AM_6
100
AcDbText
 10
-47.97619047619091
 20
-32.25000099999992
 30
0.0
 40
2.5
  1
SSM2145
 72
     4
 11
-40.00000000000044
 21
-31.00000099999992
 31
0.0
100
AcDbText
  0
LINE
  5
A440
330
1F
100
AcDbEntity
  8
AM_0
100
AcDbLine
 10
-78.75
 20
7.999999999999976
 30
0.0
 11
-40.00000000000002
 21
8.000000000000007
 31
0.0
  0
LINE
  5
A441
330
1F
100
AcDbEntity
  8
AM_0
100
AcDbLine
 10
-78.75000000000001
 20
-8.000000000000028
 30
0.0
 11
-40.0
 21
-8.000000000000001
 31
0.0
  0
LINE
  5
A445
330
1F
100
AcDbEntity
  8
AM_0
100
AcDbLine
 10
-80.00000000000001
 20
-6.750000000000028
 30
0.0
 11
-80.0
 21
6.749999999999976
 31
0.0
  0
DIMENSION
  5
A446
330
1F
100
AcDbEntity
  8
AM_5
100
AcDbDimension
  2
*D7
 10
-92.63869838927439
 20
-8.000000000000023
 30
0.0
 11
-92.63869838927439
 21
-0.0000000000000091
 31
0.0
 70
   160
  1
%%c<>
  3
AM_JIS
100
AcDbAlignedDimension
 13
-78.75
 23
7.999999999999976
 33
0.0
 14
-78.74999999999999
 24
-8.000000000000026
 34
0.0
 50
270.0
100
AcDbRotatedDimension
1001
GENIUS_GENDTOL_13
1000

1000
h7
1000

1040
0.0
  0
LINE
  5
A475
330
1F
100
AcDbEntity
  8
AM_7
  6
AM_ISO08W050X2
100
AcDbLine
 10
-80.0
 20
-0.0000000000000248
 30
0.0
 11
-85.6386973892744
 21
-0.0000000000000248
 31
0.0
1001
GENIUS_GENODEF_13
1002
{
1000
HIER
1070
     0
1002
}
1002
{
1000
MANEDIT
1070
     0
1002
}
1002
{
1000
NOSEL
1070
     0
1002
}
1002
{
1000
BEHIND
1070
     0
1002
}
1002
{
1000
REACTOR
1002
}
1001
GENIUS_GENOBJ-N-CEN_13
1002
{
1000
OWNER
1000
GEN
1002
}
  0
LINE
  5
A47D
330
1F
100
AcDbEntity
  8
AM_0
100
AcDbLine
 10
-39.99999999999999
 20
-8.000000000000001
 30
0.0
 11
-40.00000000000001
 21
8.000000000000008
 31
0.0
  0
LINE
  5
A490
330
1F
100
AcDbEntity
  8
AM_0
100
AcDbLine
 10
-80.0
 20
6.749999999999976
 30
0.0
 11
-78.75
 21
7.999999999999976
 31
0.0
1001
GENIUS_GENFIL_13
1070
     0
1040
1.25
1040
1.25
1040
20.0
1040
0.0
1002
{
1002
}
1001
GENIUS_GENODEF_13
1002
{
1000
HIER
1070
     0
1002
}
1002
{
1000
MANEDIT
1070
     0
1002
}
1002
{
1000
NOSEL
1070
     0
1002
}
1002
{
1000
BEHIND
1070
     0
1002
}
1002
{
1000
REACTOR
1002
}
1001
GENIUS_GENOBJ-N-CHA_13
1002
{
1000
OWNER
1000
GEN
1002
}
  0
LINE
  5
A492
330
1F
100
AcDbEntity
  8
AM_0
100
AcDbLine
 10
-78.75000000000001
 20
-8.000000000000028
 30
0.0
 11
-80.00000000000001
 21
-6.750000000000028
 31
0.0
1001
GENIUS_GENFIL_13
1070
     0
1040
1.25
1040
1.25
1040
20.0
1040
0.0
1002
{
1002
}
1001
GENIUS_GENODEF_13
1002
{
1000
HIER
1070
     0
1002
}
1002
{
1000
MANEDIT
1070
     0
1002
}
1002
{
1000
NOSEL
1070
     0
1002
}
1002
{
1000
BEHIND
1070
     0
1002
}
1002
{
1000
REACTOR
1002
}
1001
GENIUS_GENOBJ-N-CHA_13
1002
{
1000
OWNER
1000
GEN
1002
}
  0
LINE
  5
A493
330
1F
100
AcDbEntity
  8
AM_0
100
AcDbLine
 10
-78.75
 20
7.999999999999976
 30
0.0
 11
-78.74999999999999
 21
-8.000000000000056
 31
0.0
  0
LINE
  5
A6AD
330
1F
100
AcDbEntity
  8
AM_0
100
AcDbLine
 10
-40.0
 20
8.000000000000007
 30
0.0
 11
-37.939391935409
 21
7.249999999999992
 31
0.0
  0
LINE
  5
A6AE
330
1F
100
AcDbEntity
  8
AM_0
100
AcDbLine
 10
-37.939391935409
 20
7.249999999999991
 30
0.0
 11
-37.93939193540907
 21
-7.250000000000016
 31
0.0
  0
LINE
  5
A6AF
330
1F
100
AcDbEntity
  8
AM_0
100
AcDbLine
 10
-37.93939193540907
 20
-7.250000000000016
 30
0.0
 11
-39.99999999999999
 21
-8.0
 31
0.0
  0
LINE
  5
A6B0
330
1F
100
AcDbEntity
  8
AM_0
100
AcDbLine
 10
-37.939391935409
 20
7.249999999999991
 30
0.0
 11
-32.83000000000052
 21
7.249999999999992
 31
0.0
  0
LINE
  5
A6B1
330
1F
100
AcDbEntity
  8
AM_0
100
AcDbLine
 10
-37.93939193540904
 20
-7.250000000000007
 30
0.0
 11
-26.70096090867193
 21
-7.250000000000007
 31
0.0
  0
DIMENSION
  5
AAEF
330
1F
100
AcDbEntity
  8
AM_5
100
AcDbDimension
  2
*D8
 10
9.05105068025214
 20
-7.249999999999946
 30
0.0
 11
7.501050680252141
 21
0.0000000000000303
 31
0.0
 70
    32
  1
%%c<>
  3
AM_JIS
100
AcDbAlignedDimension
 13
-0.0000000000000071
 23
7.250000000000007
 33
0.0
 14
-0.0000000000008738
 24
-7.249999999999944
 34
0.0
 50
90.00000000000005
100
AcDbRotatedDimension
1001
GENIUS_GENDTOL_13
1000

1000
h7
1000

1040
0.0
  0
SPLINE
  5
ACFD
330
1F
100
AcDbEntity
  8
AM_0
100
AcDbSpline
210
0.0
220
0.0
230
1.0
 70
     8
 71
     3
 72
     8
 73
     4
 74
     2
 42
0.0000000001
 43
0.0000000001
 44
0.0000000001
 12
-1.0
 22
-0.0000000000000008
 32
0.0
 40
0.0
 40
0.0
 40
0.0
 40
0.0
 40
21.01049499654861
 40
21.01049499654861
 40
21.01049499654861
 40
21.01049499654861
 10
0.0
 20
-7.249999999999992
 30
0.0
 10
-7.003498332182871
 20
-7.249999999999998
 30
0.0
 10
-13.36174916609136
 20
-3.625000000000002
 30
0.0
 10
-19.71999999999986
 20
-0.0000000000000071
 30
0.0
 11
0.0
 21
-7.249999999999992
 31
0.0
 11
-19.71999999999986
 21
-0.0000000000000071
 31
0.0
  0
SPLINE
  5
ACFE
330
1F
100
AcDbEntity
  8
AM_0
100
AcDbSpline
210
0.0
220
0.0
230
1.0
 70
     8
 71
     3
 72
     8
 73
     4
 74
     0
 42
0.0000000001
 43
0.0000000001
 40
1.870660592686466
 40
1.870660592686466
 40
1.870660592686466
 40
1.870660592686466
 40
14.43901837670146
 40
14.43901837670146
 40
14.43901837670146
 40
14.43901837670146
 10
-0.1522500000000235
 20
-6.863489678551395
 30
0.0
 10
-6.098648657281501
 20
-6.121755887546903
 30
0.0
 10
-11.64387396169461
 20
-3.060877943773455
 30
0.0
 10
-17.18909926610771
 20
0.0000000000003197
 30
0.0
  0
SPLINE
  5
ACFF
330
1F
100
AcDbEntity
  8
AM_0
100
AcDbSpline
210
0.0
220
0.0
230
1.0
 70
     8
 71
     3
 72
     8
 73
     4
 74
     0
 42
0.0000000001
 43
0.0000000001
 40
4.219358800530717
 40
4.219358800530717
 40
4.219358800530717
 40
4.219358800530717
 40
14.36247867694493
 40
14.36247867694493
 40
14.36247867694493
 40
14.36247867694493
 10
-0.5437499999999958
 20
-5.913419267543737
 30
0.0
 10
-5.250571447490685
 20
-4.728374297948683
 30
0.0
 10
-9.762681130037861
 20
-2.364187148974174
 30
0.0
 10
-14.2747908125857
 20
0.000000000000334
 30
0.0
  0
SPLINE
  5
AD00
330
1F
100
AcDbEntity
  8
AM_0
100
AcDbSpline
210
0.0
220
0.0
230
1.0
 70
     8
 71
     3
 72
     8
 73
     4
 74
     2
 42
0.0000000001
 43
0.0000000001
 44
0.0000000001
 12
-0.6417012268563094
 22
-0.7669547153848832
 32
0.0
 13
-0.990099942783104
 23
-0.140364180975397
 33
0.0
 40
0.0
 40
0.0
 40
0.0
 40
0.0
 40
3.750519719244124
 40
3.750519719244124
 40
3.750519719244124
 40
3.750519719244124
 10
-0.0000000000000071
 20
5.908318895691927
 30
0.0
 10
-0.8022377017292521
 20
4.94949263441917
 30
0.0
 10
-2.179233281838107
 20
4.537737005540465
 30
0.0
 10
-3.41702973498161
 20
4.362257462665873
 30
0.0
 11
-0.0000000000000071
 21
5.908318895691927
 31
0.0
 11
-3.41702973498161
 21
4.362257462665873
 31
0.0
  0
SPLINE
  5
AD02
330
1F
100
AcDbEntity
  8
AM_0
100
AcDbSpline
210
0.0
220
0.0
230
1.0
 70
     8
 71
     3
 72
     8
 73
     4
 74
     0
 42
0.0000000001
 43
0.0000000001
 40
10.71027982889745
 40
10.71027982889745
 40
10.71027982889745
 40
10.71027982889745
 40
14.43901837670146
 40
14.43901837670146
 40
14.43901837670146
 40
14.43901837670146
 10
-25.38499189766706
 20
3.576298314158918
 30
0.0
 10
-20.84003999891791
 20
2.176844923486299
 30
0.0
 10
-18.83423824958897
 20
0.9080910788194742
 30
0.0
 10
-17.18909926610771
 20
0.0000000000003197
 30
0.0
  0
SPLINE
  5
AD03
330
1F
100
AcDbEntity
  8
AM_0
100
AcDbSpline
210
0.0
220
0.0
230
1.0
 70
     8
 71
     3
 72
     8
 73
     4
 74
     0
 42
0.0000000001
 43
0.0000000001
 40
4.451443990518355
 40
4.451443990518355
 40
4.451443990518355
 40
4.451443990518355
 40
14.36247867694493
 40
14.36247867694493
 40
14.36247867694493
 40
14.36247867694493
 10
-30.82830760653198
 20
5.8302361959391
 30
0.0
 10
-23.0925266014878
 20
4.62018414929215
 30
0.0
 10
-18.68365870703692
 20
2.592590187379727
 30
0.0
 10
-14.2747908125857
 20
0.000000000000334
 30
0.0
  0
SPLINE
  5
AD04
330
1F
100
AcDbEntity
  8
AM_0
100
AcDbSpline
210
0.0
220
0.0
230
1.0
 70
     8
 71
     3
 72
     8
 73
     4
 74
     0
 42
0.0000000001
 43
0.0000000001
 40
0.0
 40
0.0
 40
0.0
 40
0.0
 40
7.57842115059705
 40
7.57842115059705
 40
7.57842115059705
 40
7.57842115059705
 10
-0.0000000000000071
 20
7.250000000000007
 30
0.0
 10
-3.662903556121463
 20
7.249999999999992
 30
0.0
 10
-7.149306084719007
 20
6.258417349174713
 30
0.0
 10
-10.55151948631785
 20
4.79386024097544
 30
0.0
  0
LINE
  5
AD05
330
1F
100
AcDbEntity
  8
AM_11
100
AcDbLine
 10
-25.0
 20
-7.250000000000007
 30
0.0
 11
0.0
 21
-7.249999999999985
 31
0.0
  0
LINE
  5
AD06
330
1F
100
AcDbEntity
  8
AM_0
100
AcDbLine
 10
-30.82830760653189
 20
5.830236195939519
 30
0.0
 11
-3.41702973498161
 21
4.36225746266588
 31
0.0
  0
LINE
  5
AD07
330
1F
100
AcDbEntity
  8
AM_11
100
AcDbLine
 10
-0.0000000000013287
 20
7.250000000000014
 30
0.0
 11
-25.0
 21
7.249999999999992
 31
0.0
  0
ARC
  5
AD09
330
1F
100
AcDbEntity
  8
AM_0
100
AcDbCircle
 10
20.59981424145503
 20
0.030504101977165
 30
0.0
 40
21.94215456537218
100
AcDbArc
 50
175.3635181775062
 51
195.5055110014827
  0
LINE
  5
AD0A
330
1F
100
AcDbEntity
  8
AM_0
100
AcDbLine
 10
-0.4866777860824421
 20
0.8700000000002106
 30
0.0
 11
0.0
 21
1.450000000000009
 31
0.0
  0
LINE
  5
AD0B
330
1F
100
AcDbEntity
  8
AM_0
100
AcDbLine
 10
0.0
 20
0.2900000000000773
 30
0.0
 11
-3.41702973498161
 21
4.36225746266588
 31
0.0
  0
LINE
  5
AD0C
330
1F
100
AcDbEntity
  8
AM_0
100
AcDbLine
 10
0.0
 20
1.450000000000009
 30
0.0
 11
-0.0000000000000107
 21
7.250000000000014
 31
0.0
  0
LINE
  5
AD0D
330
1F
100
AcDbEntity
  8
AM_0
100
AcDbLine
 10
0.0
 20
-7.249999999999985
 30
0.0
 11
0.0
 21
0.2900000000000773
 31
0.0
  0
LINE
  5
AD0E
330
1F
100
AcDbEntity
  8
AM_0
100
AcDbLine
 10
-0.1522500000000271
 20
-6.863489678551388
 30
0.0
 11
-0.1522500000000271
 21
0.4714444844727126
 31
0.0
  0
LINE
  5
AD0F
330
1F
100
AcDbEntity
  8
AM_0
100
AcDbLine
 10
0.0
 20
-7.249999999999985
 30
0.0
 11
-0.1522500000000271
 21
-6.863489678551388
 31
0.0
  0
LINE
  5
AD10
330
1F
100
AcDbEntity
  8
AM_0
100
AcDbLine
 10
-0.1522500000000271
 20
-6.863489678551388
 30
0.0
 11
-0.5437499999999993
 21
-5.913419267544064
 31
0.0
  0
LINE
  5
AD11
330
1F
100
AcDbEntity
  8
AM_0
100
AcDbLine
 10
-0.5437499999999993
 20
-5.913419267544064
 30
0.0
 11
-0.5437499999999993
 21
-5.835315375142201
 31
0.0
  0
LINE
  5
AD12
330
1F
100
AcDbEntity
  8
AM_11
100
AcDbLine
 10
-25.0
 20
7.249999999999985
 30
0.0
 11
-25.0
 21
-7.250000000000007
 31
0.0
  0
ARC
  5
AD13
330
1F
100
AcDbEntity
  8
AM_0
100
AcDbCircle
 10
-9.257518433772162
 20
-56.13652211641284
 30
0.0
 40
60.29310218823136
100
AcDbArc
 50
105.1352955813027
 51
117.6254781305374
  0
ARC
  5
AD15
330
1F
100
AcDbEntity
  8
AM_0
100
AcDbCircle
 10
-35.73014778434945
 20
-27.87166102003903
 30
0.0
 40
35.24119648901825
100
AcDbArc
 50
71.19298787804705
 51
85.27954853201093
  0
LINE
  5
AD16
330
1F
100
AcDbEntity
  8
AM_0
100
AcDbLine
 10
-25.38499189766706
 20
3.576298314158918
 30
0.0
 11
-25.00000000000004
 21
2.065131172969557
 31
0.0
  0
LINE
  5
AD17
330
1F
100
AcDbEntity
  8
AM_0
100
AcDbLine
 10
-25.38499189766706
 20
3.576298314158918
 30
0.0
 11
-25.0
 21
4.616361250308543
 31
0.0
  0
ARC
  5
AD19
330
1F
100
AcDbEntity
  8
AM_0
100
AcDbCircle
 10
-25.85677234006298
 20
12.41469832133913
 30
0.0
 40
18.92018390078145
100
AcDbArc
 50
233.1075831069697
 51
272.595441563919
  0
ARC
  5
AD1A
330
1F
100
AcDbEntity
  8
AM_0
100
AcDbCircle
 10
-25.80474313975579
 20
9.526803957081256
 30
0.0
 40
16.73620298147236
100
AcDbArc
 50
227.0186054867774
 51
255.3660249610814
  0
ARC
  5
AD1B
330
1F
100
AcDbEntity
  8
AM_0
100
AcDbCircle
 10
-27.89304936220519
 20
10.73390820608984
 30
0.0
 40
18.0233745243812
100
AcDbArc
 50
273.7923827666101
 51
287.8070557104111
  0
ARC
  5
AD1C
330
1F
100
AcDbEntity
  8
AM_0
100
AcDbCircle
 10
-25.21735447801623
 20
60.09055574886144
 30
0.0
 40
66.57698734430208
100
AcDbArc
 50
270.1870543692007
 51
282.8026270049924
  0
ARC
  5
AD1D
330
1F
100
AcDbEntity
  8
AM_0
100
AcDbCircle
 10
-26.82206372377728
 20
1.863605396218112
 30
0.0
 40
9.114409975955792
100
AcDbArc
 50
249.372212641958
 51
270.761309222442
  0
SPLINE
  5
B014
330
1F
100
AcDbEntity
  8
AM_0
100
AcDbSpline
210
0.0
220
0.0
230
1.0
 70
     8
 71
     3
 72
    10
 73
     6
 74
     4
 42
0.0000000001
 43
0.0000000001
 44
0.0000000001
 40
0.0
 40
0.0
 40
0.0
 40
0.0
 40
1.938600701177758
 40
3.812060805846517
 40
5.690256187529884
 40
5.690256187529884
 40
5.690256187529884
 40
5.690256187529884
 10
-19.71999999999927
 20
-0.0000000000000142
 30
0.0
 10
-20.29719806495293
 20
0.289384317934179
 30
0.0
 10
-21.43219926415993
 20
0.8584291013975134
 30
0.0
 10
-23.16396639613051
 20
1.65265482078083
 30
0.0
 10
-24.38747403506153
 20
1.927523410722484
 30
0.0
 10
-25.0
 20
2.065131172969387
 30
0.0
 11
-19.71999999999927
 21
-0.0000000000000142
 31
0.0
 11
-21.45810041563992
 21
0.8585916513434455
 31
0.0
 11
-23.18290681645066
 21
1.589957253151304
 31
0.0
 11
-25.0
 21
2.065131172969387
 31
0.0
  0
VIEWPORT
  5
110
330
101
100
AcDbEntity
 67
     1
  8
0
100
AcDbViewport
 10
420.5
 20
297.0
 30
0.0
 40
948.9782706766916
 41
628.452
 68
     1
 69
     1
1001
ACAD
1000
MVIEW
1002
{
1070
    16
1010
0.0
1020
0.0
1030
0.0
1010
0.0
1020
0.0
1030
1.0
1040
0.0
1040
628.452
1040
420.5
1040
297.0
1040
50.0
1040
0.0
1040
0.0
1070
     0
1070
   100
1070
     1
1070
     1
1070
     0
1070
     0
1070
     0
1070
     0
1040
0.0
1040
0.0
1040
0.0
1040
10.0
1040
10.0
1040
10.0
1040
10.0
1070
     0
1002
{
1002
}
1002
}
  0
ENDSEC
  0
SECTION
  2
OBJECTS
  0
DICTIONARY
  5
C
330
0
100
AcDbDictionary
  3
ACAD_GROUP
350
D
  3
ACAD_LAYOUT
350
1A
  3
ACAD_MLINESTYLE
350
17
  3
ACAD_PLOTSETTINGS
350
19
  3
ACAD_PLOTSTYLENAME
350
E
  3
ACDBVARIABLEDICTIONARY
350
34
  3
ACMDICTIONARY
350
43
  3
AMG
350
2B
  3
AMGSNAPSETTINGS
350
6E
  3
ASE_INDEX_DICTIONARY
350
151A
  3
DWGPROPS
350
B1F0
  3
ACDBHEADERROUNDTRIPXREC
350
B1FD
  0
DICTIONARY
  5
74
330
1F
100
AcDbDictionary
280
     1
  3
ACAD_INDEX
360
B1F2
  3
ACAD_LAYOUTSELFREF
360
B220
  0
DICTIONARY
  5
B225
330
101
100
AcDbDictionary
280
     1
  3
ACAD_LAYOUTSELFREF
360
B226
  0
DICTIONARY
  5
D
102
{ACAD_REACTORS
330
C
102
}
330
C
100
AcDbDictionary
  0
DICTIONARY
  5
1A
102
{ACAD_REACTORS
330
C
102
}
330
C
100
AcDbDictionary
  0
DICTIONARY
  5
17
102
{ACAD_REACTORS
330
C
102
}
330
C
100
AcDbDictionary
  3
STANDARD
350
18
  0
DICTIONARY
  5
19
102
{ACAD_REACTORS
330
C
102
}
330
C
100
AcDbDictionary
  0
ACDBDICTIONARYWDFLT
  5
E
102
{ACAD_REACTORS
330
C
102
}
330
C
100
AcDbDictionary
281
     1
  3
Normal
350
F
100
AcDbDictionaryWithDefault
340
F
  0
DICTIONARY
  5
34
102
{ACAD_REACTORS
330
C
102
}
330
C
100
AcDbDictionary
  3
INDEXCTL
350
35
  3
SORTENTS
350
B5E
  0
DICTIONARY
  5
43
102
{ACAD_REACTORS
330
C
102
}
330
C
100
AcDbDictionary
  3
ACMSTDDICTIONARY
350
260
  0
DICTIONARY
  5
2B
102
{ACAD_REACTORS
330
C
102
}
330
C
100
AcDbDictionary
  3
ACMGSETTINGS
350
2C
  0
DICTIONARY
  5
6E
102
{ACAD_REACTORS
330
C
102
}
330
C
100
AcDbDictionary
  0
DICTIONARY
  5
151A
102
{ACAD_REACTORS
330
C
102
}
330
C
100
AcDbDictionary
  3
ASEBLOCKHIERARCHYINDEXRECORD
350
151C
1001
DCO15
1040
1471862535.906
  0
XRECORD
  5
B1F0
102
{ACAD_REACTORS
330
C
102
}
330
C
100
AcDbXrecord
  1
DWGPROPS COOKIE
  2

  3

  4

  6

  7

  8

  9

300
AmdtFileType=82
301
=
302
=
303
=
304
=
305
=
306
=
307
=
308
=
309
=
 40
0.4132768865740741
 41
2452838.430434386
 42
2452845.388726307
  1

 90
        1
  0
DICTIONARY
  5
B1FD
102
{ACAD_REACTORS
330
C
102
}
330
C
100
AcDbDictionary
  3
TSTACKALIGN
350
B1FE
  3
TSTACKSIZE
350
B1FF
  3
HYPERLINKBASE
350
B200
  3
STYLESHEET
350
B201
  3
LAYOUTDICT
350
B202
  3
PLOTSETDICT
350
B203
  3
PLOTSTYLNAMDICT
350
B204
  3
LWETCUNION
350
B205
  3
INSUNITS
350
B206
  3
CEPSNTYPE
350
B207
  3
FINGERPRINTGUID
350
B208
  3
VERSIONGUID
350
B209
  3
PSVPSCALE
350
B20A
  3
DIMSTYLEDATA
350
B20B
  3
PUCSORTHOREF
350
B20C
  3
PUCSORTHOVIEW
350
B20D
  3
PUCSBASE
350
B20E
  3
PUCSORGTOP
350
B20F
  3
PUCSORGBOTTOM
350
B210
  3
PUCSORGLEFT
350
B211
  3
PUCSORGRIGHT
350
B212
  3
PUCSORGFRONT
350
B213
  3
PUCSORGBACK
350
B214
  3
UCSORTHOREF
350
B215
  3
UCSORTHOVIEW
350
B216
  3
UCSBASE
350
B217
  3
UCSORGTOP
350
B218
  3
UCSORGBOTTOM
350
B219
  3
UCSORGLEFT
350
B21A
  3
UCSORGRIGHT
350
B21B
  3
UCSORGFRONT
350
B21C
  3
UCSORGBACK
350
B21D
  0
DICTIONARY
  5
B1F2
102
{ACAD_REACTORS
330
74
102
}
330
74
100
AcDbDictionary
  3
*A1
350
B1F3
  0
XRECORD
  5
B220
102
{ACAD_REACTORS
330
74
102
}
330
74
100
AcDbXrecord
340
1F
  0
XRECORD
  5
B226
102
{ACAD_REACTORS
330
B225
102
}
330
B225
100
AcDbXrecord
340
101
  0
MLINESTYLE
  5
18
102
{ACAD_REACTORS
330
17
102
}
330
17
100
AcDbMlineStyle
  2
STANDARD
 70
     0
  3

 62
   256
 51
90.0
 52
90.0
 71
     2
 49
0.5
 62
   256
  6
BYLAYER
 49
-0.5
 62
   256
  6
BYLAYER
  0
ACDBPLACEHOLDER
  5
F
102
{ACAD_REACTORS
330
E
102
}
330
E
100
AcDbPlaceHolder
280
     0
  0
DICTIONARYVAR
  5
35
102
{ACAD_REACTORS
330
34
102
}
330
34
100
DictionaryVariables
280
     0
  1
1
  0
DICTIONARYVAR
  5
B5E
102
{ACAD_REACTORS
330
34
102
}
330
34
100
DictionaryVariables
280
     0
  1
96
  0
DICTIONARY
  5
260
102
{ACAD_REACTORS
330
43
102
}
330
43
100
AcDbDictionary
  0
DICTIONARY
  5
2C
102
{ACAD_REACTORS
330
2B
102
}
330
2B
100
AcDbDictionary
  3
DWGSETTINGS
350
2D
  0
XRECORD
  5
151C
102
{ACAD_REACTORS
330
151A
102
}
330
151A
100
AcDbXrecord
330
0
330
0
330
0
330
0
330
0
330
0
330
0
330
0
  0
XRECORD
  5
B1FE
102
{ACAD_REACTORS
330
B1FD
102
}
330
B1FD
100
AcDbXrecord
 90
        1
  0
XRECORD
  5
B1FF
102
{ACAD_REACTORS
330
B1FD
102
}
330
B1FD
100
AcDbXrecord
 90
       70
  0
XRECORD
  5
B200
102
{ACAD_REACTORS
330
B1FD
102
}
330
B1FD
100
AcDbXrecord
  1

  0
XRECORD
  5
B201
102
{ACAD_REACTORS
330
B1FD
102
}
330
B1FD
100
AcDbXrecord
  1
ASAMI.ctb
  0
XRECORD
  5
B202
102
{ACAD_REACTORS
330
B1FD
102
}
330
B1FD
100
AcDbXrecord
340
1A
  0
XRECORD
  5
B203
102
{ACAD_REACTORS
330
B1FD
102
}
330
B1FD
100
AcDbXrecord
340
19
  0
XRECORD
  5
B204
102
{ACAD_REACTORS
330
B1FD
102
}
330
B1FD
100
AcDbXrecord
340
E
  0
XRECORD
  5
B205
102
{ACAD_REACTORS
330
B1FD
102
}
330
B1FD
100
AcDbXrecord
 90
    10781
  0
XRECORD
  5
B206
102
{ACAD_REACTORS
330
B1FD
102
}
330
B1FD
100
AcDbXrecord
 90
        4
  0
XRECORD
  5
B207
102
{ACAD_REACTORS
330
B1FD
102
}
330
B1FD
100
AcDbXrecord
 90
        0
  0
XRECORD
  5
B208
102
{ACAD_REACTORS
330
B1FD
102
}
330
B1FD
100
AcDbXrecord
  1
{AFB28963-8C59-40AE-9337-C84526B81ACE}
  0
XRECORD
  5
B209
102
{ACAD_REACTORS
330
B1FD
102
}
330
B1FD
100
AcDbXrecord
  1
{B4E8F3BB-280D-4282-BD5F-642853A7E2EA}
  0
XRECORD
  5
B20A
102
{ACAD_REACTORS
330
B1FD
102
}
330
B1FD
100
AcDbXrecord
 40
0.0
  0
XRECORD
  5
B20B
102
{ACAD_REACTORS
330
B1FD
102
}
330
B1FD
100
AcDbXrecord
1000
DSTYLE
1002
{
1070
    79
 70
     2
1070
   341
340
59
1070
   342
340
59
1070
   371
 70
    -1
1070
   372
 70
    -1
1002
}
  0
XRECORD
  5
B20C
102
{ACAD_REACTORS
330
B1FD
102
}
330
B1FD
100
AcDbXrecord
340
0
  0
XRECORD
  5
B20D
102
{ACAD_REACTORS
330
B1FD
102
}
330
B1FD
100
AcDbXrecord
 70
     0
  0
XRECORD
  5
B20E
102
{ACAD_REACTORS
330
B1FD
102
}
330
B1FD
100
AcDbXrecord
340
0
  0
XRECORD
  5
B20F
102
{ACAD_REACTORS
330
B1FD
102
}
330
B1FD
100
AcDbXrecord
 10
0.0
 20
0.0
 30
0.0
  0
XRECORD
  5
B210
102
{ACAD_REACTORS
330
B1FD
102
}
330
B1FD
100
AcDbXrecord
 10
0.0
 20
0.0
 30
0.0
  0
XRECORD
  5
B211
102
{ACAD_REACTORS
330
B1FD
102
}
330
B1FD
100
AcDbXrecord
 10
0.0
 20
0.0
 30
0.0
  0
XRECORD
  5
B212
102
{ACAD_REACTORS
330
B1FD
102
}
330
B1FD
100
AcDbXrecord
 10
0.0
 20
0.0
 30
0.0
  0
XRECORD
  5
B213
102
{ACAD_REACTORS
330
B1FD
102
}
330
B1FD
100
AcDbXrecord
 10
0.0
 20
0.0
 30
0.0
  0
XRECORD
  5
B214
102
{ACAD_REACTORS
330
B1FD
102
}
330
B1FD
100
AcDbXrecord
 10
0.0
 20
0.0
 30
0.0
  0
XRECORD
  5
B215
102
{ACAD_REACTORS
330
B1FD
102
}
330
B1FD
100
AcDbXrecord
340
0
  0
XRECORD
  5
B216
102
{ACAD_REACTORS
330
B1FD
102
}
330
B1FD
100
AcDbXrecord
 70
     0
  0
XRECORD
  5
B217
102
{ACAD_REACTORS
330
B1FD
102
}
330
B1FD
100
AcDbXrecord
340
0
  0
XRECORD
  5
B218
102
{ACAD_REACTORS
330
B1FD
102
}
330
B1FD
100
AcDbXrecord
 10
0.0
 20
0.0
 30
0.0
  0
XRECORD
  5
B219
102
{ACAD_REACTORS
330
B1FD
102
}
330
B1FD
100
AcDbXrecord
 10
0.0
 20
0.0
 30
0.0
  0
XRECORD
  5
B21A
102
{ACAD_REACTORS
330
B1FD
102
}
330
B1FD
100
AcDbXrecord
 10
0.0
 20
0.0
 30
0.0
  0
XRECORD
  5
B21B
102
{ACAD_REACTORS
330
B1FD
102
}
330
B1FD
100
AcDbXrecord
 10
0.0
 20
0.0
 30
0.0
  0
XRECORD
  5
B21C
102
{ACAD_REACTORS
330
B1FD
102
}
330
B1FD
100
AcDbXrecord
 10
0.0
 20
0.0
 30
0.0
  0
XRECORD
  5
B21D
102
{ACAD_REACTORS
330
B1FD
102
}
330
B1FD
100
AcDbXrecord
 10
0.0
 20
0.0
 30
0.0
  0
LAYER_INDEX
  5
B1F3
102
{ACAD_REACTORS
330
B1F2
102
}
330
B1F2
100
AcDbIndex
 40
2453151.841400972
100
AcDbLayerIndex
  8
0
360
B1F4
 90
        0
  8
AM_0
360
B1F5
 90
       39
  8
AM_11
360
B1F6
 90
        3
  8
AM_7
360
B1F7
 90
        2
  8
AM_5
360
B1F8
 90
        4
  8
Defpoints
360
B1F9
 90
        0
  8
AM_6
360
B1FA
 90
        1
  8
AM_CL
360
B1FB
 90
        0
  0
XRECORD
  5
2D
102
{ACAD_REACTORS
330
2C
102
}
330
2C
100
AcDbXrecord
  1
VERSION
140
15.0
  1
PRODUCT
  2
AutoCAD Mechanical 2000
  0
IDBUFFER
  5
B1F4
330
0
100
AcDbIdBuffer
  0
IDBUFFER
  5
B1F5
330
0
100
AcDbIdBuffer
330
AD02
330
AD03
330
AD04
330
AD06
330
AD09
330
AD0A
330
AD0B
330
AD0C
330
AD0D
330
AD0E
330
AD0F
330
AD10
330
AD11
330
AD13
330
AD15
330
AD16
330
AD17
330
AD19
330
AD1A
330
AD1B
330
AD1C
330
AD1D
330
B014
330
A440
330
A441
330
A445
330
A47D
330
A490
330
A492
330
A493
330
A6AD
330
A6AE
330
A6AF
330
A6B0
330
A6B1
330
ACFD
330
ACFE
330
ACFF
330
AD00
  0
IDBUFFER
  5
B1F6
330
0
100
AcDbIdBuffer
330
AD05
330
AD07
330
AD12
  0
IDBUFFER
  5
B1F7
330
0
100
AcDbIdBuffer
330
C2E
330
A475
  0
IDBUFFER
  5
B1F8
330
0
100
AcDbIdBuffer
330
10F0
330
12D8
330
A446
330
AAEF
  0
IDBUFFER
  5
B1F9
330
0
100
AcDbIdBuffer
  0
IDBUFFER
  5
B1FA
330
0
100
AcDbIdBuffer
330
1500
  0
IDBUFFER
  5
B1FB
330
0
100
AcDbIdBuffer
  0
ENDSEC
  0
EOF
