  0
SECTION
  2
HEADER
  9
$ACADVER
  1
AC1014
  9
$ACADMAINTVER
 70
     9
  9
$DWGCODEPAGE
  3
ANSI_932
  9
$INSBASE
 10
0.0
 20
0.0
 30
0.0
  9
$EXTMIN
 10
-139.3386983892743
 20
-61.00000099999991
 30
-0.00000001
  9
$EXTMAX
 10
17.05105068025213
 20
13.86092163625833
 30
0.00000001
  9
$LIMMIN
 10
-148.4046120003979
 20
-73.91348267816659
  9
$LIMMAX
 10
27.85507075820101
 20
40.06870996887823
  9
$ORTHOMODE
 70
     0
  9
$REGENMODE
 70
     1
  9
$FILLMODE
 70
     1
  9
$QTEXTMODE
 70
     0
  9
$MIRRTEXT
 70
     0
  9
$DRAGMODE
 70
     2
  9
$LTSCALE
 40
1.0
  9
$OSMODE
 70
    55
  9
$ATTMODE
 70
     1
  9
$TEXTSIZE
 40
5.0
  9
$TRACEWID
 40
1.0
  9
$TEXTSTYLE
  7
STANDARD
  9
$CLAYER
  8
AM_0
  9
$CELTYPE
  6
BYLAYER
  9
$CECOLOR
 62
   256
  9
$CELTSCALE
 40
1.0
  9
$DELOBJ
 70
     1
  9
$DISPSILH
 70
     0
  9
$DIMSCALE
 40
1.0
  9
$DIMASZ
 40
2.5
  9
$DIMEXO
 40
1.0
  9
$DIMDLI
 40
12.0
  9
$DIMRND
 40
0.0
  9
$DIMDLE
 40
0.0
  9
$DIMEXE
 40
1.0
  9
$DIMTP
 40
0.1
  9
$DIMTM
 40
0.1
  9
$DIMTXT
 40
3.2
  9
$DIMCEN
 40
0.0
  9
$DIMTSZ
 40
0.0
  9
$DIMTOL
 70
     0
  9
$DIMLIM
 70
     0
  9
$DIMTIH
 70
     0
  9
$DIMTOH
 70
     0
  9
$DIMSE1
 70
     0
  9
$DIMSE2
 70
     0
  9
$DIMTAD
 70
     3
  9
$DIMZIN
 70
     8
  9
$DIMBLK
  1
OPEN30
  9
$DIMASO
 70
     1
  9
$DIMSHO
 70
     1
  9
$DIMPOST
  1

  9
$DIMAPOST
  1
"
  9
$DIMALT
 70
     0
  9
$DIMALTD
 70
     2
  9
$DIMALTF
 40
0.0393701
  9
$DIMLFAC
 40
1.0
  9
$DIMTOFL
 70
     1
  9
$DIMTVP
 40
0.0
  9
$DIMTIX
 70
     0
  9
$DIMSOXD
 70
     0
  9
$DIMSAH
 70
     0
  9
$DIMBLK1
  1

  9
$DIMBLK2
  1

  9
$DIMSTYLE
  2
AM_JIS
  9
$DIMCLRD
 70
   256
  9
$DIMCLRE
 70
   256
  9
$DIMCLRT
 70
     2
  9
$DIMTFAC
 40
0.71
  9
$DIMGAP
 40
1.5
  9
$DIMJUST
 70
     0
  9
$DIMSD1
 70
     0
  9
$DIMSD2
 70
     0
  9
$DIMTOLJ
 70
     0
  9
$DIMTZIN
 70
     0
  9
$DIMALTZ
 70
     0
  9
$DIMALTTZ
 70
     0
  9
$DIMFIT
 70
     3
  9
$DIMUPT
 70
     0
  9
$DIMUNIT
 70
     2
  9
$DIMDEC
 70
     3
  9
$DIMTDEC
 70
     3
  9
$DIMALTU
 70
     2
  9
$DIMALTTD
 70
     2
  9
$DIMTXSTY
  7
ASAMI
  9
$DIMAUNIT
 70
     0
  9
$LUNITS
 70
     2
  9
$LUPREC
 70
     2
  9
$SKETCHINC
 40
1.0
  9
$FILLETRAD
 40
2.5
  9
$AUNITS
 70
     0
  9
$AUPREC
 70
     0
  9
$MENU
  1
.
  9
$ELEVATION
 40
0.0
  9
$PELEVATION
 40
0.0
  9
$THICKNESS
 40
0.0
  9
$LIMCHECK
 70
     0
  9
$BLIPMODE
 70
     0
  9
$CHAMFERA
 40
1.25
  9
$CHAMFERB
 40
1.25
  9
$CHAMFERC
 40
20.0
  9
$CHAMFERD
 40
0.0
  9
$SKPOLY
 70
     0
  9
$TDCREATE
 40
2452838.430434386
  9
$TDUPDATE
 40
2453151.845219606
  9
$TDINDWG
 40
0.5176572801
  9
$TDUSRTIMER
 40
0.5176572801
  9
$USRTIMER
 70
     1
  9
$ANGBASE
 50
0.0
  9
$ANGDIR
 70
     0
  9
$PDMODE
 70
     0
  9
$PDSIZE
 40
0.0
  9
$PLINEWID
 40
0.0
  9
$COORDS
 70
     1
  9
$SPLFRAME
 70
     0
  9
$SPLINETYPE
 70
     6
  9
$SPLINESEGS
 70
     8
  9
$ATTDIA
 70
     1
  9
$ATTREQ
 70
     1
  9
$HANDLING
 70
 12289
  9
$HANDSEED
  5
CB92
  9
$SURFTAB1
 70
     6
  9
$SURFTAB2
 70
     6
  9
$SURFTYPE
 70
     6
  9
$SURFU
 70
     6
  9
$SURFV
 70
     6
  9
$UCSNAME
  2

  9
$UCSORG
 10
0.0
 20
0.0
 30
0.0
  9
$UCSXDIR
 10
1.0
 20
0.0
 30
0.0
  9
$UCSYDIR
 10
0.0
 20
1.0
 30
0.0
  9
$PUCSNAME
  2

  9
$PUCSORG
 10
0.0
 20
0.0
 30
0.0
  9
$PUCSXDIR
 10
1.0
 20
0.0
 30
0.0
  9
$PUCSYDIR
 10
0.0
 20
1.0
 30
0.0
  9
$USERI1
 70
     0
  9
$USERI2
 70
     0
  9
$USERI3
 70
     0
  9
$USERI4
 70
     0
  9
$USERI5
 70
     0
  9
$USERR1
 40
0.0
  9
$USERR2
 40
0.0
  9
$USERR3
 40
0.0
  9
$USERR4
 40
0.0
  9
$USERR5
 40
0.0
  9
$WORLDVIEW
 70
     1
  9
$SHADEDGE
 70
     3
  9
$SHADEDIF
 70
    70
  9
$TILEMODE
 70
     1
  9
$MAXACTVP
 70
    64
  9
$PINSBASE
 10
0.0
 20
0.0
 30
0.0
  9
$PLIMCHECK
 70
     0
  9
$PEXTMIN
 10
1.000000000000000E+20
 20
1.000000000000000E+20
 30
1.000000000000000E+20
  9
$PEXTMAX
 10
-1.000000000000000E+20
 20
-1.000000000000000E+20
 30
-1.000000000000000E+20
  9
$PLIMMIN
 10
0.0
 20
0.0
  9
$PLIMMAX
 10
841.0
 20
594.0
  9
$UNITMODE
 70
     0
  9
$VISRETAIN
 70
     1
  9
$PLINEGEN
 70
     0
  9
$PSLTSCALE
 70
     0
  9
$TREEDEPTH
 70
  3020
  9
$PICKSTYLE
 70
     0
  9
$CMLSTYLE
  2
STANDARD
  9
$CMLJUST
 70
     0
  9
$CMLSCALE
 40
20.0
  9
$PROXYGRAPHICS
 70
     1
  9
$MEASUREMENT
 70
     1
  0
ENDSEC
  0
SECTION
  2
CLASSES
  0
CLASS
  1
ACDBDICTIONARYWDFLT
  2
AcDbDictionaryWithDefault
  3
AutoCAD 2000
 90
        0
280
     0
281
     0
  0
CLASS
  1
ACDBPLACEHOLDER
  2
AcDbPlaceHolder
  3
AutoCAD 2000
 90
        0
280
     0
281
     0
  0
CLASS
  1
LAYOUT
  2
AcDbLayout
  3
AutoCAD 2000
 90
        0
280
     0
281
     0
  0
CLASS
  1
AMGSETTINGSOBJ
  2
AmgSettingsObj
  3
"AcadM|Product Description: AutoCAD Mechanical 2000|Company: Autodesk"
 90
        0
280
     0
281
     0
  0
CLASS
  1
ACME_DOCUMENT
  2
AcMeDbDoc
  3
AcMeServices
 90
        0
280
     0
281
     0
  0
CLASS
  1
ACMESCOPE
  2
AcMeScope
  3
AcMeServices
 90
        0
280
     0
281
     0
  0
CLASS
  1
ACMECOMMANDHISTORY
  2
AcMeCommandHistory
  3
AcMeServices
 90
        0
280
     0
281
     0
  0
CLASS
  1
DICTIONARYVAR
  2
AcDbDictionaryVar
  3
AutoCAD 2000
 90
        0
280
     0
281
     0
  0
CLASS
  1
ACIMSYSVARMAN
  2
AcImSysVarManager
  3
AcMeServices
 90
        0
280
     0
281
     0
  0
CLASS
  1
ACIMREALSYSVAR
  2
AcImRealSysVar
  3
AcMeServices
 90
        0
280
     0
281
     0
  0
CLASS
  1
ACIMINTSYSVAR
  2
AcImIntSysVar
  3
AcMeServices
 90
        0
280
     0
281
     0
  0
CLASS
  1
ACMEDRAWINGMAN
  2
AcMeDrawingMan
  3
AcMeServices
 90
        0
280
     0
281
     0
  0
CLASS
  1
ACMEVIEW
  2
AcMeView
  3
AcMeServices
 90
        0
280
     0
281
     0
  0
CLASS
  1
ACDBENTITYCACHE
  2
AcMeEntityCache
  3
AcMeServices
 90
        0
280
     0
281
     0
  0
CLASS
  1
GSMANAGER
  2
AcMeGSManager
  3
AcMeServices
 90
        0
280
     0
281
     0
  0
CLASS
  1
AmdtInternalReactor
  2
AmdtInternalReactor
  3
AcMeServices
 90
        0
280
     0
281
     0
  0
CLASS
  1
ACMESTATEMGR
  2
AcMeStateMgr
  3
AcMeServices
 90
        0
280
     0
281
     0
  0
CLASS
  1
ACME_DATABASE
  2
AcMeDbDatabase
  3
AcMeServices
 90
        0
280
     0
281
     0
  0
CLASS
  1
ACRFINSADJUSTERMGR
  2
AcRfInsAdjusterMgr
  3
AcMeServices
 90
        0
280
     0
281
     0
  0
CLASS
  1
ACMDATADICTIONARY
  2
AcmDataDictionary
  3
"AcmSymBB|Product Description: AutoCAD Mechanical 2000|Company: Autodesk"
 90
        0
280
     0
281
     0
  0
CLASS
  1
ACMDATAENTRYBLOCK
  2
AcmDataEntryBlock
  3
"AcmSymBB|Product Description: AutoCAD Mechanical 2000|Company: Autodesk"
 90
        0
280
     0
281
     0
  0
CLASS
  1
AMGOBJPROPCFG
  2
AmgObjPropCfg
  3
"AmgLay|Product Description: AutoCAD Mechanical 2000|Company: Autodesk"
 90
        1
280
     0
281
     0
  0
CLASS
  1
ACAMGFILTERDAT
  2
AcAmgFilterDat
  3
"AcadM|Product Description: AutoCAD Mechanical 2000|Company: Autodesk"
 90
        0
280
     0
281
     0
  0
CLASS
  1
LAYER_INDEX
  2
AcDbLayerIndex
  3
AutoCAD 2000
 90
        0
280
     0
281
     0
  0
CLASS
  1
IDBUFFER
  2
AcDbIdBuffer
  3
AutoCAD 2000
 90
        0
280
     0
281
     0
  0
CLASS
  1
ACIMSTRSYSVAR
  2
AcImStrSysVar
  3
AcMeServices
 90
        0
280
     0
281
     0
  0
CLASS
  1
ACMSTANDARDJIS
  2
AcmStandardJIS
  3
"AcmSymBB|Product Description: AutoCAD Mechanical 2000|Company: Autodesk"
 90
        0
280
     0
281
     0
  0
CLASS
  1
ACMSURFSTANDARDJIS
  2
AcmSurfTextStdJIS
  3
"AcmSymBB|Product Description: AutoCAD Mechanical 2000|Company: Autodesk"
 90
        0
280
     0
281
     0
  0
CLASS
  1
ACMFCFSTANDARDJIS
  2
AcmFCFStdJIS
  3
"AcmSymBB|Product Description: AutoCAD Mechanical 2000|Company: Autodesk"
 90
        0
280
     0
281
     0
  0
CLASS
  1
ACMWELDSTANDARDJIS
  2
AcmWeldingStdJIS
  3
"AcmSymBB|Product Description: AutoCAD Mechanical 2000|Company: Autodesk"
 90
        0
280
     0
281
     0
  0
CLASS
  1
ACMIDSTANDARDJIS
  2
AcmIdStdJIS
  3
"AcmSymBB|Product Description: AutoCAD Mechanical 2000|Company: Autodesk"
 90
        0
280
     0
281
     0
  0
CLASS
  1
ACMDATUMSTANDARDJIS
  2
AcmDatumStdJIS
  3
"AcmSymBB|Product Description: AutoCAD Mechanical 2000|Company: Autodesk"
 90
        0
280
     0
281
     0
  0
CLASS
  1
ACMBOMSTANDARDJIS
  2
AcmBOMStdJIS
  3
"AcmSymBB|Product Description: AutoCAD Mechanical 2000|Company: Autodesk"
 90
        0
280
     0
281
     0
  0
CLASS
  1
ACMSTANDARDANSI
  2
AcmStandardANSI
  3
"AcmSymBB|Product Description: AutoCAD Mechanical 2000|Company: Autodesk"
 90
        0
280
     0
281
     0
  0
CLASS
  1
ACMSURFSTANDARDANSI
  2
AcmSurfTextStdANSI
  3
"AcmSymBB|Product Description: AutoCAD Mechanical 2000|Company: Autodesk"
 90
        0
280
     0
281
     0
  0
CLASS
  1
ACMFCFSTANDARDANSI
  2
AcmFCFStdANSI
  3
"AcmSymBB|Product Description: AutoCAD Mechanical 2000|Company: Autodesk"
 90
        0
280
     0
281
     0
  0
CLASS
  1
ACMWELDSTANDARDANSI
  2
AcmWeldingStdANSI
  3
"AcmSymBB|Product Description: AutoCAD Mechanical 2000|Company: Autodesk"
 90
        0
280
     0
281
     0
  0
CLASS
  1
ACMIDSTANDARDANSI
  2
AcmIdStdANSI
  3
"AcmSymBB|Product Description: AutoCAD Mechanical 2000|Company: Autodesk"
 90
        0
280
     0
281
     0
  0
CLASS
  1
ACMDATUMSTANDARDANSI
  2
AcmDatumStdANSI
  3
"AcmSymBB|Product Description: AutoCAD Mechanical 2000|Company: Autodesk"
 90
        0
280
     0
281
     0
  0
CLASS
  1
ACMBOMSTANDARDANSI
  2
AcmBOMStdANSI
  3
"AcmSymBB|Product Description: AutoCAD Mechanical 2000|Company: Autodesk"
 90
        0
280
     0
281
     0
  0
CLASS
  1
ACMSTANDARDBSI
  2
AcmStandardBSI
  3
"AcmSymBB|Product Description: AutoCAD Mechanical 2000|Company: Autodesk"
 90
        0
280
     0
281
     0
  0
CLASS
  1
ACMSURFSTANDARDBSI
  2
AcmSurfTextStdBSI
  3
"AcmSymBB|Product Description: AutoCAD Mechanical 2000|Company: Autodesk"
 90
        0
280
     0
281
     0
  0
CLASS
  1
ACMFCFSTANDARDBSI
  2
AcmFCFStdBSI
  3
"AcmSymBB|Product Description: AutoCAD Mechanical 2000|Company: Autodesk"
 90
        0
280
     0
281
     0
  0
CLASS
  1
ACMWELDSTANDARDBSI
  2
AcmWeldingStdBSI
  3
"AcmSymBB|Product Description: AutoCAD Mechanical 2000|Company: Autodesk"
 90
        0
280
     0
281
     0
  0
CLASS
  1
ACMIDSTANDARDBSI
  2
AcmIdStdBSI
  3
"AcmSymBB|Product Description: AutoCAD Mechanical 2000|Company: Autodesk"
 90
        0
280
     0
281
     0
  0
CLASS
  1
ACMDATUMSTANDARDBSI
  2
AcmDatumStdBSI
  3
"AcmSymBB|Product Description: AutoCAD Mechanical 2000|Company: Autodesk"
 90
        0
280
     0
281
     0
  0
CLASS
  1
ACMBOMSTANDARDBSI
  2
AcmBOMStdBSI
  3
"AcmSymBB|Product Description: AutoCAD Mechanical 2000|Company: Autodesk"
 90
        0
280
     0
281
     0
  0
CLASS
  1
LONG_TRANSACTION
  2
AcDbLongTransaction
  3
AutoCAD 2000
 90
        0
280
     0
281
     0
  0
CLASS
  1
LWPOLYLINE
  2
AcDbPolyline
  3
AutoCAD 2000
 90
        0
280
     0
281
     1
  0
CLASS
  1
HATCH
  2
AcDbHatch
  3
AutoCAD 2000
 90
        0
280
     0
281
     1
  0
CLASS
  1
XRECORD
  2
AcDbXrecord
  3
AutoCAD 2000
 90
        0
280
     0
281
     0
  0
ENDSEC
  0
SECTION
  2
TABLES
  0
TABLE
  2
VPORT
  5
8
330
0
100
AcDbSymbolTable
 70
     3
  0
VPORT
  5
CB67
330
8
100
AcDbSymbolTableRecord
100
AcDbViewportTableRecord
  2
*ACTIVE
 70
     0
 10
0.0
 20
0.0
 11
1.0
 21
1.0
 12
-51.75367083251443
 22
-13.38943093549045
 13
0.0
 23
0.0
 14
2.5
 24
2.5
 15
10.0
 25
10.0
 16
0.0
 26
0.0
 36
1.0
 17
0.0
 27
0.0
 37
0.0
 40
136.9540948996485
 41
1.56570841889117
 42
50.0
 43
0.0
 44
0.0
 50
0.0
 51
0.0
 71
     0
 72
   100
 73
     1
 74
     3
 75
     0
 76
     0
 77
     0
 78
     0
  0
ENDTAB
  0
TABLE
  2
LTYPE
  5
5
330
0
100
AcDbSymbolTable
 70
    10
  0
LTYPE
  5
14
330
5
100
AcDbSymbolTableRecord
100
AcDbLinetypeTableRecord
  2
BYBLOCK
 70
     0
  3

 72
    65
 73
     0
 40
0.0
  0
LTYPE
  5
15
330
5
100
AcDbSymbolTableRecord
100
AcDbLinetypeTableRecord
  2
BYLAYER
 70
     0
  3

 72
    65
 73
     0
 40
0.0
  0
LTYPE
  5
16
330
5
100
AcDbSymbolTableRecord
100
AcDbLinetypeTableRecord
  2
CONTINUOUS
 70
     0
  3
Solid line
 72
    65
 73
     0
 40
0.0
  0
LTYPE
  5
4B
330
5
100
AcDbSymbolTableRecord
100
AcDbLinetypeTableRecord
  2
AM_ISO02W050
 70
     0
  3
__ __ __ __ __ __ __ __ __ __ __ __ __ __ __
 72
    65
 73
     2
 40
7.5
 49
6.0
 74
     0
 49
-1.5
 74
     0
  0
LTYPE
  5
4C
330
5
100
AcDbSymbolTableRecord
100
AcDbLinetypeTableRecord
  2
AM_ISO08W050
 70
     0
  3
____ . ____ . ____ . ____ . ____ . ____ . ____
 72
    65
 73
     4
 40
18.0
 49
12.0
 74
     0
 49
-1.5
 74
     0
 49
3.0
 74
     0
 49
-1.5
 74
     0
  0
LTYPE
  5
4D
330
5
100
AcDbSymbolTableRecord
100
AcDbLinetypeTableRecord
  2
AM_ISO09W050
 70
     0
  3
_____ . . _____ . . _____ . . ____ .. ____
 72
    65
 73
     6
 40
22.5
 49
12.0
 74
     0
 49
-1.5
 74
     0
 49
3.0
 74
     0
 49
-1.5
 74
     0
 49
3.0
 74
     0
 49
-1.5
 74
     0
  0
LTYPE
  5
4E
330
5
100
AcDbSymbolTableRecord
100
AcDbLinetypeTableRecord
  2
AMCONSTR
 70
     0
  3
_______________________
 72
    65
 73
     2
 40
9999.0
 49
9999.0
 74
     0
 49
0.0
 74
     0
  0
LTYPE
  5
4F
330
5
100
AcDbSymbolTableRecord
100
AcDbLinetypeTableRecord
  2
AM_ISO02W050X2
 70
     0
  3
 _ _ _ _ _ _ _ _ _ _ _ _
 72
    65
 73
     2
 40
3.75
 49
3.0
 74
     0
 49
-0.75
 74
     0
  0
LTYPE
  5
50
330
5
100
AcDbSymbolTableRecord
100
AcDbLinetypeTableRecord
  2
AM_ISO08W050X2
 70
     0
  3
__ . __ . __ . __ . __ . __
 72
    65
 73
     4
 40
9.0
 49
6.0
 74
     0
 49
-0.75
 74
     0
 49
1.5
 74
     0
 49
-0.75
 74
     0
  0
LTYPE
  5
53
330
5
100
AcDbSymbolTableRecord
100
AcDbLinetypeTableRecord
  2
AMZIGZAG
 70
     0
  3
/\/-/\/-/\/-/\/-/\/-/\/
 72
    65
 73
     2
 40
11.00009999999999
 49
0.0001
 74
     4
 75
   135
340
52
 46
0.04
 50
0.0
 44
0.0
 45
0.0
 49
-11.0
 74
     0
  0
LTYPE
  5
166
330
5
100
AcDbSymbolTableRecord
100
AcDbLinetypeTableRecord
  2
ACJISTGL
 70
     0
  3
_ _ _ _ _
 72
    65
 73
     2
 40
3.0
 49
2.0
 74
     0
 49
-1.0
 74
     0
  0
LTYPE
  5
26A
330
5
100
AcDbSymbolTableRecord
100
AcDbLinetypeTableRecord
  2
ACJISTGB
 70
     0
  3
__ . . __ . .
 72
    65
 73
     6
 40
9.0
 49
4.0
 74
     0
 49
-1.0
 74
     0
 49
1.0
 74
     0
 49
-1.0
 74
     0
 49
1.0
 74
     0
 49
-1.0
 74
     0
  0
ENDTAB
  0
TABLE
  2
LAYER
  5
2
330
0
100
AcDbSymbolTable
 70
     7
  0
LAYER
  5
10
330
2
100
AcDbSymbolTableRecord
100
AcDbLayerTableRecord
  2
0
 70
     0
 62
     7
  6
CONTINUOUS
  0
LAYER
  5
3F9
330
2
100
AcDbSymbolTableRecord
100
AcDbLayerTableRecord
  2
AM_0
 70
     0
 62
     7
  6
CONTINUOUS
  0
LAYER
  5
BDD
330
2
100
AcDbSymbolTableRecord
100
AcDbLayerTableRecord
  2
AM_11
 70
     0
 62
     3
  6
AM_ISO09W050
  0
LAYER
  5
BDE
330
2
100
AcDbSymbolTableRecord
100
AcDbLayerTableRecord
  2
AM_7
 70
     0
 62
     4
  6
AM_ISO08W050
  0
LAYER
  5
BDF
330
2
100
AcDbSymbolTableRecord
100
AcDbLayerTableRecord
  2
AM_5
 70
     0
 62
     3
  6
CONTINUOUS
  0
LAYER
  5
BE0
330
2
100
AcDbSymbolTableRecord
100
AcDbLayerTableRecord
  2
DEFPOINTS
 70
     0
 62
     7
  6
CONTINUOUS
  0
LAYER
  5
14FF
330
2
100
AcDbSymbolTableRecord
100
AcDbLayerTableRecord
  2
AM_6
 70
     0
 62
     2
  6
CONTINUOUS
  0
ENDTAB
  0
TABLE
  2
STYLE
  5
3
330
0
100
AcDbSymbolTable
 70
     5
  0
STYLE
  5
11
330
3
100
AcDbSymbolTableRecord
100
AcDbTextStyleTableRecord
  2
STANDARD
 70
     0
 40
0.0
 41
1.0
 50
0.0
 71
     0
 42
5.0
  3
simplex.shx
  4
EXTFONT.SHX
  0
STYLE
  5
52
330
3
100
AcDbSymbolTableRecord
100
AcDbTextStyleTableRecord
  2

 70
     1
 40
0.0
 41
1.0
 50
0.0
 71
     0
 42
2.5
  3
ltypeshp.shx
  4

  0
STYLE
  5
6B
330
3
100
AcDbSymbolTableRecord
100
AcDbTextStyleTableRecord
  2
ASAMI
 70
     0
 40
0.0
 41
1.0
 50
0.0
 71
     0
 42
2.5
  3
simplex.shx
  4
EXTFONT.SHX
  0
STYLE
  5
262
330
3
100
AcDbSymbolTableRecord
100
AcDbTextStyleTableRecord
  2
ACJISTS
 70
     0
 40
1.0
 41
1.0
 50
0.0
 71
     0
 42
2.5
  3
simplex.shx
  4
bigfont.shx
  0
STYLE
  5
269
330
3
100
AcDbSymbolTableRecord
100
AcDbTextStyleTableRecord
  2
ACJISGDT
 70
     0
 40
0.0
 41
1.0
 50
0.0
 71
     0
 42
2.5
  3
amgdtans.shx
  4

  0
ENDTAB
  0
TABLE
  2
VIEW
  5
6
330
0
100
AcDbSymbolTable
 70
     0
  0
ENDTAB
  0
TABLE
  2
UCS
  5
7
330
0
100
AcDbSymbolTable
 70
     0
  0
ENDTAB
  0
TABLE
  2
APPID
  5
9
330
0
100
AcDbSymbolTable
 70
    13
  0
APPID
  5
12
330
9
100
AcDbSymbolTableRecord
100
AcDbRegAppTableRecord
  2
ACAD
 70
     0
  0
APPID
  5
30
330
9
100
AcDbSymbolTableRecord
100
AcDbRegAppTableRecord
  2
MCAD_NO_VIS
 70
     0
  0
APPID
  5
31
330
9
100
AcDbSymbolTableRecord
100
AcDbRegAppTableRecord
  2
ACAD_TEMP_GRAPHIC
 70
     0
  0
APPID
  5
2C2
330
9
100
AcDbSymbolTableRecord
100
AcDbRegAppTableRecord
  2
GENIUS_GENDTOL_13
 70
     0
  0
APPID
  5
339
330
9
100
AcDbSymbolTableRecord
100
AcDbRegAppTableRecord
  2
GENIUS_GENODEF_13
 70
     0
  0
APPID
  5
33A
330
9
100
AcDbSymbolTableRecord
100
AcDbRegAppTableRecord
  2
GENIUS_GENOBJ-N-RSBK_13
 70
     0
  0
APPID
  5
33B
330
9
100
AcDbSymbolTableRecord
100
AcDbRegAppTableRecord
  2
GENIUS_GENOBJ-N-LIB_13
 70
     0
  0
APPID
  5
33C
330
9
100
AcDbSymbolTableRecord
100
AcDbRegAppTableRecord
  2
GENIUS_GENSCALE_13
 70
     0
  0
APPID
  5
378
330
9
100
AcDbSymbolTableRecord
100
AcDbRegAppTableRecord
  2
GENIUS_GENDIMSH_14
 70
     0
  0
APPID
  5
BE1
330
9
100
AcDbSymbolTableRecord
100
AcDbRegAppTableRecord
  2
GENIUS_GENFIL_13
 70
     0
  0
APPID
  5
BE2
330
9
100
AcDbSymbolTableRecord
100
AcDbRegAppTableRecord
  2
GENIUS_GENOBJ-N-CHA_13
 70
     0
  0
APPID
  5
151B
330
9
100
AcDbSymbolTableRecord
100
AcDbRegAppTableRecord
  2
DCO15
 70
     0
  0
APPID
  5
1860
330
9
100
AcDbSymbolTableRecord
100
AcDbRegAppTableRecord
  2
GENIUS_GENOBJ-N-CEN_13
 70
     0
  0
ENDTAB
  0
TABLE
  2
DIMSTYLE
  5
A
330
0
100
AcDbSymbolTable
 70
     8
  0
DIMSTYLE
105
58
102
{ACAD_REACTORS
330
10F0
330
12D8
330
C0FC
330
C76F
102
}
330
A
100
AcDbSymbolTableRecord
100
AcDbDimStyleTableRecord
  2
AM_JIS
 70
     0
  3

  4
"
  5
OPEN30
  6

  7

 40
1.0
 41
2.5
 42
1.0
 43
12.0
 44
1.0
 45
0.0
 46
0.0
 47
0.1
 48
0.1
140
3.2
141
0.0
142
0.0
143
0.0393701
144
1.0
145
0.0
146
0.71
147
1.5
 71
     0
 72
     0
 73
     0
 74
     0
 75
     0
 76
     0
 77
     3
 78
     8
170
     0
171
     2
172
     1
173
     0
174
     0
175
     0
176
   256
177
   256
178
     2
270
     2
271
     3
272
     3
273
     2
274
     2
340
6B
275
     0
280
     0
281
     0
282
     0
283
     0
284
     0
285
     0
286
     0
287
     3
288
     0
  0
DIMSTYLE
105
5F
330
A
100
AcDbSymbolTableRecord
100
AcDbDimStyleTableRecord
  2
AM_JIS$3
 70
     0
  3

  4
"
  5
OPEN30
  6

  7

 40
1.0
 41
2.5
 42
1.0
 43
10.0
 44
1.0
 45
0.0
 46
0.0
 47
0.1
 48
0.1
140
3.2
141
0.0
142
0.0
143
0.0393701
144
1.0
145
0.0
146
0.71
147
1.5
 71
     0
 72
     0
 73
     0
 74
     1
 75
     0
 76
     0
 77
     3
 78
     8
170
     0
171
     2
172
     0
173
     0
174
     0
175
     0
176
   256
177
   256
178
     2
270
     2
271
     2
272
     3
273
     2
274
     2
340
6B
275
     0
280
     0
281
     0
282
     0
283
     0
284
     0
285
     0
286
     0
287
     0
288
     1
  0
DIMSTYLE
105
60
330
A
100
AcDbSymbolTableRecord
100
AcDbDimStyleTableRecord
  2
AM_JIS$4
 70
     0
  3

  4
"
  5
OPEN30
  6

  7

 40
1.0
 41
2.5
 42
1.0
 43
10.0
 44
1.0
 45
0.0
 46
0.0
 47
0.1
 48
0.1
140
3.2
141
0.0
142
0.0
143
0.0393701
144
1.0
145
0.0
146
0.71
147
1.5
 71
     0
 72
     0
 73
     0
 74
     1
 75
     0
 76
     0
 77
     3
 78
     8
170
     0
171
     2
172
     0
173
     0
174
     0
175
     0
176
   256
177
   256
178
     2
270
     2
271
     2
272
     3
273
     2
274
     2
340
6B
275
     0
280
     0
281
     0
282
     0
283
     0
284
     0
285
     0
286
     0
287
     0
288
     1
  0
DIMSTYLE
105
61
330
A
100
AcDbSymbolTableRecord
100
AcDbDimStyleTableRecord
  2
AM_JIS$6
 70
     0
  3

  4
"
  5
OPEN30
  6

  7

 40
1.0
 41
2.5
 42
1.0
 43
10.0
 44
1.0
 45
0.0
 46
0.0
 47
0.1
 48
0.1
140
3.2
141
0.0
142
0.0
143
0.0393701
144
1.0
145
0.0
146
0.71
147
1.5
 71
     0
 72
     0
 73
     0
 74
     0
 75
     0
 76
     0
 77
     0
 78
     8
170
     0
171
     2
172
     1
173
     0
174
     0
175
     0
176
   256
177
   256
178
     2
270
     2
271
     2
272
     2
273
     2
274
     2
340
6B
275
     0
280
     0
281
     0
282
     0
283
     0
284
     0
285
     0
286
     0
287
     3
288
     0
  0
DIMSTYLE
105
62
330
A
100
AcDbSymbolTableRecord
100
AcDbDimStyleTableRecord
  2
AM_JIS$7
 70
     0
  3

  4
"
  5
OPEN30
  6

  7

 40
1.0
 41
2.5
 42
1.0
 43
10.0
 44
1.0
 45
0.0
 46
0.0
 47
0.1
 48
0.1
140
3.2
141
0.0
142
0.0
143
0.0393701
144
1.0
145
0.0
146
0.71
147
1.5
 71
     0
 72
     0
 73
     0
 74
     0
 75
     0
 76
     0
 77
     3
 78
     8
170
     0
171
     2
172
     1
173
     0
174
     0
175
     0
176
   256
177
   256
178
     2
270
     2
271
     2
272
     3
273
     2
274
     2
340
6B
275
     0
280
     0
281
     0
282
     0
283
     0
284
     0
285
     0
286
     0
287
     3
288
     0
  0
DIMSTYLE
105
63
330
A
100
AcDbSymbolTableRecord
100
AcDbDimStyleTableRecord
  2
AM_JIS$SF
 70
     0
  3

  4
"
  5
OPEN30
  6

  7

 40
1.0
 41
2.5
 42
1.0
 43
10.0
 44
1.0
 45
0.0
 46
0.0
 47
0.1
 48
0.1
140
3.2
141
0.0
142
0.0
143
0.0393701
144
1.0
145
0.0
146
0.71
147
1.5
 71
     0
 72
     0
 73
     0
 74
     0
 75
     1
 76
     1
 77
     3
 78
     8
170
     0
171
     2
172
     1
173
     0
174
     0
175
     0
176
   256
177
   256
178
     2
270
     2
271
     2
272
     2
273
     2
274
     2
340
6B
275
     0
280
     0
281
     0
282
     0
283
     0
284
     0
285
     0
286
     0
287
     3
288
     0
  0
DIMSTYLE
105
68
330
A
100
AcDbSymbolTableRecord
100
AcDbDimStyleTableRecord
  2
AM_JIS$SH
 70
     0
  3

  4
"
  5

  6
GENAXEH
  7
OPEN30
 40
1.0
 41
2.5
 42
1.0
 43
10.0
 44
1.0
 45
0.0
 46
0.0
 47
0.1
 48
0.1
140
3.2
141
0.0
142
0.0
143
0.0393701
144
2.0
145
0.0
146
0.71
147
1.5
 71
     0
 72
     0
 73
     0
 74
     0
 75
     1
 76
     1
 77
     3
 78
     8
170
     0
171
     2
172
     1
173
     1
174
     0
175
     0
176
   256
177
   256
178
     2
270
     2
271
     2
272
     2
273
     2
274
     2
340
6B
275
     0
280
     0
281
     0
282
     0
283
     0
284
     0
285
     0
286
     0
287
     3
288
     0
  0
DIMSTYLE
105
B34
330
A
100
AcDbSymbolTableRecord
100
AcDbDimStyleTableRecord
  2
AM_JIS$2
 70
     0
  3

  4
"
  5
OPEN30
  6

  7

 40
1.0
 41
2.5
 42
1.0
 43
12.0
 44
1.0
 45
0.0
 46
0.0
 47
0.1
 48
0.1
140
3.2
141
0.0
142
0.0
143
0.0393701
144
1.0
145
0.0
146
0.71
147
1.5
 71
     0
 72
     0
 73
     0
 74
     0
 75
     0
 76
     0
 77
     3
 78
     8
170
     0
171
     2
172
     1
173
     0
174
     0
175
     0
176
   256
177
   256
178
     2
270
     2
271
     3
272
     3
273
     2
274
     2
340
6B
275
     0
280
     0
281
     0
282
     0
283
     0
284
     0
285
     0
286
     0
287
     3
288
     0
  0
ENDTAB
  0
TABLE
  2
BLOCK_RECORD
  5
1
330
0
100
AcDbSymbolTable
 70
     9
  0
BLOCK_RECORD
  5
1F
102
{ACAD_XDICTIONARY
360
74
102
}
330
1
100
AcDbSymbolTableRecord
100
AcDbBlockTableRecord
  2
*MODEL_SPACE
  0
BLOCK_RECORD
  5
101
102
{ACAD_XDICTIONARY
360
CB90
102
}
330
1
100
AcDbSymbolTableRecord
100
AcDbBlockTableRecord
  2
*PAPER_SPACE
  0
BLOCK_RECORD
  5
59
330
1
100
AcDbSymbolTableRecord
100
AcDbBlockTableRecord
  2
_OPEN30
  0
BLOCK_RECORD
  5
64
330
1
100
AcDbSymbolTableRecord
100
AcDbBlockTableRecord
  2
GENAXEH
  0
BLOCK_RECORD
  5
10F1
330
1
100
AcDbSymbolTableRecord
100
AcDbBlockTableRecord
  2
*D5
  0
BLOCK_RECORD
  5
12D9
330
1
100
AcDbSymbolTableRecord
100
AcDbBlockTableRecord
  2
*D6
  0
BLOCK_RECORD
  5
C0FD
330
1
100
AcDbSymbolTableRecord
100
AcDbBlockTableRecord
  2
*D7
  0
BLOCK_RECORD
  5
C770
330
1
100
AcDbSymbolTableRecord
100
AcDbBlockTableRecord
  2
*D8
  0
ENDTAB
  0
ENDSEC
  0
SECTION
  2
BLOCKS
  0
BLOCK
  5
20
330
1F
100
AcDbEntity
  8
0
100
AcDbBlockBegin
  2
*MODEL_SPACE
 70
     0
 10
0.0
 20
0.0
 30
0.0
  3
*MODEL_SPACE
  1

  0
ENDBLK
  5
21
330
1F
100
AcDbEntity
  8
0
100
AcDbBlockEnd
  0
BLOCK
  5
103
330
101
100
AcDbEntity
 67
     1
  8
0
100
AcDbBlockBegin
  2
*PAPER_SPACE
 70
     0
 10
0.0
 20
0.0
 30
0.0
  3
*PAPER_SPACE
  1

  0
ENDBLK
  5
104
330
101
100
AcDbEntity
 67
     1
  8
0
100
AcDbBlockEnd
  0
BLOCK
  5
5D
330
59
100
AcDbEntity
  8
0
100
AcDbBlockBegin
  2
_OPEN30
 70
     0
 10
0.0
 20
0.0
 30
0.0
  3
_OPEN30
  1

  0
LINE
  5
5A
330
59
100
AcDbEntity
  8
0
 62
     0
100
AcDbLine
 10
-1.0
 20
0.26794919
 30
0.0
 11
0.0
 21
0.0
 31
0.0
  0
LINE
  5
5B
330
59
100
AcDbEntity
  8
0
 62
     0
100
AcDbLine
 10
0.0
 20
0.0
 30
0.0
 11
-1.0
 21
-0.26794919
 31
0.0
  0
LINE
  5
5C
330
59
100
AcDbEntity
  8
0
 62
     0
100
AcDbLine
 10
0.0
 20
0.0
 30
0.0
 11
-1.0
 21
0.0
 31
0.0
  0
ENDBLK
  5
5E
330
59
100
AcDbEntity
  8
0
100
AcDbBlockEnd
  0
BLOCK
  5
66
330
64
100
AcDbEntity
  8
0
100
AcDbBlockBegin
  2
GENAXEH
 70
     0
 10
0.0
 20
0.0
 30
0.0
  3
GENAXEH
  1

  0
LINE
  5
65
330
64
100
AcDbEntity
  8
0
100
AcDbLine
 10
-1.0
 20
0.0
 30
0.0
 11
1.0
 21
0.0
 31
0.0
  0
ENDBLK
  5
67
330
64
100
AcDbEntity
  8
0
100
AcDbBlockEnd
  0
BLOCK
  5
10FB
330
10F1
100
AcDbEntity
  8
0
100
AcDbBlockBegin
  2
*D5
 70
     1
 10
0.0
 20
0.0
 30
0.0
  3
*D5
  1

  0
LINE
  5
C955
330
10F1
100
AcDbEntity
  8
AM_5
100
AcDbLine
 10
-115.0
 20
-12.25000000000005
 30
0.0
 11
-115.0
 21
-39.50000099999989
 31
0.0
  0
LINE
  5
C956
330
10F1
100
AcDbEntity
  8
AM_5
100
AcDbLine
 10
-0.0000000000016201
 20
-12.49999999999797
 30
0.0
 11
-0.0000000000016218
 21
-39.50000099999989
 31
0.0
  0
LINE
  5
C957
330
10F1
100
AcDbEntity
  8
AM_5
100
AcDbLine
 10
-112.5
 20
-38.50000099999989
 30
0.0
 11
-2.500000000001621
 21
-38.50000099999989
 31
0.0
  0
INSERT
  5
C958
330
10F1
100
AcDbEntity
  8
AM_5
100
AcDbBlockReference
  2
_OPEN30
 10
-115.0
 20
-38.50000099999989
 30
0.0
 41
2.5
 42
2.5
 43
2.5
 50
180.0
  0
INSERT
  5
C959
330
10F1
100
AcDbEntity
  8
AM_5
100
AcDbBlockReference
  2
_OPEN30
 10
-0.0000000000016217
 20
-38.50000099999989
 30
0.0
 41
2.5
 42
2.5
 43
2.5
  0
MTEXT
  5
C95A
330
10F1
100
AcDbEntity
  8
AM_5
 62
     2
100
AcDbMText
 10
-57.50000000000083
 20
-35.40000099999989
 30
0.0
 40
3.2
 41
0.0
 71
     5
 72
     1
  1
115
  7
ASAMI
1001
ACAD
1000
MTEXTBEGIN
1070
    73
1070
     1
1070
    44
1040
1.0
1070
    74
1070
     0
1000
MTEXTEND
  0
POINT
  5
C95B
330
10F1
100
AcDbEntity
  8
DEFPOINTS
 62
     0
100
AcDbPoint
 10
-115.0
 20
-11.25000000000005
 30
0.0
  0
POINT
  5
C95C
330
10F1
100
AcDbEntity
  8
DEFPOINTS
 62
     0
100
AcDbPoint
 10
-0.0000000000016201
 20
-11.49999999999797
 30
0.0
  0
POINT
  5
C95D
330
10F1
100
AcDbEntity
  8
DEFPOINTS
 62
     0
100
AcDbPoint
 10
-0.0000000000016217
 20
-38.50000099999989
 30
0.0
  0
ENDBLK
  5
10FC
330
10F1
100
AcDbEntity
  8
0
100
AcDbBlockEnd
  0
BLOCK
  5
12E5
330
12D9
100
AcDbEntity
  8
0
100
AcDbBlockBegin
  2
*D6
 70
     1
 10
0.0
 20
0.0
 30
0.0
  3
*D6
  1

  0
LINE
  5
C95E
330
12D9
100
AcDbEntity
  8
AM_5
100
AcDbLine
 10
-0.0000000000004115
 20
-12.49999999999882
 30
0.0
 11
-0.0000000000004124
 21
-27.50000099999997
 31
0.0
  0
LINE
  5
C95F
330
12D9
100
AcDbEntity
  8
AM_5
100
AcDbLine
 10
-45.00000000000047
 20
-12.49999999999708
 30
0.0
 11
-45.00000000000047
 21
-27.50000099999997
 31
0.0
  0
LINE
  5
C960
330
12D9
100
AcDbEntity
  8
AM_5
100
AcDbLine
 10
-2.500000000000412
 20
-26.50000099999997
 30
0.0
 11
-42.50000000000047
 21
-26.50000099999997
 31
0.0
  0
INSERT
  5
C961
330
12D9
100
AcDbEntity
  8
AM_5
100
AcDbBlockReference
  2
_OPEN30
 10
-0.0000000000004123
 20
-26.50000099999997
 30
0.0
 41
2.5
 42
2.5
 43
2.5
  0
INSERT
  5
C962
330
12D9
100
AcDbEntity
  8
AM_5
100
AcDbBlockReference
  2
_OPEN30
 10
-45.00000000000047
 20
-26.50000099999997
 30
0.0
 41
2.5
 42
2.5
 43
2.5
 50
180.0
  0
MTEXT
  5
C963
330
12D9
100
AcDbEntity
  8
AM_5
 62
     2
100
AcDbMText
 10
-22.50000000000043
 20
-23.40000099999997
 30
0.0
 40
3.2
 41
0.0
 71
     5
 72
     1
  1
45
  7
ASAMI
1001
ACAD
1000
MTEXTBEGIN
1070
    73
1070
     1
1070
    44
1040
1.0
1070
    74
1070
     0
1000
MTEXTEND
  0
POINT
  5
C964
330
12D9
100
AcDbEntity
  8
DEFPOINTS
 62
     0
100
AcDbPoint
 10
-0.0000000000004114
 20
-11.49999999999882
 30
0.0
  0
POINT
  5
C965
330
12D9
100
AcDbEntity
  8
DEFPOINTS
 62
     0
100
AcDbPoint
 10
-45.00000000000047
 20
-11.49999999999708
 30
0.0
  0
POINT
  5
C966
330
12D9
100
AcDbEntity
  8
DEFPOINTS
 62
     0
100
AcDbPoint
 10
-45.00000000000047
 20
-26.50000099999997
 30
0.0
  0
ENDBLK
  5
12E6
330
12D9
100
AcDbEntity
  8
0
100
AcDbBlockEnd
  0
BLOCK
  5
C107
330
C0FD
100
AcDbEntity
  8
0
100
AcDbBlockBegin
  2
*D7
 70
     1
 10
0.0
 20
0.0
 30
0.0
  3
*D7
  1

  0
LINE
  5
C839
330
C0FD
100
AcDbEntity
  8
AM_5
100
AcDbLine
 10
-114.7499999999999
 20
12.49999999999995
 30
0.0
 11
-135.6386983892744
 21
12.49999999999996
 31
0.0
  0
LINE
  5
C83A
330
C0FD
100
AcDbEntity
  8
AM_5
100
AcDbLine
 10
-114.7499999999999
 20
-12.50000000000004
 30
0.0
 11
-135.6386983892744
 21
-12.50000000000004
 31
0.0
  0
LINE
  5
C83B
330
C0FD
100
AcDbEntity
  8
AM_5
100
AcDbLine
 10
-134.6386983892744
 20
9.999999999999962
 30
0.0
 11
-134.6386983892744
 21
-10.00000000000004
 31
0.0
  0
INSERT
  5
C83C
330
C0FD
100
AcDbEntity
  8
AM_5
100
AcDbBlockReference
  2
_OPEN30
 10
-134.6386983892744
 20
12.49999999999996
 30
0.0
 41
2.5
 42
2.5
 43
2.5
 50
90.0
  0
INSERT
  5
C83D
330
C0FD
100
AcDbEntity
  8
AM_5
100
AcDbBlockReference
  2
_OPEN30
 10
-134.6386983892744
 20
-12.50000000000004
 30
0.0
 41
2.5
 42
2.5
 43
2.5
 50
270.0
  0
MTEXT
  5
C83E
330
C0FD
100
AcDbEntity
  8
AM_5
 62
     2
100
AcDbMText
 10
-137.7386983892743
 20
-0.0000000000000194
 30
0.0
 40
3.2
 41
0.0
 71
     5
 72
     1
  1
%%c25
  7
ASAMI
 11
0.0000000000000001
 21
1.0
 31
0.0
1001
ACAD
1000
MTEXTBEGIN
1070
    73
1070
     1
1070
    44
1040
1.0
1070
    74
1070
     0
1000
MTEXTEND
  0
POINT
  5
C83F
330
C0FD
100
AcDbEntity
  8
DEFPOINTS
 62
     0
100
AcDbPoint
 10
-113.7499999999999
 20
12.49999999999995
 30
0.0
  0
POINT
  5
C840
330
C0FD
100
AcDbEntity
  8
DEFPOINTS
 62
     0
100
AcDbPoint
 10
-113.7499999999999
 20
-12.50000000000004
 30
0.0
  0
POINT
  5
C841
330
C0FD
100
AcDbEntity
  8
DEFPOINTS
 62
     0
100
AcDbPoint
 10
-134.6386983892744
 20
-12.50000000000004
 30
0.0
  0
ENDBLK
  5
C108
330
C0FD
100
AcDbEntity
  8
0
100
AcDbBlockEnd
  0
BLOCK
  5
C77A
330
C770
100
AcDbEntity
  8
0
100
AcDbBlockBegin
  2
*D8
 70
     1
 10
0.0
 20
0.0
 30
0.0
  3
*D8
  1

  0
LINE
  5
C967
330
C770
100
AcDbEntity
  8
AM_5
100
AcDbLine
 10
1.0
 20
11.5
 30
0.0
 11
17.05105068025213
 21
11.49999999999999
 31
0.0
  0
LINE
  5
C968
330
C770
100
AcDbEntity
  8
AM_5
100
AcDbLine
 10
0.9999999999995456
 20
-11.49999999999868
 30
0.0
 11
17.05105068025213
 21
-11.49999999999869
 31
0.0
  0
LINE
  5
C969
330
C770
100
AcDbEntity
  8
AM_5
100
AcDbLine
 10
16.05105068025213
 20
8.999999999999994
 30
0.0
 11
16.05105068025213
 21
-8.99999999999869
 31
0.0
  0
INSERT
  5
C96A
330
C770
100
AcDbEntity
  8
AM_5
100
AcDbBlockReference
  2
_OPEN30
 10
16.05105068025213
 20
11.49999999999999
 30
0.0
 41
2.5
 42
2.5
 43
2.5
 50
90.0
  0
INSERT
  5
C96B
330
C770
100
AcDbEntity
  8
AM_5
100
AcDbBlockReference
  2
_OPEN30
 10
16.05105068025213
 20
-11.49999999999869
 30
0.0
 41
2.5
 42
2.5
 43
2.5
 50
270.0
  0
MTEXT
  5
C96C
330
C770
100
AcDbEntity
  8
AM_5
 62
     2
100
AcDbMText
 10
12.95105068025213
 20
0.0000000000006549
 30
0.0
 40
3.2
 41
0.0
 71
     5
 72
     1
  1
%%c23
  7
ASAMI
 11
0.0000000000000001
 21
1.0
 31
0.0
1001
ACAD
1000
MTEXTBEGIN
1070
    73
1070
     1
1070
    44
1040
1.0
1070
    74
1070
     0
1000
MTEXTEND
  0
POINT
  5
C96D
330
C770
100
AcDbEntity
  8
DEFPOINTS
 62
     0
100
AcDbPoint
 10
0.0
 20
11.5
 30
0.0
  0
POINT
  5
C96E
330
C770
100
AcDbEntity
  8
DEFPOINTS
 62
     0
100
AcDbPoint
 10
-0.0000000000004544
 20
-11.49999999999868
 30
0.0
  0
POINT
  5
C96F
330
C770
100
AcDbEntity
  8
DEFPOINTS
 62
     0
100
AcDbPoint
 10
16.05105068025213
 20
-11.49999999999869
 30
0.0
  0
ENDBLK
  5
C77B
330
C770
100
AcDbEntity
  8
0
100
AcDbBlockEnd
  0
ENDSEC
  0
SECTION
  2
ENTITIES
  0
LINE
  5
C2E
330
1F
100
AcDbEntity
  8
AM_7
  6
AM_ISO08W050X2
100
AcDbLine
 10
2.051049680252134
 20
0.0
 30
0.0
 11
-116.5
 21
-0.0000000000000461
 31
0.0
  0
DIMENSION
  5
10F0
330
1F
100
AcDbEntity
  8
AM_5
100
AcDbDimension
  2
*D5
 10
-0.0000000000016217
 20
-38.50000099999989
 30
0.0
 11
-57.50000000000083
 21
-35.40000099999989
 31
0.0
 70
    32
  1
<>
  3
AM_JIS
100
AcDbAlignedDimension
 13
-115.0
 23
-11.25000000000005
 33
0.0
 14
-0.0000000000016201
 24
-11.49999999999797
 34
0.0
 50
0.0000000000001132
100
AcDbRotatedDimension
1001
GENIUS_GENDTOL_13
1000

1000
h7
1000

1040
0.0
  0
DIMENSION
  5
12D8
330
1F
100
AcDbEntity
  8
AM_5
100
AcDbDimension
  2
*D6
 10
-45.00000000000047
 20
-26.50000099999997
 30
0.0
 11
-22.50000000000043
 21
-23.40000099999997
 31
0.0
 70
    32
  1
<>
  3
AM_JIS
100
AcDbAlignedDimension
 13
-0.0000000000004114
 23
-11.49999999999882
 33
0.0
 14
-45.00000000000047
 24
-11.49999999999708
 34
0.0
 50
0.0000000000001132
100
AcDbRotatedDimension
1001
GENIUS_GENDTOL_13
1000

1000
h7
1000

1040
0.0
  0
TEXT
  5
B375
330
1F
100
AcDbEntity
  8
AM_6
100
AcDbText
 10
-73.92857142857223
 20
-61.00000099999989
 30
0.0
 40
5.0
  1
SSM2230
 72
     4
 11
-57.50000000000081
 21
-58.50000099999989
 31
0.0
100
AcDbText
  0
LINE
  5
C0F5
330
1F
100
AcDbEntity
  8
AM_0
100
AcDbLine
 10
-113.7499999999999
 20
12.49999999999996
 30
0.0
 11
-67.99999999999997
 21
12.5
 31
0.0
  0
LINE
  5
C0F6
330
1F
100
AcDbEntity
  8
AM_0
100
AcDbLine
 10
-113.75
 20
-12.50000000000005
 30
0.0
 11
-67.99999999999998
 21
-12.5
 31
0.0
  0
LINE
  5
C0F8
330
1F
100
AcDbEntity
  8
AM_7
  6
AM_ISO08W050X2
100
AcDbLine
 10
-115.0
 20
-0.0000000000000461
 30
0.0
 11
-120.6386973892743
 21
-0.0000000000000461
 31
0.0
1001
GENIUS_GENODEF_13
1002
{
1000
HIER
1070
     0
1002
}
1002
{
1000
MANEDIT
1070
     0
1002
}
1002
{
1000
NOSEL
1070
     0
1002
}
1002
{
1000
BEHIND
1070
     0
1002
}
1002
{
1000
REACTOR
1002
}
1001
GENIUS_GENOBJ-N-CEN_13
1002
{
1000
OWNER
1000
GEN
1002
}
  0
LINE
  5
C0FA
330
1F
100
AcDbEntity
  8
AM_0
100
AcDbLine
 10
-115.0
 20
-11.25000000000005
 30
0.0
 11
-114.9999999999999
 21
11.24999999999995
 31
0.0
  0
LINE
  5
C0FB
330
1F
100
AcDbEntity
  8
AM_0
100
AcDbLine
 10
-113.7499999999999
 20
12.49999999999995
 30
0.0
 11
-113.7499999999999
 21
-12.50000000000009
 31
0.0
  0
DIMENSION
  5
C0FC
330
1F
100
AcDbEntity
  8
AM_5
100
AcDbDimension
  2
*D7
 10
-134.6386983892744
 20
-12.50000000000004
 30
0.0
 11
-134.6386983892744
 21
-0.0000000000000198
 31
0.0
 70
   160
  1
%%c<>
  3
AM_JIS
100
AcDbAlignedDimension
 13
-113.7499999999999
 23
12.49999999999995
 33
0.0
 14
-113.7499999999999
 24
-12.50000000000004
 34
0.0
 50
270.0
100
AcDbRotatedDimension
1001
GENIUS_GENDTOL_13
1000

1000
h7
1000

1040
0.0
  0
LINE
  5
C119
330
1F
100
AcDbEntity
  8
AM_0
100
AcDbLine
 10
-68.0
 20
-12.5
 30
0.0
 11
-67.99999999999997
 21
12.5
 31
0.0
  0
LINE
  5
C121
330
1F
100
AcDbEntity
  8
AM_0
100
AcDbLine
 10
-113.7499999999999
 20
12.49999999999996
 30
0.0
 11
-114.9999999999999
 21
11.24999999999995
 31
0.0
1001
GENIUS_GENFIL_13
1070
     0
1040
1.25
1040
1.25
1040
20.0
1040
0.0
1002
{
1002
}
1001
GENIUS_GENODEF_13
1002
{
1000
HIER
1070
     0
1002
}
1002
{
1000
MANEDIT
1070
     0
1002
}
1002
{
1000
NOSEL
1070
     0
1002
}
1002
{
1000
BEHIND
1070
     0
1002
}
1002
{
1000
REACTOR
1002
}
1001
GENIUS_GENOBJ-N-CHA_13
1002
{
1000
OWNER
1000
GEN
1002
}
  0
LINE
  5
C141
330
1F
100
AcDbEntity
  8
AM_0
100
AcDbLine
 10
-115.0
 20
-11.25000000000005
 30
0.0
 11
-113.75
 21
-12.50000000000005
 31
0.0
1001
GENIUS_GENFIL_13
1070
     0
1040
1.25
1040
1.25
1040
20.0
1040
0.0
1002
{
1002
}
1001
GENIUS_GENODEF_13
1002
{
1000
HIER
1070
     0
1002
}
1002
{
1000
MANEDIT
1070
     0
1002
}
1002
{
1000
NOSEL
1070
     0
1002
}
1002
{
1000
BEHIND
1070
     0
1002
}
1002
{
1000
REACTOR
1002
}
1001
GENIUS_GENOBJ-N-CHA_13
1002
{
1000
OWNER
1000
GEN
1002
}
  0
LINE
  5
C5B4
330
1F
100
AcDbEntity
  8
AM_0
100
AcDbLine
 10
-55.63636363636395
 20
11.50000000000002
 30
0.0
 11
-65.2525225805454
 21
11.50000000000002
 31
0.0
  0
LINE
  5
C5B5
330
1F
100
AcDbEntity
  8
AM_0
100
AcDbLine
 10
-45.00000000000047
 20
-11.49999999999983
 30
0.0
 11
-65.25252258054083
 21
-11.49999999999709
 31
0.0
  0
LINE
  5
C5E7
330
1F
100
AcDbEntity
  8
AM_0
100
AcDbLine
 10
-67.99999999999997
 20
12.5
 30
0.0
 11
-65.2525225805454
 21
11.50000000000002
 31
0.0
  0
LINE
  5
C5E8
330
1F
100
AcDbEntity
  8
AM_0
100
AcDbLine
 10
-65.2525225805454
 20
11.50000000000002
 30
0.0
 11
-65.2525225805454
 21
9.728812480283517
 31
0.0
  0
LINE
  5
C5E9
330
1F
100
AcDbEntity
  8
AM_0
100
AcDbLine
 10
-65.25252258054083
 20
-11.49999999999709
 30
0.0
 11
-68.0
 21
-12.5
 31
0.0
  0
LINE
  5
C5F0
330
1F
100
AcDbEntity
  8
AM_0
100
AcDbLine
 10
-65.25252258054084
 20
8.70235997336815
 30
0.0
 11
-65.25252258054083
 21
-11.49999999999896
 31
0.0
  0
DIMENSION
  5
C76F
330
1F
100
AcDbEntity
  8
AM_5
100
AcDbDimension
  2
*D8
 10
16.05105068025213
 20
-11.49999999999869
 30
0.0
 11
12.95105068025213
 21
0.0000000000006549
 31
0.0
 70
    32
  1
%%c<>
  3
AM_JIS
100
AcDbAlignedDimension
 13
0.0
 23
11.5
 33
0.0
 14
-0.0000000000004544
 24
-11.49999999999868
 34
0.0
 50
90.0
100
AcDbRotatedDimension
1001
GENIUS_GENDTOL_13
1000

1000
h7
1000

1040
0.0
  0
LINE
  5
C8B7
330
1F
100
AcDbEntity
  8
AM_0
100
AcDbLine
 10
0.0
 20
2.299999999999997
 30
0.0
 11
0.0
 21
11.5
 31
0.0
  0
LINE
  5
C8B8
330
1F
100
AcDbEntity
  8
AM_0
100
AcDbLine
 10
-0.2147727272727664
 20
-10.8869146625302
 30
0.0
 11
-0.2147727272727664
 21
0.7478084926114832
 31
0.0
  0
LINE
  5
C8B9
330
1F
100
AcDbEntity
  8
AM_0
100
AcDbLine
 10
0.0
 20
-11.5
 30
0.0
 11
0.0
 21
0.4599999999999725
 31
0.0
  0
LINE
  5
C8BA
330
1F
100
AcDbEntity
  8
AM_0
100
AcDbLine
 10
-0.7670454545454533
 20
-9.379906424380521
 30
0.0
 11
-0.7670454545454533
 21
-9.256017491605021
 31
0.0
  0
LINE
  5
C8BB
330
1F
100
AcDbEntity
  8
AM_0
100
AcDbLine
 10
0.0
 20
-11.5
 30
0.0
 11
-0.2147727272727664
 21
-10.8869146625302
 31
0.0
  0
LINE
  5
C8BC
330
1F
100
AcDbEntity
  8
AM_0
100
AcDbLine
 10
-0.2147727272727664
 20
-10.8869146625302
 30
0.0
 11
-0.7670454545454533
 21
-9.379906424380521
 31
0.0
  0
ELLIPSE
  5
C8BD
330
1F
100
AcDbEntity
  8
AM_0
100
AcDbEllipse
 10
29.05929908669183
 20
0.048385816929283
 30
0.0
 11
-0.0000000000000129
 21
34.8047968967971
 31
0.0
210
0.0
220
0.0
230
1.0
 40
0.8893280632411105
 41
1.489874453283511
 42
1.841418545974796
  0
LINE
  5
C8BE
330
1F
100
AcDbEntity
  8
AM_0
100
AcDbLine
 10
0.0
 20
0.4599999999999725
 30
0.0
 11
-4.820261381635731
 21
6.919442871814581
 31
0.0
  0
LINE
  5
C8BF
330
1F
100
AcDbEntity
  8
AM_0
100
AcDbLine
 10
-0.6865360618723671
 20
1.379999999999924
 30
0.0
 11
0.0
 21
2.299999999999997
 31
0.0
  0
ELLIPSE
  5
C8C1
330
1F
100
AcDbEntity
  8
AM_0
100
AcDbEllipse
 10
-45.2620058483865
 20
0.5225563845943598
 30
0.0
 11
0.0000000000000394
 21
12.02616554327367
 31
0.0
210
0.0
220
0.0
230
1.0
 40
0.8893280632411082
 41
3.117092700142883
 42
3.694936940561192
  0
LINE
  5
C8C2
330
1F
100
AcDbEntity
  8
AM_11
100
AcDbLine
 10
-45.00000000000047
 20
-11.49999999999708
 30
0.0
 11
-45.00000000000044
 21
11.50000000000002
 31
0.0
  0
LINE
  5
C8C3
330
1F
100
AcDbEntity
  8
AM_0
100
AcDbLine
 10
-23.58313670983294
 20
-8.824399555078812
 30
0.0
 11
-47.26088771537455
 21
-10.25865950867778
 31
0.0
  0
LINE
  5
C8C4
330
1F
100
AcDbEntity
  8
AM_0
100
AcDbLine
 10
-39.05131615884683
 20
9.24796086252428
 30
0.0
 11
-4.820261381635731
 21
6.919442871814581
 31
0.0
  0
LINE
  5
C8C5
330
1F
100
AcDbEntity
  8
AM_11
100
AcDbLine
 10
-45.00000000000047
 20
-11.49999999999983
 30
0.0
 11
0.0
 21
-11.5
 31
0.0
  0
ELLIPSE
  5
C8C6
330
1F
100
AcDbEntity
  8
AM_0
100
AcDbEllipse
 10
29.49929435345565
 20
185.1319804605757
 30
0.0
 11
-0.000000000027502
 21
206.1039899711148
 31
0.0
210
0.0
220
0.0
230
1.0
 40
0.8893280632411249
 41
2.592099274283069
 42
2.686557308635862
  0
LINE
  5
C8C7
330
1F
100
AcDbEntity
  8
AM_11
100
AcDbLine
 10
-0.0000000000015703
 20
11.5
 30
0.0
 11
-45.00000000000044
 21
11.50000000000002
 31
0.0
  0
ELLIPSE
  5
C8C8
330
1F
100
AcDbEntity
  8
AM_0
100
AcDbEllipse
 10
-44.77870362882485
 20
18.51966734178296
 30
0.0
 11
-0.0000000000002244
 21
28.91335700514401
 31
0.0
210
0.0
220
0.0
230
1.0
 40
0.889328063241107
 41
2.563710528490258
 42
3.044909616383492
  0
ELLIPSE
  5
C8C9
330
1F
100
AcDbEntity
  8
AM_0
100
AcDbEllipse
 10
-43.6454816806774
 20
16.12486132637543
 30
0.0
 11
-0.0000000000000644
 21
27.70550100152962
 31
0.0
210
0.0
220
0.0
230
1.0
 40
0.889328063241108
 41
2.477864006398931
 42
3.065277325949157
  0
ELLIPSE
  5
C8CA
330
1F
100
AcDbEntity
  8
AM_0
100
AcDbEllipse
 10
-8.359452937612417
 20
-27.09958071788465
 30
0.0
 11
-48.87396640866312
 21
25.52829807901564
 31
0.0
210
0.0
220
0.0
230
1.0
 40
0.5929753680480025
 41
-0.1348337238787274
 42
0.1348337238787354
  0
SPLINE
  5
C8CB
330
1F
100
AcDbEntity
  8
AM_0
100
AcDbSpline
210
0.0
220
0.0
230
1.0
 70
     8
 71
     3
 72
     8
 73
     4
 74
     0
 42
0.0000000001
 43
0.0000000001
 40
0.0
 40
0.0
 40
0.0
 40
0.0
 40
13.97258598406841
 40
13.97258598406841
 40
13.97258598406841
 40
13.97258598406841
 10
-23.58313670983294
 20
-8.824399555078812
 30
0.0
 10
-33.10989988078874
 20
-8.824399555078812
 30
0.0
 10
-42.08716735812361
 20
-4.440431095331142
 30
0.0
 10
-51.05735769168152
 20
0.0000000000001634
 30
0.0
  0
SPLINE
  5
C8CC
330
1F
100
AcDbEntity
  8
AM_0
100
AcDbSpline
210
0.0
220
0.0
230
1.0
 70
     8
 71
     3
 72
     8
 73
     4
 74
     0
 42
0.0000000001
 43
0.0000000001
 40
0.0
 40
0.0
 40
0.0
 40
0.0
 40
2.238610194515266
 40
2.238610194515266
 40
2.238610194515266
 40
2.238610194515266
 10
-23.58313670983294
 20
-8.824399555078812
 30
0.0
 10
-20.59034233172009
 20
-8.824399555078812
 30
0.0
 10
-17.6517764189104
 20
-8.391755797775175
 30
0.0
 10
-14.75062272492704
 20
-7.660631107405315
 30
0.0
  0
SPLINE
  5
C8CD
330
1F
100
AcDbEntity
  8
AM_0
100
AcDbSpline
210
0.0
220
0.0
230
1.0
 70
     8
 71
     3
 72
     8
 73
     4
 74
     0
 42
0.0000000001
 43
0.0000000001
 40
4.219358800530717
 40
4.219358800530717
 40
4.219358800530717
 40
4.219358800530717
 40
14.36247867694493
 40
14.36247867694493
 40
14.36247867694493
 40
14.36247867694493
 10
-0.7670454545453396
 20
-9.379906424379996
 30
0.0
 10
-7.406762230002598
 20
-7.500179920884257
 30
0.0
 10
-13.77180723673111
 20
-3.75008996044206
 30
0.0
 10
-20.13685224345963
 20
0.0000000000001634
 30
0.0
  0
SPLINE
  5
C8CE
330
1F
100
AcDbEntity
  8
AM_0
100
AcDbSpline
210
0.0
220
0.0
230
1.0
 70
     8
 71
     3
 72
     8
 73
     4
 74
     0
 42
0.0000000001
 43
0.0000000001
 40
1.870660592686466
 40
1.870660592686466
 40
1.870660592686466
 40
1.870660592686466
 40
14.43901837670146
 40
14.43901837670146
 40
14.43901837670146
 40
14.43901837670146
 10
-0.2147727272727096
 20
-10.88691466253006
 30
0.0
 10
-8.603109391149857
 20
-9.710371407833399
 30
0.0
 10
-16.42552753217137
 20
-4.855185703916632
 30
0.0
 10
-24.24794567319283
 20
0.0000000000001634
 30
0.0
  0
SPLINE
  5
C8CF
330
1F
100
AcDbEntity
  8
AM_0
100
AcDbSpline
210
0.0
220
0.0
230
1.0
 70
     8
 71
     3
 72
     8
 73
     4
 74
     0
 42
0.0000000001
 43
0.0000000001
 40
0.0
 40
0.0
 40
0.0
 40
0.0
 40
14.48999654934396
 40
14.48999654934396
 40
14.48999654934396
 40
14.48999654934396
 10
0.0
 20
-11.5
 30
0.0
 10
-9.879543101825426
 20
-11.5
 30
0.0
 10
-18.8488624600036
 20
-5.749999999999985
 30
0.0
 10
-27.8181818181818
 20
0.0000000000000355
 30
0.0
  0
SPLINE
  5
C8D0
330
1F
100
AcDbEntity
  8
AM_0
100
AcDbSpline
210
0.0
220
0.0
230
1.0
 70
     8
 71
     3
 72
     8
 73
     4
 74
     0
 42
0.0000000001
 43
0.0000000001
 40
0.0
 40
0.0
 40
0.0
 40
0.0
 40
5.192508374738713
 40
5.192508374738713
 40
5.192508374738713
 40
5.192508374738713
 10
-55.63636363636359
 20
11.50000000000002
 30
0.0
 10
-59.17671025550352
 20
11.50000000000002
 30
0.0
 10
-62.60016992979676
 20
10.76161019468021
 30
0.0
 10
-66.22699291130391
 20
9.36872027207805
 30
0.0
  0
SPLINE
  5
C8D1
330
1F
100
AcDbEntity
  8
AM_0
100
AcDbSpline
210
0.0
220
0.0
230
1.0
 70
     8
 71
     3
 72
     8
 73
     4
 74
     0
 42
0.0000000001
 43
0.0000000001
 40
0.7142832446738512
 40
0.7142832446738512
 40
0.7142832446738512
 40
0.7142832446738512
 40
14.36247867694493
 40
14.36247867694493
 40
14.36247867694493
 40
14.36247867694493
 10
-46.49969039823626
 20
10.5813749165959
 30
0.0
 10
-37.26597607231907
 20
10.09195618159375
 30
0.0
 10
-28.70141415788936
 20
5.045978090796964
 30
0.0
 10
-20.13685224345963
 20
0.0000000000001634
 30
0.0
  0
SPLINE
  5
C8D2
330
1F
100
AcDbEntity
  8
AM_0
100
AcDbSpline
210
0.0
220
0.0
230
1.0
 70
     8
 71
     3
 72
     8
 73
     4
 74
     0
 42
0.0000000001
 43
0.0000000001
 40
0.0
 40
0.0
 40
0.0
 40
0.0
 40
7.57842115059705
 40
7.57842115059705
 40
7.57842115059705
 40
7.57842115059705
 10
0.0
 20
11.5
 30
0.0
 10
-5.167105329952519
 20
11.5
 30
0.0
 10
-10.08522801919607
 20
9.927144760759503
 30
0.0
 10
-14.88458861706303
 20
7.604054175340237
 30
0.0
  0
SPLINE
  5
C8D3
330
1F
100
AcDbEntity
  8
AM_0
100
AcDbSpline
210
0.0
220
0.0
230
1.0
 70
     8
 71
     3
 72
     8
 73
     4
 74
     0
 42
0.0000000001
 43
0.0000000001
 40
0.0
 40
0.0
 40
0.0
 40
0.0
 40
2.586565323616739
 40
2.586565323616739
 40
2.586565323616739
 40
2.586565323616739
 10
0.0
 20
9.371816179373112
 30
0.0
 10
-1.131683278301494
 20
7.850919351147297
 30
0.0
 10
-3.074153532373671
 20
7.197789732926011
 30
0.0
 10
-4.820261381635731
 20
6.919442871814581
 30
0.0
  0
SPLINE
  5
C8D4
330
1F
100
AcDbEntity
  8
AM_0
100
AcDbSpline
210
0.0
220
0.0
230
1.0
 70
     8
 71
     3
 72
     8
 73
     4
 74
     0
 42
0.0000000001
 43
0.0000000001
 40
0.3581103616548037
 40
0.3581103616548037
 40
0.3581103616548037
 40
0.3581103616548037
 40
14.43901837670146
 40
14.43901837670146
 40
14.43901837670146
 40
14.43901837670146
 10
-51.33519940770445
 20
11.14544447256118
 30
0.0
 10
-41.77557373595307
 20
10.87897471852244
 30
0.0
 10
-33.01175970457295
 20
5.439487359261306
 30
0.0
 10
-24.24794567319283
 20
0.0000000000001634
 30
0.0
  0
SPLINE
  5
C8D5
330
1F
100
AcDbEntity
  8
AM_0
100
AcDbSpline
210
0.0
220
0.0
230
1.0
 70
     8
 71
     3
 72
     8
 73
     4
 74
     0
 42
0.0000000001
 43
0.0000000001
 40
0.0
 40
0.0
 40
0.0
 40
0.0
 40
14.48999654934395
 40
14.48999654934395
 40
14.48999654934395
 40
14.48999654934395
 10
-55.63636363636359
 20
11.50000000000029
 30
0.0
 10
-45.75682053453816
 20
11.50000000000029
 30
0.0
 10
-36.78750117635999
 20
5.750000000000298
 30
0.0
 10
-27.8181818181818
 20
0.0000000000002913
 30
0.0
  0
VIEWPORT
  5
110
330
101
100
AcDbEntity
 67
     1
  8
0
100
AcDbViewport
 10
420.5
 20
297.0
 30
0.0
 40
948.9782706766916
 41
628.452
 68
     1
 69
     1
1001
ACAD
1000
MVIEW
1002
{
1070
    16
1010
0.0
1020
0.0
1030
0.0
1010
0.0
1020
0.0
1030
1.0
1040
0.0
1040
628.452
1040
420.5
1040
297.0
1040
50.0
1040
0.0
1040
0.0
1070
     0
1070
   100
1070
     1
1070
     1
1070
     0
1070
     0
1070
     0
1070
     0
1040
0.0
1040
0.0
1040
0.0
1040
10.0
1040
10.0
1040
10.0
1040
10.0
1070
     0
1002
{
1002
}
1002
}
  0
ENDSEC
  0
SECTION
  2
OBJECTS
  0
DICTIONARY
  5
C
330
0
100
AcDbDictionary
  3
ACAD_GROUP
350
D
  3
ACAD_LAYOUT
350
1A
  3
ACAD_MLINESTYLE
350
17
  3
ACAD_PLOTSETTINGS
350
19
  3
ACAD_PLOTSTYLENAME
350
E
  3
ACDBVARIABLEDICTIONARY
350
34
  3
ACMDICTIONARY
350
43
  3
AMG
350
2B
  3
AMGSNAPSETTINGS
350
6E
  3
ASE_INDEX_DICTIONARY
350
151A
  3
DWGPROPS
350
CB5C
  3
ACDBHEADERROUNDTRIPXREC
350
CB68
  0
DICTIONARY
  5
74
330
1F
100
AcDbDictionary
280
     1
  3
ACAD_INDEX
360
CB5E
  3
ACAD_LAYOUTSELFREF
360
CB8B
  0
DICTIONARY
  5
CB90
330
101
100
AcDbDictionary
280
     1
  3
ACAD_LAYOUTSELFREF
360
CB91
  0
DICTIONARY
  5
D
102
{ACAD_REACTORS
330
C
102
}
330
C
100
AcDbDictionary
  0
DICTIONARY
  5
1A
102
{ACAD_REACTORS
330
C
102
}
330
C
100
AcDbDictionary
  0
DICTIONARY
  5
17
102
{ACAD_REACTORS
330
C
102
}
330
C
100
AcDbDictionary
  3
STANDARD
350
18
  0
DICTIONARY
  5
19
102
{ACAD_REACTORS
330
C
102
}
330
C
100
AcDbDictionary
  0
ACDBDICTIONARYWDFLT
  5
E
102
{ACAD_REACTORS
330
C
102
}
330
C
100
AcDbDictionary
281
     1
  3
Normal
350
F
100
AcDbDictionaryWithDefault
340
F
  0
DICTIONARY
  5
34
102
{ACAD_REACTORS
330
C
102
}
330
C
100
AcDbDictionary
  3
INDEXCTL
350
35
  3
SORTENTS
350
B5E
  0
DICTIONARY
  5
43
102
{ACAD_REACTORS
330
C
102
}
330
C
100
AcDbDictionary
  3
ACMSTDDICTIONARY
350
260
  0
DICTIONARY
  5
2B
102
{ACAD_REACTORS
330
C
102
}
330
C
100
AcDbDictionary
  3
ACMGSETTINGS
350
2C
  0
DICTIONARY
  5
6E
102
{ACAD_REACTORS
330
C
102
}
330
C
100
AcDbDictionary
  0
DICTIONARY
  5
151A
102
{ACAD_REACTORS
330
C
102
}
330
C
100
AcDbDictionary
  3
ASEBLOCKHIERARCHYINDEXRECORD
350
151C
1001
DCO15
1040
1471862535.906
  0
XRECORD
  5
CB5C
102
{ACAD_REACTORS
330
C
102
}
330
C
100
AcDbXrecord
  1
DWGPROPS COOKIE
  2

  3

  4

  6

  7

  8

  9

300
AmdtFileType=82
301
=
302
=
303
=
304
=
305
=
306
=
307
=
308
=
309
=
 40
0.5174328472222224
 41
2452838.430434386
 42
2453045.604589525
  1

 90
        1
  0
DICTIONARY
  5
CB68
102
{ACAD_REACTORS
330
C
102
}
330
C
100
AcDbDictionary
  3
TSTACKALIGN
350
CB69
  3
TSTACKSIZE
350
CB6A
  3
HYPERLINKBASE
350
CB6B
  3
STYLESHEET
350
CB6C
  3
LAYOUTDICT
350
CB6D
  3
PLOTSETDICT
350
CB6E
  3
PLOTSTYLNAMDICT
350
CB6F
  3
LWETCUNION
350
CB70
  3
INSUNITS
350
CB71
  3
CEPSNTYPE
350
CB72
  3
FINGERPRINTGUID
350
CB73
  3
VERSIONGUID
350
CB74
  3
PSVPSCALE
350
CB75
  3
DIMSTYLEDATA
350
CB76
  3
PUCSORTHOREF
350
CB77
  3
PUCSORTHOVIEW
350
CB78
  3
PUCSBASE
350
CB79
  3
PUCSORGTOP
350
CB7A
  3
PUCSORGBOTTOM
350
CB7B
  3
PUCSORGLEFT
350
CB7C
  3
PUCSORGRIGHT
350
CB7D
  3
PUCSORGFRONT
350
CB7E
  3
PUCSORGBACK
350
CB7F
  3
UCSORTHOREF
350
CB80
  3
UCSORTHOVIEW
350
CB81
  3
UCSBASE
350
CB82
  3
UCSORGTOP
350
CB83
  3
UCSORGBOTTOM
350
CB84
  3
UCSORGLEFT
350
CB85
  3
UCSORGRIGHT
350
CB86
  3
UCSORGFRONT
350
CB87
  3
UCSORGBACK
350
CB88
  0
DICTIONARY
  5
CB5E
102
{ACAD_REACTORS
330
74
102
}
330
74
100
AcDbDictionary
  3
*A1
350
CB5F
  0
XRECORD
  5
CB8B
102
{ACAD_REACTORS
330
74
102
}
330
74
100
AcDbXrecord
340
1F
  0
XRECORD
  5
CB91
102
{ACAD_REACTORS
330
CB90
102
}
330
CB90
100
AcDbXrecord
340
101
  0
MLINESTYLE
  5
18
102
{ACAD_REACTORS
330
17
102
}
330
17
100
AcDbMlineStyle
  2
STANDARD
 70
     0
  3

 62
   256
 51
90.0
 52
90.0
 71
     2
 49
0.5
 62
   256
  6
BYLAYER
 49
-0.5
 62
   256
  6
BYLAYER
  0
ACDBPLACEHOLDER
  5
F
102
{ACAD_REACTORS
330
E
102
}
330
E
100
AcDbPlaceHolder
280
     0
  0
DICTIONARYVAR
  5
35
102
{ACAD_REACTORS
330
34
102
}
330
34
100
DictionaryVariables
280
     0
  1
1
  0
DICTIONARYVAR
  5
B5E
102
{ACAD_REACTORS
330
34
102
}
330
34
100
DictionaryVariables
280
     0
  1
96
  0
DICTIONARY
  5
260
102
{ACAD_REACTORS
330
43
102
}
330
43
100
AcDbDictionary
  0
DICTIONARY
  5
2C
102
{ACAD_REACTORS
330
2B
102
}
330
2B
100
AcDbDictionary
  3
DWGSETTINGS
350
2D
  0
XRECORD
  5
151C
102
{ACAD_REACTORS
330
151A
102
}
330
151A
100
AcDbXrecord
330
0
330
0
330
0
330
0
330
0
330
0
330
0
330
0
  0
XRECORD
  5
CB69
102
{ACAD_REACTORS
330
CB68
102
}
330
CB68
100
AcDbXrecord
 90
        1
  0
XRECORD
  5
CB6A
102
{ACAD_REACTORS
330
CB68
102
}
330
CB68
100
AcDbXrecord
 90
       70
  0
XRECORD
  5
CB6B
102
{ACAD_REACTORS
330
CB68
102
}
330
CB68
100
AcDbXrecord
  1

  0
XRECORD
  5
CB6C
102
{ACAD_REACTORS
330
CB68
102
}
330
CB68
100
AcDbXrecord
  1
ASAMI.ctb
  0
XRECORD
  5
CB6D
102
{ACAD_REACTORS
330
CB68
102
}
330
CB68
100
AcDbXrecord
340
1A
  0
XRECORD
  5
CB6E
102
{ACAD_REACTORS
330
CB68
102
}
330
CB68
100
AcDbXrecord
340
19
  0
XRECORD
  5
CB6F
102
{ACAD_REACTORS
330
CB68
102
}
330
CB68
100
AcDbXrecord
340
E
  0
XRECORD
  5
CB70
102
{ACAD_REACTORS
330
CB68
102
}
330
CB68
100
AcDbXrecord
 90
    10781
  0
XRECORD
  5
CB71
102
{ACAD_REACTORS
330
CB68
102
}
330
CB68
100
AcDbXrecord
 90
        4
  0
XRECORD
  5
CB72
102
{ACAD_REACTORS
330
CB68
102
}
330
CB68
100
AcDbXrecord
 90
        0
  0
XRECORD
  5
CB73
102
{ACAD_REACTORS
330
CB68
102
}
330
CB68
100
AcDbXrecord
  1
{AFB28963-8C59-40AE-9337-C84526B81ACE}
  0
XRECORD
  5
CB74
102
{ACAD_REACTORS
330
CB68
102
}
330
CB68
100
AcDbXrecord
  1
{709B86BF-5C38-4654-8E7E-2796C00F3CC9}
  0
XRECORD
  5
CB75
102
{ACAD_REACTORS
330
CB68
102
}
330
CB68
100
AcDbXrecord
 40
0.0
  0
XRECORD
  5
CB76
102
{ACAD_REACTORS
330
CB68
102
}
330
CB68
100
AcDbXrecord
1000
DSTYLE
1002
{
1070
    79
 70
     2
1070
   341
340
59
1070
   342
340
59
1070
   371
 70
    -1
1070
   372
 70
    -1
1002
}
  0
XRECORD
  5
CB77
102
{ACAD_REACTORS
330
CB68
102
}
330
CB68
100
AcDbXrecord
340
0
  0
XRECORD
  5
CB78
102
{ACAD_REACTORS
330
CB68
102
}
330
CB68
100
AcDbXrecord
 70
     0
  0
XRECORD
  5
CB79
102
{ACAD_REACTORS
330
CB68
102
}
330
CB68
100
AcDbXrecord
340
0
  0
XRECORD
  5
CB7A
102
{ACAD_REACTORS
330
CB68
102
}
330
CB68
100
AcDbXrecord
 10
0.0
 20
0.0
 30
0.0
  0
XRECORD
  5
CB7B
102
{ACAD_REACTORS
330
CB68
102
}
330
CB68
100
AcDbXrecord
 10
0.0
 20
0.0
 30
0.0
  0
XRECORD
  5
CB7C
102
{ACAD_REACTORS
330
CB68
102
}
330
CB68
100
AcDbXrecord
 10
0.0
 20
0.0
 30
0.0
  0
XRECORD
  5
CB7D
102
{ACAD_REACTORS
330
CB68
102
}
330
CB68
100
AcDbXrecord
 10
0.0
 20
0.0
 30
0.0
  0
XRECORD
  5
CB7E
102
{ACAD_REACTORS
330
CB68
102
}
330
CB68
100
AcDbXrecord
 10
0.0
 20
0.0
 30
0.0
  0
XRECORD
  5
CB7F
102
{ACAD_REACTORS
330
CB68
102
}
330
CB68
100
AcDbXrecord
 10
0.0
 20
0.0
 30
0.0
  0
XRECORD
  5
CB80
102
{ACAD_REACTORS
330
CB68
102
}
330
CB68
100
AcDbXrecord
340
0
  0
XRECORD
  5
CB81
102
{ACAD_REACTORS
330
CB68
102
}
330
CB68
100
AcDbXrecord
 70
     0
  0
XRECORD
  5
CB82
102
{ACAD_REACTORS
330
CB68
102
}
330
CB68
100
AcDbXrecord
340
0
  0
XRECORD
  5
CB83
102
{ACAD_REACTORS
330
CB68
102
}
330
CB68
100
AcDbXrecord
 10
0.0
 20
0.0
 30
0.0
  0
XRECORD
  5
CB84
102
{ACAD_REACTORS
330
CB68
102
}
330
CB68
100
AcDbXrecord
 10
0.0
 20
0.0
 30
0.0
  0
XRECORD
  5
CB85
102
{ACAD_REACTORS
330
CB68
102
}
330
CB68
100
AcDbXrecord
 10
0.0
 20
0.0
 30
0.0
  0
XRECORD
  5
CB86
102
{ACAD_REACTORS
330
CB68
102
}
330
CB68
100
AcDbXrecord
 10
0.0
 20
0.0
 30
0.0
  0
XRECORD
  5
CB87
102
{ACAD_REACTORS
330
CB68
102
}
330
CB68
100
AcDbXrecord
 10
0.0
 20
0.0
 30
0.0
  0
XRECORD
  5
CB88
102
{ACAD_REACTORS
330
CB68
102
}
330
CB68
100
AcDbXrecord
 10
0.0
 20
0.0
 30
0.0
  0
LAYER_INDEX
  5
CB5F
102
{ACAD_REACTORS
330
CB5E
102
}
330
CB5E
100
AcDbIndex
 40
2453151.845219606
100
AcDbLayerIndex
  8
0
360
CB60
 90
        0
  8
AM_0
360
CB61
 90
       40
  8
AM_11
360
CB62
 90
        3
  8
AM_7
360
CB63
 90
        2
  8
AM_5
360
CB64
 90
        4
  8
Defpoints
360
CB65
 90
        0
  8
AM_6
360
CB66
 90
        1
  0
XRECORD
  5
2D
102
{ACAD_REACTORS
330
2C
102
}
330
2C
100
AcDbXrecord
  1
VERSION
140
15.0
  1
PRODUCT
  2
AutoCAD Mechanical 2000
  0
IDBUFFER
  5
CB60
330
0
100
AcDbIdBuffer
  0
IDBUFFER
  5
CB61
330
0
100
AcDbIdBuffer
330
C8BA
330
C8BB
330
C8BC
330
C8BD
330
C8BE
330
C8BF
330
C8C1
330
C8C3
330
C8C4
330
C8C6
330
C8C8
330
C8C9
330
C8CA
330
C8CB
330
C8CC
330
C8CD
330
C8CE
330
C8CF
330
C8D0
330
C8D1
330
C8D2
330
C8D3
330
C8D4
330
C8D5
330
C0F5
330
C0F6
330
C0FA
330
C0FB
330
C119
330
C121
330
C141
330
C5B4
330
C5B5
330
C5E7
330
C5E8
330
C5E9
330
C5F0
330
C8B7
330
C8B8
330
C8B9
  0
IDBUFFER
  5
CB62
330
0
100
AcDbIdBuffer
330
C8C2
330
C8C5
330
C8C7
  0
IDBUFFER
  5
CB63
330
0
100
AcDbIdBuffer
330
C2E
330
C0F8
  0
IDBUFFER
  5
CB64
330
0
100
AcDbIdBuffer
330
10F0
330
12D8
330
C0FC
330
C76F
  0
IDBUFFER
  5
CB65
330
0
100
AcDbIdBuffer
  0
IDBUFFER
  5
CB66
330
0
100
AcDbIdBuffer
330
B375
  0
ENDSEC
  0
EOF
