  0
SECTION
  2
HEADER
  9
$ACADVER
  1
AC1014
  9
$ACADMAINTVER
 70
     9
  9
$DWGCODEPAGE
  3
ANSI_932
  9
$INSBASE
 10
0.0
 20
0.0
 30
0.0
  9
$EXTMIN
 10
-51.41123869649856
 20
-26.25000100000021
 30
-0.00000001
  9
$EXTMAX
 10
8.629789688840503
 20
3.249999999999997
 30
0.00000001
  9
$LIMMIN
 10
-55.21293687177774
 20
-30.39286754296972
  9
$LIMMAX
 10
14.31831916953609
 20
14.21355299160433
  9
$ORTHOMODE
 70
     0
  9
$REGENMODE
 70
     1
  9
$FILLMODE
 70
     1
  9
$QTEXTMODE
 70
     0
  9
$MIRRTEXT
 70
     0
  9
$DRAGMODE
 70
     2
  9
$LTSCALE
 40
1.0
  9
$OSMODE
 70
    55
  9
$ATTMODE
 70
     1
  9
$TEXTSIZE
 40
2.5
  9
$TRACEWID
 40
1.0
  9
$TEXTSTYLE
  7
STANDARD
  9
$CLAYER
  8
AM_0
  9
$CELTYPE
  6
BYLAYER
  9
$CECOLOR
 62
   256
  9
$CELTSCALE
 40
1.0
  9
$DELOBJ
 70
     1
  9
$DISPSILH
 70
     0
  9
$DIMSCALE
 40
0.5
  9
$DIMASZ
 40
2.5
  9
$DIMEXO
 40
1.0
  9
$DIMDLI
 40
12.0
  9
$DIMRND
 40
0.0
  9
$DIMDLE
 40
0.0
  9
$DIMEXE
 40
1.0
  9
$DIMTP
 40
0.1
  9
$DIMTM
 40
0.1
  9
$DIMTXT
 40
3.2
  9
$DIMCEN
 40
0.0
  9
$DIMTSZ
 40
0.0
  9
$DIMTOL
 70
     0
  9
$DIMLIM
 70
     0
  9
$DIMTIH
 70
     0
  9
$DIMTOH
 70
     0
  9
$DIMSE1
 70
     0
  9
$DIMSE2
 70
     0
  9
$DIMTAD
 70
     3
  9
$DIMZIN
 70
     8
  9
$DIMBLK
  1
OPEN30
  9
$DIMASO
 70
     1
  9
$DIMSHO
 70
     1
  9
$DIMPOST
  1

  9
$DIMAPOST
  1
"
  9
$DIMALT
 70
     0
  9
$DIMALTD
 70
     2
  9
$DIMALTF
 40
0.0393701
  9
$DIMLFAC
 40
1.0
  9
$DIMTOFL
 70
     1
  9
$DIMTVP
 40
0.0
  9
$DIMTIX
 70
     0
  9
$DIMSOXD
 70
     0
  9
$DIMSAH
 70
     0
  9
$DIMBLK1
  1

  9
$DIMBLK2
  1

  9
$DIMSTYLE
  2
AM_JIS
  9
$DIMCLRD
 70
   256
  9
$DIMCLRE
 70
   256
  9
$DIMCLRT
 70
     2
  9
$DIMTFAC
 40
0.71
  9
$DIMGAP
 40
1.5
  9
$DIMJUST
 70
     0
  9
$DIMSD1
 70
     0
  9
$DIMSD2
 70
     0
  9
$DIMTOLJ
 70
     0
  9
$DIMTZIN
 70
     0
  9
$DIMALTZ
 70
     0
  9
$DIMALTTZ
 70
     0
  9
$DIMFIT
 70
     3
  9
$DIMUPT
 70
     0
  9
$DIMUNIT
 70
     2
  9
$DIMDEC
 70
     3
  9
$DIMTDEC
 70
     3
  9
$DIMALTU
 70
     2
  9
$DIMALTTD
 70
     2
  9
$DIMTXSTY
  7
ASAMI
  9
$DIMAUNIT
 70
     0
  9
$LUNITS
 70
     2
  9
$LUPREC
 70
     2
  9
$SKETCHINC
 40
1.0
  9
$FILLETRAD
 40
2.5
  9
$AUNITS
 70
     0
  9
$AUPREC
 70
     0
  9
$MENU
  1
.
  9
$ELEVATION
 40
0.0
  9
$PELEVATION
 40
0.0
  9
$THICKNESS
 40
0.0
  9
$LIMCHECK
 70
     0
  9
$BLIPMODE
 70
     0
  9
$CHAMFERA
 40
0.25
  9
$CHAMFERB
 40
0.25
  9
$CHAMFERC
 40
20.0
  9
$CHAMFERD
 40
0.0
  9
$SKPOLY
 70
     0
  9
$TDCREATE
 40
2452836.771637361
  9
$TDUPDATE
 40
2453151.794783750
  9
$TDINDWG
 40
0.0538442130
  9
$TDUSRTIMER
 40
0.0538442130
  9
$USRTIMER
 70
     1
  9
$ANGBASE
 50
0.0
  9
$ANGDIR
 70
     0
  9
$PDMODE
 70
     0
  9
$PDSIZE
 40
0.0
  9
$PLINEWID
 40
0.0
  9
$COORDS
 70
     1
  9
$SPLFRAME
 70
     0
  9
$SPLINETYPE
 70
     6
  9
$SPLINESEGS
 70
     8
  9
$ATTDIA
 70
     1
  9
$ATTREQ
 70
     1
  9
$HANDLING
 70
 12289
  9
$HANDSEED
  5
1A9C
  9
$SURFTAB1
 70
     6
  9
$SURFTAB2
 70
     6
  9
$SURFTYPE
 70
     6
  9
$SURFU
 70
     6
  9
$SURFV
 70
     6
  9
$UCSNAME
  2

  9
$UCSORG
 10
0.0
 20
0.0
 30
0.0
  9
$UCSXDIR
 10
1.0
 20
0.0
 30
0.0
  9
$UCSYDIR
 10
0.0
 20
1.0
 30
0.0
  9
$PUCSNAME
  2

  9
$PUCSORG
 10
0.0
 20
0.0
 30
0.0
  9
$PUCSXDIR
 10
1.0
 20
0.0
 30
0.0
  9
$PUCSYDIR
 10
0.0
 20
1.0
 30
0.0
  9
$USERI1
 70
     0
  9
$USERI2
 70
     0
  9
$USERI3
 70
     0
  9
$USERI4
 70
     0
  9
$USERI5
 70
     0
  9
$USERR1
 40
0.0
  9
$USERR2
 40
0.0
  9
$USERR3
 40
0.0
  9
$USERR4
 40
0.0
  9
$USERR5
 40
0.0
  9
$WORLDVIEW
 70
     1
  9
$SHADEDGE
 70
     3
  9
$SHADEDIF
 70
    70
  9
$TILEMODE
 70
     1
  9
$MAXACTVP
 70
    64
  9
$PINSBASE
 10
0.0
 20
0.0
 30
0.0
  9
$PLIMCHECK
 70
     0
  9
$PEXTMIN
 10
1.000000000000000E+20
 20
1.000000000000000E+20
 30
1.000000000000000E+20
  9
$PEXTMAX
 10
-1.000000000000000E+20
 20
-1.000000000000000E+20
 30
-1.000000000000000E+20
  9
$PLIMMIN
 10
0.0
 20
0.0
  9
$PLIMMAX
 10
841.0
 20
594.0
  9
$UNITMODE
 70
     0
  9
$VISRETAIN
 70
     1
  9
$PLINEGEN
 70
     0
  9
$PSLTSCALE
 70
     0
  9
$TREEDEPTH
 70
  3020
  9
$PICKSTYLE
 70
     0
  9
$CMLSTYLE
  2
STANDARD
  9
$CMLJUST
 70
     0
  9
$CMLSCALE
 40
20.0
  9
$PROXYGRAPHICS
 70
     1
  9
$MEASUREMENT
 70
     1
  0
ENDSEC
  0
SECTION
  2
CLASSES
  0
CLASS
  1
ACDBDICTIONARYWDFLT
  2
AcDbDictionaryWithDefault
  3
AutoCAD 2000
 90
        0
280
     0
281
     0
  0
CLASS
  1
ACDBPLACEHOLDER
  2
AcDbPlaceHolder
  3
AutoCAD 2000
 90
        0
280
     0
281
     0
  0
CLASS
  1
LAYOUT
  2
AcDbLayout
  3
AutoCAD 2000
 90
        0
280
     0
281
     0
  0
CLASS
  1
AMGSETTINGSOBJ
  2
AmgSettingsObj
  3
"AcadM|Product Description: AutoCAD Mechanical 2000|Company: Autodesk"
 90
        0
280
     0
281
     0
  0
CLASS
  1
ACME_DOCUMENT
  2
AcMeDbDoc
  3
AcMeServices
 90
        0
280
     0
281
     0
  0
CLASS
  1
ACMESCOPE
  2
AcMeScope
  3
AcMeServices
 90
        0
280
     0
281
     0
  0
CLASS
  1
ACMECOMMANDHISTORY
  2
AcMeCommandHistory
  3
AcMeServices
 90
        0
280
     0
281
     0
  0
CLASS
  1
DICTIONARYVAR
  2
AcDbDictionaryVar
  3
AutoCAD 2000
 90
        0
280
     0
281
     0
  0
CLASS
  1
ACIMSYSVARMAN
  2
AcImSysVarManager
  3
AcMeServices
 90
        0
280
     0
281
     0
  0
CLASS
  1
ACIMREALSYSVAR
  2
AcImRealSysVar
  3
AcMeServices
 90
        0
280
     0
281
     0
  0
CLASS
  1
ACIMINTSYSVAR
  2
AcImIntSysVar
  3
AcMeServices
 90
        0
280
     0
281
     0
  0
CLASS
  1
ACMEDRAWINGMAN
  2
AcMeDrawingMan
  3
AcMeServices
 90
        0
280
     0
281
     0
  0
CLASS
  1
ACMEVIEW
  2
AcMeView
  3
AcMeServices
 90
        0
280
     0
281
     0
  0
CLASS
  1
ACDBENTITYCACHE
  2
AcMeEntityCache
  3
AcMeServices
 90
        0
280
     0
281
     0
  0
CLASS
  1
GSMANAGER
  2
AcMeGSManager
  3
AcMeServices
 90
        0
280
     0
281
     0
  0
CLASS
  1
AmdtInternalReactor
  2
AmdtInternalReactor
  3
AcMeServices
 90
        0
280
     0
281
     0
  0
CLASS
  1
ACMESTATEMGR
  2
AcMeStateMgr
  3
AcMeServices
 90
        0
280
     0
281
     0
  0
CLASS
  1
ACME_DATABASE
  2
AcMeDbDatabase
  3
AcMeServices
 90
        0
280
     0
281
     0
  0
CLASS
  1
ACRFINSADJUSTERMGR
  2
AcRfInsAdjusterMgr
  3
AcMeServices
 90
        0
280
     0
281
     0
  0
CLASS
  1
ACMDATADICTIONARY
  2
AcmDataDictionary
  3
"AcmSymBB|Product Description: AutoCAD Mechanical 2000|Company: Autodesk"
 90
        0
280
     0
281
     0
  0
CLASS
  1
ACMDATAENTRYBLOCK
  2
AcmDataEntryBlock
  3
"AcmSymBB|Product Description: AutoCAD Mechanical 2000|Company: Autodesk"
 90
        0
280
     0
281
     0
  0
CLASS
  1
AMGOBJPROPCFG
  2
AmgObjPropCfg
  3
"AmgLay|Product Description: AutoCAD Mechanical 2000|Company: Autodesk"
 90
        1
280
     0
281
     0
  0
CLASS
  1
ACAMGFILTERDAT
  2
AcAmgFilterDat
  3
"AcadM|Product Description: AutoCAD Mechanical 2000|Company: Autodesk"
 90
        0
280
     0
281
     0
  0
CLASS
  1
LAYER_INDEX
  2
AcDbLayerIndex
  3
AutoCAD 2000
 90
        0
280
     0
281
     0
  0
CLASS
  1
IDBUFFER
  2
AcDbIdBuffer
  3
AutoCAD 2000
 90
        0
280
     0
281
     0
  0
CLASS
  1
ACIMSTRSYSVAR
  2
AcImStrSysVar
  3
AcMeServices
 90
        0
280
     0
281
     0
  0
CLASS
  1
ACMSTANDARDJIS
  2
AcmStandardJIS
  3
"AcmSymBB|Product Description: AutoCAD Mechanical 2000|Company: Autodesk"
 90
        0
280
     0
281
     0
  0
CLASS
  1
ACMSURFSTANDARDJIS
  2
AcmSurfTextStdJIS
  3
"AcmSymBB|Product Description: AutoCAD Mechanical 2000|Company: Autodesk"
 90
        0
280
     0
281
     0
  0
CLASS
  1
ACMFCFSTANDARDJIS
  2
AcmFCFStdJIS
  3
"AcmSymBB|Product Description: AutoCAD Mechanical 2000|Company: Autodesk"
 90
        0
280
     0
281
     0
  0
CLASS
  1
ACMWELDSTANDARDJIS
  2
AcmWeldingStdJIS
  3
"AcmSymBB|Product Description: AutoCAD Mechanical 2000|Company: Autodesk"
 90
        0
280
     0
281
     0
  0
CLASS
  1
ACMIDSTANDARDJIS
  2
AcmIdStdJIS
  3
"AcmSymBB|Product Description: AutoCAD Mechanical 2000|Company: Autodesk"
 90
        0
280
     0
281
     0
  0
CLASS
  1
ACMDATUMSTANDARDJIS
  2
AcmDatumStdJIS
  3
"AcmSymBB|Product Description: AutoCAD Mechanical 2000|Company: Autodesk"
 90
        0
280
     0
281
     0
  0
CLASS
  1
ACMBOMSTANDARDJIS
  2
AcmBOMStdJIS
  3
"AcmSymBB|Product Description: AutoCAD Mechanical 2000|Company: Autodesk"
 90
        0
280
     0
281
     0
  0
CLASS
  1
ACMSTANDARDANSI
  2
AcmStandardANSI
  3
"AcmSymBB|Product Description: AutoCAD Mechanical 2000|Company: Autodesk"
 90
        0
280
     0
281
     0
  0
CLASS
  1
ACMSURFSTANDARDANSI
  2
AcmSurfTextStdANSI
  3
"AcmSymBB|Product Description: AutoCAD Mechanical 2000|Company: Autodesk"
 90
        0
280
     0
281
     0
  0
CLASS
  1
ACMFCFSTANDARDANSI
  2
AcmFCFStdANSI
  3
"AcmSymBB|Product Description: AutoCAD Mechanical 2000|Company: Autodesk"
 90
        0
280
     0
281
     0
  0
CLASS
  1
ACMWELDSTANDARDANSI
  2
AcmWeldingStdANSI
  3
"AcmSymBB|Product Description: AutoCAD Mechanical 2000|Company: Autodesk"
 90
        0
280
     0
281
     0
  0
CLASS
  1
ACMIDSTANDARDANSI
  2
AcmIdStdANSI
  3
"AcmSymBB|Product Description: AutoCAD Mechanical 2000|Company: Autodesk"
 90
        0
280
     0
281
     0
  0
CLASS
  1
ACMDATUMSTANDARDANSI
  2
AcmDatumStdANSI
  3
"AcmSymBB|Product Description: AutoCAD Mechanical 2000|Company: Autodesk"
 90
        0
280
     0
281
     0
  0
CLASS
  1
ACMBOMSTANDARDANSI
  2
AcmBOMStdANSI
  3
"AcmSymBB|Product Description: AutoCAD Mechanical 2000|Company: Autodesk"
 90
        0
280
     0
281
     0
  0
CLASS
  1
ACMSTANDARDBSI
  2
AcmStandardBSI
  3
"AcmSymBB|Product Description: AutoCAD Mechanical 2000|Company: Autodesk"
 90
        0
280
     0
281
     0
  0
CLASS
  1
ACMSURFSTANDARDBSI
  2
AcmSurfTextStdBSI
  3
"AcmSymBB|Product Description: AutoCAD Mechanical 2000|Company: Autodesk"
 90
        0
280
     0
281
     0
  0
CLASS
  1
ACMFCFSTANDARDBSI
  2
AcmFCFStdBSI
  3
"AcmSymBB|Product Description: AutoCAD Mechanical 2000|Company: Autodesk"
 90
        0
280
     0
281
     0
  0
CLASS
  1
ACMWELDSTANDARDBSI
  2
AcmWeldingStdBSI
  3
"AcmSymBB|Product Description: AutoCAD Mechanical 2000|Company: Autodesk"
 90
        0
280
     0
281
     0
  0
CLASS
  1
ACMIDSTANDARDBSI
  2
AcmIdStdBSI
  3
"AcmSymBB|Product Description: AutoCAD Mechanical 2000|Company: Autodesk"
 90
        0
280
     0
281
     0
  0
CLASS
  1
ACMDATUMSTANDARDBSI
  2
AcmDatumStdBSI
  3
"AcmSymBB|Product Description: AutoCAD Mechanical 2000|Company: Autodesk"
 90
        0
280
     0
281
     0
  0
CLASS
  1
ACMBOMSTANDARDBSI
  2
AcmBOMStdBSI
  3
"AcmSymBB|Product Description: AutoCAD Mechanical 2000|Company: Autodesk"
 90
        0
280
     0
281
     0
  0
CLASS
  1
LONG_TRANSACTION
  2
AcDbLongTransaction
  3
AutoCAD 2000
 90
        0
280
     0
281
     0
  0
CLASS
  1
LWPOLYLINE
  2
AcDbPolyline
  3
AutoCAD 2000
 90
        0
280
     0
281
     1
  0
CLASS
  1
HATCH
  2
AcDbHatch
  3
AutoCAD 2000
 90
        0
280
     0
281
     1
  0
CLASS
  1
XRECORD
  2
AcDbXrecord
  3
AutoCAD 2000
 90
        0
280
     0
281
     0
  0
ENDSEC
  0
SECTION
  2
TABLES
  0
TABLE
  2
VPORT
  5
8
330
0
100
AcDbSymbolTable
 70
     3
  0
VPORT
  5
1A71
330
8
100
AcDbSymbolTableRecord
100
AcDbViewportTableRecord
  2
*ACTIVE
 70
     0
 10
0.0
 20
0.0
 11
1.0
 21
1.0
 12
-16.0158070819673
 22
-3.351527234588061
 13
0.0
 23
0.0
 14
2.5
 24
2.5
 15
10.0
 25
10.0
 16
0.0
 26
0.0
 36
1.0
 17
0.0
 27
0.0
 37
0.0
 40
57.54567245635058
 41
1.56570841889117
 42
50.0
 43
0.0
 44
0.0
 50
0.0
 51
0.0
 71
     0
 72
   100
 73
     1
 74
     3
 75
     0
 76
     0
 77
     0
 78
     0
  0
ENDTAB
  0
TABLE
  2
LTYPE
  5
5
330
0
100
AcDbSymbolTable
 70
    10
  0
LTYPE
  5
14
330
5
100
AcDbSymbolTableRecord
100
AcDbLinetypeTableRecord
  2
BYBLOCK
 70
     0
  3

 72
    65
 73
     0
 40
0.0
  0
LTYPE
  5
15
330
5
100
AcDbSymbolTableRecord
100
AcDbLinetypeTableRecord
  2
BYLAYER
 70
     0
  3

 72
    65
 73
     0
 40
0.0
  0
LTYPE
  5
16
330
5
100
AcDbSymbolTableRecord
100
AcDbLinetypeTableRecord
  2
CONTINUOUS
 70
     0
  3
Solid line
 72
    65
 73
     0
 40
0.0
  0
LTYPE
  5
4B
330
5
100
AcDbSymbolTableRecord
100
AcDbLinetypeTableRecord
  2
AM_ISO02W050
 70
     0
  3
__ __ __ __ __ __ __ __ __ __ __ __ __ __ __
 72
    65
 73
     2
 40
7.5
 49
6.0
 74
     0
 49
-1.5
 74
     0
  0
LTYPE
  5
4C
330
5
100
AcDbSymbolTableRecord
100
AcDbLinetypeTableRecord
  2
AM_ISO08W050
 70
     0
  3
____ . ____ . ____ . ____ . ____ . ____ . ____
 72
    65
 73
     4
 40
18.0
 49
12.0
 74
     0
 49
-1.5
 74
     0
 49
3.0
 74
     0
 49
-1.5
 74
     0
  0
LTYPE
  5
4D
330
5
100
AcDbSymbolTableRecord
100
AcDbLinetypeTableRecord
  2
AM_ISO09W050
 70
     0
  3
_____ . . _____ . . _____ . . ____ .. ____
 72
    65
 73
     6
 40
22.5
 49
12.0
 74
     0
 49
-1.5
 74
     0
 49
3.0
 74
     0
 49
-1.5
 74
     0
 49
3.0
 74
     0
 49
-1.5
 74
     0
  0
LTYPE
  5
4E
330
5
100
AcDbSymbolTableRecord
100
AcDbLinetypeTableRecord
  2
AMCONSTR
 70
     0
  3
_______________________
 72
    65
 73
     2
 40
9999.0
 49
9999.0
 74
     0
 49
0.0
 74
     0
  0
LTYPE
  5
4F
330
5
100
AcDbSymbolTableRecord
100
AcDbLinetypeTableRecord
  2
AM_ISO02W050X2
 70
     0
  3
 _ _ _ _ _ _ _ _ _ _ _ _
 72
    65
 73
     2
 40
3.75
 49
3.0
 74
     0
 49
-0.75
 74
     0
  0
LTYPE
  5
50
330
5
100
AcDbSymbolTableRecord
100
AcDbLinetypeTableRecord
  2
AM_ISO08W050X2
 70
     0
  3
__ . __ . __ . __ . __ . __
 72
    65
 73
     4
 40
9.0
 49
6.0
 74
     0
 49
-0.75
 74
     0
 49
1.5
 74
     0
 49
-0.75
 74
     0
  0
LTYPE
  5
53
330
5
100
AcDbSymbolTableRecord
100
AcDbLinetypeTableRecord
  2
AMZIGZAG
 70
     0
  3
/\/-/\/-/\/-/\/-/\/-/\/
 72
    65
 73
     2
 40
11.00009999999999
 49
0.0001
 74
     4
 75
   135
340
52
 46
0.04
 50
0.0
 44
0.0
 45
0.0
 49
-11.0
 74
     0
  0
LTYPE
  5
166
330
5
100
AcDbSymbolTableRecord
100
AcDbLinetypeTableRecord
  2
ACJISTGL
 70
     0
  3
_ _ _ _ _
 72
    65
 73
     2
 40
3.0
 49
2.0
 74
     0
 49
-1.0
 74
     0
  0
LTYPE
  5
26A
330
5
100
AcDbSymbolTableRecord
100
AcDbLinetypeTableRecord
  2
ACJISTGB
 70
     0
  3
__ . . __ . .
 72
    65
 73
     6
 40
9.0
 49
4.0
 74
     0
 49
-1.0
 74
     0
 49
1.0
 74
     0
 49
-1.0
 74
     0
 49
1.0
 74
     0
 49
-1.0
 74
     0
  0
ENDTAB
  0
TABLE
  2
LAYER
  5
2
330
0
100
AcDbSymbolTable
 70
     7
  0
LAYER
  5
10
330
2
100
AcDbSymbolTableRecord
100
AcDbLayerTableRecord
  2
0
 70
     0
 62
     7
  6
CONTINUOUS
  0
LAYER
  5
3F9
330
2
100
AcDbSymbolTableRecord
100
AcDbLayerTableRecord
  2
AM_0
 70
     0
 62
     7
  6
CONTINUOUS
  0
LAYER
  5
BD4
330
2
100
AcDbSymbolTableRecord
100
AcDbLayerTableRecord
  2
AM_11
 70
     0
 62
     3
  6
AM_ISO09W050
  0
LAYER
  5
BD5
330
2
100
AcDbSymbolTableRecord
100
AcDbLayerTableRecord
  2
AM_7
 70
     0
 62
     4
  6
AM_ISO08W050
  0
LAYER
  5
BD6
330
2
100
AcDbSymbolTableRecord
100
AcDbLayerTableRecord
  2
AM_5
 70
     0
 62
     3
  6
CONTINUOUS
  0
LAYER
  5
BD7
330
2
100
AcDbSymbolTableRecord
100
AcDbLayerTableRecord
  2
DEFPOINTS
 70
     0
 62
     7
  6
CONTINUOUS
  0
LAYER
  5
E59
330
2
100
AcDbSymbolTableRecord
100
AcDbLayerTableRecord
  2
AM_6
 70
     0
 62
     2
  6
CONTINUOUS
  0
ENDTAB
  0
TABLE
  2
STYLE
  5
3
330
0
100
AcDbSymbolTable
 70
     5
  0
STYLE
  5
11
330
3
100
AcDbSymbolTableRecord
100
AcDbTextStyleTableRecord
  2
STANDARD
 70
     0
 40
0.0
 41
1.0
 50
0.0
 71
     0
 42
2.5
  3
simplex.shx
  4
EXTFONT.SHX
  0
STYLE
  5
52
330
3
100
AcDbSymbolTableRecord
100
AcDbTextStyleTableRecord
  2

 70
     1
 40
0.0
 41
1.0
 50
0.0
 71
     0
 42
2.5
  3
ltypeshp.shx
  4

  0
STYLE
  5
6B
330
3
100
AcDbSymbolTableRecord
100
AcDbTextStyleTableRecord
  2
ASAMI
 70
     0
 40
0.0
 41
1.0
 50
0.0
 71
     0
 42
2.5
  3
simplex.shx
  4
EXTFONT.SHX
  0
STYLE
  5
262
330
3
100
AcDbSymbolTableRecord
100
AcDbTextStyleTableRecord
  2
ACJISTS
 70
     0
 40
1.0
 41
1.0
 50
0.0
 71
     0
 42
2.5
  3
simplex.shx
  4
bigfont.shx
  0
STYLE
  5
269
330
3
100
AcDbSymbolTableRecord
100
AcDbTextStyleTableRecord
  2
ACJISGDT
 70
     0
 40
0.0
 41
1.0
 50
0.0
 71
     0
 42
2.5
  3
amgdtans.shx
  4

  0
ENDTAB
  0
TABLE
  2
VIEW
  5
6
330
0
100
AcDbSymbolTable
 70
     0
  0
ENDTAB
  0
TABLE
  2
UCS
  5
7
330
0
100
AcDbSymbolTable
 70
     0
  0
ENDTAB
  0
TABLE
  2
APPID
  5
9
330
0
100
AcDbSymbolTable
 70
    12
  0
APPID
  5
12
330
9
100
AcDbSymbolTableRecord
100
AcDbRegAppTableRecord
  2
ACAD
 70
     0
  0
APPID
  5
30
330
9
100
AcDbSymbolTableRecord
100
AcDbRegAppTableRecord
  2
MCAD_NO_VIS
 70
     0
  0
APPID
  5
31
330
9
100
AcDbSymbolTableRecord
100
AcDbRegAppTableRecord
  2
ACAD_TEMP_GRAPHIC
 70
     0
  0
APPID
  5
2C2
330
9
100
AcDbSymbolTableRecord
100
AcDbRegAppTableRecord
  2
GENIUS_GENDTOL_13
 70
     0
  0
APPID
  5
339
330
9
100
AcDbSymbolTableRecord
100
AcDbRegAppTableRecord
  2
GENIUS_GENODEF_13
 70
     0
  0
APPID
  5
33A
330
9
100
AcDbSymbolTableRecord
100
AcDbRegAppTableRecord
  2
GENIUS_GENOBJ-N-RSBK_13
 70
     0
  0
APPID
  5
33B
330
9
100
AcDbSymbolTableRecord
100
AcDbRegAppTableRecord
  2
GENIUS_GENOBJ-N-LIB_13
 70
     0
  0
APPID
  5
33C
330
9
100
AcDbSymbolTableRecord
100
AcDbRegAppTableRecord
  2
GENIUS_GENSCALE_13
 70
     0
  0
APPID
  5
378
330
9
100
AcDbSymbolTableRecord
100
AcDbRegAppTableRecord
  2
GENIUS_GENDIMSH_14
 70
     0
  0
APPID
  5
BD8
330
9
100
AcDbSymbolTableRecord
100
AcDbRegAppTableRecord
  2
GENIUS_GENOBJ-N-CEN_13
 70
     0
  0
APPID
  5
BD9
330
9
100
AcDbSymbolTableRecord
100
AcDbRegAppTableRecord
  2
GENIUS_GENFIL_13
 70
     0
  0
APPID
  5
BDA
330
9
100
AcDbSymbolTableRecord
100
AcDbRegAppTableRecord
  2
GENIUS_GENOBJ-N-CHA_13
 70
     0
  0
ENDTAB
  0
TABLE
  2
DIMSTYLE
  5
A
330
0
100
AcDbSymbolTable
 70
     8
  0
DIMSTYLE
105
58
102
{ACAD_REACTORS
330
153E
330
15E6
330
16EA
330
177A
102
}
330
A
100
AcDbSymbolTableRecord
100
AcDbDimStyleTableRecord
  2
AM_JIS
 70
     0
  3

  4
"
  5
OPEN30
  6

  7

 40
0.5
 41
2.5
 42
1.0
 43
12.0
 44
1.0
 45
0.0
 46
0.0
 47
0.1
 48
0.1
140
3.2
141
0.0
142
0.0
143
0.0393701
144
1.0
145
0.0
146
0.71
147
1.5
 71
     0
 72
     0
 73
     0
 74
     0
 75
     0
 76
     0
 77
     3
 78
     8
170
     0
171
     2
172
     1
173
     0
174
     0
175
     0
176
   256
177
   256
178
     2
270
     2
271
     3
272
     3
273
     2
274
     2
340
6B
275
     0
280
     0
281
     0
282
     0
283
     0
284
     0
285
     0
286
     0
287
     3
288
     0
  0
DIMSTYLE
105
5F
330
A
100
AcDbSymbolTableRecord
100
AcDbDimStyleTableRecord
  2
AM_JIS$3
 70
     0
  3

  4
"
  5
OPEN30
  6

  7

 40
0.5
 41
2.5
 42
1.0
 43
10.0
 44
1.0
 45
0.0
 46
0.0
 47
0.1
 48
0.1
140
3.2
141
0.0
142
0.0
143
0.0393701
144
1.0
145
0.0
146
0.71
147
1.5
 71
     0
 72
     0
 73
     0
 74
     1
 75
     0
 76
     0
 77
     3
 78
     8
170
     0
171
     2
172
     0
173
     0
174
     0
175
     0
176
   256
177
   256
178
     2
270
     2
271
     2
272
     3
273
     2
274
     2
340
6B
275
     0
280
     0
281
     0
282
     0
283
     0
284
     0
285
     0
286
     0
287
     0
288
     1
  0
DIMSTYLE
105
60
330
A
100
AcDbSymbolTableRecord
100
AcDbDimStyleTableRecord
  2
AM_JIS$4
 70
     0
  3

  4
"
  5
OPEN30
  6

  7

 40
0.5
 41
2.5
 42
1.0
 43
10.0
 44
1.0
 45
0.0
 46
0.0
 47
0.1
 48
0.1
140
3.2
141
0.0
142
0.0
143
0.0393701
144
1.0
145
0.0
146
0.71
147
1.5
 71
     0
 72
     0
 73
     0
 74
     1
 75
     0
 76
     0
 77
     3
 78
     8
170
     0
171
     2
172
     0
173
     0
174
     0
175
     0
176
   256
177
   256
178
     2
270
     2
271
     2
272
     3
273
     2
274
     2
340
6B
275
     0
280
     0
281
     0
282
     0
283
     0
284
     0
285
     0
286
     0
287
     0
288
     1
  0
DIMSTYLE
105
61
330
A
100
AcDbSymbolTableRecord
100
AcDbDimStyleTableRecord
  2
AM_JIS$6
 70
     0
  3

  4
"
  5
OPEN30
  6

  7

 40
0.5
 41
2.5
 42
1.0
 43
10.0
 44
1.0
 45
0.0
 46
0.0
 47
0.1
 48
0.1
140
3.2
141
0.0
142
0.0
143
0.0393701
144
1.0
145
0.0
146
0.71
147
1.5
 71
     0
 72
     0
 73
     0
 74
     0
 75
     0
 76
     0
 77
     0
 78
     8
170
     0
171
     2
172
     1
173
     0
174
     0
175
     0
176
   256
177
   256
178
     2
270
     2
271
     2
272
     2
273
     2
274
     2
340
6B
275
     0
280
     0
281
     0
282
     0
283
     0
284
     0
285
     0
286
     0
287
     3
288
     0
  0
DIMSTYLE
105
62
330
A
100
AcDbSymbolTableRecord
100
AcDbDimStyleTableRecord
  2
AM_JIS$7
 70
     0
  3

  4
"
  5
OPEN30
  6

  7

 40
0.5
 41
2.5
 42
1.0
 43
10.0
 44
1.0
 45
0.0
 46
0.0
 47
0.1
 48
0.1
140
3.2
141
0.0
142
0.0
143
0.0393701
144
1.0
145
0.0
146
0.71
147
1.5
 71
     0
 72
     0
 73
     0
 74
     0
 75
     0
 76
     0
 77
     3
 78
     8
170
     0
171
     2
172
     1
173
     0
174
     0
175
     0
176
   256
177
   256
178
     2
270
     2
271
     2
272
     3
273
     2
274
     2
340
6B
275
     0
280
     0
281
     0
282
     0
283
     0
284
     0
285
     0
286
     0
287
     3
288
     0
  0
DIMSTYLE
105
63
330
A
100
AcDbSymbolTableRecord
100
AcDbDimStyleTableRecord
  2
AM_JIS$SF
 70
     0
  3

  4
"
  5
OPEN30
  6

  7

 40
0.5
 41
2.5
 42
1.0
 43
10.0
 44
1.0
 45
0.0
 46
0.0
 47
0.1
 48
0.1
140
3.2
141
0.0
142
0.0
143
0.0393701
144
1.0
145
0.0
146
0.71
147
1.5
 71
     0
 72
     0
 73
     0
 74
     0
 75
     1
 76
     1
 77
     3
 78
     8
170
     0
171
     2
172
     1
173
     0
174
     0
175
     0
176
   256
177
   256
178
     2
270
     2
271
     2
272
     2
273
     2
274
     2
340
6B
275
     0
280
     0
281
     0
282
     0
283
     0
284
     0
285
     0
286
     0
287
     3
288
     0
  0
DIMSTYLE
105
68
330
A
100
AcDbSymbolTableRecord
100
AcDbDimStyleTableRecord
  2
AM_JIS$SH
 70
     0
  3

  4
"
  5

  6
GENAXEH
  7
OPEN30
 40
0.5
 41
2.5
 42
1.0
 43
10.0
 44
1.0
 45
0.0
 46
0.0
 47
0.1
 48
0.1
140
3.2
141
0.0
142
0.0
143
0.0393701
144
2.0
145
0.0
146
0.71
147
1.5
 71
     0
 72
     0
 73
     0
 74
     0
 75
     1
 76
     1
 77
     3
 78
     8
170
     0
171
     2
172
     1
173
     1
174
     0
175
     0
176
   256
177
   256
178
     2
270
     2
271
     2
272
     2
273
     2
274
     2
340
6B
275
     0
280
     0
281
     0
282
     0
283
     0
284
     0
285
     0
286
     0
287
     3
288
     0
  0
DIMSTYLE
105
B34
330
A
100
AcDbSymbolTableRecord
100
AcDbDimStyleTableRecord
  2
AM_JIS$2
 70
     0
  3

  4
"
  5
OPEN30
  6

  7

 40
0.5
 41
2.5
 42
1.0
 43
12.0
 44
1.0
 45
0.0
 46
0.0
 47
0.1
 48
0.1
140
3.2
141
0.0
142
0.0
143
0.0393701
144
1.0
145
0.0
146
0.71
147
1.5
 71
     0
 72
     0
 73
     0
 74
     0
 75
     0
 76
     0
 77
     3
 78
     8
170
     0
171
     2
172
     1
173
     0
174
     0
175
     0
176
   256
177
   256
178
     2
270
     2
271
     3
272
     3
273
     2
274
     2
340
6B
275
     0
280
     0
281
     0
282
     0
283
     0
284
     0
285
     0
286
     0
287
     3
288
     0
  0
ENDTAB
  0
TABLE
  2
BLOCK_RECORD
  5
1
330
0
100
AcDbSymbolTable
 70
     9
  0
BLOCK_RECORD
  5
1F
102
{ACAD_XDICTIONARY
360
74
102
}
330
1
100
AcDbSymbolTableRecord
100
AcDbBlockTableRecord
  2
*MODEL_SPACE
  0
BLOCK_RECORD
  5
101
102
{ACAD_XDICTIONARY
360
1A9A
102
}
330
1
100
AcDbSymbolTableRecord
100
AcDbBlockTableRecord
  2
*PAPER_SPACE
  0
BLOCK_RECORD
  5
59
330
1
100
AcDbSymbolTableRecord
100
AcDbBlockTableRecord
  2
_OPEN30
  0
BLOCK_RECORD
  5
64
330
1
100
AcDbSymbolTableRecord
100
AcDbBlockTableRecord
  2
GENAXEH
  0
BLOCK_RECORD
  5
153F
330
1
100
AcDbSymbolTableRecord
100
AcDbBlockTableRecord
  2
*D5
  0
BLOCK_RECORD
  5
15E7
330
1
100
AcDbSymbolTableRecord
100
AcDbBlockTableRecord
  2
*D6
  0
BLOCK_RECORD
  5
16EB
330
1
100
AcDbSymbolTableRecord
100
AcDbBlockTableRecord
  2
*D7
  0
BLOCK_RECORD
  5
177B
330
1
100
AcDbSymbolTableRecord
100
AcDbBlockTableRecord
  2
*D8
  0
ENDTAB
  0
ENDSEC
  0
SECTION
  2
BLOCKS
  0
BLOCK
  5
20
330
1F
100
AcDbEntity
  8
0
100
AcDbBlockBegin
  2
*MODEL_SPACE
 70
     0
 10
0.0
 20
0.0
 30
0.0
  3
*MODEL_SPACE
  1

  0
ENDBLK
  5
21
330
1F
100
AcDbEntity
  8
0
100
AcDbBlockEnd
  0
BLOCK
  5
103
330
101
100
AcDbEntity
 67
     1
  8
0
100
AcDbBlockBegin
  2
*PAPER_SPACE
 70
     0
 10
0.0
 20
0.0
 30
0.0
  3
*PAPER_SPACE
  1

  0
ENDBLK
  5
104
330
101
100
AcDbEntity
 67
     1
  8
0
100
AcDbBlockEnd
  0
BLOCK
  5
5D
330
59
100
AcDbEntity
  8
0
100
AcDbBlockBegin
  2
_OPEN30
 70
     0
 10
0.0
 20
0.0
 30
0.0
  3
_OPEN30
  1

  0
LINE
  5
5A
330
59
100
AcDbEntity
  8
0
 62
     0
100
AcDbLine
 10
-1.0
 20
0.26794919
 30
0.0
 11
0.0
 21
0.0
 31
0.0
  0
LINE
  5
5B
330
59
100
AcDbEntity
  8
0
 62
     0
100
AcDbLine
 10
0.0
 20
0.0
 30
0.0
 11
-1.0
 21
-0.26794919
 31
0.0
  0
LINE
  5
5C
330
59
100
AcDbEntity
  8
0
 62
     0
100
AcDbLine
 10
0.0
 20
0.0
 30
0.0
 11
-1.0
 21
0.0
 31
0.0
  0
ENDBLK
  5
5E
330
59
100
AcDbEntity
  8
0
100
AcDbBlockEnd
  0
BLOCK
  5
66
330
64
100
AcDbEntity
  8
0
100
AcDbBlockBegin
  2
GENAXEH
 70
     0
 10
0.0
 20
0.0
 30
0.0
  3
GENAXEH
  1

  0
LINE
  5
65
330
64
100
AcDbEntity
  8
0
100
AcDbLine
 10
-1.0
 20
0.0
 30
0.0
 11
1.0
 21
0.0
 31
0.0
  0
ENDBLK
  5
67
330
64
100
AcDbEntity
  8
0
100
AcDbBlockEnd
  0
BLOCK
  5
154B
330
153F
100
AcDbEntity
  8
0
100
AcDbBlockBegin
  2
*D5
 70
     1
 10
0.0
 20
0.0
 30
0.0
  3
*D5
  1

  0
LINE
  5
18A3
330
153F
100
AcDbEntity
  8
AM_5
100
AcDbLine
 10
-40.25
 20
1.999999999999872
 30
0.0
 11
-49.56123869649855
 21
1.999999999999874
 31
0.0
  0
LINE
  5
18A4
330
153F
100
AcDbEntity
  8
AM_5
100
AcDbLine
 10
-40.25
 20
-2.000000000000127
 30
0.0
 11
-49.56123869649855
 21
-2.000000000000125
 31
0.0
  0
LINE
  5
18A5
330
153F
100
AcDbEntity
  8
AM_5
100
AcDbLine
 10
-49.06123869649856
 20
0.7499999999998748
 30
0.0
 11
-49.06123869649856
 21
-0.7500000000001254
 31
0.0
  0
LINE
  5
18A6
330
153F
100
AcDbEntity
  8
AM_5
100
AcDbLine
 10
-49.06123869649856
 20
-2.000000000000125
 30
0.0
 11
-49.06123869649856
 21
-7.340476190476315
 31
0.0
  0
INSERT
  5
18A7
330
153F
100
AcDbEntity
  8
AM_5
100
AcDbBlockReference
  2
_OPEN30
 10
-49.06123869649856
 20
1.999999999999874
 30
0.0
 41
1.25
 42
1.25
 43
1.25
 50
90.0
  0
INSERT
  5
18A8
330
153F
100
AcDbEntity
  8
AM_5
100
AcDbBlockReference
  2
_OPEN30
 10
-49.06123869649856
 20
-2.000000000000125
 30
0.0
 41
1.25
 42
1.25
 43
1.25
 50
270.0
  0
MTEXT
  5
18A9
330
153F
100
AcDbEntity
  8
AM_5
 62
     2
100
AcDbMText
 10
-50.61123869649855
 20
-5.295238095238228
 30
0.0
 40
1.6
 41
0.0
 71
     5
 72
     1
  1
%%c4
  7
ASAMI
 11
0.0000000000000001
 21
1.0
 31
0.0
1001
ACAD
1000
MTEXTBEGIN
1070
    73
1070
     1
1070
    44
1040
1.0
1070
    74
1070
     0
1000
MTEXTEND
  0
POINT
  5
18AA
330
153F
100
AcDbEntity
  8
DEFPOINTS
 62
     0
100
AcDbPoint
 10
-39.75
 20
1.999999999999872
 30
0.0
  0
POINT
  5
18AB
330
153F
100
AcDbEntity
  8
DEFPOINTS
 62
     0
100
AcDbPoint
 10
-39.75
 20
-2.000000000000127
 30
0.0
  0
POINT
  5
18AC
330
153F
100
AcDbEntity
  8
DEFPOINTS
 62
     0
100
AcDbPoint
 10
-49.06123869649856
 20
-2.000000000000125
 30
0.0
  0
ENDBLK
  5
154C
330
153F
100
AcDbEntity
  8
0
100
AcDbBlockEnd
  0
BLOCK
  5
15F3
330
15E7
100
AcDbEntity
  8
0
100
AcDbBlockBegin
  2
*D6
 70
     1
 10
0.0
 20
0.0
 30
0.0
  3
*D6
  1

  0
LINE
  5
195F
330
15E7
100
AcDbEntity
  8
AM_5
100
AcDbLine
 10
0.4999999999989479
 20
0.75
 30
0.0
 11
8.629789688840503
 21
0.7499999999999976
 31
0.0
  0
LINE
  5
1960
330
15E7
100
AcDbEntity
  8
AM_5
100
AcDbLine
 10
0.4999999999986367
 20
-0.7500000000000001
 30
0.0
 11
8.629789688840503
 21
-0.7500000000000025
 31
0.0
  0
LINE
  5
1961
330
15E7
100
AcDbEntity
  8
AM_5
100
AcDbLine
 10
8.129789688840503
 20
1.999999999999997
 30
0.0
 11
8.129789688840503
 21
3.249999999999997
 31
0.0
  0
LINE
  5
1962
330
15E7
100
AcDbEntity
  8
AM_5
100
AcDbLine
 10
8.129789688840503
 20
-2.000000000000002
 30
0.0
 11
8.129789688840501
 21
-9.245238095238098
 31
0.0
  0
LINE
  5
1963
330
15E7
100
AcDbEntity
  8
AM_5
100
AcDbLine
 10
8.129789688840503
 20
0.7499999999999978
 30
0.0
 11
8.129789688840503
 21
-0.7500000000000023
 31
0.0
  0
INSERT
  5
1964
330
15E7
100
AcDbEntity
  8
AM_5
100
AcDbBlockReference
  2
_OPEN30
 10
8.129789688840503
 20
0.7499999999999978
 30
0.0
 41
1.25
 42
1.25
 43
1.25
 50
270.0
  0
INSERT
  5
1965
330
15E7
100
AcDbEntity
  8
AM_5
100
AcDbBlockReference
  2
_OPEN30
 10
8.129789688840503
 20
-0.7500000000000023
 30
0.0
 41
1.25
 42
1.25
 43
1.25
 50
90.0
  0
MTEXT
  5
1966
330
15E7
100
AcDbEntity
  8
AM_5
 62
     2
100
AcDbMText
 10
6.579789688840502
 20
-6.247619047619048
 30
0.0
 40
1.6
 41
0.0
 71
     5
 72
     1
  1
%%c1.5
  7
ASAMI
 11
0.0000000000000001
 21
1.0
 31
0.0
1001
ACAD
1000
MTEXTBEGIN
1070
    73
1070
     1
1070
    44
1040
1.0
1070
    74
1070
     0
1000
MTEXTEND
  0
POINT
  5
1967
330
15E7
100
AcDbEntity
  8
DEFPOINTS
 62
     0
100
AcDbPoint
 10
-0.0000000000010521
 20
0.75
 30
0.0
  0
POINT
  5
1968
330
15E7
100
AcDbEntity
  8
DEFPOINTS
 62
     0
100
AcDbPoint
 10
-0.0000000000013634
 20
-0.75
 30
0.0
  0
POINT
  5
1969
330
15E7
100
AcDbEntity
  8
DEFPOINTS
 62
     0
100
AcDbPoint
 10
8.129789688840503
 20
-0.7500000000000023
 30
0.0
  0
ENDBLK
  5
15F4
330
15E7
100
AcDbEntity
  8
0
100
AcDbBlockEnd
  0
BLOCK
  5
16F5
330
16EB
100
AcDbEntity
  8
0
100
AcDbBlockBegin
  2
*D7
 70
     1
 10
0.0
 20
0.0
 30
0.0
  3
*D7
  1

  0
LINE
  5
197C
330
16EB
100
AcDbEntity
  8
AM_5
100
AcDbLine
 10
-0.000000000001954
 20
-1.25
 30
0.0
 11
-0.0000000000019545
 21
-9.500001000000109
 31
0.0
  0
LINE
  5
197D
330
16EB
100
AcDbEntity
  8
AM_5
100
AcDbLine
 10
-5.000000000000015
 20
-1.250000000000002
 30
0.0
 11
-5.000000000000015
 21
-9.500001000000111
 31
0.0
  0
LINE
  5
197E
330
16EB
100
AcDbEntity
  8
AM_5
100
AcDbLine
 10
-1.250000000001954
 20
-9.000001000000109
 30
0.0
 11
-3.750000000000015
 21
-9.000001000000109
 31
0.0
  0
INSERT
  5
197F
330
16EB
100
AcDbEntity
  8
AM_5
100
AcDbBlockReference
  2
_OPEN30
 10
-0.0000000000019545
 20
-9.000001000000109
 30
0.0
 41
1.25
 42
1.25
 43
1.25
  0
INSERT
  5
1980
330
16EB
100
AcDbEntity
  8
AM_5
100
AcDbBlockReference
  2
_OPEN30
 10
-5.000000000000015
 20
-9.000001000000109
 30
0.0
 41
1.25
 42
1.25
 43
1.25
 50
180.0
  0
MTEXT
  5
1981
330
16EB
100
AcDbEntity
  8
AM_5
 62
     2
100
AcDbMText
 10
-2.500000000000984
 20
-7.450001000000109
 30
0.0
 40
1.6
 41
0.0
 71
     5
 72
     1
  1
5
  7
ASAMI
1001
ACAD
1000
MTEXTBEGIN
1070
    73
1070
     1
1070
    44
1040
1.0
1070
    74
1070
     0
1000
MTEXTEND
  0
POINT
  5
1982
330
16EB
100
AcDbEntity
  8
DEFPOINTS
 62
     0
100
AcDbPoint
 10
-0.000000000001954
 20
-0.75
 30
0.0
  0
POINT
  5
1983
330
16EB
100
AcDbEntity
  8
DEFPOINTS
 62
     0
100
AcDbPoint
 10
-5.000000000000015
 20
-0.7500000000000027
 30
0.0
  0
POINT
  5
1984
330
16EB
100
AcDbEntity
  8
DEFPOINTS
 62
     0
100
AcDbPoint
 10
-5.000000000000015
 20
-9.000001000000109
 30
0.0
  0
ENDBLK
  5
16F6
330
16EB
100
AcDbEntity
  8
0
100
AcDbBlockEnd
  0
BLOCK
  5
1785
330
177B
100
AcDbEntity
  8
0
100
AcDbBlockBegin
  2
*D8
 70
     1
 10
0.0
 20
0.0
 30
0.0
  3
*D8
  1

  0
LINE
  5
1973
330
177B
100
AcDbEntity
  8
AM_5
100
AcDbLine
 10
-0.0000000000013634
 20
-1.25
 30
0.0
 11
-0.0000000000013643
 21
-15.5000010000002
 31
0.0
  0
LINE
  5
1974
330
177B
100
AcDbEntity
  8
AM_5
100
AcDbLine
 10
-40.0
 20
-2.250000000000127
 30
0.0
 11
-40.0
 21
-15.5000010000002
 31
0.0
  0
LINE
  5
1975
330
177B
100
AcDbEntity
  8
AM_5
100
AcDbLine
 10
-1.250000000001364
 20
-15.0000010000002
 30
0.0
 11
-38.75
 21
-15.0000010000002
 31
0.0
  0
INSERT
  5
1976
330
177B
100
AcDbEntity
  8
AM_5
100
AcDbBlockReference
  2
_OPEN30
 10
-0.0000000000013642
 20
-15.0000010000002
 30
0.0
 41
1.25
 42
1.25
 43
1.25
  0
INSERT
  5
1977
330
177B
100
AcDbEntity
  8
AM_5
100
AcDbBlockReference
  2
_OPEN30
 10
-40.0
 20
-15.0000010000002
 30
0.0
 41
1.25
 42
1.25
 43
1.25
 50
180.0
  0
MTEXT
  5
1978
330
177B
100
AcDbEntity
  8
AM_5
 62
     2
100
AcDbMText
 10
-20.00000000000068
 20
-13.4500010000002
 30
0.0
 40
1.6
 41
0.0
 71
     5
 72
     1
  1
40
  7
ASAMI
1001
ACAD
1000
MTEXTBEGIN
1070
    73
1070
     1
1070
    44
1040
1.0
1070
    74
1070
     0
1000
MTEXTEND
  0
POINT
  5
1979
330
177B
100
AcDbEntity
  8
DEFPOINTS
 62
     0
100
AcDbPoint
 10
-0.0000000000013634
 20
-0.75
 30
0.0
  0
POINT
  5
197A
330
177B
100
AcDbEntity
  8
DEFPOINTS
 62
     0
100
AcDbPoint
 10
-40.0
 20
-1.750000000000127
 30
0.0
  0
POINT
  5
197B
330
177B
100
AcDbEntity
  8
DEFPOINTS
 62
     0
100
AcDbPoint
 10
-40.0
 20
-15.0000010000002
 30
0.0
  0
ENDBLK
  5
1786
330
177B
100
AcDbEntity
  8
0
100
AcDbBlockEnd
  0
ENDSEC
  0
SECTION
  2
ENTITIES
  0
TEXT
  5
E5A
330
1F
100
AcDbEntity
  8
AM_6
100
AcDbText
 10
-27.97619047619047
 20
-26.2500010000002
 30
0.0
 40
2.5
  1
SSM4015
 72
     4
 11
-19.99999999999999
 21
-25.0000010000002
 31
0.0
100
AcDbText
  0
LINE
  5
13DC
330
1F
100
AcDbEntity
  8
AM_7
  6
AM_ISO08W050X2
100
AcDbLine
 10
1.129788688840505
 20
-0.000000000000095
 30
0.0
 11
-42.06123769649856
 21
-0.0000000000001279
 31
0.0
1001
GENIUS_GENODEF_13
1002
{
1000
HIER
1070
     0
1002
}
1002
{
1000
MANEDIT
1070
     0
1002
}
1002
{
1000
NOSEL
1070
     0
1002
}
1002
{
1000
BEHIND
1070
     0
1002
}
1002
{
1000
REACTOR
1002
}
1001
GENIUS_GENOBJ-N-CEN_13
1002
{
1000
OWNER
1000
GEN
1002
}
  0
LINE
  5
14B3
330
1F
100
AcDbEntity
  8
AM_0
100
AcDbLine
 10
-13.0
 20
-2.000000000000127
 30
0.0
 11
-39.75
 21
-2.000000000000127
 31
0.0
  0
LINE
  5
14B4
330
1F
100
AcDbEntity
  8
AM_0
100
AcDbLine
 10
-40.0
 20
-1.750000000000127
 30
0.0
 11
-40.0
 21
1.749999999999872
 31
0.0
  0
LINE
  5
14B5
330
1F
100
AcDbEntity
  8
AM_0
100
AcDbLine
 10
-39.75
 20
1.999999999999872
 30
0.0
 11
-13.0
 21
1.999999999999872
 31
0.0
  0
LINE
  5
14B6
330
1F
100
AcDbEntity
  8
AM_0
100
AcDbLine
 10
-13.0
 20
1.999999999999871
 30
0.0
 11
-5.910897725478545
 21
0.7499999999999957
 31
0.0
  0
LINE
  5
14B7
330
1F
100
AcDbEntity
  8
AM_0
100
AcDbLine
 10
-13.0
 20
-2.000000000000128
 30
0.0
 11
-5.910897725477132
 21
-0.7500000000000032
 31
0.0
  0
LINE
  5
14C0
330
1F
100
AcDbEntity
  8
AM_0
100
AcDbLine
 10
-13.0
 20
1.999999999999871
 30
0.0
 11
-13.0
 21
-2.000000000000128
 31
0.0
  0
DIMENSION
  5
153E
330
1F
100
AcDbEntity
  8
AM_5
100
AcDbDimension
  2
*D5
 10
-49.06123869649856
 20
-2.000000000000125
 30
0.0
 11
-50.61123869649855
 21
-5.295238095238228
 31
0.0
 70
    32
  1
%%c<>
  3
AM_JIS
100
AcDbAlignedDimension
 13
-39.75
 23
1.999999999999872
 33
0.0
 14
-39.75
 24
-2.000000000000127
 34
0.0
 50
270.0
100
AcDbRotatedDimension
1001
GENIUS_GENDTOL_13
1000

1000
h7
1000

1040
0.0
  0
DIMENSION
  5
15E6
330
1F
100
AcDbEntity
  8
AM_5
100
AcDbDimension
  2
*D6
 10
8.129789688840503
 20
-0.7500000000000023
 30
0.0
 11
6.579789688840502
 21
-6.247619047619048
 31
0.0
 70
    32
  1
%%c<>
  3
AM_JIS
100
AcDbAlignedDimension
 13
-0.0000000000010521
 23
0.75
 33
0.0
 14
-0.0000000000013634
 24
-0.75
 34
0.0
 50
90.00000000000005
100
AcDbRotatedDimension
1001
GENIUS_GENDTOL_13
1000

1000
h7
1000

1040
0.0
  0
DIMENSION
  5
16EA
330
1F
100
AcDbEntity
  8
AM_5
100
AcDbDimension
  2
*D7
 10
-5.000000000000015
 20
-9.000001000000109
 30
0.0
 11
-2.500000000000984
 21
-7.450001000000109
 31
0.0
 70
    32
  1
<>
  3
AM_JIS
100
AcDbAlignedDimension
 13
-0.000000000001954
 23
-0.75
 33
0.0
 14
-5.000000000000015
 24
-0.7500000000000027
 34
0.0
 50
0.0000000000001641
100
AcDbRotatedDimension
1001
GENIUS_GENDTOL_13
1000

1000
h7
1000

1040
0.0
  0
DIMENSION
  5
177A
330
1F
100
AcDbEntity
  8
AM_5
100
AcDbDimension
  2
*D8
 10
-40.0
 20
-15.0000010000002
 30
0.0
 11
-20.00000000000068
 21
-13.4500010000002
 31
0.0
 70
    32
  1
<>
  3
AM_JIS
100
AcDbAlignedDimension
 13
-0.0000000000013634
 23
-0.75
 33
0.0
 14
-40.0
 24
-1.750000000000127
 34
0.0
 50
0.0000000000001641
100
AcDbRotatedDimension
1001
GENIUS_GENDTOL_13
1000

1000
h7
1000

1040
0.0
  0
LINE
  5
188B
330
1F
100
AcDbEntity
  8
AM_0
100
AcDbLine
 10
-39.75
 20
1.999999999999872
 30
0.0
 11
-40.0
 21
1.749999999999872
 31
0.0
1001
GENIUS_GENFIL_13
1070
     0
1040
0.25
1040
0.25
1040
20.0
1040
0.0
1002
{
1002
}
1001
GENIUS_GENODEF_13
1002
{
1000
HIER
1070
     0
1002
}
1002
{
1000
MANEDIT
1070
     0
1002
}
1002
{
1000
NOSEL
1070
     0
1002
}
1002
{
1000
BEHIND
1070
     0
1002
}
1002
{
1000
REACTOR
1002
}
1001
GENIUS_GENOBJ-N-CHA_13
1002
{
1000
OWNER
1000
GEN
1002
}
  0
LINE
  5
188E
330
1F
100
AcDbEntity
  8
AM_0
100
AcDbLine
 10
-40.0
 20
-1.750000000000127
 30
0.0
 11
-39.75
 21
-2.000000000000127
 31
0.0
1001
GENIUS_GENFIL_13
1070
     0
1040
0.25
1040
0.25
1040
20.0
1040
0.0
1002
{
1002
}
1001
GENIUS_GENODEF_13
1002
{
1000
HIER
1070
     0
1002
}
1002
{
1000
MANEDIT
1070
     0
1002
}
1002
{
1000
NOSEL
1070
     0
1002
}
1002
{
1000
BEHIND
1070
     0
1002
}
1002
{
1000
REACTOR
1002
}
1001
GENIUS_GENOBJ-N-CHA_13
1002
{
1000
OWNER
1000
GEN
1002
}
  0
LINE
  5
188F
330
1F
100
AcDbEntity
  8
AM_0
100
AcDbLine
 10
-39.75
 20
1.999999999999872
 30
0.0
 11
-39.75
 21
-2.000000000000127
 31
0.0
  0
LINE
  5
190D
330
1F
100
AcDbEntity
  8
AM_0
100
AcDbLine
 10
-0.0175000000000007
 20
0.1500000000000181
 30
0.0
 11
-0.1779206996243114
 21
0.4000711221015587
 31
0.0
  0
LINE
  5
190E
330
1F
100
AcDbEntity
  8
AM_0
100
AcDbLine
 10
0.0
 20
0.0
 30
0.0
 11
-0.0148071015239963
 21
-0.1269180130628627
 31
0.0
  0
LINE
  5
190F
330
1F
100
AcDbEntity
  8
AM_0
100
AcDbLine
 10
0.0
 20
-0.1499999999999995
 30
0.0
 11
-0.0962250448649431
 21
0.000000000000008
 31
0.0
  0
LINE
  5
1910
330
1F
100
AcDbEntity
  8
AM_0
100
AcDbLine
 10
-0.1434096642818616
 20
-0.2210482147749815
 30
0.0
 11
-0.0174999999999977
 21
-0.1990346781844767
 31
0.0
  0
LINE
  5
1911
330
1F
100
AcDbEntity
  8
AM_0
100
AcDbLine
 10
-0.0174999999999977
 20
-0.1990346781844767
 30
0.0
 11
0.0
 21
-0.1499999999999995
 31
0.0
  0
LINE
  5
1912
330
1F
100
AcDbEntity
  8
AM_0
100
AcDbLine
 10
-0.3927620385036483
 20
0.0
 30
0.0
 11
-0.3927620385036483
 21
-0.1200000000000028
 31
0.0
  0
LINE
  5
1913
330
1F
100
AcDbEntity
  8
AM_0
100
AcDbLine
 10
0.0
 20
0.0
 30
0.0
 11
-0.3927620385036483
 21
0.0
 31
0.0
  0
LINE
  5
1914
330
1F
100
AcDbEntity
  8
AM_0
100
AcDbLine
 10
-0.3927620385036483
 20
-0.1200000000000028
 30
0.0
 11
-0.0192450089729886
 21
-0.1200000000000028
 31
0.0
  0
LINE
  5
1915
330
1F
100
AcDbEntity
  8
AM_0
100
AcDbLine
 10
-0.3927620385036483
 20
-0.1200000000000028
 30
0.0
 11
-0.1434096642818616
 21
-0.2210482147749815
 31
0.0
  0
LINE
  5
1916
330
1F
100
AcDbEntity
  8
AM_0
100
AcDbLine
 10
0.0
 20
0.0
 30
0.0
 11
-0.0175000000000007
 21
0.1500000000000181
 31
0.0
  0
LINE
  5
1917
330
1F
100
AcDbEntity
  8
AM_0
100
AcDbLine
 10
-0.1779206996243114
 20
0.4000711221015587
 30
0.0
 11
-0.3927620385036483
 21
0.4512680133792122
 31
0.0
  0
LINE
  5
1918
330
1F
100
AcDbEntity
  8
AM_0
100
AcDbLine
 10
0.0
 20
-0.75
 30
0.0
 11
-0.0174999999999977
 21
-0.7100161736432744
 31
0.0
  0
LINE
  5
1919
330
1F
100
AcDbEntity
  8
AM_0
100
AcDbLine
 10
-0.0174999999999977
 20
-0.7100161736432665
 30
0.0
 11
-0.1141666666666671
 21
-0.5996424983192857
 31
0.0
  0
ELLIPSE
  5
191A
330
1F
100
AcDbEntity
  8
AM_0
100
AcDbEllipse
 10
0.3309455303378665
 20
-0.3815820247076846
 30
0.0
 11
-0.5067830192526753
 21
0.0000000000000001
 31
0.0
210
0.0
220
0.0
230
1.0
 40
0.9000000000000001
 41
-0.3596717454910678
 42
0.4984822114954235
  0
LINE
  5
191B
330
1F
100
AcDbEntity
  8
AM_0
100
AcDbLine
 10
0.0
 20
-0.75
 30
0.0
 11
0.0
 21
-0.1499999999999995
 31
0.0
  0
LINE
  5
191D
330
1F
100
AcDbEntity
  8
AM_0
100
AcDbLine
 10
0.0
 20
0.0
 30
0.0
 11
0.0
 21
0.75
 31
0.0
  0
LINE
  5
191E
330
1F
100
AcDbEntity
  8
AM_0
100
AcDbLine
 10
-5.0
 20
0.4702691679029587
 30
0.0
 11
-4.999999999999997
 21
0.2354878513468792
 31
0.0
  0
LINE
  5
1920
330
1F
100
AcDbEntity
  8
AM_0
100
AcDbLine
 10
-4.999999999999997
 20
-0.4980777297578474
 30
0.0
 11
-5.000000000000015
 21
-0.7293206237737558
 31
0.0
  0
ELLIPSE
  5
1921
330
1F
100
AcDbEntity
  8
AM_0
100
AcDbEllipse
 10
-4.997294395438609
 20
-2.330458422316578
 30
0.0
 11
-1.779044055749905
 21
0.0000000000000274
 31
0.0
210
0.0
220
0.0
230
1.0
 40
0.9000000000000181
 41
-1.569275506894083
 42
-1.409895925042636
  0
LINE
  5
1922
330
1F
100
AcDbEntity
  8
AM_11
100
AcDbLine
 10
-5.000000000000015
 20
-0.7500000000000027
 30
0.0
 11
-4.999999999999997
 21
0.7499999999999974
 31
0.0
  0
LINE
  5
1923
330
1F
100
AcDbEntity
  8
AM_11
100
AcDbLine
 10
-5.000000000000017
 20
-0.7500000000000027
 30
0.0
 11
0.0
 21
-0.75
 31
0.0
  0
LINE
  5
1924
330
1F
100
AcDbEntity
  8
AM_11
100
AcDbLine
 10
-0.0000000000001303
 20
0.75
 30
0.0
 11
-5.000000000000044
 21
0.7499999999999974
 31
0.0
  0
SPLINE
  5
1925
330
1F
100
AcDbEntity
  8
AM_0
100
AcDbSpline
210
0.0
220
0.0
230
1.0
 70
     8
 71
     3
 72
     8
 73
     4
 74
     0
 42
0.0000000001
 43
0.0000000001
 40
0.0
 40
0.0
 40
0.0
 40
0.0
 40
2.897999309868792
 40
2.897999309868792
 40
2.897999309868792
 40
2.897999309868792
 10
-2.266666666666701
 20
-0.7499999999999841
 30
0.0
 10
-3.071666474963588
 20
-0.7499999999999846
 30
0.0
 10
-3.802499904148477
 20
-0.3749999999999843
 30
0.0
 10
-4.533333333333366
 20
0.000000000000016
 30
0.0
  0
SPLINE
  5
1926
330
1F
100
AcDbEntity
  8
AM_0
100
AcDbSpline
210
0.0
220
0.0
230
1.0
 70
     8
 71
     3
 72
     8
 73
     4
 74
     0
 42
0.0000000001
 43
0.0000000001
 40
0.0
 40
0.0
 40
0.0
 40
0.0
 40
4.451443990518192
 40
4.451443990518192
 40
4.451443990518192
 40
4.451443990518192
 10
-3.907447219837487
 20
-0.6926166755704042
 30
0.0
 10
-3.660144775919803
 20
-0.6926166755704042
 30
0.0
 10
-3.41894598014209
 20
-0.6593502621371164
 30
0.0
 10
-3.181959094424581
 20
-0.6031278823385229
 30
0.0
  0
SPLINE
  5
1929
330
1F
100
AcDbEntity
  8
AM_0
100
AcDbSpline
210
0.0
220
0.0
230
1.0
 70
     8
 71
     3
 72
     8
 73
     4
 74
     0
 42
0.0000000001
 43
0.0000000001
 40
0.0
 40
0.0
 40
0.0
 40
0.0
 40
2.872495735388986
 40
2.872495735388986
 40
2.872495735388986
 40
2.872495735388986
 10
-1.640780553170821
 20
-0.6926166755703856
 30
0.0
 10
-2.438696035223317
 20
-0.6926166755703861
 30
0.0
 10
-3.173071627530402
 20
-0.346308337785181
 30
0.0
 10
-3.907447219837487
 20
0.000000000000024
 30
0.0
  0
SPLINE
  5
192A
330
1F
100
AcDbEntity
  8
AM_0
100
AcDbSpline
210
0.0
220
0.0
230
1.0
 70
     8
 71
     3
 72
     8
 73
     4
 74
     0
 42
0.0000000001
 43
0.0000000001
 40
0.7142832446738512
 40
0.7142832446738512
 40
0.7142832446738512
 40
0.7142832446738512
 40
14.36247867694493
 40
14.36247867694493
 40
14.36247867694493
 40
14.36247867694493
 10
-4.182868099887038
 20
0.7268768134279009
 30
0.0
 10
-3.036486939226001
 20
0.6581710553213309
 30
0.0
 10
-2.338633746198395
 20
0.3290855276606681
 30
0.0
 10
-1.640780553170785
 20
0.000000000000008
 30
0.0
  0
SPLINE
  5
192B
330
1F
100
AcDbEntity
  8
AM_0
100
AcDbSpline
210
0.0
220
0.0
230
1.0
 70
     8
 71
     3
 72
     8
 73
     4
 74
     0
 42
0.0000000001
 43
0.0000000001
 40
0.0
 40
0.0
 40
0.0
 40
0.0
 40
2.897999309868792
 40
2.897999309868792
 40
2.897999309868792
 40
2.897999309868792
 10
-4.533333333333334
 20
0.750000000000016
 30
0.0
 10
-3.728333525036447
 20
0.7500000000000165
 30
0.0
 10
-2.997500095851558
 20
0.3750000000000162
 30
0.0
 10
-2.266666666666668
 20
0.000000000000016
 30
0.0
  0
SPLINE
  5
192C
330
1F
100
AcDbEntity
  8
AM_0
100
AcDbSpline
210
0.0
220
0.0
230
1.0
 70
     8
 71
     3
 72
     8
 73
     4
 74
     0
 42
0.0000000001
 43
0.0000000001
 40
0.0
 40
0.0
 40
0.0
 40
0.0
 40
1.412269715655734
 40
1.412269715655734
 40
1.412269715655734
 40
1.412269715655734
 10
-4.766666666666695
 20
-0.7396603118868672
 30
0.0
 10
-4.84512609531424
 20
-0.7396603118868672
 30
0.0
 10
-4.922880983718031
 20
-0.7360980159440214
 30
0.0
 10
-4.999999999999997
 20
-0.7293206237737504
 30
0.0
  0
SPLINE
  5
192D
330
1F
100
AcDbEntity
  8
AM_0
100
AcDbSpline
210
0.0
220
0.0
230
1.0
 70
     8
 71
     3
 72
     8
 73
     4
 74
     0
 42
0.0000000001
 43
0.0000000001
 40
11.41055204919593
 40
11.41055204919593
 40
11.41055204919593
 40
11.41055204919593
 40
14.48999654934393
 40
14.48999654934393
 40
14.48999654934393
 40
14.48999654934393
 10
-5.000000000000006
 20
0.2354878513468659
 30
0.0
 10
-4.843969844027306
 20
0.1593915752323456
 30
0.0
 10
-4.688651588680334
 20
0.0796957876161795
 30
0.0
 10
-4.533333333333366
 20
0.000000000000016
 30
0.0
  0
SPLINE
  5
192E
330
1F
100
AcDbEntity
  8
AM_0
100
AcDbSpline
210
0.0
220
0.0
230
1.0
 70
     8
 71
     3
 72
     8
 73
     4
 74
     0
 42
0.0000000001
 43
0.0000000001
 40
0.0
 40
0.0
 40
0.0
 40
0.0
 40
1.412269715655931
 40
1.412269715655931
 40
1.412269715655931
 40
1.412269715655931
 10
-4.533333333333366
 20
-0.7499999999999841
 30
0.0
 10
-4.611792761980918
 20
-0.7499999999999841
 30
0.0
 10
-4.689547650384721
 20
-0.7464377040571409
 30
0.0
 10
-4.766666666666701
 20
-0.7396603118868672
 30
0.0
  0
SPLINE
  5
192F
330
1F
100
AcDbEntity
  8
AM_0
100
AcDbSpline
210
0.0
220
0.0
230
1.0
 70
     8
 71
     3
 72
     8
 73
     4
 74
     0
 42
0.0000000001
 43
0.0000000001
 40
0.0
 40
0.0
 40
0.0
 40
0.0
 40
2.764560748519282
 40
2.764560748519282
 40
2.764560748519282
 40
2.764560748519282
 10
-4.242425203000932
 20
-0.7275425505503091
 30
0.0
 10
-4.088838494749861
 20
-0.7275425505503091
 30
0.0
 10
-3.937814896020362
 20
-0.7142071722765087
 30
0.0
 10
-3.788863662096095
 20
-0.6900896684764666
 30
0.0
  0
SPLINE
  5
1932
330
1F
100
AcDbEntity
  8
AM_0
100
AcDbSpline
210
0.0
220
0.0
230
1.0
 70
     8
 71
     3
 72
     8
 73
     4
 74
     0
 42
0.0000000001
 43
0.0000000001
 40
0.0
 40
0.0
 40
0.0
 40
0.0
 40
6.769478140335353
 40
6.769478140335353
 40
6.769478140335353
 40
6.769478140335353
 10
-3.907447219837487
 20
-0.6926166755703882
 30
0.0
 10
-4.283529338745004
 20
-0.6926166755703882
 30
0.0
 10
-4.645495899894755
 20
-0.6156833449714539
 30
0.0
 10
-4.999999999999997
 20
-0.4980777297578474
 30
0.0
  0
SPLINE
  5
1933
330
1F
100
AcDbEntity
  8
AM_0
100
AcDbSpline
210
0.0
220
0.0
230
1.0
 70
     8
 71
     3
 72
     8
 73
     4
 74
     0
 42
0.0000000001
 43
0.0000000001
 40
0.0
 40
0.0
 40
0.0
 40
0.0
 40
2.130230809022907
 40
2.130230809022907
 40
2.130230809022907
 40
2.130230809022907
 10
-4.533333333333366
 20
-0.7500000000000027
 30
0.0
 10
-4.414987177276534
 20
-0.7500000000000027
 30
0.0
 10
-4.298243985466099
 20
-0.7418950931730262
 30
0.0
 10
-4.182868099887103
 20
-0.7268768134278849
 30
0.0
  0
SPLINE
  5
1934
330
1F
100
AcDbEntity
  8
AM_0
100
AcDbSpline
210
0.0
220
0.0
230
1.0
 70
     8
 71
     3
 72
     8
 73
     4
 74
     0
 42
0.0000000001
 43
0.0000000001
 40
0.0
 40
0.0
 40
0.0
 40
0.0
 40
0.5173130647233411
 40
0.5173130647233411
 40
0.5173130647233411
 40
0.5173130647233411
 10
-0.000000000000003
 20
0.6112054030025967
 30
0.0
 10
-0.0922112300838267
 20
0.5120164794226537
 30
0.0
 10
-0.2504865841193338
 20
0.4694210695386533
 30
0.0
 10
-0.3927620385036483
 20
0.4512680133792122
 30
0.0
  0
SPLINE
  5
1935
330
1F
100
AcDbEntity
  8
AM_0
100
AcDbSpline
210
0.0
220
0.0
230
1.0
 70
     8
 71
     3
 72
     8
 73
     4
 74
     0
 42
0.0000000001
 43
0.0000000001
 40
0.0
 40
0.0
 40
0.0
 40
0.0
 40
2.130230809022907
 40
2.130230809022907
 40
2.130230809022907
 40
2.130230809022907
 10
-2.266666666666701
 20
-0.75
 30
0.0
 10
-2.148320510609869
 20
-0.75
 30
0.0
 10
-2.031577318799433
 20
-0.7418950931730262
 30
0.0
 10
-1.916201433220437
 20
-0.7268768134278849
 30
0.0
  0
SPLINE
  5
1936
330
1F
100
AcDbEntity
  8
AM_0
100
AcDbSpline
210
0.0
220
0.0
230
1.0
 70
     8
 71
     3
 72
     8
 73
     4
 74
     0
 42
0.0000000001
 43
0.0000000001
 40
0.0
 40
0.0
 40
0.0
 40
0.0
 40
5.635889483499305
 40
5.635889483499305
 40
5.635889483499305
 40
5.635889483499305
 10
-2.266666666666701
 20
0.750000000000016
 30
0.0
 10
-2.579771637972223
 20
0.750000000000016
 30
0.0
 10
-2.881656542306074
 20
0.6932691043468884
 30
0.0
 10
-3.176685428840698
 20
0.6018728157556934
 30
0.0
  0
SPLINE
  5
1937
330
1F
100
AcDbEntity
  8
AM_0
100
AcDbSpline
210
0.0
220
0.0
230
1.0
 70
     8
 71
     3
 72
     8
 73
     4
 74
     0
 42
0.0000000001
 43
0.0000000001
 40
0.0
 40
0.0
 40
0.0
 40
0.0
 40
4.451443990518192
 40
4.451443990518192
 40
4.451443990518192
 40
4.451443990518192
 10
-1.640780553170821
 20
-0.6926166755704042
 30
0.0
 10
-1.39347810925314
 20
-0.6926166755704042
 30
0.0
 10
-1.152279313475424
 20
-0.6593502621371137
 30
0.0
 10
-0.915292427757916
 20
-0.6031278823385203
 30
0.0
  0
SPLINE
  5
1938
330
1F
100
AcDbEntity
  8
AM_0
100
AcDbSpline
210
0.0
220
0.0
230
1.0
 70
     8
 71
     3
 72
     8
 73
     4
 74
     0
 42
0.0000000001
 43
0.0000000001
 40
0.0
 40
0.0
 40
0.0
 40
0.0
 40
2.764560748519282
 40
2.764560748519282
 40
2.764560748519282
 40
2.764560748519282
 10
-1.975758536334266
 20
-0.7275425505503091
 30
0.0
 10
-1.822171828083195
 20
-0.7275425505503091
 30
0.0
 10
-1.671148229353697
 20
-0.7142071722765087
 30
0.0
 10
-1.522196995429432
 20
-0.6900896684764666
 30
0.0
  0
SPLINE
  5
1939
330
1F
100
AcDbEntity
  8
AM_0
100
AcDbSpline
210
0.0
220
0.0
230
1.0
 70
     8
 71
     3
 72
     8
 73
     4
 74
     0
 42
0.0000000001
 43
0.0000000001
 40
0.7142832446738512
 40
0.7142832446738512
 40
0.7142832446738512
 40
0.7142832446738512
 40
9.361146747480315
 40
9.361146747480315
 40
9.361146747480315
 40
9.361146747480315
 10
-1.916201433220372
 20
0.726876813427901
 30
0.0
 10
-1.045526005647747
 20
0.6698675158457377
 30
0.0
 10
-0.5907402252413413
 20
0.5303654824199447
 30
0.0
 10
-0.1439742007716631
 20
0.3471537674221423
 30
0.0
  0
SPLINE
  5
193A
330
1F
100
AcDbEntity
  8
AM_0
100
AcDbSpline
210
0.0
220
0.0
230
1.0
 70
     8
 71
     3
 72
     8
 73
     4
 74
     0
 42
0.0000000001
 43
0.0000000001
 40
0.0
 40
0.0
 40
0.0
 40
0.0
 40
5.635889483499127
 40
5.635889483499127
 40
5.635889483499127
 40
5.635889483499127
 10
-0.000000000000003
 20
0.75
 30
0.0
 10
-0.3131049713055075
 20
0.75
 30
0.0
 10
-0.6149898756393551
 20
0.6932691043468724
 30
0.0
 10
-0.9118582070179147
 20
0.5936398583637112
 30
0.0
  0
SPLINE
  5
193B
330
1F
100
AcDbEntity
  8
AM_0
100
AcDbSpline
210
0.0
220
0.0
230
1.0
 70
     8
 71
     3
 72
     8
 73
     4
 74
     0
 42
0.0000000001
 43
0.0000000001
 40
4.542668862435135
 40
4.542668862435135
 40
4.542668862435135
 40
4.542668862435135
 40
14.36247867694493
 40
14.36247867694493
 40
14.36247867694493
 40
14.36247867694493
 10
-0.1141666666664361
 20
-0.5996424983184916
 30
0.0
 10
-0.636576639475927
 20
-0.4735508529859267
 30
0.0
 10
-1.138678596323356
 20
-0.236775426492958
 30
0.0
 10
-1.640780553170785
 20
0.000000000000008
 30
0.0
  0
SPLINE
  5
193D
330
1F
100
AcDbEntity
  8
AM_0
100
AcDbSpline
210
0.0
220
0.0
230
1.0
 70
     8
 71
     3
 72
     8
 73
     4
 74
     0
 42
0.0000000001
 43
0.0000000001
 40
0.0
 40
0.0
 40
0.0
 40
0.0
 40
2.89799930986879
 40
2.89799930986879
 40
2.89799930986879
 40
2.89799930986879
 10
-2.266666666666668
 20
0.750000000000016
 30
0.0
 10
-1.461666858369782
 20
0.7500000000000165
 30
0.0
 10
-0.7308334291848927
 20
0.3750000000000175
 30
0.0
 10
-0.000000000000003
 20
0.0000000000000187
 30
0.0
  0
SPLINE
  5
193E
330
1F
100
AcDbEntity
  8
AM_0
100
AcDbSpline
210
0.0
220
0.0
230
1.0
 70
     8
 71
     3
 72
     8
 73
     4
 74
     0
 42
0.0000000001
 43
0.0000000001
 40
0.0
 40
0.0
 40
0.0
 40
0.0
 40
2.897999309868795
 40
2.897999309868795
 40
2.897999309868795
 40
2.897999309868795
 10
0.0
 20
-0.75
 30
0.0
 10
-0.8049998082968874
 20
-0.7500000000000005
 30
0.0
 10
-1.535833237481778
 20
-0.3750000000000002
 30
0.0
 10
-2.266666666666668
 20
0.0
 30
0.0
  0
POLYLINE
  5
1940
330
1F
100
AcDbEntity
  8
AM_0
100
AcDb2dPolyline
 66
     1
 10
0.0
 20
0.0
 30
0.0
 70
     2
  0
VERTEX
  5
1941
330
1940
100
AcDbEntity
  8
AM_0
100
AcDbVertex
100
AcDb2dVertex
 10
-5.443352095507393
 20
0.6018623220257524
 30
0.0
 42
-0.0080850818469205
  0
VERTEX
  5
1942
330
1940
100
AcDbEntity
  8
AM_0
100
AcDbVertex
100
AcDb2dVertex
 10
-5.526914662240258
 20
0.6254194181041557
 30
0.0
 42
-0.0113772357485858
 70
     1
  0
VERTEX
  5
1943
330
1940
100
AcDbEntity
  8
AM_0
100
AcDbVertex
100
AcDb2dVertex
 10
-5.586450659955891
 20
0.6445305902537584
 30
0.0
 42
-0.0082896290467094
  0
VERTEX
  5
1944
330
1940
100
AcDbEntity
  8
AM_0
100
AcDbVertex
100
AcDb2dVertex
 10
-5.776201442270989
 20
0.7131242138516818
 30
0.0
 42
-0.2726804491113656
 70
     1
  0
VERTEX
  5
1945
330
1940
100
AcDbEntity
  8
AM_0
100
AcDbVertex
100
AcDb2dVertex
 10
-5.780188916140556
 20
0.7179456099103448
 30
0.0
 42
-0.4014058829339297
  0
VERTEX
  5
1946
330
1940
100
AcDbEntity
  8
AM_0
100
AcDbVertex
100
AcDb2dVertex
 10
-5.772960191674849
 20
0.7263981063930327
 30
0.0
 42
-0.0313656446754737
 70
     1
  0
VERTEX
  5
1947
330
1940
100
AcDbEntity
  8
AM_0
100
AcDbVertex
100
AcDb2dVertex
 10
-5.642721317199018
 20
0.7368179737005854
 30
0.0
 42
-0.0039726403541645
  0
VERTEX
  5
1948
330
1940
100
AcDbEntity
  8
AM_0
100
AcDbVertex
100
AcDb2dVertex
 10
-5.524115201536732
 20
0.7387402755676336
 30
0.0
 42
0.0019401889352083
 70
     1
  0
VERTEX
  5
1949
330
1940
100
AcDbEntity
  8
AM_0
100
AcDbVertex
100
AcDb2dVertex
 10
-5.281249999999996
 20
0.7417877784882503
 30
0.0
 42
0.0036525506412497
  0
VERTEX
  5
194A
330
1940
100
AcDbEntity
  8
AM_0
100
AcDbVertex
100
AcDb2dVertex
 10
-5.185746654079629
 20
0.7439479658179842
 30
0.0
 42
0.0018773371428962
 70
     1
  0
VERTEX
  5
194B
330
1940
100
AcDbEntity
  8
AM_0
100
AcDbVertex
100
AcDb2dVertex
 10
-4.999999999999997
 20
0.7499999999999974
 30
0.0
  0
SEQEND
  5
194C
330
1940
100
AcDbEntity
  8
AM_0
  0
LINE
  5
194D
330
1F
100
AcDbEntity
  8
AM_0
100
AcDbLine
 10
-4.999999999999997
 20
0.2354878513468792
 30
0.0
 11
-5.281249999999996
 21
0.2891474551852475
 31
0.0
  0
LINE
  5
194E
330
1F
100
AcDbEntity
  8
AM_0
100
AcDbLine
 10
-5.281249999999996
 20
0.2891474551852475
 30
0.0
 11
-5.656249999999998
 21
0.2715151777431384
 31
0.0
  0
LINE
  5
194F
330
1F
100
AcDbEntity
  8
AM_0
100
AcDbLine
 10
-5.656249999999998
 20
0.2715151777431384
 30
0.0
 11
-5.749999999999996
 21
0.1710888931231436
 31
0.0
  0
LINE
  5
1950
330
1F
100
AcDbEntity
  8
AM_0
100
AcDbLine
 10
-5.749999999999996
 20
0.1710888931231436
 30
0.0
 11
-5.656249999999998
 21
-0.006539209335072
 31
0.0
  0
LINE
  5
1951
330
1F
100
AcDbEntity
  8
AM_0
100
AcDbLine
 10
-5.656249999999998
 20
-0.006539209335072
 30
0.0
 11
-5.281249999999996
 21
-0.3329787581300643
 31
0.0
  0
LINE
  5
1952
330
1F
100
AcDbEntity
  8
AM_0
100
AcDbLine
 10
-5.281249999999996
 20
-0.3329787581300643
 30
0.0
 11
-4.999999999999997
 21
-0.4980777297578474
 31
0.0
  0
SPLINE
  5
1953
330
1F
100
AcDbEntity
  8
AM_0
100
AcDbSpline
210
0.0
220
0.0
230
1.0
 70
     8
 71
     3
 72
     8
 73
     4
 74
     0
 42
0.0000000001
 43
0.0000000001
 40
4.48458745047074
 40
4.48458745047074
 40
4.48458745047074
 40
4.48458745047074
 40
14.36247867694493
 40
14.36247867694493
 40
14.36247867694493
 40
14.36247867694493
 10
-5.443352095507393
 20
0.6018623220257551
 30
0.0
 10
-4.917590717119952
 20
0.4763517730340708
 30
0.0
 10
-4.412518968478715
 20
0.2381758865170367
 30
0.0
 10
-3.907447219837487
 20
0.000000000000008
 30
0.0
  0
LINE
  5
198F
330
1F
100
AcDbEntity
  8
AM_0
100
AcDbLine
 10
-4.533333333333334
 20
0.750000000000016
 30
0.0
 11
-5.910897725478547
 21
0.7499999999999958
 31
0.0
  0
LINE
  5
1990
330
1F
100
AcDbEntity
  8
AM_0
100
AcDbLine
 10
-5.282309783134428
 20
-0.7500000000000029
 30
0.0
 11
-5.910897725478546
 21
-0.7500000000000034
 31
0.0
  0
LINE
  5
1991
330
1F
100
AcDbEntity
  8
AM_0
100
AcDbLine
 10
-5.910897725478546
 20
0.7499999999999958
 30
0.0
 11
-5.910897725478545
 21
-0.7500000000002523
 31
0.0
  0
VIEWPORT
  5
110
330
101
100
AcDbEntity
 67
     1
  8
0
100
AcDbViewport
 10
420.5
 20
297.0
 30
0.0
 40
948.9782706766916
 41
628.452
 68
     1
 69
     1
1001
ACAD
1000
MVIEW
1002
{
1070
    16
1010
0.0
1020
0.0
1030
0.0
1010
0.0
1020
0.0
1030
1.0
1040
0.0
1040
628.452
1040
420.5
1040
297.0
1040
50.0
1040
0.0
1040
0.0
1070
     0
1070
   100
1070
     1
1070
     1
1070
     0
1070
     0
1070
     0
1070
     0
1040
0.0
1040
0.0
1040
0.0
1040
10.0
1040
10.0
1040
10.0
1040
10.0
1070
     0
1002
{
1002
}
1002
}
  0
ENDSEC
  0
SECTION
  2
OBJECTS
  0
DICTIONARY
  5
C
330
0
100
AcDbDictionary
  3
ACAD_GROUP
350
D
  3
ACAD_LAYOUT
350
1A
  3
ACAD_MLINESTYLE
350
17
  3
ACAD_PLOTSETTINGS
350
19
  3
ACAD_PLOTSTYLENAME
350
E
  3
ACDBVARIABLEDICTIONARY
350
34
  3
ACMDICTIONARY
350
43
  3
AMG
350
2B
  3
AMGSNAPSETTINGS
350
6E
  3
DWGPROPS
350
1A66
  3
ACDBHEADERROUNDTRIPXREC
350
1A72
  0
DICTIONARY
  5
74
330
1F
100
AcDbDictionary
280
     1
  3
ACAD_INDEX
360
1A68
  3
ACAD_LAYOUTSELFREF
360
1A95
  0
DICTIONARY
  5
1A9A
330
101
100
AcDbDictionary
280
     1
  3
ACAD_LAYOUTSELFREF
360
1A9B
  0
DICTIONARY
  5
D
102
{ACAD_REACTORS
330
C
102
}
330
C
100
AcDbDictionary
  0
DICTIONARY
  5
1A
102
{ACAD_REACTORS
330
C
102
}
330
C
100
AcDbDictionary
  0
DICTIONARY
  5
17
102
{ACAD_REACTORS
330
C
102
}
330
C
100
AcDbDictionary
  3
STANDARD
350
18
  0
DICTIONARY
  5
19
102
{ACAD_REACTORS
330
C
102
}
330
C
100
AcDbDictionary
  0
ACDBDICTIONARYWDFLT
  5
E
102
{ACAD_REACTORS
330
C
102
}
330
C
100
AcDbDictionary
281
     1
  3
Normal
350
F
100
AcDbDictionaryWithDefault
340
F
  0
DICTIONARY
  5
34
102
{ACAD_REACTORS
330
C
102
}
330
C
100
AcDbDictionary
  3
INDEXCTL
350
35
  3
SORTENTS
350
B5E
  0
DICTIONARY
  5
43
102
{ACAD_REACTORS
330
C
102
}
330
C
100
AcDbDictionary
  3
ACMSTDDICTIONARY
350
260
  0
DICTIONARY
  5
2B
102
{ACAD_REACTORS
330
C
102
}
330
C
100
AcDbDictionary
  3
ACMGSETTINGS
350
2C
  0
DICTIONARY
  5
6E
102
{ACAD_REACTORS
330
C
102
}
330
C
100
AcDbDictionary
  0
XRECORD
  5
1A66
102
{ACAD_REACTORS
330
C
102
}
330
C
100
AcDbXrecord
  1
DWGPROPS COOKIE
  2

  3

  4

  6

  7

  8

  9

300
AmdtFileType=82
301
=
302
=
303
=
304
=
305
=
306
=
307
=
308
=
309
=
 40
0.0536031365740741
 41
2452836.771637361
 42
2453045.61374309
  1

 90
        1
  0
DICTIONARY
  5
1A72
102
{ACAD_REACTORS
330
C
102
}
330
C
100
AcDbDictionary
  3
TSTACKALIGN
350
1A73
  3
TSTACKSIZE
350
1A74
  3
HYPERLINKBASE
350
1A75
  3
STYLESHEET
350
1A76
  3
LAYOUTDICT
350
1A77
  3
PLOTSETDICT
350
1A78
  3
PLOTSTYLNAMDICT
350
1A79
  3
LWETCUNION
350
1A7A
  3
INSUNITS
350
1A7B
  3
CEPSNTYPE
350
1A7C
  3
FINGERPRINTGUID
350
1A7D
  3
VERSIONGUID
350
1A7E
  3
PSVPSCALE
350
1A7F
  3
DIMSTYLEDATA
350
1A80
  3
PUCSORTHOREF
350
1A81
  3
PUCSORTHOVIEW
350
1A82
  3
PUCSBASE
350
1A83
  3
PUCSORGTOP
350
1A84
  3
PUCSORGBOTTOM
350
1A85
  3
PUCSORGLEFT
350
1A86
  3
PUCSORGRIGHT
350
1A87
  3
PUCSORGFRONT
350
1A88
  3
PUCSORGBACK
350
1A89
  3
UCSORTHOREF
350
1A8A
  3
UCSORTHOVIEW
350
1A8B
  3
UCSBASE
350
1A8C
  3
UCSORGTOP
350
1A8D
  3
UCSORGBOTTOM
350
1A8E
  3
UCSORGLEFT
350
1A8F
  3
UCSORGRIGHT
350
1A90
  3
UCSORGFRONT
350
1A91
  3
UCSORGBACK
350
1A92
  0
DICTIONARY
  5
1A68
102
{ACAD_REACTORS
330
74
102
}
330
74
100
AcDbDictionary
  3
*A1
350
1A69
  0
XRECORD
  5
1A95
102
{ACAD_REACTORS
330
74
102
}
330
74
100
AcDbXrecord
340
1F
  0
XRECORD
  5
1A9B
102
{ACAD_REACTORS
330
1A9A
102
}
330
1A9A
100
AcDbXrecord
340
101
  0
MLINESTYLE
  5
18
102
{ACAD_REACTORS
330
17
102
}
330
17
100
AcDbMlineStyle
  2
STANDARD
 70
     0
  3

 62
   256
 51
90.0
 52
90.0
 71
     2
 49
0.5
 62
   256
  6
BYLAYER
 49
-0.5
 62
   256
  6
BYLAYER
  0
ACDBPLACEHOLDER
  5
F
102
{ACAD_REACTORS
330
E
102
}
330
E
100
AcDbPlaceHolder
280
     0
  0
DICTIONARYVAR
  5
35
102
{ACAD_REACTORS
330
34
102
}
330
34
100
DictionaryVariables
280
     0
  1
1
  0
DICTIONARYVAR
  5
B5E
102
{ACAD_REACTORS
330
34
102
}
330
34
100
DictionaryVariables
280
     0
  1
96
  0
DICTIONARY
  5
260
102
{ACAD_REACTORS
330
43
102
}
330
43
100
AcDbDictionary
  0
DICTIONARY
  5
2C
102
{ACAD_REACTORS
330
2B
102
}
330
2B
100
AcDbDictionary
  3
DWGSETTINGS
350
2D
  0
XRECORD
  5
1A73
102
{ACAD_REACTORS
330
1A72
102
}
330
1A72
100
AcDbXrecord
 90
        1
  0
XRECORD
  5
1A74
102
{ACAD_REACTORS
330
1A72
102
}
330
1A72
100
AcDbXrecord
 90
       70
  0
XRECORD
  5
1A75
102
{ACAD_REACTORS
330
1A72
102
}
330
1A72
100
AcDbXrecord
  1

  0
XRECORD
  5
1A76
102
{ACAD_REACTORS
330
1A72
102
}
330
1A72
100
AcDbXrecord
  1
ASAMI.ctb
  0
XRECORD
  5
1A77
102
{ACAD_REACTORS
330
1A72
102
}
330
1A72
100
AcDbXrecord
340
1A
  0
XRECORD
  5
1A78
102
{ACAD_REACTORS
330
1A72
102
}
330
1A72
100
AcDbXrecord
340
19
  0
XRECORD
  5
1A79
102
{ACAD_REACTORS
330
1A72
102
}
330
1A72
100
AcDbXrecord
340
E
  0
XRECORD
  5
1A7A
102
{ACAD_REACTORS
330
1A72
102
}
330
1A72
100
AcDbXrecord
 90
    10781
  0
XRECORD
  5
1A7B
102
{ACAD_REACTORS
330
1A72
102
}
330
1A72
100
AcDbXrecord
 90
        4
  0
XRECORD
  5
1A7C
102
{ACAD_REACTORS
330
1A72
102
}
330
1A72
100
AcDbXrecord
 90
        0
  0
XRECORD
  5
1A7D
102
{ACAD_REACTORS
330
1A72
102
}
330
1A72
100
AcDbXrecord
  1
{AFB28963-8C59-40AE-9337-C84526B81ACE}
  0
XRECORD
  5
1A7E
102
{ACAD_REACTORS
330
1A72
102
}
330
1A72
100
AcDbXrecord
  1
{F73E2F8D-1F51-49E1-B2E1-EEBCCD8FE456}
  0
XRECORD
  5
1A7F
102
{ACAD_REACTORS
330
1A72
102
}
330
1A72
100
AcDbXrecord
 40
0.0
  0
XRECORD
  5
1A80
102
{ACAD_REACTORS
330
1A72
102
}
330
1A72
100
AcDbXrecord
1000
DSTYLE
1002
{
1070
    79
 70
     2
1070
   341
340
59
1070
   342
340
59
1070
   371
 70
    -1
1070
   372
 70
    -1
1002
}
  0
XRECORD
  5
1A81
102
{ACAD_REACTORS
330
1A72
102
}
330
1A72
100
AcDbXrecord
340
0
  0
XRECORD
  5
1A82
102
{ACAD_REACTORS
330
1A72
102
}
330
1A72
100
AcDbXrecord
 70
     0
  0
XRECORD
  5
1A83
102
{ACAD_REACTORS
330
1A72
102
}
330
1A72
100
AcDbXrecord
340
0
  0
XRECORD
  5
1A84
102
{ACAD_REACTORS
330
1A72
102
}
330
1A72
100
AcDbXrecord
 10
0.0
 20
0.0
 30
0.0
  0
XRECORD
  5
1A85
102
{ACAD_REACTORS
330
1A72
102
}
330
1A72
100
AcDbXrecord
 10
0.0
 20
0.0
 30
0.0
  0
XRECORD
  5
1A86
102
{ACAD_REACTORS
330
1A72
102
}
330
1A72
100
AcDbXrecord
 10
0.0
 20
0.0
 30
0.0
  0
XRECORD
  5
1A87
102
{ACAD_REACTORS
330
1A72
102
}
330
1A72
100
AcDbXrecord
 10
0.0
 20
0.0
 30
0.0
  0
XRECORD
  5
1A88
102
{ACAD_REACTORS
330
1A72
102
}
330
1A72
100
AcDbXrecord
 10
0.0
 20
0.0
 30
0.0
  0
XRECORD
  5
1A89
102
{ACAD_REACTORS
330
1A72
102
}
330
1A72
100
AcDbXrecord
 10
0.0
 20
0.0
 30
0.0
  0
XRECORD
  5
1A8A
102
{ACAD_REACTORS
330
1A72
102
}
330
1A72
100
AcDbXrecord
340
0
  0
XRECORD
  5
1A8B
102
{ACAD_REACTORS
330
1A72
102
}
330
1A72
100
AcDbXrecord
 70
     0
  0
XRECORD
  5
1A8C
102
{ACAD_REACTORS
330
1A72
102
}
330
1A72
100
AcDbXrecord
340
0
  0
XRECORD
  5
1A8D
102
{ACAD_REACTORS
330
1A72
102
}
330
1A72
100
AcDbXrecord
 10
0.0
 20
0.0
 30
0.0
  0
XRECORD
  5
1A8E
102
{ACAD_REACTORS
330
1A72
102
}
330
1A72
100
AcDbXrecord
 10
0.0
 20
0.0
 30
0.0
  0
XRECORD
  5
1A8F
102
{ACAD_REACTORS
330
1A72
102
}
330
1A72
100
AcDbXrecord
 10
0.0
 20
0.0
 30
0.0
  0
XRECORD
  5
1A90
102
{ACAD_REACTORS
330
1A72
102
}
330
1A72
100
AcDbXrecord
 10
0.0
 20
0.0
 30
0.0
  0
XRECORD
  5
1A91
102
{ACAD_REACTORS
330
1A72
102
}
330
1A72
100
AcDbXrecord
 10
0.0
 20
0.0
 30
0.0
  0
XRECORD
  5
1A92
102
{ACAD_REACTORS
330
1A72
102
}
330
1A72
100
AcDbXrecord
 10
0.0
 20
0.0
 30
0.0
  0
LAYER_INDEX
  5
1A69
102
{ACAD_REACTORS
330
1A68
102
}
330
1A68
100
AcDbIndex
 40
2453151.79478375
100
AcDbLayerIndex
  8
0
360
1A6A
 90
        0
  8
AM_0
360
1A6B
 90
       60
  8
AM_11
360
1A6C
 90
        3
  8
AM_7
360
1A6D
 90
        1
  8
AM_5
360
1A6E
 90
        4
  8
Defpoints
360
1A6F
 90
        0
  8
AM_6
360
1A70
 90
        1
  0
XRECORD
  5
2D
102
{ACAD_REACTORS
330
2C
102
}
330
2C
100
AcDbXrecord
  1
VERSION
140
15.0
  1
PRODUCT
  2
AutoCAD Mechanical 2000
  0
IDBUFFER
  5
1A6A
330
0
100
AcDbIdBuffer
  0
IDBUFFER
  5
1A6B
330
0
100
AcDbIdBuffer
330
193E
330
1940
330
194D
330
194E
330
194F
330
1950
330
1951
330
1952
330
1953
330
198F
330
1990
330
1991
330
14B3
330
14B4
330
14B5
330
14B6
330
14B7
330
14C0
330
188B
330
188E
330
188F
330
190D
330
190E
330
190F
330
1910
330
1911
330
1912
330
1913
330
1914
330
1915
330
1916
330
1917
330
1918
330
1919
330
191A
330
191B
330
191D
330
191E
330
1920
330
1921
330
1925
330
1926
330
1929
330
192A
330
192B
330
192C
330
192D
330
192E
330
192F
330
1932
330
1933
330
1934
330
1935
330
1936
330
1937
330
1938
330
1939
330
193A
330
193B
330
193D
  0
IDBUFFER
  5
1A6C
330
0
100
AcDbIdBuffer
330
1922
330
1923
330
1924
  0
IDBUFFER
  5
1A6D
330
0
100
AcDbIdBuffer
330
13DC
  0
IDBUFFER
  5
1A6E
330
0
100
AcDbIdBuffer
330
153E
330
15E6
330
16EA
330
177A
  0
IDBUFFER
  5
1A6F
330
0
100
AcDbIdBuffer
  0
IDBUFFER
  5
1A70
330
0
100
AcDbIdBuffer
330
E5A
  0
ENDSEC
  0
EOF
