  0
SECTION
  2
HEADER
  9
$ACADVER
  1
AC1014
  9
$ACADMAINTVER
 70
     9
  9
$DWGCODEPAGE
  3
ANSI_932
  9
$INSBASE
 10
0.0
 20
0.0
 30
0.0
  9
$EXTMIN
 10
-61.41123869649856
 20
-28.25000100000023
 30
-0.00000001
  9
$EXTMAX
 10
8.629789688840498
 20
3.999999999999875
 30
0.00000001
  9
$LIMMIN
 10
-64.30545277596564
 20
-36.07280533105347
  9
$LIMMAX
 10
13.45643524686886
 20
14.42418216455266
  9
$ORTHOMODE
 70
     0
  9
$REGENMODE
 70
     1
  9
$FILLMODE
 70
     1
  9
$QTEXTMODE
 70
     0
  9
$MIRRTEXT
 70
     0
  9
$DRAGMODE
 70
     2
  9
$LTSCALE
 40
1.0
  9
$OSMODE
 70
    55
  9
$ATTMODE
 70
     1
  9
$TEXTSIZE
 40
2.5
  9
$TRACEWID
 40
1.0
  9
$TEXTSTYLE
  7
STANDARD
  9
$CLAYER
  8
AM_0
  9
$CELTYPE
  6
BYLAYER
  9
$CECOLOR
 62
   256
  9
$CELTSCALE
 40
1.0
  9
$DELOBJ
 70
     1
  9
$DISPSILH
 70
     0
  9
$DIMSCALE
 40
0.5
  9
$DIMASZ
 40
2.5
  9
$DIMEXO
 40
1.0
  9
$DIMDLI
 40
12.0
  9
$DIMRND
 40
0.0
  9
$DIMDLE
 40
0.0
  9
$DIMEXE
 40
1.0
  9
$DIMTP
 40
0.1
  9
$DIMTM
 40
0.1
  9
$DIMTXT
 40
3.2
  9
$DIMCEN
 40
0.0
  9
$DIMTSZ
 40
0.0
  9
$DIMTOL
 70
     0
  9
$DIMLIM
 70
     0
  9
$DIMTIH
 70
     0
  9
$DIMTOH
 70
     0
  9
$DIMSE1
 70
     0
  9
$DIMSE2
 70
     0
  9
$DIMTAD
 70
     3
  9
$DIMZIN
 70
     8
  9
$DIMBLK
  1
OPEN30
  9
$DIMASO
 70
     1
  9
$DIMSHO
 70
     1
  9
$DIMPOST
  1

  9
$DIMAPOST
  1
"
  9
$DIMALT
 70
     0
  9
$DIMALTD
 70
     2
  9
$DIMALTF
 40
0.0393701
  9
$DIMLFAC
 40
1.0
  9
$DIMTOFL
 70
     1
  9
$DIMTVP
 40
0.0
  9
$DIMTIX
 70
     0
  9
$DIMSOXD
 70
     0
  9
$DIMSAH
 70
     0
  9
$DIMBLK1
  1

  9
$DIMBLK2
  1

  9
$DIMSTYLE
  2
AM_JIS
  9
$DIMCLRD
 70
   256
  9
$DIMCLRE
 70
   256
  9
$DIMCLRT
 70
     2
  9
$DIMTFAC
 40
0.71
  9
$DIMGAP
 40
1.5
  9
$DIMJUST
 70
     0
  9
$DIMSD1
 70
     0
  9
$DIMSD2
 70
     0
  9
$DIMTOLJ
 70
     0
  9
$DIMTZIN
 70
     0
  9
$DIMALTZ
 70
     0
  9
$DIMALTTZ
 70
     0
  9
$DIMFIT
 70
     3
  9
$DIMUPT
 70
     0
  9
$DIMUNIT
 70
     2
  9
$DIMDEC
 70
     3
  9
$DIMTDEC
 70
     3
  9
$DIMALTU
 70
     2
  9
$DIMALTTD
 70
     2
  9
$DIMTXSTY
  7
ASAMI
  9
$DIMAUNIT
 70
     0
  9
$LUNITS
 70
     2
  9
$LUPREC
 70
     2
  9
$SKETCHINC
 40
1.0
  9
$FILLETRAD
 40
2.5
  9
$AUNITS
 70
     0
  9
$AUPREC
 70
     0
  9
$MENU
  1
.
  9
$ELEVATION
 40
0.0
  9
$PELEVATION
 40
0.0
  9
$THICKNESS
 40
0.0
  9
$LIMCHECK
 70
     0
  9
$BLIPMODE
 70
     0
  9
$CHAMFERA
 40
0.5
  9
$CHAMFERB
 40
0.5
  9
$CHAMFERC
 40
20.0
  9
$CHAMFERD
 40
0.0
  9
$SKPOLY
 70
     0
  9
$TDCREATE
 40
2452836.771637361
  9
$TDUPDATE
 40
2453151.797613322
  9
$TDINDWG
 40
0.0899150000
  9
$TDUSRTIMER
 40
0.0899150000
  9
$USRTIMER
 70
     1
  9
$ANGBASE
 50
0.0
  9
$ANGDIR
 70
     0
  9
$PDMODE
 70
     0
  9
$PDSIZE
 40
0.0
  9
$PLINEWID
 40
0.0
  9
$COORDS
 70
     1
  9
$SPLFRAME
 70
     0
  9
$SPLINETYPE
 70
     6
  9
$SPLINESEGS
 70
     8
  9
$ATTDIA
 70
     1
  9
$ATTREQ
 70
     1
  9
$HANDLING
 70
 12289
  9
$HANDSEED
  5
2FBA
  9
$SURFTAB1
 70
     6
  9
$SURFTAB2
 70
     6
  9
$SURFTYPE
 70
     6
  9
$SURFU
 70
     6
  9
$SURFV
 70
     6
  9
$UCSNAME
  2

  9
$UCSORG
 10
0.0
 20
0.0
 30
0.0
  9
$UCSXDIR
 10
1.0
 20
0.0
 30
0.0
  9
$UCSYDIR
 10
0.0
 20
1.0
 30
0.0
  9
$PUCSNAME
  2

  9
$PUCSORG
 10
0.0
 20
0.0
 30
0.0
  9
$PUCSXDIR
 10
1.0
 20
0.0
 30
0.0
  9
$PUCSYDIR
 10
0.0
 20
1.0
 30
0.0
  9
$USERI1
 70
     0
  9
$USERI2
 70
     0
  9
$USERI3
 70
     0
  9
$USERI4
 70
     0
  9
$USERI5
 70
     0
  9
$USERR1
 40
0.0
  9
$USERR2
 40
0.0
  9
$USERR3
 40
0.0
  9
$USERR4
 40
0.0
  9
$USERR5
 40
0.0
  9
$WORLDVIEW
 70
     1
  9
$SHADEDGE
 70
     3
  9
$SHADEDIF
 70
    70
  9
$TILEMODE
 70
     1
  9
$MAXACTVP
 70
    64
  9
$PINSBASE
 10
0.0
 20
0.0
 30
0.0
  9
$PLIMCHECK
 70
     0
  9
$PEXTMIN
 10
1.000000000000000E+20
 20
1.000000000000000E+20
 30
1.000000000000000E+20
  9
$PEXTMAX
 10
-1.000000000000000E+20
 20
-1.000000000000000E+20
 30
-1.000000000000000E+20
  9
$PLIMMIN
 10
0.0
 20
0.0
  9
$PLIMMAX
 10
841.0
 20
594.0
  9
$UNITMODE
 70
     0
  9
$VISRETAIN
 70
     1
  9
$PLINEGEN
 70
     0
  9
$PSLTSCALE
 70
     0
  9
$TREEDEPTH
 70
  3020
  9
$PICKSTYLE
 70
     0
  9
$CMLSTYLE
  2
STANDARD
  9
$CMLJUST
 70
     0
  9
$CMLSCALE
 40
20.0
  9
$PROXYGRAPHICS
 70
     1
  9
$MEASUREMENT
 70
     1
  0
ENDSEC
  0
SECTION
  2
CLASSES
  0
CLASS
  1
ACDBDICTIONARYWDFLT
  2
AcDbDictionaryWithDefault
  3
AutoCAD 2000
 90
        0
280
     0
281
     0
  0
CLASS
  1
ACDBPLACEHOLDER
  2
AcDbPlaceHolder
  3
AutoCAD 2000
 90
        0
280
     0
281
     0
  0
CLASS
  1
LAYOUT
  2
AcDbLayout
  3
AutoCAD 2000
 90
        0
280
     0
281
     0
  0
CLASS
  1
AMGSETTINGSOBJ
  2
AmgSettingsObj
  3
"AcadM|Product Description: AutoCAD Mechanical 2000|Company: Autodesk"
 90
        0
280
     0
281
     0
  0
CLASS
  1
ACME_DOCUMENT
  2
AcMeDbDoc
  3
AcMeServices
 90
        0
280
     0
281
     0
  0
CLASS
  1
ACMESCOPE
  2
AcMeScope
  3
AcMeServices
 90
        0
280
     0
281
     0
  0
CLASS
  1
ACMECOMMANDHISTORY
  2
AcMeCommandHistory
  3
AcMeServices
 90
        0
280
     0
281
     0
  0
CLASS
  1
DICTIONARYVAR
  2
AcDbDictionaryVar
  3
AutoCAD 2000
 90
        0
280
     0
281
     0
  0
CLASS
  1
ACIMSYSVARMAN
  2
AcImSysVarManager
  3
AcMeServices
 90
        0
280
     0
281
     0
  0
CLASS
  1
ACIMREALSYSVAR
  2
AcImRealSysVar
  3
AcMeServices
 90
        0
280
     0
281
     0
  0
CLASS
  1
ACIMINTSYSVAR
  2
AcImIntSysVar
  3
AcMeServices
 90
        0
280
     0
281
     0
  0
CLASS
  1
ACMEDRAWINGMAN
  2
AcMeDrawingMan
  3
AcMeServices
 90
        0
280
     0
281
     0
  0
CLASS
  1
ACMEVIEW
  2
AcMeView
  3
AcMeServices
 90
        0
280
     0
281
     0
  0
CLASS
  1
ACDBENTITYCACHE
  2
AcMeEntityCache
  3
AcMeServices
 90
        0
280
     0
281
     0
  0
CLASS
  1
GSMANAGER
  2
AcMeGSManager
  3
AcMeServices
 90
        0
280
     0
281
     0
  0
CLASS
  1
AmdtInternalReactor
  2
AmdtInternalReactor
  3
AcMeServices
 90
        0
280
     0
281
     0
  0
CLASS
  1
ACMESTATEMGR
  2
AcMeStateMgr
  3
AcMeServices
 90
        0
280
     0
281
     0
  0
CLASS
  1
ACME_DATABASE
  2
AcMeDbDatabase
  3
AcMeServices
 90
        0
280
     0
281
     0
  0
CLASS
  1
ACRFINSADJUSTERMGR
  2
AcRfInsAdjusterMgr
  3
AcMeServices
 90
        0
280
     0
281
     0
  0
CLASS
  1
ACMDATADICTIONARY
  2
AcmDataDictionary
  3
"AcmSymBB|Product Description: AutoCAD Mechanical 2000|Company: Autodesk"
 90
        0
280
     0
281
     0
  0
CLASS
  1
ACMDATAENTRYBLOCK
  2
AcmDataEntryBlock
  3
"AcmSymBB|Product Description: AutoCAD Mechanical 2000|Company: Autodesk"
 90
        0
280
     0
281
     0
  0
CLASS
  1
AMGOBJPROPCFG
  2
AmgObjPropCfg
  3
"AmgLay|Product Description: AutoCAD Mechanical 2000|Company: Autodesk"
 90
        1
280
     0
281
     0
  0
CLASS
  1
ACAMGFILTERDAT
  2
AcAmgFilterDat
  3
"AcadM|Product Description: AutoCAD Mechanical 2000|Company: Autodesk"
 90
        0
280
     0
281
     0
  0
CLASS
  1
LAYER_INDEX
  2
AcDbLayerIndex
  3
AutoCAD 2000
 90
        0
280
     0
281
     0
  0
CLASS
  1
IDBUFFER
  2
AcDbIdBuffer
  3
AutoCAD 2000
 90
        0
280
     0
281
     0
  0
CLASS
  1
ACIMSTRSYSVAR
  2
AcImStrSysVar
  3
AcMeServices
 90
        0
280
     0
281
     0
  0
CLASS
  1
ACMSTANDARDJIS
  2
AcmStandardJIS
  3
"AcmSymBB|Product Description: AutoCAD Mechanical 2000|Company: Autodesk"
 90
        0
280
     0
281
     0
  0
CLASS
  1
ACMSURFSTANDARDJIS
  2
AcmSurfTextStdJIS
  3
"AcmSymBB|Product Description: AutoCAD Mechanical 2000|Company: Autodesk"
 90
        0
280
     0
281
     0
  0
CLASS
  1
ACMFCFSTANDARDJIS
  2
AcmFCFStdJIS
  3
"AcmSymBB|Product Description: AutoCAD Mechanical 2000|Company: Autodesk"
 90
        0
280
     0
281
     0
  0
CLASS
  1
ACMWELDSTANDARDJIS
  2
AcmWeldingStdJIS
  3
"AcmSymBB|Product Description: AutoCAD Mechanical 2000|Company: Autodesk"
 90
        0
280
     0
281
     0
  0
CLASS
  1
ACMIDSTANDARDJIS
  2
AcmIdStdJIS
  3
"AcmSymBB|Product Description: AutoCAD Mechanical 2000|Company: Autodesk"
 90
        0
280
     0
281
     0
  0
CLASS
  1
ACMDATUMSTANDARDJIS
  2
AcmDatumStdJIS
  3
"AcmSymBB|Product Description: AutoCAD Mechanical 2000|Company: Autodesk"
 90
        0
280
     0
281
     0
  0
CLASS
  1
ACMBOMSTANDARDJIS
  2
AcmBOMStdJIS
  3
"AcmSymBB|Product Description: AutoCAD Mechanical 2000|Company: Autodesk"
 90
        0
280
     0
281
     0
  0
CLASS
  1
ACMSTANDARDANSI
  2
AcmStandardANSI
  3
"AcmSymBB|Product Description: AutoCAD Mechanical 2000|Company: Autodesk"
 90
        0
280
     0
281
     0
  0
CLASS
  1
ACMSURFSTANDARDANSI
  2
AcmSurfTextStdANSI
  3
"AcmSymBB|Product Description: AutoCAD Mechanical 2000|Company: Autodesk"
 90
        0
280
     0
281
     0
  0
CLASS
  1
ACMFCFSTANDARDANSI
  2
AcmFCFStdANSI
  3
"AcmSymBB|Product Description: AutoCAD Mechanical 2000|Company: Autodesk"
 90
        0
280
     0
281
     0
  0
CLASS
  1
ACMWELDSTANDARDANSI
  2
AcmWeldingStdANSI
  3
"AcmSymBB|Product Description: AutoCAD Mechanical 2000|Company: Autodesk"
 90
        0
280
     0
281
     0
  0
CLASS
  1
ACMIDSTANDARDANSI
  2
AcmIdStdANSI
  3
"AcmSymBB|Product Description: AutoCAD Mechanical 2000|Company: Autodesk"
 90
        0
280
     0
281
     0
  0
CLASS
  1
ACMDATUMSTANDARDANSI
  2
AcmDatumStdANSI
  3
"AcmSymBB|Product Description: AutoCAD Mechanical 2000|Company: Autodesk"
 90
        0
280
     0
281
     0
  0
CLASS
  1
ACMBOMSTANDARDANSI
  2
AcmBOMStdANSI
  3
"AcmSymBB|Product Description: AutoCAD Mechanical 2000|Company: Autodesk"
 90
        0
280
     0
281
     0
  0
CLASS
  1
ACMSTANDARDBSI
  2
AcmStandardBSI
  3
"AcmSymBB|Product Description: AutoCAD Mechanical 2000|Company: Autodesk"
 90
        0
280
     0
281
     0
  0
CLASS
  1
ACMSURFSTANDARDBSI
  2
AcmSurfTextStdBSI
  3
"AcmSymBB|Product Description: AutoCAD Mechanical 2000|Company: Autodesk"
 90
        0
280
     0
281
     0
  0
CLASS
  1
ACMFCFSTANDARDBSI
  2
AcmFCFStdBSI
  3
"AcmSymBB|Product Description: AutoCAD Mechanical 2000|Company: Autodesk"
 90
        0
280
     0
281
     0
  0
CLASS
  1
ACMWELDSTANDARDBSI
  2
AcmWeldingStdBSI
  3
"AcmSymBB|Product Description: AutoCAD Mechanical 2000|Company: Autodesk"
 90
        0
280
     0
281
     0
  0
CLASS
  1
ACMIDSTANDARDBSI
  2
AcmIdStdBSI
  3
"AcmSymBB|Product Description: AutoCAD Mechanical 2000|Company: Autodesk"
 90
        0
280
     0
281
     0
  0
CLASS
  1
ACMDATUMSTANDARDBSI
  2
AcmDatumStdBSI
  3
"AcmSymBB|Product Description: AutoCAD Mechanical 2000|Company: Autodesk"
 90
        0
280
     0
281
     0
  0
CLASS
  1
ACMBOMSTANDARDBSI
  2
AcmBOMStdBSI
  3
"AcmSymBB|Product Description: AutoCAD Mechanical 2000|Company: Autodesk"
 90
        0
280
     0
281
     0
  0
CLASS
  1
LONG_TRANSACTION
  2
AcDbLongTransaction
  3
AutoCAD 2000
 90
        0
280
     0
281
     0
  0
CLASS
  1
LWPOLYLINE
  2
AcDbPolyline
  3
AutoCAD 2000
 90
        0
280
     0
281
     1
  0
CLASS
  1
HATCH
  2
AcDbHatch
  3
AutoCAD 2000
 90
        0
280
     0
281
     1
  0
CLASS
  1
XRECORD
  2
AcDbXrecord
  3
AutoCAD 2000
 90
        0
280
     0
281
     0
  0
ENDSEC
  0
SECTION
  2
TABLES
  0
TABLE
  2
VPORT
  5
8
330
0
100
AcDbSymbolTable
 70
     3
  0
VPORT
  5
2F8F
330
8
100
AcDbSymbolTableRecord
100
AcDbViewportTableRecord
  2
*ACTIVE
 70
     0
 10
0.0
 20
0.0
 11
1.0
 21
1.0
 12
-26.38858228485149
 22
-12.12649513521717
 13
0.0
 23
0.0
 14
2.5
 24
2.5
 15
10.0
 25
10.0
 16
0.0
 26
0.0
 36
1.0
 17
0.0
 27
0.0
 37
0.0
 40
44.91476667947677
 41
1.56570841889117
 42
50.0
 43
0.0
 44
0.0
 50
0.0
 51
0.0
 71
     0
 72
   100
 73
     1
 74
     3
 75
     0
 76
     0
 77
     0
 78
     0
  0
ENDTAB
  0
TABLE
  2
LTYPE
  5
5
330
0
100
AcDbSymbolTable
 70
    10
  0
LTYPE
  5
14
330
5
100
AcDbSymbolTableRecord
100
AcDbLinetypeTableRecord
  2
BYBLOCK
 70
     0
  3

 72
    65
 73
     0
 40
0.0
  0
LTYPE
  5
15
330
5
100
AcDbSymbolTableRecord
100
AcDbLinetypeTableRecord
  2
BYLAYER
 70
     0
  3

 72
    65
 73
     0
 40
0.0
  0
LTYPE
  5
16
330
5
100
AcDbSymbolTableRecord
100
AcDbLinetypeTableRecord
  2
CONTINUOUS
 70
     0
  3
Solid line
 72
    65
 73
     0
 40
0.0
  0
LTYPE
  5
4B
330
5
100
AcDbSymbolTableRecord
100
AcDbLinetypeTableRecord
  2
AM_ISO02W050
 70
     0
  3
__ __ __ __ __ __ __ __ __ __ __ __ __ __ __
 72
    65
 73
     2
 40
7.5
 49
6.0
 74
     0
 49
-1.5
 74
     0
  0
LTYPE
  5
4C
330
5
100
AcDbSymbolTableRecord
100
AcDbLinetypeTableRecord
  2
AM_ISO08W050
 70
     0
  3
____ . ____ . ____ . ____ . ____ . ____ . ____
 72
    65
 73
     4
 40
18.0
 49
12.0
 74
     0
 49
-1.5
 74
     0
 49
3.0
 74
     0
 49
-1.5
 74
     0
  0
LTYPE
  5
4D
330
5
100
AcDbSymbolTableRecord
100
AcDbLinetypeTableRecord
  2
AM_ISO09W050
 70
     0
  3
_____ . . _____ . . _____ . . ____ .. ____
 72
    65
 73
     6
 40
22.5
 49
12.0
 74
     0
 49
-1.5
 74
     0
 49
3.0
 74
     0
 49
-1.5
 74
     0
 49
3.0
 74
     0
 49
-1.5
 74
     0
  0
LTYPE
  5
4E
330
5
100
AcDbSymbolTableRecord
100
AcDbLinetypeTableRecord
  2
AMCONSTR
 70
     0
  3
_______________________
 72
    65
 73
     2
 40
9999.0
 49
9999.0
 74
     0
 49
0.0
 74
     0
  0
LTYPE
  5
4F
330
5
100
AcDbSymbolTableRecord
100
AcDbLinetypeTableRecord
  2
AM_ISO02W050X2
 70
     0
  3
 _ _ _ _ _ _ _ _ _ _ _ _
 72
    65
 73
     2
 40
3.75
 49
3.0
 74
     0
 49
-0.75
 74
     0
  0
LTYPE
  5
50
330
5
100
AcDbSymbolTableRecord
100
AcDbLinetypeTableRecord
  2
AM_ISO08W050X2
 70
     0
  3
__ . __ . __ . __ . __ . __
 72
    65
 73
     4
 40
9.0
 49
6.0
 74
     0
 49
-0.75
 74
     0
 49
1.5
 74
     0
 49
-0.75
 74
     0
  0
LTYPE
  5
53
330
5
100
AcDbSymbolTableRecord
100
AcDbLinetypeTableRecord
  2
AMZIGZAG
 70
     0
  3
/\/-/\/-/\/-/\/-/\/-/\/
 72
    65
 73
     2
 40
11.00009999999999
 49
0.0001
 74
     4
 75
   135
340
52
 46
0.04
 50
0.0
 44
0.0
 45
0.0
 49
-11.0
 74
     0
  0
LTYPE
  5
166
330
5
100
AcDbSymbolTableRecord
100
AcDbLinetypeTableRecord
  2
ACJISTGL
 70
     0
  3
_ _ _ _ _
 72
    65
 73
     2
 40
3.0
 49
2.0
 74
     0
 49
-1.0
 74
     0
  0
LTYPE
  5
26A
330
5
100
AcDbSymbolTableRecord
100
AcDbLinetypeTableRecord
  2
ACJISTGB
 70
     0
  3
__ . . __ . .
 72
    65
 73
     6
 40
9.0
 49
4.0
 74
     0
 49
-1.0
 74
     0
 49
1.0
 74
     0
 49
-1.0
 74
     0
 49
1.0
 74
     0
 49
-1.0
 74
     0
  0
ENDTAB
  0
TABLE
  2
LAYER
  5
2
330
0
100
AcDbSymbolTable
 70
     7
  0
LAYER
  5
10
330
2
100
AcDbSymbolTableRecord
100
AcDbLayerTableRecord
  2
0
 70
     0
 62
     7
  6
CONTINUOUS
  0
LAYER
  5
3F9
330
2
100
AcDbSymbolTableRecord
100
AcDbLayerTableRecord
  2
AM_0
 70
     0
 62
     7
  6
CONTINUOUS
  0
LAYER
  5
BD4
330
2
100
AcDbSymbolTableRecord
100
AcDbLayerTableRecord
  2
AM_11
 70
     0
 62
     3
  6
AM_ISO09W050
  0
LAYER
  5
BD5
330
2
100
AcDbSymbolTableRecord
100
AcDbLayerTableRecord
  2
AM_7
 70
     0
 62
     4
  6
AM_ISO08W050
  0
LAYER
  5
BD6
330
2
100
AcDbSymbolTableRecord
100
AcDbLayerTableRecord
  2
AM_5
 70
     0
 62
     3
  6
CONTINUOUS
  0
LAYER
  5
BD7
330
2
100
AcDbSymbolTableRecord
100
AcDbLayerTableRecord
  2
DEFPOINTS
 70
     0
 62
     7
  6
CONTINUOUS
  0
LAYER
  5
E59
330
2
100
AcDbSymbolTableRecord
100
AcDbLayerTableRecord
  2
AM_6
 70
     0
 62
     2
  6
CONTINUOUS
  0
ENDTAB
  0
TABLE
  2
STYLE
  5
3
330
0
100
AcDbSymbolTable
 70
     5
  0
STYLE
  5
11
330
3
100
AcDbSymbolTableRecord
100
AcDbTextStyleTableRecord
  2
STANDARD
 70
     0
 40
0.0
 41
1.0
 50
0.0
 71
     0
 42
2.5
  3
simplex.shx
  4
EXTFONT.SHX
  0
STYLE
  5
52
330
3
100
AcDbSymbolTableRecord
100
AcDbTextStyleTableRecord
  2

 70
     1
 40
0.0
 41
1.0
 50
0.0
 71
     0
 42
2.5
  3
ltypeshp.shx
  4

  0
STYLE
  5
6B
330
3
100
AcDbSymbolTableRecord
100
AcDbTextStyleTableRecord
  2
ASAMI
 70
     0
 40
0.0
 41
1.0
 50
0.0
 71
     0
 42
2.5
  3
simplex.shx
  4
EXTFONT.SHX
  0
STYLE
  5
262
330
3
100
AcDbSymbolTableRecord
100
AcDbTextStyleTableRecord
  2
ACJISTS
 70
     0
 40
1.0
 41
1.0
 50
0.0
 71
     0
 42
2.5
  3
simplex.shx
  4
bigfont.shx
  0
STYLE
  5
269
330
3
100
AcDbSymbolTableRecord
100
AcDbTextStyleTableRecord
  2
ACJISGDT
 70
     0
 40
0.0
 41
1.0
 50
0.0
 71
     0
 42
2.5
  3
amgdtans.shx
  4

  0
ENDTAB
  0
TABLE
  2
VIEW
  5
6
330
0
100
AcDbSymbolTable
 70
     0
  0
ENDTAB
  0
TABLE
  2
UCS
  5
7
330
0
100
AcDbSymbolTable
 70
     0
  0
ENDTAB
  0
TABLE
  2
APPID
  5
9
330
0
100
AcDbSymbolTable
 70
    12
  0
APPID
  5
12
330
9
100
AcDbSymbolTableRecord
100
AcDbRegAppTableRecord
  2
ACAD
 70
     0
  0
APPID
  5
30
330
9
100
AcDbSymbolTableRecord
100
AcDbRegAppTableRecord
  2
MCAD_NO_VIS
 70
     0
  0
APPID
  5
31
330
9
100
AcDbSymbolTableRecord
100
AcDbRegAppTableRecord
  2
ACAD_TEMP_GRAPHIC
 70
     0
  0
APPID
  5
2C2
330
9
100
AcDbSymbolTableRecord
100
AcDbRegAppTableRecord
  2
GENIUS_GENDTOL_13
 70
     0
  0
APPID
  5
339
330
9
100
AcDbSymbolTableRecord
100
AcDbRegAppTableRecord
  2
GENIUS_GENODEF_13
 70
     0
  0
APPID
  5
33A
330
9
100
AcDbSymbolTableRecord
100
AcDbRegAppTableRecord
  2
GENIUS_GENOBJ-N-RSBK_13
 70
     0
  0
APPID
  5
33B
330
9
100
AcDbSymbolTableRecord
100
AcDbRegAppTableRecord
  2
GENIUS_GENOBJ-N-LIB_13
 70
     0
  0
APPID
  5
33C
330
9
100
AcDbSymbolTableRecord
100
AcDbRegAppTableRecord
  2
GENIUS_GENSCALE_13
 70
     0
  0
APPID
  5
378
330
9
100
AcDbSymbolTableRecord
100
AcDbRegAppTableRecord
  2
GENIUS_GENDIMSH_14
 70
     0
  0
APPID
  5
BD8
330
9
100
AcDbSymbolTableRecord
100
AcDbRegAppTableRecord
  2
GENIUS_GENOBJ-N-CEN_13
 70
     0
  0
APPID
  5
BD9
330
9
100
AcDbSymbolTableRecord
100
AcDbRegAppTableRecord
  2
GENIUS_GENFIL_13
 70
     0
  0
APPID
  5
BDA
330
9
100
AcDbSymbolTableRecord
100
AcDbRegAppTableRecord
  2
GENIUS_GENOBJ-N-CHA_13
 70
     0
  0
ENDTAB
  0
TABLE
  2
DIMSTYLE
  5
A
330
0
100
AcDbSymbolTable
 70
     8
  0
DIMSTYLE
105
58
102
{ACAD_REACTORS
330
16EA
330
177A
330
28FB
330
2CDE
102
}
330
A
100
AcDbSymbolTableRecord
100
AcDbDimStyleTableRecord
  2
AM_JIS
 70
     0
  3

  4
"
  5
OPEN30
  6

  7

 40
0.5
 41
2.5
 42
1.0
 43
12.0
 44
1.0
 45
0.0
 46
0.0
 47
0.1
 48
0.1
140
3.2
141
0.0
142
0.0
143
0.0393701
144
1.0
145
0.0
146
0.71
147
1.5
 71
     0
 72
     0
 73
     0
 74
     0
 75
     0
 76
     0
 77
     3
 78
     8
170
     0
171
     2
172
     1
173
     0
174
     0
175
     0
176
   256
177
   256
178
     2
270
     2
271
     3
272
     3
273
     2
274
     2
340
6B
275
     0
280
     0
281
     0
282
     0
283
     0
284
     0
285
     0
286
     0
287
     3
288
     0
  0
DIMSTYLE
105
5F
330
A
100
AcDbSymbolTableRecord
100
AcDbDimStyleTableRecord
  2
AM_JIS$3
 70
     0
  3

  4
"
  5
OPEN30
  6

  7

 40
0.5
 41
2.5
 42
1.0
 43
10.0
 44
1.0
 45
0.0
 46
0.0
 47
0.1
 48
0.1
140
3.2
141
0.0
142
0.0
143
0.0393701
144
1.0
145
0.0
146
0.71
147
1.5
 71
     0
 72
     0
 73
     0
 74
     1
 75
     0
 76
     0
 77
     3
 78
     8
170
     0
171
     2
172
     0
173
     0
174
     0
175
     0
176
   256
177
   256
178
     2
270
     2
271
     2
272
     3
273
     2
274
     2
340
6B
275
     0
280
     0
281
     0
282
     0
283
     0
284
     0
285
     0
286
     0
287
     0
288
     1
  0
DIMSTYLE
105
60
330
A
100
AcDbSymbolTableRecord
100
AcDbDimStyleTableRecord
  2
AM_JIS$4
 70
     0
  3

  4
"
  5
OPEN30
  6

  7

 40
0.5
 41
2.5
 42
1.0
 43
10.0
 44
1.0
 45
0.0
 46
0.0
 47
0.1
 48
0.1
140
3.2
141
0.0
142
0.0
143
0.0393701
144
1.0
145
0.0
146
0.71
147
1.5
 71
     0
 72
     0
 73
     0
 74
     1
 75
     0
 76
     0
 77
     3
 78
     8
170
     0
171
     2
172
     0
173
     0
174
     0
175
     0
176
   256
177
   256
178
     2
270
     2
271
     2
272
     3
273
     2
274
     2
340
6B
275
     0
280
     0
281
     0
282
     0
283
     0
284
     0
285
     0
286
     0
287
     0
288
     1
  0
DIMSTYLE
105
61
330
A
100
AcDbSymbolTableRecord
100
AcDbDimStyleTableRecord
  2
AM_JIS$6
 70
     0
  3

  4
"
  5
OPEN30
  6

  7

 40
0.5
 41
2.5
 42
1.0
 43
10.0
 44
1.0
 45
0.0
 46
0.0
 47
0.1
 48
0.1
140
3.2
141
0.0
142
0.0
143
0.0393701
144
1.0
145
0.0
146
0.71
147
1.5
 71
     0
 72
     0
 73
     0
 74
     0
 75
     0
 76
     0
 77
     0
 78
     8
170
     0
171
     2
172
     1
173
     0
174
     0
175
     0
176
   256
177
   256
178
     2
270
     2
271
     2
272
     2
273
     2
274
     2
340
6B
275
     0
280
     0
281
     0
282
     0
283
     0
284
     0
285
     0
286
     0
287
     3
288
     0
  0
DIMSTYLE
105
62
330
A
100
AcDbSymbolTableRecord
100
AcDbDimStyleTableRecord
  2
AM_JIS$7
 70
     0
  3

  4
"
  5
OPEN30
  6

  7

 40
0.5
 41
2.5
 42
1.0
 43
10.0
 44
1.0
 45
0.0
 46
0.0
 47
0.1
 48
0.1
140
3.2
141
0.0
142
0.0
143
0.0393701
144
1.0
145
0.0
146
0.71
147
1.5
 71
     0
 72
     0
 73
     0
 74
     0
 75
     0
 76
     0
 77
     3
 78
     8
170
     0
171
     2
172
     1
173
     0
174
     0
175
     0
176
   256
177
   256
178
     2
270
     2
271
     2
272
     3
273
     2
274
     2
340
6B
275
     0
280
     0
281
     0
282
     0
283
     0
284
     0
285
     0
286
     0
287
     3
288
     0
  0
DIMSTYLE
105
63
330
A
100
AcDbSymbolTableRecord
100
AcDbDimStyleTableRecord
  2
AM_JIS$SF
 70
     0
  3

  4
"
  5
OPEN30
  6

  7

 40
0.5
 41
2.5
 42
1.0
 43
10.0
 44
1.0
 45
0.0
 46
0.0
 47
0.1
 48
0.1
140
3.2
141
0.0
142
0.0
143
0.0393701
144
1.0
145
0.0
146
0.71
147
1.5
 71
     0
 72
     0
 73
     0
 74
     0
 75
     1
 76
     1
 77
     3
 78
     8
170
     0
171
     2
172
     1
173
     0
174
     0
175
     0
176
   256
177
   256
178
     2
270
     2
271
     2
272
     2
273
     2
274
     2
340
6B
275
     0
280
     0
281
     0
282
     0
283
     0
284
     0
285
     0
286
     0
287
     3
288
     0
  0
DIMSTYLE
105
68
330
A
100
AcDbSymbolTableRecord
100
AcDbDimStyleTableRecord
  2
AM_JIS$SH
 70
     0
  3

  4
"
  5

  6
GENAXEH
  7
OPEN30
 40
0.5
 41
2.5
 42
1.0
 43
10.0
 44
1.0
 45
0.0
 46
0.0
 47
0.1
 48
0.1
140
3.2
141
0.0
142
0.0
143
0.0393701
144
2.0
145
0.0
146
0.71
147
1.5
 71
     0
 72
     0
 73
     0
 74
     0
 75
     1
 76
     1
 77
     3
 78
     8
170
     0
171
     2
172
     1
173
     1
174
     0
175
     0
176
   256
177
   256
178
     2
270
     2
271
     2
272
     2
273
     2
274
     2
340
6B
275
     0
280
     0
281
     0
282
     0
283
     0
284
     0
285
     0
286
     0
287
     3
288
     0
  0
DIMSTYLE
105
B34
330
A
100
AcDbSymbolTableRecord
100
AcDbDimStyleTableRecord
  2
AM_JIS$2
 70
     0
  3

  4
"
  5
OPEN30
  6

  7

 40
0.5
 41
2.5
 42
1.0
 43
12.0
 44
1.0
 45
0.0
 46
0.0
 47
0.1
 48
0.1
140
3.2
141
0.0
142
0.0
143
0.0393701
144
1.0
145
0.0
146
0.71
147
1.5
 71
     0
 72
     0
 73
     0
 74
     0
 75
     0
 76
     0
 77
     3
 78
     8
170
     0
171
     2
172
     1
173
     0
174
     0
175
     0
176
   256
177
   256
178
     2
270
     2
271
     3
272
     3
273
     2
274
     2
340
6B
275
     0
280
     0
281
     0
282
     0
283
     0
284
     0
285
     0
286
     0
287
     3
288
     0
  0
ENDTAB
  0
TABLE
  2
BLOCK_RECORD
  5
1
330
0
100
AcDbSymbolTable
 70
     9
  0
BLOCK_RECORD
  5
1F
102
{ACAD_XDICTIONARY
360
74
102
}
330
1
100
AcDbSymbolTableRecord
100
AcDbBlockTableRecord
  2
*MODEL_SPACE
  0
BLOCK_RECORD
  5
101
102
{ACAD_XDICTIONARY
360
2FB8
102
}
330
1
100
AcDbSymbolTableRecord
100
AcDbBlockTableRecord
  2
*PAPER_SPACE
  0
BLOCK_RECORD
  5
59
330
1
100
AcDbSymbolTableRecord
100
AcDbBlockTableRecord
  2
_OPEN30
  0
BLOCK_RECORD
  5
64
330
1
100
AcDbSymbolTableRecord
100
AcDbBlockTableRecord
  2
GENAXEH
  0
BLOCK_RECORD
  5
16EB
330
1
100
AcDbSymbolTableRecord
100
AcDbBlockTableRecord
  2
*D5
  0
BLOCK_RECORD
  5
177B
330
1
100
AcDbSymbolTableRecord
100
AcDbBlockTableRecord
  2
*D6
  0
BLOCK_RECORD
  5
28FC
330
1
100
AcDbSymbolTableRecord
100
AcDbBlockTableRecord
  2
*D7
  0
BLOCK_RECORD
  5
2CDF
330
1
100
AcDbSymbolTableRecord
100
AcDbBlockTableRecord
  2
*D8
  0
ENDTAB
  0
ENDSEC
  0
SECTION
  2
BLOCKS
  0
BLOCK
  5
20
330
1F
100
AcDbEntity
  8
0
100
AcDbBlockBegin
  2
*MODEL_SPACE
 70
     0
 10
0.0
 20
0.0
 30
0.0
  3
*MODEL_SPACE
  1

  0
ENDBLK
  5
21
330
1F
100
AcDbEntity
  8
0
100
AcDbBlockEnd
  0
BLOCK
  5
103
330
101
100
AcDbEntity
 67
     1
  8
0
100
AcDbBlockBegin
  2
*PAPER_SPACE
 70
     0
 10
0.0
 20
0.0
 30
0.0
  3
*PAPER_SPACE
  1

  0
ENDBLK
  5
104
330
101
100
AcDbEntity
 67
     1
  8
0
100
AcDbBlockEnd
  0
BLOCK
  5
5D
330
59
100
AcDbEntity
  8
0
100
AcDbBlockBegin
  2
_OPEN30
 70
     0
 10
0.0
 20
0.0
 30
0.0
  3
_OPEN30
  1

  0
LINE
  5
5A
330
59
100
AcDbEntity
  8
0
 62
     0
100
AcDbLine
 10
-1.0
 20
0.26794919
 30
0.0
 11
0.0
 21
0.0
 31
0.0
  0
LINE
  5
5B
330
59
100
AcDbEntity
  8
0
 62
     0
100
AcDbLine
 10
0.0
 20
0.0
 30
0.0
 11
-1.0
 21
-0.26794919
 31
0.0
  0
LINE
  5
5C
330
59
100
AcDbEntity
  8
0
 62
     0
100
AcDbLine
 10
0.0
 20
0.0
 30
0.0
 11
-1.0
 21
0.0
 31
0.0
  0
ENDBLK
  5
5E
330
59
100
AcDbEntity
  8
0
100
AcDbBlockEnd
  0
BLOCK
  5
66
330
64
100
AcDbEntity
  8
0
100
AcDbBlockBegin
  2
GENAXEH
 70
     0
 10
0.0
 20
0.0
 30
0.0
  3
GENAXEH
  1

  0
LINE
  5
65
330
64
100
AcDbEntity
  8
0
100
AcDbLine
 10
-1.0
 20
0.0
 30
0.0
 11
1.0
 21
0.0
 31
0.0
  0
ENDBLK
  5
67
330
64
100
AcDbEntity
  8
0
100
AcDbBlockEnd
  0
BLOCK
  5
16F5
330
16EB
100
AcDbEntity
  8
0
100
AcDbBlockBegin
  2
*D5
 70
     1
 10
0.0
 20
0.0
 30
0.0
  3
*D5
  1

  0
LINE
  5
2E20
330
16EB
100
AcDbEntity
  8
AM_5
100
AcDbLine
 10
-0.0000000000011733
 20
-3.749999999997354
 30
0.0
 11
-0.0000000000011738
 21
-11.5000010000001
 31
0.0
  0
LINE
  5
2E21
330
16EB
100
AcDbEntity
  8
AM_5
100
AcDbLine
 10
-12.0000000000006
 20
-3.750000000000008
 30
0.0
 11
-12.0000000000006
 21
-11.5000010000001
 31
0.0
  0
LINE
  5
2E22
330
16EB
100
AcDbEntity
  8
AM_5
100
AcDbLine
 10
-1.250000000001173
 20
-11.0000010000001
 30
0.0
 11
-10.7500000000006
 21
-11.0000010000001
 31
0.0
  0
INSERT
  5
2E23
330
16EB
100
AcDbEntity
  8
AM_5
100
AcDbBlockReference
  2
_OPEN30
 10
-0.0000000000011738
 20
-11.0000010000001
 30
0.0
 41
1.25
 42
1.25
 43
1.25
  0
INSERT
  5
2E24
330
16EB
100
AcDbEntity
  8
AM_5
100
AcDbBlockReference
  2
_OPEN30
 10
-12.0000000000006
 20
-11.0000010000001
 30
0.0
 41
1.25
 42
1.25
 43
1.25
 50
180.0
  0
MTEXT
  5
2E25
330
16EB
100
AcDbEntity
  8
AM_5
 62
     2
100
AcDbMText
 10
-6.00000000000089
 20
-9.450001000000106
 30
0.0
 40
1.6
 41
0.0
 71
     5
 72
     1
  1
12
  7
ASAMI
1001
ACAD
1000
MTEXTBEGIN
1070
    73
1070
     1
1070
    44
1040
1.0
1070
    74
1070
     0
1000
MTEXTEND
  0
POINT
  5
2E26
330
16EB
100
AcDbEntity
  8
DEFPOINTS
 62
     0
100
AcDbPoint
 10
-0.0000000000011733
 20
-3.249999999997354
 30
0.0
  0
POINT
  5
2E27
330
16EB
100
AcDbEntity
  8
DEFPOINTS
 62
     0
100
AcDbPoint
 10
-12.0000000000006
 20
-3.250000000000008
 30
0.0
  0
POINT
  5
2E28
330
16EB
100
AcDbEntity
  8
DEFPOINTS
 62
     0
100
AcDbPoint
 10
-12.0000000000006
 20
-11.0000010000001
 30
0.0
  0
ENDBLK
  5
16F6
330
16EB
100
AcDbEntity
  8
0
100
AcDbBlockEnd
  0
BLOCK
  5
1785
330
177B
100
AcDbEntity
  8
0
100
AcDbBlockBegin
  2
*D6
 70
     1
 10
0.0
 20
0.0
 30
0.0
  3
*D6
  1

  0
LINE
  5
2E17
330
177B
100
AcDbEntity
  8
AM_5
100
AcDbLine
 10
-0.0000000000005827
 20
-3.749999999997354
 30
0.0
 11
-0.0000000000005835
 21
-17.50000100000021
 31
0.0
  0
LINE
  5
2E18
330
177B
100
AcDbEntity
  8
AM_5
100
AcDbLine
 10
-50.0
 20
-4.000000000000136
 30
0.0
 11
-50.0
 21
-17.50000100000021
 31
0.0
  0
LINE
  5
2E19
330
177B
100
AcDbEntity
  8
AM_5
100
AcDbLine
 10
-1.250000000000583
 20
-17.00000100000021
 30
0.0
 11
-48.75
 21
-17.00000100000021
 31
0.0
  0
INSERT
  5
2E1A
330
177B
100
AcDbEntity
  8
AM_5
100
AcDbBlockReference
  2
_OPEN30
 10
-0.0000000000005835
 20
-17.00000100000021
 30
0.0
 41
1.25
 42
1.25
 43
1.25
  0
INSERT
  5
2E1B
330
177B
100
AcDbEntity
  8
AM_5
100
AcDbBlockReference
  2
_OPEN30
 10
-50.0
 20
-17.00000100000021
 30
0.0
 41
1.25
 42
1.25
 43
1.25
 50
180.0
  0
MTEXT
  5
2E1C
330
177B
100
AcDbEntity
  8
AM_5
 62
     2
100
AcDbMText
 10
-25.00000000000029
 20
-15.45000100000021
 30
0.0
 40
1.6
 41
0.0
 71
     5
 72
     1
  1
50
  7
ASAMI
1001
ACAD
1000
MTEXTBEGIN
1070
    73
1070
     1
1070
    44
1040
1.0
1070
    74
1070
     0
1000
MTEXTEND
  0
POINT
  5
2E1D
330
177B
100
AcDbEntity
  8
DEFPOINTS
 62
     0
100
AcDbPoint
 10
-0.0000000000005827
 20
-3.249999999997354
 30
0.0
  0
POINT
  5
2E1E
330
177B
100
AcDbEntity
  8
DEFPOINTS
 62
     0
100
AcDbPoint
 10
-50.0
 20
-3.500000000000136
 30
0.0
  0
POINT
  5
2E1F
330
177B
100
AcDbEntity
  8
DEFPOINTS
 62
     0
100
AcDbPoint
 10
-50.0
 20
-17.00000100000021
 30
0.0
  0
ENDBLK
  5
1786
330
177B
100
AcDbEntity
  8
0
100
AcDbBlockEnd
  0
BLOCK
  5
2907
330
28FC
100
AcDbEntity
  8
0
100
AcDbBlockBegin
  2
*D7
 70
     1
 10
0.0
 20
0.0
 30
0.0
  3
*D7
  1

  0
LINE
  5
2D5B
330
28FC
100
AcDbEntity
  8
AM_5
100
AcDbLine
 10
0.4999999999998624
 20
3.249999999999998
 30
0.0
 11
8.629789688840498
 21
3.249999999999996
 31
0.0
  0
LINE
  5
2D5C
330
28FC
100
AcDbEntity
  8
AM_5
100
AcDbLine
 10
0.4999999999998686
 20
-3.250000000000001
 30
0.0
 11
8.629789688840498
 21
-3.250000000000003
 31
0.0
  0
LINE
  5
2D5D
330
28FC
100
AcDbEntity
  8
AM_5
100
AcDbLine
 10
8.129789688840498
 20
1.999999999999996
 30
0.0
 11
8.129789688840498
 21
-2.000000000000003
 31
0.0
  0
INSERT
  5
2D5E
330
28FC
100
AcDbEntity
  8
AM_5
100
AcDbBlockReference
  2
_OPEN30
 10
8.129789688840498
 20
3.249999999999996
 30
0.0
 41
1.25
 42
1.25
 43
1.25
 50
90.0
  0
INSERT
  5
2D5F
330
28FC
100
AcDbEntity
  8
AM_5
100
AcDbBlockReference
  2
_OPEN30
 10
8.129789688840498
 20
-3.250000000000003
 30
0.0
 41
1.25
 42
1.25
 43
1.25
 50
270.0
  0
MTEXT
  5
2D60
330
28FC
100
AcDbEntity
  8
AM_5
 62
     2
100
AcDbMText
 10
6.579789688840497
 20
-0.0000000000000025
 30
0.0
 40
1.6
 41
0.0
 71
     5
 72
     1
  1
%%c6.5
  7
ASAMI
 11
0.0000000000000001
 21
1.0
 31
0.0
1001
ACAD
1000
MTEXTBEGIN
1070
    73
1070
     1
1070
    44
1040
1.0
1070
    74
1070
     0
1000
MTEXTEND
  0
POINT
  5
2D61
330
28FC
100
AcDbEntity
  8
DEFPOINTS
 62
     0
100
AcDbPoint
 10
-0.0000000000001377
 20
3.249999999999998
 30
0.0
  0
POINT
  5
2D62
330
28FC
100
AcDbEntity
  8
DEFPOINTS
 62
     0
100
AcDbPoint
 10
-0.0000000000001315
 20
-3.250000000000001
 30
0.0
  0
POINT
  5
2D63
330
28FC
100
AcDbEntity
  8
DEFPOINTS
 62
     0
100
AcDbPoint
 10
8.129789688840498
 20
-3.250000000000003
 30
0.0
  0
ENDBLK
  5
2908
330
28FC
100
AcDbEntity
  8
0
100
AcDbBlockEnd
  0
BLOCK
  5
2CE9
330
2CDF
100
AcDbEntity
  8
0
100
AcDbBlockBegin
  2
*D8
 70
     1
 10
0.0
 20
0.0
 30
0.0
  3
*D8
  1

  0
LINE
  5
2D05
330
2CDF
100
AcDbEntity
  8
AM_5
100
AcDbLine
 10
-50.0
 20
3.999999999999863
 30
0.0
 11
-59.56123869649855
 21
3.999999999999865
 31
0.0
  0
LINE
  5
2D06
330
2CDF
100
AcDbEntity
  8
AM_5
100
AcDbLine
 10
-50.0
 20
-4.000000000000136
 30
0.0
 11
-59.56123869649855
 21
-4.000000000000133
 31
0.0
  0
LINE
  5
2D07
330
2CDF
100
AcDbEntity
  8
AM_5
100
AcDbLine
 10
-59.06123869649856
 20
2.749999999999865
 30
0.0
 11
-59.06123869649856
 21
-2.750000000000133
 31
0.0
  0
INSERT
  5
2D08
330
2CDF
100
AcDbEntity
  8
AM_5
100
AcDbBlockReference
  2
_OPEN30
 10
-59.06123869649856
 20
3.999999999999865
 30
0.0
 41
1.25
 42
1.25
 43
1.25
 50
90.0
  0
INSERT
  5
2D09
330
2CDF
100
AcDbEntity
  8
AM_5
100
AcDbBlockReference
  2
_OPEN30
 10
-59.06123869649856
 20
-4.000000000000133
 30
0.0
 41
1.25
 42
1.25
 43
1.25
 50
270.0
  0
MTEXT
  5
2D0A
330
2CDF
100
AcDbEntity
  8
AM_5
 62
     2
100
AcDbMText
 10
-60.61123869649855
 20
-0.0000000000001432
 30
0.0
 40
1.6
 41
0.0
 71
     5
 72
     1
  1
%%c8
  7
ASAMI
 11
0.0000000000000001
 21
1.0
 31
0.0
1001
ACAD
1000
MTEXTBEGIN
1070
    73
1070
     1
1070
    44
1040
1.0
1070
    74
1070
     0
1000
MTEXTEND
  0
POINT
  5
2D0B
330
2CDF
100
AcDbEntity
  8
DEFPOINTS
 62
     0
100
AcDbPoint
 10
-49.5
 20
3.999999999999863
 30
0.0
  0
POINT
  5
2D0C
330
2CDF
100
AcDbEntity
  8
DEFPOINTS
 62
     0
100
AcDbPoint
 10
-49.5
 20
-4.000000000000136
 30
0.0
  0
POINT
  5
2D0D
330
2CDF
100
AcDbEntity
  8
DEFPOINTS
 62
     0
100
AcDbPoint
 10
-59.06123869649856
 20
-4.000000000000133
 30
0.0
  0
ENDBLK
  5
2CEA
330
2CDF
100
AcDbEntity
  8
0
100
AcDbBlockEnd
  0
ENDSEC
  0
SECTION
  2
ENTITIES
  0
TEXT
  5
E5A
330
1F
100
AcDbEntity
  8
AM_6
100
AcDbText
 10
-33.214285714286
 20
-28.25000100000021
 30
0.0
 40
2.5
  1
SSM4065
 72
     4
 11
-25.00000000000028
 21
-27.00000100000021
 31
0.0
100
AcDbText
  0
LINE
  5
13DC
330
1F
100
AcDbEntity
  8
AM_7
  6
AM_ISO08W050X2
100
AcDbLine
 10
1.129788688840505
 20
-0.000000000000095
 30
0.0
 11
-52.06123769649856
 21
-0.0000000000001359
 31
0.0
1001
GENIUS_GENODEF_13
1002
{
1000
HIER
1070
     0
1002
}
1002
{
1000
MANEDIT
1070
     0
1002
}
1002
{
1000
NOSEL
1070
     0
1002
}
1002
{
1000
BEHIND
1070
     0
1002
}
1002
{
1000
REACTOR
1002
}
1001
GENIUS_GENOBJ-N-CEN_13
1002
{
1000
OWNER
1000
GEN
1002
}
  0
DIMENSION
  5
16EA
330
1F
100
AcDbEntity
  8
AM_5
100
AcDbDimension
  2
*D5
 10
-12.0000000000006
 20
-11.0000010000001
 30
0.0
 11
-6.00000000000089
 21
-9.450001000000106
 31
0.0
 70
    32
  1
<>
  3
AM_JIS
100
AcDbAlignedDimension
 13
-0.0000000000011733
 23
-3.249999999997354
 33
0.0
 14
-12.0000000000006
 24
-3.250000000000008
 34
0.0
 50
0.0000000000001641
100
AcDbRotatedDimension
1001
GENIUS_GENDTOL_13
1000

1000
h7
1000

1040
0.0
  0
DIMENSION
  5
177A
330
1F
100
AcDbEntity
  8
AM_5
100
AcDbDimension
  2
*D6
 10
-50.0
 20
-17.00000100000021
 30
0.0
 11
-25.00000000000029
 21
-15.45000100000021
 31
0.0
 70
    32
  1
<>
  3
AM_JIS
100
AcDbAlignedDimension
 13
-0.0000000000005827
 23
-3.249999999997354
 33
0.0
 14
-50.0
 24
-3.500000000000136
 34
0.0
 50
0.0000000000001641
100
AcDbRotatedDimension
1001
GENIUS_GENDTOL_13
1000

1000
h7
1000

1040
0.0
  0
DIMENSION
  5
28FB
330
1F
100
AcDbEntity
  8
AM_5
100
AcDbDimension
  2
*D7
 10
8.129789688840498
 20
-3.250000000000003
 30
0.0
 11
6.579789688840497
 21
-0.0000000000000025
 31
0.0
 70
    32
  1
%%c<>
  3
AM_JIS
100
AcDbAlignedDimension
 13
-0.0000000000001377
 23
3.249999999999998
 33
0.0
 14
-0.0000000000001315
 24
-3.250000000000001
 34
0.0
 50
90.00000000000003
100
AcDbRotatedDimension
1001
GENIUS_GENDTOL_13
1000

1000
h7
1000

1040
0.0
  0
SPLINE
  5
2B39
330
1F
100
AcDbEntity
  8
AM_0
100
AcDbSpline
210
0.0
220
0.0
230
1.0
 70
     8
 71
     3
 72
     8
 73
     4
 74
     0
 42
0.0000000001
 43
0.0000000001
 40
0.7142832446738512
 40
0.7142832446738512
 40
0.7142832446738512
 40
0.7142832446738512
 40
9.361146747480315
 40
9.361146747480315
 40
9.361146747480315
 40
9.361146747480315
 10
-5.936568282106319
 20
2.990388563385783
 30
0.0
 10
-4.077551422026338
 20
2.902759235331528
 30
0.0
 10
-2.303886878441354
 20
2.298250423819757
 30
0.0
 10
-0.5614993830096138
 20
1.504332992162614
 30
0.0
  0
SPLINE
  5
2B3A
330
1F
100
AcDbEntity
  8
AM_0
100
AcDbSpline
210
0.0
220
0.0
230
1.0
 70
     8
 71
     3
 72
     8
 73
     4
 74
     2
 42
0.0000000001
 43
0.0000000001
 44
0.0000000001
 12
-0.6417012268563094
 22
-0.7669547153848834
 32
0.0
 13
-0.9900999427831042
 23
-0.140364180975397
 33
0.0
 40
0.0
 40
0.0
 40
0.0
 40
0.0
 40
1.681267460350862
 40
1.681267460350862
 40
1.681267460350862
 40
1.681267460350862
 10
-0.0000000000001341
 20
2.648556746344572
 30
0.0
 10
-0.3596237973270474
 20
2.218738077498152
 30
0.0
 10
-0.9768976780655316
 20
2.034157968000828
 30
0.0
 10
-1.531771950164359
 20
1.95549472464325
 30
0.0
 11
-0.0000000000001341
 21
2.648556746344572
 31
0.0
 11
-1.531771950164359
 21
1.95549472464325
 31
0.0
  0
SPLINE
  5
2B3B
330
1F
100
AcDbEntity
  8
AM_0
100
AcDbSpline
210
0.0
220
0.0
230
1.0
 70
     8
 71
     3
 72
     8
 73
     4
 74
     0
 42
0.0000000001
 43
0.0000000001
 40
0.0
 40
0.0
 40
0.0
 40
0.0
 40
5.635889483499127
 40
5.635889483499127
 40
5.635889483499127
 40
5.635889483499127
 10
-0.0000000000001377
 20
3.249999999999998
 30
0.0
 10
-1.221109388091613
 20
3.249999999999998
 30
0.0
 10
-2.398460514993611
 20
3.004166118836435
 30
0.0
 10
-3.549073172478625
 20
2.608115534941303
 30
0.0
  0
SPLINE
  5
2B3C
330
1F
100
AcDbEntity
  8
AM_0
100
AcDbSpline
210
0.0
220
0.0
230
1.0
 70
     8
 71
     3
 72
     8
 73
     4
 74
     0
 42
0.0000000001
 43
0.0000000001
 40
4.542668862435135
 40
4.542668862435135
 40
4.542668862435135
 40
4.542668862435135
 40
14.36247867694493
 40
14.36247867694493
 40
14.36247867694493
 40
14.36247867694493
 10
-0.4452499999992297
 20
-2.598450826046809
 30
0.0
 10
-2.482648893956233
 20
-2.052053696272361
 30
0.0
 10
-4.440846525661217
 20
-1.026026848136163
 30
0.0
 10
-6.399044157366195
 20
0.0000000000000338
 30
0.0
  0
SPLINE
  5
2B3D
330
1F
100
AcDbEntity
  8
AM_0
100
AcDbSpline
210
0.0
220
0.0
230
1.0
 70
     8
 71
     3
 72
     8
 73
     4
 74
     0
 42
0.0000000001
 43
0.0000000001
 40
0.3581103616548037
 40
0.3581103616548037
 40
0.3581103616548037
 40
0.3581103616548037
 40
12.40023413887867
 40
12.40023413887867
 40
12.40023413887867
 40
12.40023413887867
 10
-7.473185589559579
 20
3.149799524854236
 30
0.0
 10
-4.875199412711602
 20
3.085396559090836
 30
0.0
 10
-2.46217359579765
 20
1.951755733515247
 30
0.0
 10
-0.0759283150574168
 20
0.6632992317958238
 30
0.0
  0
SPLINE
  5
2B3E
330
1F
100
AcDbEntity
  8
AM_0
100
AcDbSpline
210
0.0
220
0.0
230
1.0
 70
     8
 71
     3
 72
     8
 73
     4
 74
     2
 42
0.0000000001
 43
0.0000000001
 44
0.0000000001
 12
1.0
 22
0.0000000000000006
 32
0.0
 40
0.0
 40
0.0
 40
0.0
 40
0.0
 40
9.41849775707357
 40
9.41849775707357
 40
9.41849775707357
 40
9.41849775707357
 10
-8.840000000000131
 20
3.250000000000069
 30
0.0
 10
-5.700500747642275
 20
3.250000000000071
 30
0.0
 10
-2.850250373821204
 20
1.625000000000073
 30
0.0
 10
-0.0000000000001341
 20
0.0000000000000764
 30
0.0
 11
-8.840000000000131
 21
3.250000000000069
 31
0.0
 11
-0.0000000000001341
 21
0.0000000000000764
 31
0.0
  0
SPLINE
  5
2B3F
330
1F
100
AcDbEntity
  8
AM_0
100
AcDbSpline
210
0.0
220
0.0
230
1.0
 70
     8
 71
     3
 72
     8
 73
     4
 74
     2
 42
0.0000000001
 43
0.0000000001
 44
0.0000000001
 12
-1.0
 22
-0.0000000000000008
 32
0.0
 40
0.0
 40
0.0
 40
0.0
 40
0.0
 40
9.418497757073577
 40
9.418497757073577
 40
9.418497757073577
 40
9.418497757073577
 10
-0.0000000000001288
 20
-3.250000000000001
 30
0.0
 10
-3.139499252357987
 20
-3.250000000000003
 30
0.0
 10
-5.989749626179059
 20
-1.625000000000006
 30
0.0
 10
-8.840000000000131
 20
-0.0000000000000089
 30
0.0
 11
-0.0000000000001288
 21
-3.250000000000001
 31
0.0
 11
-8.840000000000131
 21
-0.0000000000000089
 31
0.0
  0
SPLINE
  5
2B42
330
1F
100
AcDbEntity
  8
AM_0
100
AcDbSpline
210
0.0
220
0.0
230
1.0
 70
     8
 71
     3
 72
     8
 73
     4
 74
     0
 42
0.0000000001
 43
0.0000000001
 40
1.870660592686466
 40
1.870660592686466
 40
1.870660592686466
 40
1.870660592686466
 40
14.43901837670146
 40
14.43901837670146
 40
14.43901837670146
 40
14.43901837670146
 10
-0.0682500000001225
 20
-3.076736752454147
 30
0.0
 10
-2.733876984298865
 20
-2.744235397865965
 30
0.0
 10
-5.219667638001259
 20
-1.372117698932965
 30
0.0
 10
-7.705458291703652
 20
0.0000000000000338
 30
0.0
  0
LINE
  5
2B56
330
1F
100
AcDbEntity
  8
AM_0
100
AcDbLine
 10
-1.531771950164361
 20
-0.0000000000000018
 30
0.0
 11
-1.531771950164361
 21
-0.5200000000000085
 31
0.0
  0
LINE
  5
2B57
330
1F
100
AcDbEntity
  8
AM_0
100
AcDbLine
 10
-0.0000000000001359
 20
-0.0000000000000018
 30
0.0
 11
-0.0577476959437133
 21
-0.54997805660574
 31
0.0
  0
LINE
  5
2B58
330
1F
100
AcDbEntity
  8
AM_0
100
AcDbLine
 10
-0.0000000000001359
 20
-0.6500000000000004
 30
0.0
 11
-0.3752776749734084
 21
0.0000000000000373
 31
0.0
  0
LINE
  5
2B67
330
1F
100
AcDbEntity
  8
AM_11
100
AcDbLine
 10
-0.0000000000006386
 20
3.249999999999998
 30
0.0
 11
-12.00000000000057
 21
3.249999999999988
 31
0.0
  0
LINE
  5
2B68
330
1F
100
AcDbEntity
  8
AM_0
100
AcDbLine
 10
-0.0682500000001278
 20
0.650000000000075
 30
0.0
 11
-0.6938907285349396
 21
1.733641529106753
 31
0.0
  0
LINE
  5
2B69
330
1F
100
AcDbEntity
  8
AM_0
100
AcDbLine
 10
-0.0000000000001359
 20
-0.0000000000000018
 30
0.0
 11
-0.0682500000001278
 21
0.650000000000075
 31
0.0
  0
LINE
  5
2B6A
330
1F
100
AcDbEntity
  8
AM_0
100
AcDbLine
 10
-0.6938907285349396
 20
1.733641529106753
 30
0.0
 11
-1.531771950164361
 21
1.955494724643246
 31
0.0
  0
LINE
  5
2B6B
330
1F
100
AcDbEntity
  8
AM_0
100
AcDbLine
 10
-0.0000000000001359
 20
-0.0000000000000018
 30
0.0
 11
-1.531771950164361
 21
-0.0000000000000018
 31
0.0
  0
LINE
  5
2B6C
330
1F
100
AcDbEntity
  8
AM_0
100
AcDbLine
 10
-0.0000000000001359
 20
-0.0000000000000018
 30
0.0
 11
-0.0000000000001394
 21
3.249999999999998
 31
0.0
  0
LINE
  5
2B70
330
1F
100
AcDbEntity
  8
AM_11
100
AcDbLine
 10
-12.00000000000057
 20
-3.250000000000009
 30
0.0
 11
-0.0000000000001306
 21
-3.250000000000001
 31
0.0
  0
LINE
  5
2B71
330
1F
100
AcDbEntity
  8
AM_0
100
AcDbLine
 10
-0.0682500000001243
 20
-3.07673675245415
 30
0.0
 11
-0.4452500000001374
 21
-2.598450826050244
 31
0.0
  0
LINE
  5
2B72
330
1F
100
AcDbEntity
  8
AM_0
100
AcDbLine
 10
-0.0000000000001306
 20
-3.250000000000001
 30
0.0
 11
-0.0000000000001359
 21
-0.6500000000000004
 31
0.0
  0
LINE
  5
2B73
330
1F
100
AcDbEntity
  8
AM_0
100
AcDbLine
 10
-0.0682500000001243
 20
-3.076736752454186
 30
0.0
 11
-0.0682500000001278
 21
-0.8624836054660693
 31
0.0
  0
LINE
  5
2B74
330
1F
100
AcDbEntity
  8
AM_0
100
AcDbLine
 10
-0.0682500000001278
 20
-0.8624836054660693
 30
0.0
 11
-0.0000000000001359
 21
-0.6500000000000004
 31
0.0
  0
LINE
  5
2B75
330
1F
100
AcDbEntity
  8
AM_0
100
AcDbLine
 10
-0.5592976906993963
 20
-0.9578755973582548
 30
0.0
 11
-0.0682500000001278
 21
-0.8624836054660693
 31
0.0
  0
LINE
  5
2B76
330
1F
100
AcDbEntity
  8
AM_0
100
AcDbLine
 10
-1.531771950164361
 20
-0.5200000000000085
 30
0.0
 11
-0.0750555349947861
 21
-0.5200000000000085
 31
0.0
  0
LINE
  5
2B77
330
1F
100
AcDbEntity
  8
AM_0
100
AcDbLine
 10
-1.531771950164361
 20
-0.5200000000000085
 30
0.0
 11
-0.5592976906993963
 21
-0.9578755973582548
 31
0.0
  0
ARC
  5
2B78
330
1F
100
AcDbEntity
  8
AM_0
100
AcDbCircle
 10
1.290687568317543
 20
-1.65352210706664
 30
0.0
 40
1.976453775085432
100
AcDbArc
 50
159.3923269732582
 51
208.5609268810354
  0
LINE
  5
2B79
330
1F
100
AcDbEntity
  8
AM_0
100
AcDbLine
 10
-0.0000000000001306
 20
-3.250000000000001
 30
0.0
 11
-0.0682500000001243
 21
-3.076736752454186
 31
0.0
  0
LINE
  5
2B7C
330
1F
100
AcDbEntity
  8
AM_11
100
AcDbLine
 10
-12.00000000000057
 20
3.250000000000108
 30
0.0
 11
-12.00000000000057
 21
-3.250000000000008
 31
0.0
  0
LINE
  5
2C18
330
1F
100
AcDbEntity
  8
AM_11
100
AcDbLine
 10
-12.0000000000006
 20
-3.250000000000008
 30
0.0
 11
-12.00000000000053
 21
3.249999999999991
 31
0.0
  0
ARC
  5
2C19
330
1F
100
AcDbEntity
  8
AM_0
100
AcDbCircle
 10
-11.27495066559454
 20
-15.97202396748629
 30
0.0
 40
12.85240754804633
100
AcDbArc
 50
93.23397253442607
 51
98.16816817108396
  0
LINE
  5
2C1A
330
1F
100
AcDbEntity
  8
AM_0
100
AcDbLine
 10
-12.00000000000047
 20
-1.321344988328563
 30
0.0
 11
-12.00000000000054
 21
-2.323397529064168
 31
0.0
  0
SPLINE
  5
2C91
330
1F
100
AcDbEntity
  8
AM_0
100
AcDbSpline
210
0.0
220
0.0
230
1.0
 70
     8
 71
     3
 72
     8
 73
     4
 74
     0
 42
0.0000000001
 43
0.0000000001
 40
1.090140354492627
 40
1.090140354492627
 40
1.090140354492627
 40
1.090140354492627
 40
14.36247867694493
 40
14.36247867694493
 40
14.36247867694493
 40
14.36247867694493
 10
-13.02413604508839
 20
2.660018933633271
 30
0.0
 10
-11.04292692253685
 20
2.560182835487548
 30
0.0
 10
-8.720985539951499
 20
1.280091417743772
 30
0.0
 10
-6.39904415736612
 20
-0.0000000000000053
 30
0.0
  0
SPLINE
  5
2C93
330
1F
100
AcDbEntity
  8
AM_0
100
AcDbSpline
210
0.0
220
0.0
230
1.0
 70
     8
 71
     3
 72
     8
 73
     4
 74
     0
 42
0.0000000001
 43
0.0000000001
 40
0.3581103616548037
 40
0.3581103616548037
 40
0.3581103616548037
 40
0.3581103616548037
 40
14.43901837670146
 40
14.43901837670146
 40
14.43901837670146
 40
14.43901837670146
 10
-15.91593544826257
 20
3.249999999999964
 30
0.0
 10
-12.40270741252218
 20
2.893150580741945
 30
0.0
 10
-9.988412298039962
 20
1.418996702415848
 30
0.0
 10
-7.705458291703404
 20
-0.0000000000001013
 30
0.0
  0
LINE
  5
2C96
330
1F
100
AcDbEntity
  8
AM_0
100
AcDbLine
 10
-12.0000000000007
 20
2.001138759864218
 30
0.0
 11
-12.19117516136935
 21
2.34953994428961
 31
0.0
  0
POLYLINE
  5
2C97
330
1F
100
AcDbEntity
  8
AM_0
100
AcDb2dPolyline
 66
     1
 10
0.0
 20
0.0
 30
0.0
 70
     2
  0
VERTEX
  5
2C98
330
2C97
100
AcDbEntity
  8
AM_0
100
AcDbVertex
100
AcDb2dVertex
 10
-12.0000000000006
 20
2.001138759864034
 30
0.0
 42
0.0113495642762015
  0
VERTEX
  5
2C99
330
2C97
100
AcDbEntity
  8
AM_0
100
AcDbVertex
100
AcDb2dVertex
 10
-12.66474938952571
 20
2.105864113939652
 30
0.0
 42
0.0187918863228812
 70
     1
  0
VERTEX
  5
2C9A
330
2C97
100
AcDbEntity
  8
AM_0
100
AcDbVertex
100
AcDb2dVertex
 10
-13.06921487603366
 20
2.143560131674355
 30
0.0
 42
0.006256922075569
  0
VERTEX
  5
2C9B
330
2C97
100
AcDbEntity
  8
AM_0
100
AcDbVertex
100
AcDb2dVertex
 10
-14.36189110521139
 20
2.309424597629504
 30
0.0
 42
0.0232722457202398
 70
     1
  0
VERTEX
  5
2C9C
330
2C97
100
AcDbEntity
  8
AM_0
100
AcDbVertex
100
AcDb2dVertex
 10
-14.7123129255312
 20
2.299805601779121
 30
0.0
 42
0.0542958387243925
  0
VERTEX
  5
2C9D
330
2C97
100
AcDbEntity
  8
AM_0
100
AcDbVertex
100
AcDb2dVertex
 10
-15.04702722307508
 20
2.23531825991721
 30
0.0
 42
0.4413285869607302
 70
     1
  0
VERTEX
  5
2C9E
330
2C97
100
AcDbEntity
  8
AM_0
100
AcDbVertex
100
AcDb2dVertex
 10
-15.06871788420889
 20
2.188068594223524
 30
0.0
 42
0.0678159998049314
  0
VERTEX
  5
2C9F
330
2C97
100
AcDbEntity
  8
AM_0
100
AcDbVertex
100
AcDb2dVertex
 10
-15.04201375403946
 20
2.138617185931208
 30
0.0
 42
0.006836731909696
 70
     1
  0
VERTEX
  5
2CA0
330
2C97
100
AcDbEntity
  8
AM_0
100
AcDbVertex
100
AcDb2dVertex
 10
-14.7123129255312
 20
1.696944573218674
 30
0.0
 42
0.0061465077983929
  0
VERTEX
  5
2CA1
330
2C97
100
AcDbEntity
  8
AM_0
100
AcDbVertex
100
AcDb2dVertex
 10
-14.2153374366638
 20
1.065644281210916
 30
0.0
 42
0.0033714959864001
 70
     1
  0
VERTEX
  5
2CA2
330
2C97
100
AcDbEntity
  8
AM_0
100
AcDbVertex
100
AcDb2dVertex
 10
-13.22054655244178
 20
-0.0074101132819671
 30
0.0
 42
0.0594163782683759
  0
VERTEX
  5
2CA3
330
2C97
100
AcDbEntity
  8
AM_0
100
AcDbVertex
100
AcDb2dVertex
 10
-12.86911665804976
 20
-0.3396201863724659
 30
0.0
 42
0.0273113651513278
 70
     1
  0
VERTEX
  5
2CA4
330
2C97
100
AcDbEntity
  8
AM_0
100
AcDbVertex
100
AcDb2dVertex
 10
-12.0000000000006
 20
-0.9112198907112123
 30
0.0
  0
SEQEND
  5
2CA5
330
2C97
100
AcDbEntity
  8
AM_0
  0
SPLINE
  5
2CA6
330
1F
100
AcDbEntity
  8
AM_0
100
AcDbSpline
210
0.0
220
0.0
230
1.0
 70
     8
 71
     3
 72
     8
 73
     4
 74
     0
 42
0.0000000001
 43
0.0000000001
 40
6.978104700039654
 40
6.978104700039654
 40
6.978104700039654
 40
6.978104700039654
 40
14.48999654934396
 40
14.48999654934396
 40
14.48999654934396
 40
14.48999654934396
 10
-12.00000000000057
 20
2.015383691882018
 30
0.0
 10
-10.619793324721
 20
1.286127539817288
 30
0.0
 10
-9.359264469597782
 20
0.3798084941579773
 30
0.0
 10
-8.840000000000131
 20
-0.0000000000000089
 30
0.0
  0
ELLIPSE
  5
2CA7
330
1F
100
AcDbEntity
  8
AM_0
100
AcDbEllipse
 10
-14.95505883202413
 20
-8.432408406697453
 30
0.0
 11
-0.0000000000003537
 21
7.021063523011029
 31
0.0
210
0.0
220
0.0
230
1.0
 40
0.9504132231404994
 41
-0.4587681791450019
 42
-0.2312569029271716
  0
POLYLINE
  5
2CA8
330
1F
100
AcDbEntity
  8
AM_0
100
AcDb2dPolyline
 66
     1
 10
0.0
 20
0.0
 30
0.0
 70
     2
  0
VERTEX
  5
2CA9
330
2CA8
100
AcDbEntity
  8
AM_0
100
AcDbVertex
100
AcDb2dVertex
 10
-13.40341469662891
 20
-3.17760370305611
 30
0.0
 42
-0.0449032719002681
  0
VERTEX
  5
2CAA
330
2CA8
100
AcDbEntity
  8
AM_0
100
AcDbVertex
100
AcDb2dVertex
 10
-13.75437788781757
 20
-3.127320209335692
 30
0.0
 42
-0.0367686944523822
 70
     1
  0
VERTEX
  5
2CAB
330
2CA8
100
AcDbEntity
  8
AM_0
100
AcDbVertex
100
AcDb2dVertex
 10
-13.96022727272774
 20
-3.066645693583149
 30
0.0
 42
-0.0216088548285507
  0
VERTEX
  5
2CAC
330
2CA8
100
AcDbEntity
  8
AM_0
100
AcDbVertex
100
AcDb2dVertex
 10
-14.44050389567101
 20
-2.803713299338648
 30
0.0
 42
-0.0414110700152503
 70
     1
  0
VERTEX
  5
2CAD
330
2CA8
100
AcDbEntity
  8
AM_0
100
AcDbVertex
100
AcDb2dVertex
 10
-14.67303719008312
 20
-2.634254504131705
 30
0.0
 42
-0.0653031023268945
  0
VERTEX
  5
2CAE
330
2CA8
100
AcDbEntity
  8
AM_0
100
AcDbVertex
100
AcDb2dVertex
 10
-14.82282724286954
 20
-2.46570278041691
 30
0.0
 42
-0.1569363594221426
 70
     1
  0
VERTEX
  5
2CAF
330
2CA8
100
AcDbEntity
  8
AM_0
100
AcDbVertex
100
AcDb2dVertex
 10
-14.85123966942196
 20
-2.372407254670042
 30
0.0
 42
-0.1617045000652558
  0
VERTEX
  5
2CB0
330
2CA8
100
AcDbEntity
  8
AM_0
100
AcDbVertex
100
AcDb2dVertex
 10
-14.8223364646014
 20
-2.281210789018365
 30
0.0
 42
-0.0680210806811403
 70
     1
  0
VERTEX
  5
2CB1
330
2CA8
100
AcDbEntity
  8
AM_0
100
AcDbVertex
100
AcDb2dVertex
 10
-14.67303719008312
 20
-2.121888402175017
 30
0.0
 42
-0.0450747416233525
  0
VERTEX
  5
2CB2
330
2CA8
100
AcDbEntity
  8
AM_0
100
AcDbVertex
100
AcDb2dVertex
 10
-14.44269266131901
 20
-1.967723591334248
 30
0.0
 42
-0.0231467319857815
 70
     1
  0
VERTEX
  5
2CB3
330
2CA8
100
AcDbEntity
  8
AM_0
100
AcDbVertex
100
AcDb2dVertex
 10
-13.96022727272774
 20
-1.734810800590213
 30
0.0
 42
-0.0364444523572374
  0
VERTEX
  5
2CB4
330
2CA8
100
AcDbEntity
  8
AM_0
100
AcDbVertex
100
AcDb2dVertex
 10
-13.75069467965542
 20
-1.663941812239789
 30
0.0
 42
-0.0242139410122645
 70
     1
  0
VERTEX
  5
2CB5
330
2CA8
100
AcDbEntity
  8
AM_0
100
AcDbVertex
100
AcDb2dVertex
 10
-13.42561983471122
 20
-1.598252051500383
 30
0.0
  0
SEQEND
  5
2CB6
330
2CA8
100
AcDbEntity
  8
AM_0
  0
LINE
  5
2CB7
330
1F
100
AcDbEntity
  8
AM_0
100
AcDbLine
 10
-12.00000000000057
 20
-0.9112198907112309
 30
0.0
 11
-12.41510305113671
 21
-1.347980492341434
 31
0.0
  0
LINE
  5
2CB8
330
1F
100
AcDbEntity
  8
AM_0
100
AcDbLine
 10
-12.41510305113671
 20
-1.347980492341434
 30
0.0
 11
-12.00000000000061
 21
-2.13733210504788
 31
0.0
  0
SPLINE
  5
2CB9
330
1F
100
AcDbEntity
  8
AM_0
100
AcDbSpline
210
0.0
220
0.0
230
1.0
 70
     8
 71
     3
 72
     8
 73
     4
 74
     0
 42
0.0000000001
 43
0.0000000001
 40
0.0
 40
0.0
 40
0.0
 40
0.0
 40
11.45610476152127
 40
11.45610476152127
 40
11.45610476152127
 40
11.45610476152127
 10
-6.760033339193397
 20
-3.087773905257151
 30
0.0
 10
-9.127769278683366
 20
-2.89764465597371
 30
0.0
 10
-11.03049202009271
 20
-2.057757062105359
 30
0.0
 10
-12.41510305113671
 20
-1.347980492341434
 30
0.0
  0
SPLINE
  5
2CBA
330
1F
100
AcDbEntity
  8
AM_0
100
AcDbSpline
210
0.0
220
0.0
230
1.0
 70
     8
 71
     3
 72
     8
 73
     4
 74
     0
 42
0.0000000001
 43
0.0000000001
 40
0.0
 40
0.0
 40
0.0
 40
0.0
 40
9.068166399416787
 40
9.068166399416787
 40
9.068166399416787
 40
9.068166399416787
 10
-7.75537190082669
 20
-3.250000000000007
 30
0.0
 10
-9.479072951955497
 20
-3.177603703055922
 30
0.0
 10
-10.93517708977657
 20
-2.590122931617225
 30
0.0
 10
-12.00000000000061
 20
-2.13733210504788
 30
0.0
  0
SPLINE
  5
2CBB
330
1F
100
AcDbEntity
  8
AM_0
100
AcDbSpline
210
0.0
220
0.0
230
1.0
 70
     8
 71
     3
 72
     8
 73
     4
 74
     0
 42
0.0000000001
 43
0.0000000001
 40
0.0
 40
0.0
 40
0.0
 40
0.0
 40
4.451443990518192
 40
4.451443990518192
 40
4.451443990518192
 40
4.451443990518192
 10
-13.40341469662891
 20
-3.17760370305611
 30
0.0
 10
-11.97768543165997
 20
-3.177603703055993
 30
0.0
 10
-11.15242674197424
 20
-3.0964056416767
 30
0.0
 10
-9.988750006620207
 20
-2.875995832531413
 30
0.0
  0
SPLINE
  5
2CBC
330
1F
100
AcDbEntity
  8
AM_0
100
AcDbSpline
210
0.0
220
0.0
230
1.0
 70
     8
 71
     3
 72
     8
 73
     4
 74
     0
 42
0.0000000001
 43
0.0000000001
 40
0.0
 40
0.0
 40
0.0
 40
0.0
 40
2.764560748519282
 40
2.764560748519282
 40
2.764560748519282
 40
2.764560748519282
 10
-6.760033339193397
 20
-3.087773905257218
 30
0.0
 10
-6.234538320879826
 20
-3.087773905257218
 30
0.0
 10
-5.717812950020215
 20
-3.034432392162019
 30
0.0
 10
-5.24151510505338
 20
-2.944209311284422
 30
0.0
  0
SPLINE
  5
2CBD
330
1F
100
AcDbEntity
  8
AM_0
100
AcDbSpline
210
0.0
220
0.0
230
1.0
 70
     8
 71
     3
 72
     8
 73
     4
 74
     0
 42
0.0000000001
 43
0.0000000001
 40
0.0
 40
0.0
 40
0.0
 40
0.0
 40
12.79333816032526
 40
12.79333816032526
 40
12.79333816032526
 40
12.79333816032526
 10
-5.613910322419298
 20
-2.948070405337531
 30
0.0
 10
-8.215190857866186
 20
-2.778581421026849
 30
0.0
 10
-10.30500085466715
 20
-1.773176159513542
 30
0.0
 10
-12.00000000000057
 20
-0.8996817478831662
 30
0.0
  0
SPLINE
  5
2CBE
330
1F
100
AcDbEntity
  8
AM_0
100
AcDbSpline
210
0.0
220
0.0
230
1.0
 70
     8
 71
     3
 72
     8
 73
     4
 74
     0
 42
0.0000000001
 43
0.0000000001
 40
0.0
 40
0.0
 40
0.0
 40
0.0
 40
4.451443990518192
 40
4.451443990518192
 40
4.451443990518192
 40
4.451443990518192
 10
-5.613910322419298
 20
-2.948070405337531
 30
0.0
 10
-4.767768076287734
 20
-2.959608548165663
 30
0.0
 10
-3.942509386601992
 20
-2.826542894432513
 30
0.0
 10
-3.291658539815786
 20
-2.694027596677322
 30
0.0
  0
SPLINE
  5
2CBF
330
1F
100
AcDbEntity
  8
AM_0
100
AcDbSpline
210
0.0
220
0.0
230
1.0
 70
     8
 71
     3
 72
     8
 73
     4
 74
     0
 42
0.0000000001
 43
0.0000000001
 40
0.0
 40
0.0
 40
0.0
 40
0.0
 40
2.130230809022907
 40
2.130230809022907
 40
2.130230809022907
 40
2.130230809022907
 10
-7.75537190082669
 20
-3.250000000000074
 30
0.0
 10
-7.300216453309503
 20
-3.227839244725831
 30
0.0
 10
-6.907941469261324
 20
-3.188259217916349
 30
0.0
 10
-6.556259449200634
 20
-3.085110956767524
 30
0.0
  0
LINE
  5
2CD8
330
1F
100
AcDbEntity
  8
AM_0
100
AcDbLine
 10
-49.5
 20
3.999999999999863
 30
0.0
 11
-19.0
 21
3.999999999999874
 31
0.0
  0
LINE
  5
2CD9
330
1F
100
AcDbEntity
  8
AM_0
100
AcDbLine
 10
-19.0
 20
-4.000000000000127
 30
0.0
 11
-49.5
 21
-4.000000000000136
 31
0.0
  0
LINE
  5
2CDC
330
1F
100
AcDbEntity
  8
AM_0
100
AcDbLine
 10
-50.0
 20
-3.500000000000136
 30
0.0
 11
-50.0
 21
3.499999999999863
 31
0.0
  0
LINE
  5
2CDD
330
1F
100
AcDbEntity
  8
AM_0
100
AcDbLine
 10
-49.5
 20
3.999999999999863
 30
0.0
 11
-49.5
 21
-4.000000000000136
 31
0.0
  0
DIMENSION
  5
2CDE
330
1F
100
AcDbEntity
  8
AM_5
100
AcDbDimension
  2
*D8
 10
-59.06123869649856
 20
-4.000000000000133
 30
0.0
 11
-60.61123869649855
 21
-0.0000000000001432
 31
0.0
 70
    32
  1
%%c<>
  3
AM_JIS
100
AcDbAlignedDimension
 13
-49.5
 23
3.999999999999863
 33
0.0
 14
-49.5
 24
-4.000000000000136
 34
0.0
 50
270.0
100
AcDbRotatedDimension
1001
GENIUS_GENDTOL_13
1000

1000
h7
1000

1040
0.0
  0
LINE
  5
2CF6
330
1F
100
AcDbEntity
  8
AM_0
100
AcDbLine
 10
-49.5
 20
3.999999999999863
 30
0.0
 11
-50.0
 21
3.499999999999863
 31
0.0
1001
GENIUS_GENFIL_13
1070
     0
1040
0.5
1040
0.5
1040
20.0
1040
0.0
1002
{
1002
}
1001
GENIUS_GENODEF_13
1002
{
1000
HIER
1070
     0
1002
}
1002
{
1000
MANEDIT
1070
     0
1002
}
1002
{
1000
NOSEL
1070
     0
1002
}
1002
{
1000
BEHIND
1070
     0
1002
}
1002
{
1000
REACTOR
1002
}
1001
GENIUS_GENOBJ-N-CHA_13
1002
{
1000
OWNER
1000
GEN
1002
}
  0
LINE
  5
2CF9
330
1F
100
AcDbEntity
  8
AM_0
100
AcDbLine
 10
-50.0
 20
-3.500000000000136
 30
0.0
 11
-49.5
 21
-4.000000000000136
 31
0.0
1001
GENIUS_GENFIL_13
1070
     0
1040
0.5
1040
0.5
1040
20.0
1040
0.0
1002
{
1002
}
1001
GENIUS_GENODEF_13
1002
{
1000
HIER
1070
     0
1002
}
1002
{
1000
MANEDIT
1070
     0
1002
}
1002
{
1000
NOSEL
1070
     0
1002
}
1002
{
1000
BEHIND
1070
     0
1002
}
1002
{
1000
REACTOR
1002
}
1001
GENIUS_GENOBJ-N-CHA_13
1002
{
1000
OWNER
1000
GEN
1002
}
  0
LINE
  5
2D1E
330
1F
100
AcDbEntity
  8
AM_0
100
AcDbLine
 10
-19.0
 20
-4.000000000000127
 30
0.0
 11
-19.0
 21
3.999999999999873
 31
0.0
  0
LINE
  5
2D73
330
1F
100
AcDbEntity
  8
AM_0
100
AcDbLine
 10
-19.0
 20
3.999999999999875
 30
0.0
 11
-16.93939193540933
 21
3.249999999999988
 31
0.0
  0
LINE
  5
2D74
330
1F
100
AcDbEntity
  8
AM_0
100
AcDbLine
 10
-16.93939193540933
 20
3.249999999999988
 30
0.0
 11
-16.93939193540933
 21
-3.250000000000009
 31
0.0
  0
LINE
  5
2D75
330
1F
100
AcDbEntity
  8
AM_0
100
AcDbLine
 10
-16.93939193540933
 20
-3.250000000000009
 30
0.0
 11
-19.0
 21
-4.000000000000127
 31
0.0
  0
LINE
  5
2D76
330
1F
100
AcDbEntity
  8
AM_0
100
AcDbLine
 10
-16.93939193540933
 20
3.249999999999988
 30
0.0
 11
-15.91593544826304
 21
3.250000000000012
 31
0.0
  0
LINE
  5
2D77
330
1F
100
AcDbEntity
  8
AM_0
100
AcDbLine
 10
-16.9393919354087
 20
-3.250000000000009
 30
0.0
 11
-13.10100815422481
 21
-3.250000000000009
 31
0.0
  0
SPLINE
  5
2E12
330
1F
100
AcDbEntity
  8
AM_0
100
AcDbSpline
210
0.0
220
0.0
230
1.0
 70
     8
 71
     3
 72
     8
 73
     4
 74
     0
 42
0.0000000001
 43
0.0000000001
 40
0.0
 40
0.0
 40
0.0
 40
0.0
 40
5.635889483499305
 40
5.635889483499305
 40
5.635889483499305
 40
5.635889483499305
 10
-8.8399999999998
 20
3.250000000000056
 30
0.0
 10
-9.911284777855049
 20
3.250000000000056
 30
0.0
 10
-10.94418023565847
 20
3.023076417387539
 30
0.0
 10
-12.22547429088802
 20
2.562056849569104
 30
0.0
  0
VIEWPORT
  5
110
330
101
100
AcDbEntity
 67
     1
  8
0
100
AcDbViewport
 10
420.5
 20
297.0
 30
0.0
 40
948.9782706766916
 41
628.452
 68
     1
 69
     1
1001
ACAD
1000
MVIEW
1002
{
1070
    16
1010
0.0
1020
0.0
1030
0.0
1010
0.0
1020
0.0
1030
1.0
1040
0.0
1040
628.452
1040
420.5
1040
297.0
1040
50.0
1040
0.0
1040
0.0
1070
     0
1070
   100
1070
     1
1070
     1
1070
     0
1070
     0
1070
     0
1070
     0
1040
0.0
1040
0.0
1040
0.0
1040
10.0
1040
10.0
1040
10.0
1040
10.0
1070
     0
1002
{
1002
}
1002
}
  0
ENDSEC
  0
SECTION
  2
OBJECTS
  0
DICTIONARY
  5
C
330
0
100
AcDbDictionary
  3
ACAD_GROUP
350
D
  3
ACAD_LAYOUT
350
1A
  3
ACAD_MLINESTYLE
350
17
  3
ACAD_PLOTSETTINGS
350
19
  3
ACAD_PLOTSTYLENAME
350
E
  3
ACDBVARIABLEDICTIONARY
350
34
  3
ACMDICTIONARY
350
43
  3
AMG
350
2B
  3
AMGSNAPSETTINGS
350
6E
  3
DWGPROPS
350
2F84
  3
ACDBHEADERROUNDTRIPXREC
350
2F90
  0
DICTIONARY
  5
74
330
1F
100
AcDbDictionary
280
     1
  3
ACAD_INDEX
360
2F86
  3
ACAD_LAYOUTSELFREF
360
2FB3
  0
DICTIONARY
  5
2FB8
330
101
100
AcDbDictionary
280
     1
  3
ACAD_LAYOUTSELFREF
360
2FB9
  0
DICTIONARY
  5
D
102
{ACAD_REACTORS
330
C
102
}
330
C
100
AcDbDictionary
  0
DICTIONARY
  5
1A
102
{ACAD_REACTORS
330
C
102
}
330
C
100
AcDbDictionary
  0
DICTIONARY
  5
17
102
{ACAD_REACTORS
330
C
102
}
330
C
100
AcDbDictionary
  3
STANDARD
350
18
  0
DICTIONARY
  5
19
102
{ACAD_REACTORS
330
C
102
}
330
C
100
AcDbDictionary
  0
ACDBDICTIONARYWDFLT
  5
E
102
{ACAD_REACTORS
330
C
102
}
330
C
100
AcDbDictionary
281
     1
  3
Normal
350
F
100
AcDbDictionaryWithDefault
340
F
  0
DICTIONARY
  5
34
102
{ACAD_REACTORS
330
C
102
}
330
C
100
AcDbDictionary
  3
INDEXCTL
350
35
  3
SORTENTS
350
B5E
  0
DICTIONARY
  5
43
102
{ACAD_REACTORS
330
C
102
}
330
C
100
AcDbDictionary
  3
ACMSTDDICTIONARY
350
260
  0
DICTIONARY
  5
2B
102
{ACAD_REACTORS
330
C
102
}
330
C
100
AcDbDictionary
  3
ACMGSETTINGS
350
2C
  0
DICTIONARY
  5
6E
102
{ACAD_REACTORS
330
C
102
}
330
C
100
AcDbDictionary
  0
XRECORD
  5
2F84
102
{ACAD_REACTORS
330
C
102
}
330
C
100
AcDbXrecord
  1
DWGPROPS COOKIE
  2

  3

  4

  6

  7

  8

  9

300
AmdtFileType=82
301
=
302
=
303
=
304
=
305
=
306
=
307
=
308
=
309
=
 40
0.0896455324074074
 41
2452836.771637361
 42
2452845.695658275
  1

 90
        1
  0
DICTIONARY
  5
2F90
102
{ACAD_REACTORS
330
C
102
}
330
C
100
AcDbDictionary
  3
TSTACKALIGN
350
2F91
  3
TSTACKSIZE
350
2F92
  3
HYPERLINKBASE
350
2F93
  3
STYLESHEET
350
2F94
  3
LAYOUTDICT
350
2F95
  3
PLOTSETDICT
350
2F96
  3
PLOTSTYLNAMDICT
350
2F97
  3
LWETCUNION
350
2F98
  3
INSUNITS
350
2F99
  3
CEPSNTYPE
350
2F9A
  3
FINGERPRINTGUID
350
2F9B
  3
VERSIONGUID
350
2F9C
  3
PSVPSCALE
350
2F9D
  3
DIMSTYLEDATA
350
2F9E
  3
PUCSORTHOREF
350
2F9F
  3
PUCSORTHOVIEW
350
2FA0
  3
PUCSBASE
350
2FA1
  3
PUCSORGTOP
350
2FA2
  3
PUCSORGBOTTOM
350
2FA3
  3
PUCSORGLEFT
350
2FA4
  3
PUCSORGRIGHT
350
2FA5
  3
PUCSORGFRONT
350
2FA6
  3
PUCSORGBACK
350
2FA7
  3
UCSORTHOREF
350
2FA8
  3
UCSORTHOVIEW
350
2FA9
  3
UCSBASE
350
2FAA
  3
UCSORGTOP
350
2FAB
  3
UCSORGBOTTOM
350
2FAC
  3
UCSORGLEFT
350
2FAD
  3
UCSORGRIGHT
350
2FAE
  3
UCSORGFRONT
350
2FAF
  3
UCSORGBACK
350
2FB0
  0
DICTIONARY
  5
2F86
102
{ACAD_REACTORS
330
74
102
}
330
74
100
AcDbDictionary
  3
*A1
350
2F87
  0
XRECORD
  5
2FB3
102
{ACAD_REACTORS
330
74
102
}
330
74
100
AcDbXrecord
340
1F
  0
XRECORD
  5
2FB9
102
{ACAD_REACTORS
330
2FB8
102
}
330
2FB8
100
AcDbXrecord
340
101
  0
MLINESTYLE
  5
18
102
{ACAD_REACTORS
330
17
102
}
330
17
100
AcDbMlineStyle
  2
STANDARD
 70
     0
  3

 62
   256
 51
90.0
 52
90.0
 71
     2
 49
0.5
 62
   256
  6
BYLAYER
 49
-0.5
 62
   256
  6
BYLAYER
  0
ACDBPLACEHOLDER
  5
F
102
{ACAD_REACTORS
330
E
102
}
330
E
100
AcDbPlaceHolder
280
     0
  0
DICTIONARYVAR
  5
35
102
{ACAD_REACTORS
330
34
102
}
330
34
100
DictionaryVariables
280
     0
  1
1
  0
DICTIONARYVAR
  5
B5E
102
{ACAD_REACTORS
330
34
102
}
330
34
100
DictionaryVariables
280
     0
  1
96
  0
DICTIONARY
  5
260
102
{ACAD_REACTORS
330
43
102
}
330
43
100
AcDbDictionary
  0
DICTIONARY
  5
2C
102
{ACAD_REACTORS
330
2B
102
}
330
2B
100
AcDbDictionary
  3
DWGSETTINGS
350
2D
  0
XRECORD
  5
2F91
102
{ACAD_REACTORS
330
2F90
102
}
330
2F90
100
AcDbXrecord
 90
        1
  0
XRECORD
  5
2F92
102
{ACAD_REACTORS
330
2F90
102
}
330
2F90
100
AcDbXrecord
 90
       70
  0
XRECORD
  5
2F93
102
{ACAD_REACTORS
330
2F90
102
}
330
2F90
100
AcDbXrecord
  1

  0
XRECORD
  5
2F94
102
{ACAD_REACTORS
330
2F90
102
}
330
2F90
100
AcDbXrecord
  1
ASAMI.ctb
  0
XRECORD
  5
2F95
102
{ACAD_REACTORS
330
2F90
102
}
330
2F90
100
AcDbXrecord
340
1A
  0
XRECORD
  5
2F96
102
{ACAD_REACTORS
330
2F90
102
}
330
2F90
100
AcDbXrecord
340
19
  0
XRECORD
  5
2F97
102
{ACAD_REACTORS
330
2F90
102
}
330
2F90
100
AcDbXrecord
340
E
  0
XRECORD
  5
2F98
102
{ACAD_REACTORS
330
2F90
102
}
330
2F90
100
AcDbXrecord
 90
    10781
  0
XRECORD
  5
2F99
102
{ACAD_REACTORS
330
2F90
102
}
330
2F90
100
AcDbXrecord
 90
        4
  0
XRECORD
  5
2F9A
102
{ACAD_REACTORS
330
2F90
102
}
330
2F90
100
AcDbXrecord
 90
        0
  0
XRECORD
  5
2F9B
102
{ACAD_REACTORS
330
2F90
102
}
330
2F90
100
AcDbXrecord
  1
{AFB28963-8C59-40AE-9337-C84526B81ACE}
  0
XRECORD
  5
2F9C
102
{ACAD_REACTORS
330
2F90
102
}
330
2F90
100
AcDbXrecord
  1
{4FCB7EEF-F530-4021-9DF2-5BD99FCE23FB}
  0
XRECORD
  5
2F9D
102
{ACAD_REACTORS
330
2F90
102
}
330
2F90
100
AcDbXrecord
 40
0.0
  0
XRECORD
  5
2F9E
102
{ACAD_REACTORS
330
2F90
102
}
330
2F90
100
AcDbXrecord
1000
DSTYLE
1002
{
1070
    79
 70
     2
1070
   341
340
59
1070
   342
340
59
1070
   371
 70
    -1
1070
   372
 70
    -1
1002
}
  0
XRECORD
  5
2F9F
102
{ACAD_REACTORS
330
2F90
102
}
330
2F90
100
AcDbXrecord
340
0
  0
XRECORD
  5
2FA0
102
{ACAD_REACTORS
330
2F90
102
}
330
2F90
100
AcDbXrecord
 70
     0
  0
XRECORD
  5
2FA1
102
{ACAD_REACTORS
330
2F90
102
}
330
2F90
100
AcDbXrecord
340
0
  0
XRECORD
  5
2FA2
102
{ACAD_REACTORS
330
2F90
102
}
330
2F90
100
AcDbXrecord
 10
0.0
 20
0.0
 30
0.0
  0
XRECORD
  5
2FA3
102
{ACAD_REACTORS
330
2F90
102
}
330
2F90
100
AcDbXrecord
 10
0.0
 20
0.0
 30
0.0
  0
XRECORD
  5
2FA4
102
{ACAD_REACTORS
330
2F90
102
}
330
2F90
100
AcDbXrecord
 10
0.0
 20
0.0
 30
0.0
  0
XRECORD
  5
2FA5
102
{ACAD_REACTORS
330
2F90
102
}
330
2F90
100
AcDbXrecord
 10
0.0
 20
0.0
 30
0.0
  0
XRECORD
  5
2FA6
102
{ACAD_REACTORS
330
2F90
102
}
330
2F90
100
AcDbXrecord
 10
0.0
 20
0.0
 30
0.0
  0
XRECORD
  5
2FA7
102
{ACAD_REACTORS
330
2F90
102
}
330
2F90
100
AcDbXrecord
 10
0.0
 20
0.0
 30
0.0
  0
XRECORD
  5
2FA8
102
{ACAD_REACTORS
330
2F90
102
}
330
2F90
100
AcDbXrecord
340
0
  0
XRECORD
  5
2FA9
102
{ACAD_REACTORS
330
2F90
102
}
330
2F90
100
AcDbXrecord
 70
     0
  0
XRECORD
  5
2FAA
102
{ACAD_REACTORS
330
2F90
102
}
330
2F90
100
AcDbXrecord
340
0
  0
XRECORD
  5
2FAB
102
{ACAD_REACTORS
330
2F90
102
}
330
2F90
100
AcDbXrecord
 10
0.0
 20
0.0
 30
0.0
  0
XRECORD
  5
2FAC
102
{ACAD_REACTORS
330
2F90
102
}
330
2F90
100
AcDbXrecord
 10
0.0
 20
0.0
 30
0.0
  0
XRECORD
  5
2FAD
102
{ACAD_REACTORS
330
2F90
102
}
330
2F90
100
AcDbXrecord
 10
0.0
 20
0.0
 30
0.0
  0
XRECORD
  5
2FAE
102
{ACAD_REACTORS
330
2F90
102
}
330
2F90
100
AcDbXrecord
 10
0.0
 20
0.0
 30
0.0
  0
XRECORD
  5
2FAF
102
{ACAD_REACTORS
330
2F90
102
}
330
2F90
100
AcDbXrecord
 10
0.0
 20
0.0
 30
0.0
  0
XRECORD
  5
2FB0
102
{ACAD_REACTORS
330
2F90
102
}
330
2F90
100
AcDbXrecord
 10
0.0
 20
0.0
 30
0.0
  0
LAYER_INDEX
  5
2F87
102
{ACAD_REACTORS
330
2F86
102
}
330
2F86
100
AcDbIndex
 40
2453151.797613322
100
AcDbLayerIndex
  8
0
360
2F88
 90
        0
  8
AM_0
360
2F89
 90
       56
  8
AM_11
360
2F8A
 90
        4
  8
AM_7
360
2F8B
 90
        1
  8
AM_5
360
2F8C
 90
        4
  8
Defpoints
360
2F8D
 90
        0
  8
AM_6
360
2F8E
 90
        1
  0
XRECORD
  5
2D
102
{ACAD_REACTORS
330
2C
102
}
330
2C
100
AcDbXrecord
  1
VERSION
140
15.0
  1
PRODUCT
  2
AutoCAD Mechanical 2000
  0
IDBUFFER
  5
2F88
330
0
100
AcDbIdBuffer
  0
IDBUFFER
  5
2F89
330
0
100
AcDbIdBuffer
330
2CF9
330
2D1E
330
2D73
330
2D74
330
2D75
330
2D76
330
2D77
330
2E12
330
2B39
330
2B3A
330
2B3B
330
2B3C
330
2B3D
330
2B3E
330
2B3F
330
2B42
330
2B56
330
2B57
330
2B58
330
2B68
330
2B69
330
2B6A
330
2B6B
330
2B6C
330
2B71
330
2B72
330
2B73
330
2B74
330
2B75
330
2B76
330
2B77
330
2B78
330
2B79
330
2C19
330
2C1A
330
2C91
330
2C93
330
2C96
330
2C97
330
2CA6
330
2CA7
330
2CA8
330
2CB7
330
2CB8
330
2CB9
330
2CBA
330
2CBB
330
2CBC
330
2CBD
330
2CBE
330
2CBF
330
2CD8
330
2CD9
330
2CDC
330
2CDD
330
2CF6
  0
IDBUFFER
  5
2F8A
330
0
100
AcDbIdBuffer
330
2B67
330
2B70
330
2B7C
330
2C18
  0
IDBUFFER
  5
2F8B
330
0
100
AcDbIdBuffer
330
13DC
  0
IDBUFFER
  5
2F8C
330
0
100
AcDbIdBuffer
330
16EA
330
177A
330
28FB
330
2CDE
  0
IDBUFFER
  5
2F8D
330
0
100
AcDbIdBuffer
  0
IDBUFFER
  5
2F8E
330
0
100
AcDbIdBuffer
330
E5A
  0
ENDSEC
  0
EOF
