  0
SECTION
  2
HEADER
  9
$ACADVER
  1
AC1014
  9
$ACADMAINTVER
 70
     9
  9
$DWGCODEPAGE
  3
ANSI_932
  9
$INSBASE
 10
0.0
 20
0.0
 30
0.0
  9
$EXTMIN
 10
-66.41123869649854
 20
-29.25000100000022
 30
-0.00000001
  9
$EXTMAX
 10
8.629789688840498
 20
5.113008885372717
 30
0.00000001
  9
$LIMMIN
 10
-69.02175275393739
 20
-33.73597568588283
  9
$LIMMAX
 10
12.6781839031783
 20
13.72663666225025
  9
$ORTHOMODE
 70
     0
  9
$REGENMODE
 70
     1
  9
$FILLMODE
 70
     1
  9
$QTEXTMODE
 70
     0
  9
$MIRRTEXT
 70
     0
  9
$DRAGMODE
 70
     2
  9
$LTSCALE
 40
1.0
  9
$OSMODE
 70
    55
  9
$ATTMODE
 70
     1
  9
$TEXTSIZE
 40
2.5
  9
$TRACEWID
 40
1.0
  9
$TEXTSTYLE
  7
STANDARD
  9
$CLAYER
  8
AM_0
  9
$CELTYPE
  6
BYLAYER
  9
$CECOLOR
 62
   256
  9
$CELTSCALE
 40
1.0
  9
$DELOBJ
 70
     1
  9
$DISPSILH
 70
     0
  9
$DIMSCALE
 40
0.5
  9
$DIMASZ
 40
2.5
  9
$DIMEXO
 40
1.0
  9
$DIMDLI
 40
12.0
  9
$DIMRND
 40
0.0
  9
$DIMDLE
 40
0.0
  9
$DIMEXE
 40
1.0
  9
$DIMTP
 40
0.1
  9
$DIMTM
 40
0.1
  9
$DIMTXT
 40
3.2
  9
$DIMCEN
 40
0.0
  9
$DIMTSZ
 40
0.0
  9
$DIMTOL
 70
     0
  9
$DIMLIM
 70
     0
  9
$DIMTIH
 70
     0
  9
$DIMTOH
 70
     0
  9
$DIMSE1
 70
     0
  9
$DIMSE2
 70
     0
  9
$DIMTAD
 70
     3
  9
$DIMZIN
 70
     8
  9
$DIMBLK
  1
OPEN30
  9
$DIMASO
 70
     1
  9
$DIMSHO
 70
     1
  9
$DIMPOST
  1

  9
$DIMAPOST
  1
"
  9
$DIMALT
 70
     0
  9
$DIMALTD
 70
     2
  9
$DIMALTF
 40
0.0393701
  9
$DIMLFAC
 40
1.0
  9
$DIMTOFL
 70
     1
  9
$DIMTVP
 40
0.0
  9
$DIMTIX
 70
     0
  9
$DIMSOXD
 70
     0
  9
$DIMSAH
 70
     0
  9
$DIMBLK1
  1

  9
$DIMBLK2
  1

  9
$DIMSTYLE
  2
AM_JIS
  9
$DIMCLRD
 70
   256
  9
$DIMCLRE
 70
   256
  9
$DIMCLRT
 70
     2
  9
$DIMTFAC
 40
0.71
  9
$DIMGAP
 40
1.5
  9
$DIMJUST
 70
     0
  9
$DIMSD1
 70
     0
  9
$DIMSD2
 70
     0
  9
$DIMTOLJ
 70
     0
  9
$DIMTZIN
 70
     0
  9
$DIMALTZ
 70
     0
  9
$DIMALTTZ
 70
     0
  9
$DIMFIT
 70
     3
  9
$DIMUPT
 70
     0
  9
$DIMUNIT
 70
     2
  9
$DIMDEC
 70
     3
  9
$DIMTDEC
 70
     3
  9
$DIMALTU
 70
     2
  9
$DIMALTTD
 70
     2
  9
$DIMTXSTY
  7
ASAMI
  9
$DIMAUNIT
 70
     0
  9
$LUNITS
 70
     2
  9
$LUPREC
 70
     2
  9
$SKETCHINC
 40
1.0
  9
$FILLETRAD
 40
2.5
  9
$AUNITS
 70
     0
  9
$AUPREC
 70
     0
  9
$MENU
  1
.
  9
$ELEVATION
 40
0.0
  9
$PELEVATION
 40
0.0
  9
$THICKNESS
 40
0.0
  9
$LIMCHECK
 70
     0
  9
$BLIPMODE
 70
     0
  9
$CHAMFERA
 40
0.5
  9
$CHAMFERB
 40
0.5
  9
$CHAMFERC
 40
20.0
  9
$CHAMFERD
 40
0.0
  9
$SKPOLY
 70
     0
  9
$TDCREATE
 40
2452836.771637361
  9
$TDUPDATE
 40
2453151.798685937
  9
$TDINDWG
 40
0.0549227546
  9
$TDUSRTIMER
 40
0.0549227546
  9
$USRTIMER
 70
     1
  9
$ANGBASE
 50
0.0
  9
$ANGDIR
 70
     0
  9
$PDMODE
 70
     0
  9
$PDSIZE
 40
0.0
  9
$PLINEWID
 40
0.0
  9
$COORDS
 70
     1
  9
$SPLFRAME
 70
     0
  9
$SPLINETYPE
 70
     6
  9
$SPLINESEGS
 70
     8
  9
$ATTDIA
 70
     1
  9
$ATTREQ
 70
     1
  9
$HANDLING
 70
 12289
  9
$HANDSEED
  5
2906
  9
$SURFTAB1
 70
     6
  9
$SURFTAB2
 70
     6
  9
$SURFTYPE
 70
     6
  9
$SURFU
 70
     6
  9
$SURFV
 70
     6
  9
$UCSNAME
  2

  9
$UCSORG
 10
0.0
 20
0.0
 30
0.0
  9
$UCSXDIR
 10
1.0
 20
0.0
 30
0.0
  9
$UCSYDIR
 10
0.0
 20
1.0
 30
0.0
  9
$PUCSNAME
  2

  9
$PUCSORG
 10
0.0
 20
0.0
 30
0.0
  9
$PUCSXDIR
 10
1.0
 20
0.0
 30
0.0
  9
$PUCSYDIR
 10
0.0
 20
1.0
 30
0.0
  9
$USERI1
 70
     0
  9
$USERI2
 70
     0
  9
$USERI3
 70
     0
  9
$USERI4
 70
     0
  9
$USERI5
 70
     0
  9
$USERR1
 40
0.0
  9
$USERR2
 40
0.0
  9
$USERR3
 40
0.0
  9
$USERR4
 40
0.0
  9
$USERR5
 40
0.0
  9
$WORLDVIEW
 70
     1
  9
$SHADEDGE
 70
     3
  9
$SHADEDIF
 70
    70
  9
$TILEMODE
 70
     1
  9
$MAXACTVP
 70
    64
  9
$PINSBASE
 10
0.0
 20
0.0
 30
0.0
  9
$PLIMCHECK
 70
     0
  9
$PEXTMIN
 10
1.000000000000000E+20
 20
1.000000000000000E+20
 30
1.000000000000000E+20
  9
$PEXTMAX
 10
-1.000000000000000E+20
 20
-1.000000000000000E+20
 30
-1.000000000000000E+20
  9
$PLIMMIN
 10
0.0
 20
0.0
  9
$PLIMMAX
 10
841.0
 20
594.0
  9
$UNITMODE
 70
     0
  9
$VISRETAIN
 70
     1
  9
$PLINEGEN
 70
     0
  9
$PSLTSCALE
 70
     0
  9
$TREEDEPTH
 70
  3020
  9
$PICKSTYLE
 70
     0
  9
$CMLSTYLE
  2
STANDARD
  9
$CMLJUST
 70
     0
  9
$CMLSCALE
 40
20.0
  9
$PROXYGRAPHICS
 70
     1
  9
$MEASUREMENT
 70
     1
  0
ENDSEC
  0
SECTION
  2
CLASSES
  0
CLASS
  1
ACDBDICTIONARYWDFLT
  2
AcDbDictionaryWithDefault
  3
AutoCAD 2000
 90
        0
280
     0
281
     0
  0
CLASS
  1
ACDBPLACEHOLDER
  2
AcDbPlaceHolder
  3
AutoCAD 2000
 90
        0
280
     0
281
     0
  0
CLASS
  1
LAYOUT
  2
AcDbLayout
  3
AutoCAD 2000
 90
        0
280
     0
281
     0
  0
CLASS
  1
AMGSETTINGSOBJ
  2
AmgSettingsObj
  3
"AcadM|Product Description: AutoCAD Mechanical 2000|Company: Autodesk"
 90
        0
280
     0
281
     0
  0
CLASS
  1
ACME_DOCUMENT
  2
AcMeDbDoc
  3
AcMeServices
 90
        0
280
     0
281
     0
  0
CLASS
  1
ACMESCOPE
  2
AcMeScope
  3
AcMeServices
 90
        0
280
     0
281
     0
  0
CLASS
  1
ACMECOMMANDHISTORY
  2
AcMeCommandHistory
  3
AcMeServices
 90
        0
280
     0
281
     0
  0
CLASS
  1
DICTIONARYVAR
  2
AcDbDictionaryVar
  3
AutoCAD 2000
 90
        0
280
     0
281
     0
  0
CLASS
  1
ACIMSYSVARMAN
  2
AcImSysVarManager
  3
AcMeServices
 90
        0
280
     0
281
     0
  0
CLASS
  1
ACIMREALSYSVAR
  2
AcImRealSysVar
  3
AcMeServices
 90
        0
280
     0
281
     0
  0
CLASS
  1
ACIMINTSYSVAR
  2
AcImIntSysVar
  3
AcMeServices
 90
        0
280
     0
281
     0
  0
CLASS
  1
ACMEDRAWINGMAN
  2
AcMeDrawingMan
  3
AcMeServices
 90
        0
280
     0
281
     0
  0
CLASS
  1
ACMEVIEW
  2
AcMeView
  3
AcMeServices
 90
        0
280
     0
281
     0
  0
CLASS
  1
ACDBENTITYCACHE
  2
AcMeEntityCache
  3
AcMeServices
 90
        0
280
     0
281
     0
  0
CLASS
  1
GSMANAGER
  2
AcMeGSManager
  3
AcMeServices
 90
        0
280
     0
281
     0
  0
CLASS
  1
AmdtInternalReactor
  2
AmdtInternalReactor
  3
AcMeServices
 90
        0
280
     0
281
     0
  0
CLASS
  1
ACMESTATEMGR
  2
AcMeStateMgr
  3
AcMeServices
 90
        0
280
     0
281
     0
  0
CLASS
  1
ACME_DATABASE
  2
AcMeDbDatabase
  3
AcMeServices
 90
        0
280
     0
281
     0
  0
CLASS
  1
ACRFINSADJUSTERMGR
  2
AcRfInsAdjusterMgr
  3
AcMeServices
 90
        0
280
     0
281
     0
  0
CLASS
  1
ACMDATADICTIONARY
  2
AcmDataDictionary
  3
"AcmSymBB|Product Description: AutoCAD Mechanical 2000|Company: Autodesk"
 90
        0
280
     0
281
     0
  0
CLASS
  1
ACMDATAENTRYBLOCK
  2
AcmDataEntryBlock
  3
"AcmSymBB|Product Description: AutoCAD Mechanical 2000|Company: Autodesk"
 90
        0
280
     0
281
     0
  0
CLASS
  1
AMGOBJPROPCFG
  2
AmgObjPropCfg
  3
"AmgLay|Product Description: AutoCAD Mechanical 2000|Company: Autodesk"
 90
        1
280
     0
281
     0
  0
CLASS
  1
ACAMGFILTERDAT
  2
AcAmgFilterDat
  3
"AcadM|Product Description: AutoCAD Mechanical 2000|Company: Autodesk"
 90
        0
280
     0
281
     0
  0
CLASS
  1
LAYER_INDEX
  2
AcDbLayerIndex
  3
AutoCAD 2000
 90
        0
280
     0
281
     0
  0
CLASS
  1
IDBUFFER
  2
AcDbIdBuffer
  3
AutoCAD 2000
 90
        0
280
     0
281
     0
  0
CLASS
  1
ACIMSTRSYSVAR
  2
AcImStrSysVar
  3
AcMeServices
 90
        0
280
     0
281
     0
  0
CLASS
  1
ACMSTANDARDJIS
  2
AcmStandardJIS
  3
"AcmSymBB|Product Description: AutoCAD Mechanical 2000|Company: Autodesk"
 90
        0
280
     0
281
     0
  0
CLASS
  1
ACMSURFSTANDARDJIS
  2
AcmSurfTextStdJIS
  3
"AcmSymBB|Product Description: AutoCAD Mechanical 2000|Company: Autodesk"
 90
        0
280
     0
281
     0
  0
CLASS
  1
ACMFCFSTANDARDJIS
  2
AcmFCFStdJIS
  3
"AcmSymBB|Product Description: AutoCAD Mechanical 2000|Company: Autodesk"
 90
        0
280
     0
281
     0
  0
CLASS
  1
ACMWELDSTANDARDJIS
  2
AcmWeldingStdJIS
  3
"AcmSymBB|Product Description: AutoCAD Mechanical 2000|Company: Autodesk"
 90
        0
280
     0
281
     0
  0
CLASS
  1
ACMIDSTANDARDJIS
  2
AcmIdStdJIS
  3
"AcmSymBB|Product Description: AutoCAD Mechanical 2000|Company: Autodesk"
 90
        0
280
     0
281
     0
  0
CLASS
  1
ACMDATUMSTANDARDJIS
  2
AcmDatumStdJIS
  3
"AcmSymBB|Product Description: AutoCAD Mechanical 2000|Company: Autodesk"
 90
        0
280
     0
281
     0
  0
CLASS
  1
ACMBOMSTANDARDJIS
  2
AcmBOMStdJIS
  3
"AcmSymBB|Product Description: AutoCAD Mechanical 2000|Company: Autodesk"
 90
        0
280
     0
281
     0
  0
CLASS
  1
ACMSTANDARDANSI
  2
AcmStandardANSI
  3
"AcmSymBB|Product Description: AutoCAD Mechanical 2000|Company: Autodesk"
 90
        0
280
     0
281
     0
  0
CLASS
  1
ACMSURFSTANDARDANSI
  2
AcmSurfTextStdANSI
  3
"AcmSymBB|Product Description: AutoCAD Mechanical 2000|Company: Autodesk"
 90
        0
280
     0
281
     0
  0
CLASS
  1
ACMFCFSTANDARDANSI
  2
AcmFCFStdANSI
  3
"AcmSymBB|Product Description: AutoCAD Mechanical 2000|Company: Autodesk"
 90
        0
280
     0
281
     0
  0
CLASS
  1
ACMWELDSTANDARDANSI
  2
AcmWeldingStdANSI
  3
"AcmSymBB|Product Description: AutoCAD Mechanical 2000|Company: Autodesk"
 90
        0
280
     0
281
     0
  0
CLASS
  1
ACMIDSTANDARDANSI
  2
AcmIdStdANSI
  3
"AcmSymBB|Product Description: AutoCAD Mechanical 2000|Company: Autodesk"
 90
        0
280
     0
281
     0
  0
CLASS
  1
ACMDATUMSTANDARDANSI
  2
AcmDatumStdANSI
  3
"AcmSymBB|Product Description: AutoCAD Mechanical 2000|Company: Autodesk"
 90
        0
280
     0
281
     0
  0
CLASS
  1
ACMBOMSTANDARDANSI
  2
AcmBOMStdANSI
  3
"AcmSymBB|Product Description: AutoCAD Mechanical 2000|Company: Autodesk"
 90
        0
280
     0
281
     0
  0
CLASS
  1
ACMSTANDARDBSI
  2
AcmStandardBSI
  3
"AcmSymBB|Product Description: AutoCAD Mechanical 2000|Company: Autodesk"
 90
        0
280
     0
281
     0
  0
CLASS
  1
ACMSURFSTANDARDBSI
  2
AcmSurfTextStdBSI
  3
"AcmSymBB|Product Description: AutoCAD Mechanical 2000|Company: Autodesk"
 90
        0
280
     0
281
     0
  0
CLASS
  1
ACMFCFSTANDARDBSI
  2
AcmFCFStdBSI
  3
"AcmSymBB|Product Description: AutoCAD Mechanical 2000|Company: Autodesk"
 90
        0
280
     0
281
     0
  0
CLASS
  1
ACMWELDSTANDARDBSI
  2
AcmWeldingStdBSI
  3
"AcmSymBB|Product Description: AutoCAD Mechanical 2000|Company: Autodesk"
 90
        0
280
     0
281
     0
  0
CLASS
  1
ACMIDSTANDARDBSI
  2
AcmIdStdBSI
  3
"AcmSymBB|Product Description: AutoCAD Mechanical 2000|Company: Autodesk"
 90
        0
280
     0
281
     0
  0
CLASS
  1
ACMDATUMSTANDARDBSI
  2
AcmDatumStdBSI
  3
"AcmSymBB|Product Description: AutoCAD Mechanical 2000|Company: Autodesk"
 90
        0
280
     0
281
     0
  0
CLASS
  1
ACMBOMSTANDARDBSI
  2
AcmBOMStdBSI
  3
"AcmSymBB|Product Description: AutoCAD Mechanical 2000|Company: Autodesk"
 90
        0
280
     0
281
     0
  0
CLASS
  1
LONG_TRANSACTION
  2
AcDbLongTransaction
  3
AutoCAD 2000
 90
        0
280
     0
281
     0
  0
CLASS
  1
LWPOLYLINE
  2
AcDbPolyline
  3
AutoCAD 2000
 90
        0
280
     0
281
     1
  0
CLASS
  1
HATCH
  2
AcDbHatch
  3
AutoCAD 2000
 90
        0
280
     0
281
     1
  0
CLASS
  1
XRECORD
  2
AcDbXrecord
  3
AutoCAD 2000
 90
        0
280
     0
281
     0
  0
ENDSEC
  0
SECTION
  2
TABLES
  0
TABLE
  2
VPORT
  5
8
330
0
100
AcDbSymbolTable
 70
     3
  0
VPORT
  5
28DB
330
8
100
AcDbSymbolTableRecord
100
AcDbViewportTableRecord
  2
*ACTIVE
 70
     0
 10
0.0
 20
0.0
 11
1.0
 21
1.0
 12
-28.8886034434171
 22
-12.06845033068014
 13
0.0
 23
0.0
 14
2.5
 24
2.5
 15
10.0
 25
10.0
 16
0.0
 26
0.0
 36
1.0
 17
0.0
 27
0.0
 37
0.0
 40
48.12059570030187
 41
1.56570841889117
 42
50.0
 43
0.0
 44
0.0
 50
0.0
 51
0.0
 71
     0
 72
   100
 73
     1
 74
     3
 75
     0
 76
     0
 77
     0
 78
     0
  0
ENDTAB
  0
TABLE
  2
LTYPE
  5
5
330
0
100
AcDbSymbolTable
 70
    10
  0
LTYPE
  5
14
330
5
100
AcDbSymbolTableRecord
100
AcDbLinetypeTableRecord
  2
BYBLOCK
 70
     0
  3

 72
    65
 73
     0
 40
0.0
  0
LTYPE
  5
15
330
5
100
AcDbSymbolTableRecord
100
AcDbLinetypeTableRecord
  2
BYLAYER
 70
     0
  3

 72
    65
 73
     0
 40
0.0
  0
LTYPE
  5
16
330
5
100
AcDbSymbolTableRecord
100
AcDbLinetypeTableRecord
  2
CONTINUOUS
 70
     0
  3
Solid line
 72
    65
 73
     0
 40
0.0
  0
LTYPE
  5
4B
330
5
100
AcDbSymbolTableRecord
100
AcDbLinetypeTableRecord
  2
AM_ISO02W050
 70
     0
  3
__ __ __ __ __ __ __ __ __ __ __ __ __ __ __
 72
    65
 73
     2
 40
7.5
 49
6.0
 74
     0
 49
-1.5
 74
     0
  0
LTYPE
  5
4C
330
5
100
AcDbSymbolTableRecord
100
AcDbLinetypeTableRecord
  2
AM_ISO08W050
 70
     0
  3
____ . ____ . ____ . ____ . ____ . ____ . ____
 72
    65
 73
     4
 40
18.0
 49
12.0
 74
     0
 49
-1.5
 74
     0
 49
3.0
 74
     0
 49
-1.5
 74
     0
  0
LTYPE
  5
4D
330
5
100
AcDbSymbolTableRecord
100
AcDbLinetypeTableRecord
  2
AM_ISO09W050
 70
     0
  3
_____ . . _____ . . _____ . . ____ .. ____
 72
    65
 73
     6
 40
22.5
 49
12.0
 74
     0
 49
-1.5
 74
     0
 49
3.0
 74
     0
 49
-1.5
 74
     0
 49
3.0
 74
     0
 49
-1.5
 74
     0
  0
LTYPE
  5
4E
330
5
100
AcDbSymbolTableRecord
100
AcDbLinetypeTableRecord
  2
AMCONSTR
 70
     0
  3
_______________________
 72
    65
 73
     2
 40
9999.0
 49
9999.0
 74
     0
 49
0.0
 74
     0
  0
LTYPE
  5
4F
330
5
100
AcDbSymbolTableRecord
100
AcDbLinetypeTableRecord
  2
AM_ISO02W050X2
 70
     0
  3
 _ _ _ _ _ _ _ _ _ _ _ _
 72
    65
 73
     2
 40
3.75
 49
3.0
 74
     0
 49
-0.75
 74
     0
  0
LTYPE
  5
50
330
5
100
AcDbSymbolTableRecord
100
AcDbLinetypeTableRecord
  2
AM_ISO08W050X2
 70
     0
  3
__ . __ . __ . __ . __ . __
 72
    65
 73
     4
 40
9.0
 49
6.0
 74
     0
 49
-0.75
 74
     0
 49
1.5
 74
     0
 49
-0.75
 74
     0
  0
LTYPE
  5
53
330
5
100
AcDbSymbolTableRecord
100
AcDbLinetypeTableRecord
  2
AMZIGZAG
 70
     0
  3
/\/-/\/-/\/-/\/-/\/-/\/
 72
    65
 73
     2
 40
11.00009999999999
 49
0.0001
 74
     4
 75
   135
340
52
 46
0.04
 50
0.0
 44
0.0
 45
0.0
 49
-11.0
 74
     0
  0
LTYPE
  5
166
330
5
100
AcDbSymbolTableRecord
100
AcDbLinetypeTableRecord
  2
ACJISTGL
 70
     0
  3
_ _ _ _ _
 72
    65
 73
     2
 40
3.0
 49
2.0
 74
     0
 49
-1.0
 74
     0
  0
LTYPE
  5
26A
330
5
100
AcDbSymbolTableRecord
100
AcDbLinetypeTableRecord
  2
ACJISTGB
 70
     0
  3
__ . . __ . .
 72
    65
 73
     6
 40
9.0
 49
4.0
 74
     0
 49
-1.0
 74
     0
 49
1.0
 74
     0
 49
-1.0
 74
     0
 49
1.0
 74
     0
 49
-1.0
 74
     0
  0
ENDTAB
  0
TABLE
  2
LAYER
  5
2
330
0
100
AcDbSymbolTable
 70
     7
  0
LAYER
  5
10
330
2
100
AcDbSymbolTableRecord
100
AcDbLayerTableRecord
  2
0
 70
     0
 62
     7
  6
CONTINUOUS
  0
LAYER
  5
3F9
330
2
100
AcDbSymbolTableRecord
100
AcDbLayerTableRecord
  2
AM_0
 70
     0
 62
     7
  6
CONTINUOUS
  0
LAYER
  5
BD4
330
2
100
AcDbSymbolTableRecord
100
AcDbLayerTableRecord
  2
AM_11
 70
     0
 62
     3
  6
AM_ISO09W050
  0
LAYER
  5
BD5
330
2
100
AcDbSymbolTableRecord
100
AcDbLayerTableRecord
  2
AM_7
 70
     0
 62
     4
  6
AM_ISO08W050
  0
LAYER
  5
BD6
330
2
100
AcDbSymbolTableRecord
100
AcDbLayerTableRecord
  2
AM_5
 70
     0
 62
     3
  6
CONTINUOUS
  0
LAYER
  5
BD7
330
2
100
AcDbSymbolTableRecord
100
AcDbLayerTableRecord
  2
DEFPOINTS
 70
     0
 62
     7
  6
CONTINUOUS
  0
LAYER
  5
E59
330
2
100
AcDbSymbolTableRecord
100
AcDbLayerTableRecord
  2
AM_6
 70
     0
 62
     2
  6
CONTINUOUS
  0
ENDTAB
  0
TABLE
  2
STYLE
  5
3
330
0
100
AcDbSymbolTable
 70
     5
  0
STYLE
  5
11
330
3
100
AcDbSymbolTableRecord
100
AcDbTextStyleTableRecord
  2
STANDARD
 70
     0
 40
0.0
 41
1.0
 50
0.0
 71
     0
 42
2.5
  3
simplex.shx
  4
EXTFONT.SHX
  0
STYLE
  5
52
330
3
100
AcDbSymbolTableRecord
100
AcDbTextStyleTableRecord
  2

 70
     1
 40
0.0
 41
1.0
 50
0.0
 71
     0
 42
2.5
  3
ltypeshp.shx
  4

  0
STYLE
  5
6B
330
3
100
AcDbSymbolTableRecord
100
AcDbTextStyleTableRecord
  2
ASAMI
 70
     0
 40
0.0
 41
1.0
 50
0.0
 71
     0
 42
2.5
  3
simplex.shx
  4
EXTFONT.SHX
  0
STYLE
  5
262
330
3
100
AcDbSymbolTableRecord
100
AcDbTextStyleTableRecord
  2
ACJISTS
 70
     0
 40
1.0
 41
1.0
 50
0.0
 71
     0
 42
2.5
  3
simplex.shx
  4
bigfont.shx
  0
STYLE
  5
269
330
3
100
AcDbSymbolTableRecord
100
AcDbTextStyleTableRecord
  2
ACJISGDT
 70
     0
 40
0.0
 41
1.0
 50
0.0
 71
     0
 42
2.5
  3
amgdtans.shx
  4

  0
ENDTAB
  0
TABLE
  2
VIEW
  5
6
330
0
100
AcDbSymbolTable
 70
     0
  0
ENDTAB
  0
TABLE
  2
UCS
  5
7
330
0
100
AcDbSymbolTable
 70
     0
  0
ENDTAB
  0
TABLE
  2
APPID
  5
9
330
0
100
AcDbSymbolTable
 70
    12
  0
APPID
  5
12
330
9
100
AcDbSymbolTableRecord
100
AcDbRegAppTableRecord
  2
ACAD
 70
     0
  0
APPID
  5
30
330
9
100
AcDbSymbolTableRecord
100
AcDbRegAppTableRecord
  2
MCAD_NO_VIS
 70
     0
  0
APPID
  5
31
330
9
100
AcDbSymbolTableRecord
100
AcDbRegAppTableRecord
  2
ACAD_TEMP_GRAPHIC
 70
     0
  0
APPID
  5
2C2
330
9
100
AcDbSymbolTableRecord
100
AcDbRegAppTableRecord
  2
GENIUS_GENDTOL_13
 70
     0
  0
APPID
  5
339
330
9
100
AcDbSymbolTableRecord
100
AcDbRegAppTableRecord
  2
GENIUS_GENODEF_13
 70
     0
  0
APPID
  5
33A
330
9
100
AcDbSymbolTableRecord
100
AcDbRegAppTableRecord
  2
GENIUS_GENOBJ-N-RSBK_13
 70
     0
  0
APPID
  5
33B
330
9
100
AcDbSymbolTableRecord
100
AcDbRegAppTableRecord
  2
GENIUS_GENOBJ-N-LIB_13
 70
     0
  0
APPID
  5
33C
330
9
100
AcDbSymbolTableRecord
100
AcDbRegAppTableRecord
  2
GENIUS_GENSCALE_13
 70
     0
  0
APPID
  5
378
330
9
100
AcDbSymbolTableRecord
100
AcDbRegAppTableRecord
  2
GENIUS_GENDIMSH_14
 70
     0
  0
APPID
  5
BD8
330
9
100
AcDbSymbolTableRecord
100
AcDbRegAppTableRecord
  2
GENIUS_GENOBJ-N-CEN_13
 70
     0
  0
APPID
  5
BD9
330
9
100
AcDbSymbolTableRecord
100
AcDbRegAppTableRecord
  2
GENIUS_GENFIL_13
 70
     0
  0
APPID
  5
BDA
330
9
100
AcDbSymbolTableRecord
100
AcDbRegAppTableRecord
  2
GENIUS_GENOBJ-N-CHA_13
 70
     0
  0
ENDTAB
  0
TABLE
  2
DIMSTYLE
  5
A
330
0
100
AcDbSymbolTable
 70
     8
  0
DIMSTYLE
105
58
102
{ACAD_REACTORS
330
16EA
330
177A
330
1936
330
237E
102
}
330
A
100
AcDbSymbolTableRecord
100
AcDbDimStyleTableRecord
  2
AM_JIS
 70
     0
  3

  4
"
  5
OPEN30
  6

  7

 40
0.5
 41
2.5
 42
1.0
 43
12.0
 44
1.0
 45
0.0
 46
0.0
 47
0.1
 48
0.1
140
3.2
141
0.0
142
0.0
143
0.0393701
144
1.0
145
0.0
146
0.71
147
1.5
 71
     0
 72
     0
 73
     0
 74
     0
 75
     0
 76
     0
 77
     3
 78
     8
170
     0
171
     2
172
     1
173
     0
174
     0
175
     0
176
   256
177
   256
178
     2
270
     2
271
     3
272
     3
273
     2
274
     2
340
6B
275
     0
280
     0
281
     0
282
     0
283
     0
284
     0
285
     0
286
     0
287
     3
288
     0
  0
DIMSTYLE
105
5F
330
A
100
AcDbSymbolTableRecord
100
AcDbDimStyleTableRecord
  2
AM_JIS$3
 70
     0
  3

  4
"
  5
OPEN30
  6

  7

 40
0.5
 41
2.5
 42
1.0
 43
10.0
 44
1.0
 45
0.0
 46
0.0
 47
0.1
 48
0.1
140
3.2
141
0.0
142
0.0
143
0.0393701
144
1.0
145
0.0
146
0.71
147
1.5
 71
     0
 72
     0
 73
     0
 74
     1
 75
     0
 76
     0
 77
     3
 78
     8
170
     0
171
     2
172
     0
173
     0
174
     0
175
     0
176
   256
177
   256
178
     2
270
     2
271
     2
272
     3
273
     2
274
     2
340
6B
275
     0
280
     0
281
     0
282
     0
283
     0
284
     0
285
     0
286
     0
287
     0
288
     1
  0
DIMSTYLE
105
60
330
A
100
AcDbSymbolTableRecord
100
AcDbDimStyleTableRecord
  2
AM_JIS$4
 70
     0
  3

  4
"
  5
OPEN30
  6

  7

 40
0.5
 41
2.5
 42
1.0
 43
10.0
 44
1.0
 45
0.0
 46
0.0
 47
0.1
 48
0.1
140
3.2
141
0.0
142
0.0
143
0.0393701
144
1.0
145
0.0
146
0.71
147
1.5
 71
     0
 72
     0
 73
     0
 74
     1
 75
     0
 76
     0
 77
     3
 78
     8
170
     0
171
     2
172
     0
173
     0
174
     0
175
     0
176
   256
177
   256
178
     2
270
     2
271
     2
272
     3
273
     2
274
     2
340
6B
275
     0
280
     0
281
     0
282
     0
283
     0
284
     0
285
     0
286
     0
287
     0
288
     1
  0
DIMSTYLE
105
61
330
A
100
AcDbSymbolTableRecord
100
AcDbDimStyleTableRecord
  2
AM_JIS$6
 70
     0
  3

  4
"
  5
OPEN30
  6

  7

 40
0.5
 41
2.5
 42
1.0
 43
10.0
 44
1.0
 45
0.0
 46
0.0
 47
0.1
 48
0.1
140
3.2
141
0.0
142
0.0
143
0.0393701
144
1.0
145
0.0
146
0.71
147
1.5
 71
     0
 72
     0
 73
     0
 74
     0
 75
     0
 76
     0
 77
     0
 78
     8
170
     0
171
     2
172
     1
173
     0
174
     0
175
     0
176
   256
177
   256
178
     2
270
     2
271
     2
272
     2
273
     2
274
     2
340
6B
275
     0
280
     0
281
     0
282
     0
283
     0
284
     0
285
     0
286
     0
287
     3
288
     0
  0
DIMSTYLE
105
62
330
A
100
AcDbSymbolTableRecord
100
AcDbDimStyleTableRecord
  2
AM_JIS$7
 70
     0
  3

  4
"
  5
OPEN30
  6

  7

 40
0.5
 41
2.5
 42
1.0
 43
10.0
 44
1.0
 45
0.0
 46
0.0
 47
0.1
 48
0.1
140
3.2
141
0.0
142
0.0
143
0.0393701
144
1.0
145
0.0
146
0.71
147
1.5
 71
     0
 72
     0
 73
     0
 74
     0
 75
     0
 76
     0
 77
     3
 78
     8
170
     0
171
     2
172
     1
173
     0
174
     0
175
     0
176
   256
177
   256
178
     2
270
     2
271
     2
272
     3
273
     2
274
     2
340
6B
275
     0
280
     0
281
     0
282
     0
283
     0
284
     0
285
     0
286
     0
287
     3
288
     0
  0
DIMSTYLE
105
63
330
A
100
AcDbSymbolTableRecord
100
AcDbDimStyleTableRecord
  2
AM_JIS$SF
 70
     0
  3

  4
"
  5
OPEN30
  6

  7

 40
0.5
 41
2.5
 42
1.0
 43
10.0
 44
1.0
 45
0.0
 46
0.0
 47
0.1
 48
0.1
140
3.2
141
0.0
142
0.0
143
0.0393701
144
1.0
145
0.0
146
0.71
147
1.5
 71
     0
 72
     0
 73
     0
 74
     0
 75
     1
 76
     1
 77
     3
 78
     8
170
     0
171
     2
172
     1
173
     0
174
     0
175
     0
176
   256
177
   256
178
     2
270
     2
271
     2
272
     2
273
     2
274
     2
340
6B
275
     0
280
     0
281
     0
282
     0
283
     0
284
     0
285
     0
286
     0
287
     3
288
     0
  0
DIMSTYLE
105
68
330
A
100
AcDbSymbolTableRecord
100
AcDbDimStyleTableRecord
  2
AM_JIS$SH
 70
     0
  3

  4
"
  5

  6
GENAXEH
  7
OPEN30
 40
0.5
 41
2.5
 42
1.0
 43
10.0
 44
1.0
 45
0.0
 46
0.0
 47
0.1
 48
0.1
140
3.2
141
0.0
142
0.0
143
0.0393701
144
2.0
145
0.0
146
0.71
147
1.5
 71
     0
 72
     0
 73
     0
 74
     0
 75
     1
 76
     1
 77
     3
 78
     8
170
     0
171
     2
172
     1
173
     1
174
     0
175
     0
176
   256
177
   256
178
     2
270
     2
271
     2
272
     2
273
     2
274
     2
340
6B
275
     0
280
     0
281
     0
282
     0
283
     0
284
     0
285
     0
286
     0
287
     3
288
     0
  0
DIMSTYLE
105
B34
330
A
100
AcDbSymbolTableRecord
100
AcDbDimStyleTableRecord
  2
AM_JIS$2
 70
     0
  3

  4
"
  5
OPEN30
  6

  7

 40
0.5
 41
2.5
 42
1.0
 43
12.0
 44
1.0
 45
0.0
 46
0.0
 47
0.1
 48
0.1
140
3.2
141
0.0
142
0.0
143
0.0393701
144
1.0
145
0.0
146
0.71
147
1.5
 71
     0
 72
     0
 73
     0
 74
     0
 75
     0
 76
     0
 77
     3
 78
     8
170
     0
171
     2
172
     1
173
     0
174
     0
175
     0
176
   256
177
   256
178
     2
270
     2
271
     3
272
     3
273
     2
274
     2
340
6B
275
     0
280
     0
281
     0
282
     0
283
     0
284
     0
285
     0
286
     0
287
     3
288
     0
  0
ENDTAB
  0
TABLE
  2
BLOCK_RECORD
  5
1
330
0
100
AcDbSymbolTable
 70
     9
  0
BLOCK_RECORD
  5
1F
102
{ACAD_XDICTIONARY
360
74
102
}
330
1
100
AcDbSymbolTableRecord
100
AcDbBlockTableRecord
  2
*MODEL_SPACE
  0
BLOCK_RECORD
  5
101
102
{ACAD_XDICTIONARY
360
2904
102
}
330
1
100
AcDbSymbolTableRecord
100
AcDbBlockTableRecord
  2
*PAPER_SPACE
  0
BLOCK_RECORD
  5
59
330
1
100
AcDbSymbolTableRecord
100
AcDbBlockTableRecord
  2
_OPEN30
  0
BLOCK_RECORD
  5
64
330
1
100
AcDbSymbolTableRecord
100
AcDbBlockTableRecord
  2
GENAXEH
  0
BLOCK_RECORD
  5
16EB
330
1
100
AcDbSymbolTableRecord
100
AcDbBlockTableRecord
  2
*D5
  0
BLOCK_RECORD
  5
177B
330
1
100
AcDbSymbolTableRecord
100
AcDbBlockTableRecord
  2
*D6
  0
BLOCK_RECORD
  5
1937
330
1
100
AcDbSymbolTableRecord
100
AcDbBlockTableRecord
  2
*D7
  0
BLOCK_RECORD
  5
237F
330
1
100
AcDbSymbolTableRecord
100
AcDbBlockTableRecord
  2
*D8
  0
ENDTAB
  0
ENDSEC
  0
SECTION
  2
BLOCKS
  0
BLOCK
  5
20
330
1F
100
AcDbEntity
  8
0
100
AcDbBlockBegin
  2
*MODEL_SPACE
 70
     0
 10
0.0
 20
0.0
 30
0.0
  3
*MODEL_SPACE
  1

  0
ENDBLK
  5
21
330
1F
100
AcDbEntity
  8
0
100
AcDbBlockEnd
  0
BLOCK
  5
103
330
101
100
AcDbEntity
 67
     1
  8
0
100
AcDbBlockBegin
  2
*PAPER_SPACE
 70
     0
 10
0.0
 20
0.0
 30
0.0
  3
*PAPER_SPACE
  1

  0
ENDBLK
  5
104
330
101
100
AcDbEntity
 67
     1
  8
0
100
AcDbBlockEnd
  0
BLOCK
  5
5D
330
59
100
AcDbEntity
  8
0
100
AcDbBlockBegin
  2
_OPEN30
 70
     0
 10
0.0
 20
0.0
 30
0.0
  3
_OPEN30
  1

  0
LINE
  5
5A
330
59
100
AcDbEntity
  8
0
 62
     0
100
AcDbLine
 10
-1.0
 20
0.26794919
 30
0.0
 11
0.0
 21
0.0
 31
0.0
  0
LINE
  5
5B
330
59
100
AcDbEntity
  8
0
 62
     0
100
AcDbLine
 10
0.0
 20
0.0
 30
0.0
 11
-1.0
 21
-0.26794919
 31
0.0
  0
LINE
  5
5C
330
59
100
AcDbEntity
  8
0
 62
     0
100
AcDbLine
 10
0.0
 20
0.0
 30
0.0
 11
-1.0
 21
0.0
 31
0.0
  0
ENDBLK
  5
5E
330
59
100
AcDbEntity
  8
0
100
AcDbBlockEnd
  0
BLOCK
  5
66
330
64
100
AcDbEntity
  8
0
100
AcDbBlockBegin
  2
GENAXEH
 70
     0
 10
0.0
 20
0.0
 30
0.0
  3
GENAXEH
  1

  0
LINE
  5
65
330
64
100
AcDbEntity
  8
0
100
AcDbLine
 10
-1.0
 20
0.0
 30
0.0
 11
1.0
 21
0.0
 31
0.0
  0
ENDBLK
  5
67
330
64
100
AcDbEntity
  8
0
100
AcDbBlockEnd
  0
BLOCK
  5
16F5
330
16EB
100
AcDbEntity
  8
0
100
AcDbBlockBegin
  2
*D5
 70
     1
 10
0.0
 20
0.0
 30
0.0
  3
*D5
  1

  0
LINE
  5
26AA
330
16EB
100
AcDbEntity
  8
AM_5
100
AcDbLine
 10
-0.0000000000001439
 20
-4.75
 30
0.0
 11
-0.0000000000001444
 21
-12.5000010000001
 31
0.0
  0
LINE
  5
26AB
330
16EB
100
AcDbEntity
  8
AM_5
100
AcDbLine
 10
-14.99952942652793
 20
-4.750000000000014
 30
0.0
 11
-14.99952942652793
 21
-12.5000010000001
 31
0.0
  0
LINE
  5
26AC
330
16EB
100
AcDbEntity
  8
AM_5
100
AcDbLine
 10
-1.250000000000144
 20
-12.0000010000001
 30
0.0
 11
-13.74952942652793
 21
-12.0000010000001
 31
0.0
  0
INSERT
  5
26AD
330
16EB
100
AcDbEntity
  8
AM_5
100
AcDbBlockReference
  2
_OPEN30
 10
-0.0000000000001444
 20
-12.0000010000001
 30
0.0
 41
1.25
 42
1.25
 43
1.25
  0
INSERT
  5
26AE
330
16EB
100
AcDbEntity
  8
AM_5
100
AcDbBlockReference
  2
_OPEN30
 10
-14.99952942652793
 20
-12.0000010000001
 30
0.0
 41
1.25
 42
1.25
 43
1.25
 50
180.0
  0
MTEXT
  5
26AF
330
16EB
100
AcDbEntity
  8
AM_5
 62
     2
100
AcDbMText
 10
-7.499764713264041
 20
-10.45000100000009
 30
0.0
 40
1.6
 41
0.0
 71
     5
 72
     1
  1
15
  7
ASAMI
1001
ACAD
1000
MTEXTBEGIN
1070
    73
1070
     1
1070
    44
1040
1.0
1070
    74
1070
     0
1000
MTEXTEND
  0
POINT
  5
26B0
330
16EB
100
AcDbEntity
  8
DEFPOINTS
 62
     0
100
AcDbPoint
 10
-0.0000000000001439
 20
-4.25
 30
0.0
  0
POINT
  5
26B1
330
16EB
100
AcDbEntity
  8
DEFPOINTS
 62
     0
100
AcDbPoint
 10
-14.99952942652793
 20
-4.250000000000014
 30
0.0
  0
POINT
  5
26B2
330
16EB
100
AcDbEntity
  8
DEFPOINTS
 62
     0
100
AcDbPoint
 10
-14.99952942652793
 20
-12.0000010000001
 30
0.0
  0
ENDBLK
  5
16F6
330
16EB
100
AcDbEntity
  8
0
100
AcDbBlockEnd
  0
BLOCK
  5
1785
330
177B
100
AcDbEntity
  8
0
100
AcDbBlockBegin
  2
*D6
 70
     1
 10
0.0
 20
0.0
 30
0.0
  3
*D6
  1

  0
LINE
  5
26A1
330
177B
100
AcDbEntity
  8
AM_5
100
AcDbLine
 10
0.0000000000004467
 20
-4.75
 30
0.0
 11
0.0000000000004459
 21
-18.50000100000021
 31
0.0
  0
LINE
  5
26A2
330
177B
100
AcDbEntity
  8
AM_5
100
AcDbLine
 10
-55.0
 20
-5.000000000000139
 30
0.0
 11
-55.0
 21
-18.50000100000021
 31
0.0
  0
LINE
  5
26A3
330
177B
100
AcDbEntity
  8
AM_5
100
AcDbLine
 10
-1.249999999999554
 20
-18.00000100000021
 30
0.0
 11
-53.75
 21
-18.00000100000021
 31
0.0
  0
INSERT
  5
26A4
330
177B
100
AcDbEntity
  8
AM_5
100
AcDbBlockReference
  2
_OPEN30
 10
0.0000000000004459
 20
-18.00000100000021
 30
0.0
 41
1.25
 42
1.25
 43
1.25
  0
INSERT
  5
26A5
330
177B
100
AcDbEntity
  8
AM_5
100
AcDbBlockReference
  2
_OPEN30
 10
-55.0
 20
-18.00000100000021
 30
0.0
 41
1.25
 42
1.25
 43
1.25
 50
180.0
  0
MTEXT
  5
26A6
330
177B
100
AcDbEntity
  8
AM_5
 62
     2
100
AcDbMText
 10
-27.49999999999977
 20
-16.45000100000021
 30
0.0
 40
1.6
 41
0.0
 71
     5
 72
     1
  1
55
  7
ASAMI
1001
ACAD
1000
MTEXTBEGIN
1070
    73
1070
     1
1070
    44
1040
1.0
1070
    74
1070
     0
1000
MTEXTEND
  0
POINT
  5
26A7
330
177B
100
AcDbEntity
  8
DEFPOINTS
 62
     0
100
AcDbPoint
 10
0.0000000000004468
 20
-4.25
 30
0.0
  0
POINT
  5
26A8
330
177B
100
AcDbEntity
  8
DEFPOINTS
 62
     0
100
AcDbPoint
 10
-55.0
 20
-4.500000000000139
 30
0.0
  0
POINT
  5
26A9
330
177B
100
AcDbEntity
  8
DEFPOINTS
 62
     0
100
AcDbPoint
 10
-55.0
 20
-18.00000100000021
 30
0.0
  0
ENDBLK
  5
1786
330
177B
100
AcDbEntity
  8
0
100
AcDbBlockEnd
  0
BLOCK
  5
1943
330
1937
100
AcDbEntity
  8
0
100
AcDbBlockBegin
  2
*D7
 70
     1
 10
0.0
 20
0.0
 30
0.0
  3
*D7
  1

  0
LINE
  5
26B3
330
1937
100
AcDbEntity
  8
AM_5
100
AcDbLine
 10
0.4999999999992492
 20
4.25
 30
0.0
 11
8.629789688840498
 21
4.249999999999997
 31
0.0
  0
LINE
  5
26B4
330
1937
100
AcDbEntity
  8
AM_5
100
AcDbLine
 10
0.4999999999984004
 20
-4.25
 30
0.0
 11
8.629789688840494
 21
-4.250000000000003
 31
0.0
  0
LINE
  5
26B5
330
1937
100
AcDbEntity
  8
AM_5
100
AcDbLine
 10
8.129789688840496
 20
2.999999999999997
 30
0.0
 11
8.129789688840496
 21
-3.000000000000003
 31
0.0
  0
INSERT
  5
26B6
330
1937
100
AcDbEntity
  8
AM_5
100
AcDbBlockReference
  2
_OPEN30
 10
8.129789688840498
 20
4.249999999999997
 30
0.0
 41
1.25
 42
1.25
 43
1.25
 50
90.0
  0
INSERT
  5
26B7
330
1937
100
AcDbEntity
  8
AM_5
100
AcDbBlockReference
  2
_OPEN30
 10
8.129789688840494
 20
-4.250000000000003
 30
0.0
 41
1.25
 42
1.25
 43
1.25
 50
270.0
  0
MTEXT
  5
26B8
330
1937
100
AcDbEntity
  8
AM_5
 62
     2
100
AcDbMText
 10
6.579789688840495
 20
-0.0000000000000016
 30
0.0
 40
1.6
 41
0.0
 71
     5
 72
     1
  1
%%c8.5
  7
ASAMI
 11
0.0000000000000001
 21
1.0
 31
0.0
1001
ACAD
1000
MTEXTBEGIN
1070
    73
1070
     1
1070
    44
1040
1.0
1070
    74
1070
     0
1000
MTEXTEND
  0
POINT
  5
26B9
330
1937
100
AcDbEntity
  8
DEFPOINTS
 62
     0
100
AcDbPoint
 10
-0.0000000000007509
 20
4.25
 30
0.0
  0
POINT
  5
26BA
330
1937
100
AcDbEntity
  8
DEFPOINTS
 62
     0
100
AcDbPoint
 10
-0.0000000000015996
 20
-4.25
 30
0.0
  0
POINT
  5
26BB
330
1937
100
AcDbEntity
  8
DEFPOINTS
 62
     0
100
AcDbPoint
 10
8.129789688840494
 20
-4.250000000000003
 30
0.0
  0
ENDBLK
  5
1944
330
1937
100
AcDbEntity
  8
0
100
AcDbBlockEnd
  0
BLOCK
  5
2389
330
237F
100
AcDbEntity
  8
0
100
AcDbBlockBegin
  2
*D8
 70
     1
 10
0.0
 20
0.0
 30
0.0
  3
*D8
  1

  0
LINE
  5
239D
330
237F
100
AcDbEntity
  8
AM_5
100
AcDbLine
 10
-55.0
 20
4.999999999999859
 30
0.0
 11
-64.56123869649855
 21
4.999999999999862
 31
0.0
  0
LINE
  5
239E
330
237F
100
AcDbEntity
  8
AM_5
100
AcDbLine
 10
-55.0
 20
-5.000000000000138
 30
0.0
 11
-64.56123869649855
 21
-5.000000000000135
 31
0.0
  0
LINE
  5
239F
330
237F
100
AcDbEntity
  8
AM_5
100
AcDbLine
 10
-64.06123869649855
 20
3.749999999999862
 30
0.0
 11
-64.06123869649855
 21
-3.750000000000135
 31
0.0
  0
INSERT
  5
23A0
330
237F
100
AcDbEntity
  8
AM_5
100
AcDbBlockReference
  2
_OPEN30
 10
-64.06123869649855
 20
4.999999999999862
 30
0.0
 41
1.25
 42
1.25
 43
1.25
 50
90.0
  0
INSERT
  5
23A1
330
237F
100
AcDbEntity
  8
AM_5
100
AcDbBlockReference
  2
_OPEN30
 10
-64.06123869649855
 20
-5.000000000000135
 30
0.0
 41
1.25
 42
1.25
 43
1.25
 50
270.0
  0
MTEXT
  5
23A2
330
237F
100
AcDbEntity
  8
AM_5
 62
     2
100
AcDbMText
 10
-65.61123869649854
 20
-0.0000000000001469
 30
0.0
 40
1.6
 41
0.0
 71
     5
 72
     1
  1
%%c10
  7
ASAMI
 11
0.0000000000000001
 21
1.0
 31
0.0
1001
ACAD
1000
MTEXTBEGIN
1070
    73
1070
     1
1070
    44
1040
1.0
1070
    74
1070
     0
1000
MTEXTEND
  0
POINT
  5
23A3
330
237F
100
AcDbEntity
  8
DEFPOINTS
 62
     0
100
AcDbPoint
 10
-54.5
 20
4.999999999999859
 30
0.0
  0
POINT
  5
23A4
330
237F
100
AcDbEntity
  8
DEFPOINTS
 62
     0
100
AcDbPoint
 10
-54.5
 20
-5.000000000000138
 30
0.0
  0
POINT
  5
23A5
330
237F
100
AcDbEntity
  8
DEFPOINTS
 62
     0
100
AcDbPoint
 10
-64.06123869649855
 20
-5.000000000000135
 30
0.0
  0
ENDBLK
  5
238A
330
237F
100
AcDbEntity
  8
0
100
AcDbBlockEnd
  0
ENDSEC
  0
SECTION
  2
ENTITIES
  0
TEXT
  5
E5A
330
1F
100
AcDbEntity
  8
AM_6
100
AcDbText
 10
-35.71428571428548
 20
-29.25000100000021
 30
0.0
 40
2.5
  1
SSM4085
 72
     4
 11
-27.49999999999976
 21
-28.00000100000021
 31
0.0
100
AcDbText
  0
LINE
  5
13DC
330
1F
100
AcDbEntity
  8
AM_7
  6
AM_ISO08W050X2
100
AcDbLine
 10
1.129788688840505
 20
-0.000000000000095
 30
0.0
 11
-57.06123769649856
 21
-0.0000000000001386
 31
0.0
1001
GENIUS_GENODEF_13
1002
{
1000
HIER
1070
     0
1002
}
1002
{
1000
MANEDIT
1070
     0
1002
}
1002
{
1000
NOSEL
1070
     0
1002
}
1002
{
1000
BEHIND
1070
     0
1002
}
1002
{
1000
REACTOR
1002
}
1001
GENIUS_GENOBJ-N-CEN_13
1002
{
1000
OWNER
1000
GEN
1002
}
  0
DIMENSION
  5
16EA
330
1F
100
AcDbEntity
  8
AM_5
100
AcDbDimension
  2
*D5
 10
-14.99952942652793
 20
-12.0000010000001
 30
0.0
 11
-7.499764713264041
 21
-10.45000100000009
 31
0.0
 70
    32
  1
<>
  3
AM_JIS
100
AcDbAlignedDimension
 13
-0.0000000000001439
 23
-4.25
 33
0.0
 14
-14.99952942652793
 24
-4.250000000000014
 34
0.0
 50
0.0000000000001641
100
AcDbRotatedDimension
1001
GENIUS_GENDTOL_13
1000

1000
h7
1000

1040
0.0
  0
DIMENSION
  5
177A
330
1F
100
AcDbEntity
  8
AM_5
100
AcDbDimension
  2
*D6
 10
-55.0
 20
-18.00000100000021
 30
0.0
 11
-27.49999999999977
 21
-16.45000100000021
 31
0.0
 70
    32
  1
<>
  3
AM_JIS
100
AcDbAlignedDimension
 13
0.0000000000004468
 23
-4.25
 33
0.0
 14
-55.0
 24
-4.500000000000139
 34
0.0
 50
0.0000000000001641
100
AcDbRotatedDimension
1001
GENIUS_GENDTOL_13
1000

1000
h7
1000

1040
0.0
  0
DIMENSION
  5
1936
330
1F
100
AcDbEntity
  8
AM_5
100
AcDbDimension
  2
*D7
 10
8.129789688840494
 20
-4.250000000000003
 30
0.0
 11
6.579789688840495
 21
-0.0000000000000016
 31
0.0
 70
    32
  1
%%c<>
  3
AM_JIS
100
AcDbAlignedDimension
 13
-0.0000000000007509
 23
4.25
 33
0.0
 14
-0.0000000000015996
 24
-4.25
 34
0.0
 50
90.00000000000003
100
AcDbRotatedDimension
1001
GENIUS_GENDTOL_13
1000

1000
h7
1000

1040
0.0
  0
LINE
  5
2378
330
1F
100
AcDbEntity
  8
AM_0
100
AcDbLine
 10
-54.5
 20
4.999999999999857
 30
0.0
 11
-24.0
 21
4.999999999999873
 31
0.0
  0
LINE
  5
2379
330
1F
100
AcDbEntity
  8
AM_0
100
AcDbLine
 10
-24.0
 20
-5.000000000000124
 30
0.0
 11
-54.5
 21
-5.000000000000139
 31
0.0
  0
LINE
  5
237C
330
1F
100
AcDbEntity
  8
AM_0
100
AcDbLine
 10
-54.5
 20
4.999999999999859
 30
0.0
 11
-54.5
 21
-5.000000000000138
 31
0.0
  0
LINE
  5
237D
330
1F
100
AcDbEntity
  8
AM_0
100
AcDbLine
 10
-55.0
 20
-4.500000000000139
 30
0.0
 11
-55.0
 21
4.499999999999857
 31
0.0
  0
DIMENSION
  5
237E
330
1F
100
AcDbEntity
  8
AM_5
100
AcDbDimension
  2
*D8
 10
-64.06123869649855
 20
-5.000000000000135
 30
0.0
 11
-65.61123869649854
 21
-0.0000000000001469
 31
0.0
 70
    32
  1
%%c<>
  3
AM_JIS
100
AcDbAlignedDimension
 13
-54.5
 23
4.999999999999859
 33
0.0
 14
-54.5
 24
-5.000000000000138
 34
0.0
 50
270.0
100
AcDbRotatedDimension
1001
GENIUS_GENDTOL_13
1000

1000
h7
1000

1040
0.0
  0
LINE
  5
23A8
330
1F
100
AcDbEntity
  8
AM_0
100
AcDbLine
 10
-54.5
 20
4.999999999999857
 30
0.0
 11
-55.0
 21
4.499999999999857
 31
0.0
1001
GENIUS_GENFIL_13
1070
     0
1040
0.5
1040
0.5
1040
20.0
1040
0.0
1002
{
1002
}
1001
GENIUS_GENODEF_13
1002
{
1000
HIER
1070
     0
1002
}
1002
{
1000
MANEDIT
1070
     0
1002
}
1002
{
1000
NOSEL
1070
     0
1002
}
1002
{
1000
BEHIND
1070
     0
1002
}
1002
{
1000
REACTOR
1002
}
1001
GENIUS_GENOBJ-N-CHA_13
1002
{
1000
OWNER
1000
GEN
1002
}
  0
LINE
  5
23AB
330
1F
100
AcDbEntity
  8
AM_0
100
AcDbLine
 10
-55.0
 20
-4.500000000000139
 30
0.0
 11
-54.5
 21
-5.000000000000139
 31
0.0
1001
GENIUS_GENFIL_13
1070
     0
1040
0.5
1040
0.5
1040
20.0
1040
0.0
1002
{
1002
}
1001
GENIUS_GENODEF_13
1002
{
1000
HIER
1070
     0
1002
}
1002
{
1000
MANEDIT
1070
     0
1002
}
1002
{
1000
NOSEL
1070
     0
1002
}
1002
{
1000
BEHIND
1070
     0
1002
}
1002
{
1000
REACTOR
1002
}
1001
GENIUS_GENOBJ-N-CHA_13
1002
{
1000
OWNER
1000
GEN
1002
}
  0
LINE
  5
23BD
330
1F
100
AcDbEntity
  8
AM_0
100
AcDbLine
 10
-24.0
 20
-5.000000000000124
 30
0.0
 11
-24.0
 21
4.999999999999873
 31
0.0
  0
LINE
  5
2613
330
1F
100
AcDbEntity
  8
AM_0
100
AcDbLine
 10
-0.7763568784301813
 20
2.267069691908831
 30
0.0
 11
-1.71381694666444
 21
2.557185409148861
 31
0.0
  0
LINE
  5
2614
330
1F
100
AcDbEntity
  8
AM_0
100
AcDbLine
 10
-0.0000000000001459
 20
0.0
 30
0.0
 11
-0.0646107796454527
 21
-0.7192020740228884
 31
0.0
  0
LINE
  5
2615
330
1F
100
AcDbEntity
  8
AM_0
100
AcDbLine
 10
-0.0000000000001459
 20
0.0
 30
0.0
 11
-0.0763612407170078
 21
0.8500000000000966
 31
0.0
  0
LINE
  5
2616
330
1F
100
AcDbEntity
  8
AM_0
100
AcDbLine
 10
-1.713816946664438
 20
-0.000000000000004
 30
0.0
 11
-1.713816946664438
 21
-0.6800000000000138
 31
0.0
  0
LINE
  5
2617
330
1F
100
AcDbEntity
  8
AM_0
100
AcDbLine
 10
-1.713816946664438
 20
-0.6800000000000138
 30
0.0
 11
-0.0839755864449801
 21
-0.6800000000000097
 31
0.0
  0
LINE
  5
2618
330
1F
100
AcDbEntity
  8
AM_0
100
AcDbLine
 10
-0.0000000000001459
 20
0.0
 30
0.0
 11
-1.713816946664438
 21
-0.000000000000004
 31
0.0
  0
LINE
  5
2619
330
1F
100
AcDbEntity
  8
AM_0
100
AcDbLine
 10
-0.0763612407170078
 20
-1.127863176378707
 30
0.0
 11
-0.0000000000001459
 21
-0.85
 31
0.0
  0
LINE
  5
261A
330
1F
100
AcDbEntity
  8
AM_0
100
AcDbLine
 10
-0.6257679940202934
 20
-1.252606550391565
 30
0.0
 11
-0.0763612407170078
 21
-1.127863176378707
 31
0.0
  0
LINE
  5
261B
330
1F
100
AcDbEntity
  8
AM_0
100
AcDbLine
 10
-0.0000000000001459
 20
-0.85
 30
0.0
 11
-0.4198779322243357
 21
0.0000000000000443
 31
0.0
  0
LINE
  5
261C
330
1F
100
AcDbEntity
  8
AM_0
100
AcDbLine
 10
-1.713816946664438
 20
-0.6800000000000138
 30
0.0
 11
-0.6257679940202934
 21
-1.252606550391565
 31
0.0
  0
LINE
  5
261D
330
1F
100
AcDbEntity
  8
AM_0
100
AcDbLine
 10
-0.0000000000001459
 20
0.0
 30
0.0
 11
-0.0000000000001478
 21
4.25
 31
0.0
  0
LINE
  5
261E
330
1F
100
AcDbEntity
  8
AM_0
100
AcDbLine
 10
-0.0763612407170078
 20
0.8500000000000966
 30
0.0
 11
-0.7763568784301813
 21
2.267069691908831
 31
0.0
  0
LINE
  5
261F
330
1F
100
AcDbEntity
  8
AM_0
100
AcDbLine
 10
-0.000000000000144
 20
-4.25
 30
0.0
 11
-0.076361240717004
 21
-4.023424983978551
 31
0.0
  0
LINE
  5
2620
330
1F
100
AcDbEntity
  8
AM_0
100
AcDbLine
 10
-0.076361240717004
 20
-4.023424983978503
 30
0.0
 11
-0.4981661894387658
 21
-3.397974157142628
 31
0.0
  0
LINE
  5
2621
330
1F
100
AcDbEntity
  8
AM_0
100
AcDbLine
 10
-0.000000000000144
 20
-4.25
 30
0.0
 11
-0.0000000000001459
 21
-0.85
 31
0.0
  0
LINE
  5
2622
330
1F
100
AcDbEntity
  8
AM_0
100
AcDbLine
 10
-0.076361240717004
 20
-4.023424983978551
 30
0.0
 11
-0.0763612407170078
 21
-1.127863176378707
 31
0.0
  0
LINE
  5
2623
330
1F
100
AcDbEntity
  8
AM_0
100
AcDbLine
 10
-14.99952942652811
 20
3.021513822570951
 30
0.0
 11
-15.24840702736854
 21
3.525341112549691
 31
0.0
  0
LINE
  5
2624
330
1F
100
AcDbEntity
  8
AM_0
100
AcDbLine
 10
-14.99952942652792
 20
-0.8189102508652128
 30
0.0
 11
-15.5289196080633
 21
-1.437654436508
 31
0.0
  0
LINE
  5
2625
330
1F
100
AcDbEntity
  8
AM_0
100
AcDbLine
 10
-15.5289196080633
 20
-1.437654436508
 30
0.0
 11
-14.99952942652798
 21
-2.555902554508799
 31
0.0
  0
ELLIPSE
  5
2626
330
1F
100
AcDbEntity
  8
AM_0
100
AcDbEllipse
 10
-18.2569884742125
 20
-16.79014256690838
 30
0.0
 11
0.0000000000180804
 21
20.11172168843238
 31
0.0
210
0.0
220
0.0
230
1.0
 40
0.9411469444092853
 41
-0.1729576248976914
 42
-0.140538412678503
  0
ELLIPSE
  5
2627
330
1F
100
AcDbEntity
  8
AM_0
100
AcDbEllipse
 10
-16.53192597368757
 20
-4.138877025078272
 30
0.0
 11
-0.0000000000002186
 21
7.328562198410272
 31
0.0
210
0.0
220
0.0
230
1.0
 40
0.9411469444096058
 41
-0.1347086851844699
 42
-0.0595499861155007
  0
ELLIPSE
  5
2628
330
1F
100
AcDbEntity
  8
AM_0
100
AcDbEllipse
 10
-18.5795170508968
 20
-44.85245291409614
 30
0.0
 11
-0.000000000003405
 21
48.10010893627667
 31
0.0
210
0.0
220
0.0
230
1.0
 40
0.9411469444096523
 41
-0.0543257978587242
 42
-0.0240109936149824
  0
ELLIPSE
  5
2629
330
1F
100
AcDbEntity
  8
AM_0
100
AcDbEllipse
 10
-17.57841571962392
 20
-1.871260223929531
 30
0.0
 11
-0.0000000000000029
 21
5.105864466758083
 31
0.0
210
0.0
220
0.0
230
1.0
 40
0.9411469444096088
 41
-0.0178464860801468
 42
0.075225696675469
  0
ELLIPSE
  5
262A
330
1F
100
AcDbEntity
  8
AM_0
100
AcDbEllipse
 10
-17.7582748411537
 20
1.092258884697771
 30
0.0
 11
0.0000000000000088
 21
2.136605990882805
 31
0.0
210
0.0
220
0.0
230
1.0
 40
0.9411469444095905
 41
0.0902766529269301
 42
0.3072469629345556
  0
ELLIPSE
  5
262B
330
1F
100
AcDbEntity
  8
AM_0
100
AcDbEllipse
 10
-18.3515263282609
 20
3.081931637432549
 30
0.0
 11
-0.0000000000000046
 21
0.0494783615531331
 31
0.0
210
0.0
220
0.0
230
1.0
 40
0.9411469444095828
 41
0.325800254979044
 42
1.988277941125859
  0
ELLIPSE
  5
262C
330
1F
100
AcDbEntity
  8
AM_0
100
AcDbEllipse
 10
-18.13512398016318
 20
3.159626418926031
 30
0.0
 11
0.0000000000002671
 21
0.2920124118117491
 31
0.0
210
0.0
220
0.0
230
1.0
 40
0.9411469444096601
 41
1.912154793926648
 42
2.183004088285787
  0
ELLIPSE
  5
262D
330
1F
100
AcDbEntity
  8
AM_0
100
AcDbEllipse
 10
10.38112828889178
 20
20.96239616776496
 30
0.0
 11
0.0000000000132424
 21
35.43357887153503
 31
0.0
210
0.0
220
0.0
230
1.0
 40
0.9411469444096058
 41
2.102685572143747
 42
2.127044929196241
  0
ELLIPSE
  5
262E
330
1F
100
AcDbEntity
  8
AM_0
100
AcDbEllipse
 10
-8.323122142011511
 20
11.30516513995114
 30
0.0
 11
0.0000000000035395
 21
13.65060637994418
 31
0.0
210
0.0
220
0.0
230
1.0
 40
0.9411469444095871
 41
2.295761306074568
 42
2.340666529513522
  0
ELLIPSE
  5
262F
330
1F
100
AcDbEntity
  8
AM_0
100
AcDbEllipse
 10
61.40431046258102
 20
66.54858286219102
 30
0.0
 11
0.0000000001401503
 21
105.9680779126576
 31
0.0
210
0.0
220
0.0
230
1.0
 40
0.9411469444096301
 41
2.228099469775783
 42
2.244200927590198
  0
ELLIPSE
  5
2630
330
1F
100
AcDbEntity
  8
AM_0
100
AcDbEllipse
 10
-14.47492414511174
 20
2.222808626498562
 30
0.0
 11
-0.0000000000015421
 21
2.827061554028516
 31
0.0
210
0.0
220
0.0
230
1.0
 40
0.941146944409591
 41
2.2433966216286
 42
2.480783048290819
  0
ELLIPSE
  5
2631
330
1F
100
AcDbEntity
  8
AM_0
100
AcDbEllipse
 10
-8.582818696329145
 20
10.35838916969441
 30
0.0
 11
0.0000000000007967
 21
13.09262098219912
 31
0.0
210
0.0
220
0.0
230
1.0
 40
0.9411469444095821
 41
2.484646301546384
 42
2.593864611850239
  0
LINE
  5
2632
330
1F
100
AcDbEntity
  8
AM_11
100
AcDbLine
 10
-14.99952942652794
 20
4.249999999999984
 30
0.0
 11
-14.99952942652793
 21
-4.250000000000016
 31
0.0
  0
POLYLINE
  5
2633
330
1F
100
AcDbEntity
  8
AM_0
100
AcDb2dPolyline
 66
     1
 10
0.0
 20
0.0
 30
0.0
 70
     2
  0
VERTEX
  5
2634
330
2633
100
AcDbEntity
  8
AM_0
100
AcDbVertex
100
AcDb2dVertex
 10
-16.81765420550105
 20
-4.114034053252474
 30
0.0
 42
-0.0230918143391583
  0
VERTEX
  5
2635
330
2633
100
AcDbEntity
  8
AM_0
100
AcDbVertex
100
AcDb2dVertex
 10
-17.23692668480186
 20
-3.989842981199645
 30
0.0
 42
-0.0355587143075394
 70
     1
  0
VERTEX
  5
2636
330
2633
100
AcDbEntity
  8
AM_0
100
AcDbVertex
100
AcDb2dVertex
 10
-17.49945099761594
 20
-3.87243013826693
 30
0.0
 42
-0.0216088548285507
  0
VERTEX
  5
2637
330
2633
100
AcDbEntity
  8
AM_0
100
AcDbVertex
100
AcDb2dVertex
 10
-18.11195848921648
 20
-3.499942579753887
 30
0.0
 42
-0.0414110700152503
 70
     1
  0
VERTEX
  5
2638
330
2633
100
AcDbEntity
  8
AM_0
100
AcDbVertex
100
AcDb2dVertex
 10
-18.40851338710248
 20
-3.259875953210721
 30
0.0
 42
-0.0653031023268945
  0
VERTEX
  5
2639
330
2633
100
AcDbEntity
  8
AM_0
100
AcDbVertex
100
AcDb2dVertex
 10
-18.59954398304668
 20
-3.021094344614759
 30
0.0
 42
-0.1569363594221426
 70
     1
  0
VERTEX
  5
263A
330
2633
100
AcDbEntity
  8
AM_0
100
AcDbVertex
100
AcDb2dVertex
 10
-18.63577898447411
 20
-2.88892568314003
 30
0.0
 42
-0.1617045000652558
  0
VERTEX
  5
263B
330
2633
100
AcDbEntity
  8
AM_0
100
AcDbVertex
100
AcDb2dVertex
 10
-18.59891808257269
 20
-2.759730690133487
 30
0.0
 42
-0.0680210806811403
 70
     1
  0
VERTEX
  5
263C
330
2633
100
AcDbEntity
  8
AM_0
100
AcDbVertex
100
AcDb2dVertex
 10
-18.40851338710248
 20
-2.534023975438744
 30
0.0
 42
-0.0450747416233525
  0
VERTEX
  5
263D
330
2633
100
AcDbEntity
  8
AM_0
100
AcDbVertex
100
AcDb2dVertex
 10
-18.11474987087595
 20
-2.315623826747655
 30
0.0
 42
-0.0231467319857815
 70
     1
  0
VERTEX
  5
263E
330
2633
100
AcDbEntity
  8
AM_0
100
AcDbVertex
100
AcDb2dVertex
 10
-17.49945099761594
 20
-1.985664039860272
 30
0.0
 42
-0.0364444523572374
  0
VERTEX
  5
263F
330
2633
100
AcDbEntity
  8
AM_0
100
AcDbVertex
100
AcDb2dVertex
 10
-17.23222940726498
 20
-1.885266306363838
 30
0.0
 42
-0.0242139410122645
 70
     1
  0
VERTEX
  5
2640
330
2633
100
AcDbEntity
  8
AM_0
100
AcDbVertex
100
AcDb2dVertex
 10
-16.81765420550105
 20
-1.792205811983014
 30
0.0
  0
SEQEND
  5
2641
330
2633
100
AcDbEntity
  8
AM_0
  0
LINE
  5
2642
330
1F
100
AcDbEntity
  8
AM_11
100
AcDbLine
 10
-14.99952942652793
 20
-4.250000000000014
 30
0.0
 11
-0.000000000000144
 21
-4.25
 31
0.0
  0
LINE
  5
2643
330
1F
100
AcDbEntity
  8
AM_11
100
AcDbLine
 10
-0.0000000000007067
 20
4.25
 30
0.0
 11
-14.99952942652794
 21
4.249999999999984
 31
0.0
  0
SPLINE
  5
2644
330
1F
100
AcDbEntity
  8
AM_0
100
AcDbSpline
210
0.0
220
0.0
230
1.0
 70
     8
 71
     3
 72
     8
 73
     4
 74
     0
 42
0.0000000001
 43
0.0000000001
 40
0.0
 40
0.0
 40
0.0
 40
0.0
 40
4.451443990518192
 40
4.451443990518192
 40
4.451443990518192
 40
4.451443990518192
 10
-7.159545073384938
 20
-3.924827828232292
 30
0.0
 10
-6.080440990535346
 20
-3.924827828232288
 30
0.0
 10
-5.027970173106717
 20
-3.736318152110326
 30
0.0
 10
-3.993878022991531
 20
-3.417724666584954
 30
0.0
  0
SPLINE
  5
2645
330
1F
100
AcDbEntity
  8
AM_0
100
AcDbSpline
210
0.0
220
0.0
230
1.0
 70
     8
 71
     3
 72
     8
 73
     4
 74
     0
 42
0.0000000001
 43
0.0000000001
 40
4.542668862435135
 40
4.542668862435135
 40
4.542668862435135
 40
4.542668862435135
 40
14.36247867694493
 40
14.36247867694493
 40
14.36247867694493
 40
14.36247867694493
 10
-0.4981661894377522
 20
-3.397974157138134
 30
0.0
 10
-2.77770182867194
 20
-2.683454833586933
 30
0.0
 10
-4.968623451028369
 20
-1.341727416793444
 30
0.0
 10
-7.159545073384799
 20
0.0000000000000403
 30
0.0
  0
SPLINE
  5
2646
330
1F
100
AcDbEntity
  8
AM_0
100
AcDbSpline
210
0.0
220
0.0
230
1.0
 70
     8
 71
     3
 72
     8
 73
     4
 74
     0
 42
0.0000000001
 43
0.0000000001
 40
0.3581103616548037
 40
0.3581103616548037
 40
0.3581103616548037
 40
0.3581103616548037
 40
12.40023413887867
 40
12.40023413887867
 40
12.40023413887867
 40
12.40023413887867
 10
-8.361343937380128
 20
4.118968609424766
 30
0.0
 10
-5.454597449037477
 20
4.034749346503407
 30
0.0
 10
-2.754793122863332
 20
2.552295959212246
 30
0.0
 10
-0.0849520929424963
 20
0.8673913031176198
 30
0.0
  0
SPLINE
  5
2647
330
1F
100
AcDbEntity
  8
AM_0
100
AcDbSpline
210
0.0
220
0.0
230
1.0
 70
     8
 71
     3
 72
     8
 73
     4
 74
     0
 42
0.0000000001
 43
0.0000000001
 40
0.0
 40
0.0
 40
0.0
 40
0.0
 40
14.48999654934396
 40
14.48999654934396
 40
14.48999654934396
 40
14.48999654934396
 10
-9.890598797613618
 20
4.250000000000088
 30
0.0
 10
-6.377982561134091
 20
4.250000000000092
 30
0.0
 10
-3.18899128056712
 20
2.125000000000092
 30
0.0
 10
-0.0000000000001459
 20
0.0000000000000966
 30
0.0
  0
SPLINE
  5
2648
330
1F
100
AcDbEntity
  8
AM_0
100
AcDbSpline
210
0.0
220
0.0
230
1.0
 70
     8
 71
     3
 72
     8
 73
     4
 74
     0
 42
0.0000000001
 43
0.0000000001
 40
0.0
 40
0.0
 40
0.0
 40
0.0
 40
14.48999654934396
 40
14.48999654934396
 40
14.48999654934396
 40
14.48999654934396
 10
-0.000000000000144
 20
-4.25
 30
0.0
 10
-3.512616236479671
 20
-4.250000000000003
 30
0.0
 10
-6.701607517046648
 20
-2.125000000000003
 30
0.0
 10
-9.890598797613618
 20
-0.0000000000000081
 30
0.0
  0
SPLINE
  5
2649
330
1F
100
AcDbEntity
  8
AM_0
100
AcDbSpline
210
0.0
220
0.0
230
1.0
 70
     8
 71
     3
 72
     8
 73
     4
 74
     0
 42
0.0000000001
 43
0.0000000001
 40
1.870660592686466
 40
1.870660592686466
 40
1.870660592686466
 40
1.870660592686466
 40
14.43901837670146
 40
14.43901837670146
 40
14.43901837670146
 40
14.43901837670146
 10
-0.076361240717004
 20
-4.023424983978503
 30
0.0
 10
-3.058787377118719
 20
-3.588615520286261
 30
0.0
 10
-5.84000435117163
 20
-1.794307760143108
 30
0.0
 10
-8.621221325224539
 20
0.0000000000000403
 30
0.0
  0
SPLINE
  5
264A
330
1F
100
AcDbEntity
  8
AM_0
100
AcDbSpline
210
0.0
220
0.0
230
1.0
 70
     8
 71
     3
 72
     8
 73
     4
 74
     0
 42
0.0000000001
 43
0.0000000001
 40
0.0
 40
0.0
 40
0.0
 40
0.0
 40
2.764560748519282
 40
2.764560748519282
 40
2.764560748519282
 40
2.764560748519282
 10
-8.621221325224659
 20
-4.122741119785086
 30
0.0
 10
-7.951045805243437
 20
-4.122741119785086
 30
0.0
 10
-7.292054412299946
 20
-4.047173976233554
 30
0.0
 10
-6.642105782084775
 20
-3.910508121366644
 30
0.0
  0
SPLINE
  5
264B
330
1F
100
AcDbEntity
  8
AM_0
100
AcDbSpline
210
0.0
220
0.0
230
1.0
 70
     8
 71
     3
 72
     8
 73
     4
 74
     0
 42
0.0000000001
 43
0.0000000001
 40
0.0
 40
0.0
 40
0.0
 40
0.0
 40
2.130230809022907
 40
2.130230809022907
 40
2.130230809022907
 40
2.130230809022907
 10
-9.890598797613762
 20
-4.250000000000007
 30
0.0
 10
-9.374195408438232
 20
-4.250000000000007
 30
0.0
 10
-8.864786552901522
 20
-4.204072194647149
 30
0.0
 10
-8.361343937380409
 20
-4.118968609424686
 30
0.0
  0
SPLINE
  5
264C
330
1F
100
AcDbEntity
  8
AM_0
100
AcDbSpline
210
0.0
220
0.0
230
1.0
 70
     8
 71
     3
 72
     8
 73
     4
 74
     0
 42
0.0000000001
 43
0.0000000001
 40
0.7142832446738512
 40
0.7142832446738512
 40
0.7142832446738512
 40
0.7142832446738512
 40
9.361146747480315
 40
9.361146747480315
 40
9.361146747480315
 40
9.361146747480315
 10
-6.642105782008036
 20
3.910508121350644
 30
0.0
 10
-4.5621521710295
 20
3.795915923125842
 30
0.0
 10
-2.577694659473926
 20
3.005404400379679
 30
0.0
 10
-0.6282313486940696
 20
1.967204682058802
 30
0.0
  0
SPLINE
  5
264D
330
1F
100
AcDbEntity
  8
AM_0
100
AcDbSpline
210
0.0
220
0.0
230
1.0
 70
     8
 71
     3
 72
     8
 73
     4
 74
     0
 42
0.0000000001
 43
0.0000000001
 40
0.0
 40
0.0
 40
0.0
 40
0.0
 40
2.586565323616715
 40
2.586565323616715
 40
2.586565323616715
 40
2.586565323616715
 10
-0.0000000000001478
 20
3.463497283681368
 30
0.0
 10
-0.4023636535561188
 20
2.901426716728356
 30
0.0
 10
-1.09299807693058
 20
2.660052727385696
 30
0.0
 10
-1.71381694666444
 20
2.557185409148861
 30
0.0
  0
SPLINE
  5
264E
330
1F
100
AcDbEntity
  8
AM_0
100
AcDbSpline
210
0.0
220
0.0
230
1.0
 70
     8
 71
     3
 72
     8
 73
     4
 74
     0
 42
0.0000000001
 43
0.0000000001
 40
0.0
 40
0.0
 40
0.0
 40
0.0
 40
5.635889483499127
 40
5.635889483499127
 40
5.635889483499127
 40
5.635889483499127
 10
-0.0000000000001478
 20
4.25
 30
0.0
 10
-1.366233376200608
 20
4.249999999999995
 30
0.0
 10
-2.683507996122079
 20
3.928524924632263
 30
0.0
 10
-3.970866386013497
 20
3.410612622615552
 30
0.0
  0
SPLINE
  5
264F
330
1F
100
AcDbEntity
  8
AM_0
100
AcDbSpline
210
0.0
220
0.0
230
1.0
 70
     8
 71
     3
 72
     8
 73
     4
 74
     0
 42
0.0000000001
 43
0.0000000001
 40
0.0
 40
0.0
 40
0.0
 40
0.0
 40
12.79333816032526
 40
12.79333816032526
 40
12.79333816032526
 40
12.79333816032526
 10
-7.159545073384938
 20
-3.924827828232195
 30
0.0
 10
-9.932528663646777
 20
-3.723409792684635
 30
0.0
 10
-13.1421974814277
 20
-2.367788509133069
 30
0.0
 10
-14.99952942652794
 20
-0.8189102508652299
 30
0.0
  0
SPLINE
  5
2650
330
1F
100
AcDbEntity
  8
AM_0
100
AcDbSpline
210
0.0
220
0.0
230
1.0
 70
     8
 71
     3
 72
     8
 73
     4
 74
     0
 42
0.0000000001
 43
0.0000000001
 40
0.0
 40
0.0
 40
0.0
 40
0.0
 40
11.45610476152127
 40
11.45610476152127
 40
11.45610476152127
 40
11.45610476152127
 10
-8.621221325224659
 20
-4.122741119784989
 30
0.0
 10
-10.92872215560581
 20
-3.834632761957897
 30
0.0
 10
-13.98346792619813
 20
-2.825099746637052
 30
0.0
 10
-15.5289196080633
 20
-1.437654436508
 30
0.0
  0
SPLINE
  5
2651
330
1F
100
AcDbEntity
  8
AM_0
100
AcDbSpline
210
0.0
220
0.0
230
1.0
 70
     8
 71
     3
 72
     8
 73
     4
 74
     0
 42
0.0000000001
 43
0.0000000001
 40
0.0
 40
0.0
 40
0.0
 40
0.0
 40
9.068166399416787
 40
9.068166399416787
 40
9.068166399416787
 40
9.068166399416787
 10
-9.890598797613762
 20
-4.249999999999911
 30
0.0
 10
-12.01296227902993
 20
-4.169342114301169
 30
0.0
 10
-13.64664940416447
 20
-3.417735573795098
 30
0.0
 10
-14.99952942652816
 20
-2.555902554508727
 30
0.0
  0
SPLINE
  5
2652
330
1F
100
AcDbEntity
  8
AM_0
100
AcDbSpline
210
0.0
220
0.0
230
1.0
 70
     8
 71
     3
 72
     8
 73
     4
 74
     0
 42
0.0000000001
 43
0.0000000001
 40
0.0
 40
0.0
 40
0.0
 40
0.0
 40
4.451443990518192
 40
4.451443990518192
 40
4.451443990518192
 40
4.451443990518192
 10
-16.81765420550105
 20
-4.114034053252474
 30
0.0
 10
-14.97107115971368
 20
-4.103099740854759
 30
0.0
 10
-13.91860034228505
 20
-3.914590064732797
 30
0.0
 10
-12.94782950343255
 20
-3.615333306483177
 30
0.0
  0
SPLINE
  5
2653
330
1F
100
AcDbEntity
  8
AM_0
100
AcDbSpline
210
0.0
220
0.0
230
1.0
 70
     8
 71
     3
 72
     8
 73
     4
 74
     0
 42
0.0000000001
 43
0.0000000001
 40
5.360156850992435
 40
5.360156850992435
 40
5.360156850992435
 40
5.360156850992435
 40
14.48999654934396
 40
14.48999654934396
 40
14.48999654934396
 40
14.48999654934396
 10
-14.99952942652794
 20
3.021513822570597
 30
0.0
 10
-13.62586095919461
 20
2.376745417026405
 30
0.0
 10
-11.89991461020679
 20
1.33891745887798
 30
0.0
 10
-9.890598797613618
 20
0.0000000000000886
 30
0.0
  0
SPLINE
  5
2654
330
1F
100
AcDbEntity
  8
AM_0
100
AcDbSpline
210
0.0
220
0.0
230
1.0
 70
     8
 71
     3
 72
     8
 73
     4
 74
     0
 42
0.0000000001
 43
0.0000000001
 40
0.3581103616548037
 40
0.3581103616548037
 40
0.3581103616548037
 40
0.3581103616548037
 40
14.43901837670146
 40
14.43901837670146
 40
14.43901837670146
 40
14.43901837670146
 10
-18.44612105028013
 20
4.249999999999979
 30
0.0
 10
-14.85307134963001
 20
3.889443322956516
 30
0.0
 10
-11.73714633742726
 20
2.010245328422632
 30
0.0
 10
-8.621221325224539
 20
0.0000000000000403
 30
0.0
  0
SPLINE
  5
2655
330
1F
100
AcDbEntity
  8
AM_0
100
AcDbSpline
210
0.0
220
0.0
230
1.0
 70
     8
 71
     3
 72
     8
 73
     4
 74
     0
 42
0.0000000001
 43
0.0000000001
 40
1.090140354492627
 40
1.090140354492627
 40
1.090140354492627
 40
1.090140354492627
 40
14.36247867694493
 40
14.36247867694493
 40
14.36247867694493
 40
14.36247867694493
 10
-16.45513849829367
 20
3.891768914238921
 30
0.0
 10
-13.08199236292884
 20
3.626925683607409
 30
0.0
 10
-10.12076871815683
 20
1.813462841803726
 30
0.0
 10
-7.159545073384799
 20
0.0000000000000403
 30
0.0
  0
SPLINE
  5
2656
330
1F
100
AcDbEntity
  8
AM_0
100
AcDbSpline
210
0.0
220
0.0
230
1.0
 70
     8
 71
     3
 72
     8
 73
     4
 74
     0
 42
0.0000000001
 43
0.0000000001
 40
0.0
 40
0.0
 40
0.0
 40
0.0
 40
5.635889483499305
 40
5.635889483499305
 40
5.635889483499305
 40
5.635889483499305
 10
-9.890598797613769
 20
4.250000000000088
 30
0.0
 10
-11.25683217381428
 20
4.250000000000085
 30
0.0
 10
-12.57410679373578
 20
3.928524924632352
 30
0.0
 10
-13.88771937816947
 20
3.394506884424162
 30
0.0
  0
ELLIPSE
  5
2657
330
1F
100
AcDbEntity
  8
AM_0
100
AcDbEllipse
 10
1.444080646074234
 20
-2.162298140010222
 30
0.0
 11
0.0000000000000024
 21
2.584593398188641
 31
0.0
210
0.0
220
0.0
230
1.0
 40
0.8555881312814433
 41
1.211124581303827
 42
2.069278538290319
  0
ELLIPSE
  5
2658
330
1F
100
AcDbEntity
  8
AM_0
100
AcDbEllipse
 10
-18.77369907317449
 20
3.670374037328154
 30
0.0
 11
-0.0000000000003095
 21
8.113181615325654
 31
0.0
210
0.0
220
0.0
230
1.0
 40
0.85558813128143
 41
3.360039256201821
 42
3.427250019213403
  0
ELLIPSE
  5
2659
330
1F
100
AcDbEntity
  8
AM_0
100
AcDbEllipse
 10
-18.76818187861421
 20
-11.47392731517886
 30
0.0
 11
0.0000000000004479
 21
9.946506657598916
 31
0.0
210
0.0
220
0.0
230
1.0
 40
0.8555881312814314
 41
-0.4587681791449072
 42
-0.2312569029270688
  0
LINE
  5
267C
330
1F
100
AcDbEntity
  8
AM_0
100
AcDbLine
 10
-24.0
 20
4.999999999999873
 30
0.0
 11
-21.93939193540933
 21
4.249999999999984
 31
0.0
  0
LINE
  5
267D
330
1F
100
AcDbEntity
  8
AM_0
100
AcDbLine
 10
-21.93939193540933
 20
4.249999999999984
 30
0.0
 11
-21.93939193540932
 21
-4.250000000000232
 31
0.0
  0
LINE
  5
267E
330
1F
100
AcDbEntity
  8
AM_0
100
AcDbLine
 10
-21.93939193540932
 20
-4.250000000000232
 30
0.0
 11
-24.0
 21
-5.000000000000125
 31
0.0
  0
LINE
  5
267F
330
1F
100
AcDbEntity
  8
AM_0
100
AcDbLine
 10
-21.93939193540933
 20
4.249999999999984
 30
0.0
 11
-18.44612105027931
 21
4.249999999999984
 31
0.0
  0
LINE
  5
2680
330
1F
100
AcDbEntity
  8
AM_0
100
AcDbLine
 10
-21.93939193540873
 20
-4.250000000000016
 30
0.0
 11
-17.26937390075464
 21
-4.250000000000015
 31
0.0
  0
VIEWPORT
  5
110
330
101
100
AcDbEntity
 67
     1
  8
0
100
AcDbViewport
 10
420.5
 20
297.0
 30
0.0
 40
948.9782706766916
 41
628.452
 68
     1
 69
     1
1001
ACAD
1000
MVIEW
1002
{
1070
    16
1010
0.0
1020
0.0
1030
0.0
1010
0.0
1020
0.0
1030
1.0
1040
0.0
1040
628.452
1040
420.5
1040
297.0
1040
50.0
1040
0.0
1040
0.0
1070
     0
1070
   100
1070
     1
1070
     1
1070
     0
1070
     0
1070
     0
1070
     0
1040
0.0
1040
0.0
1040
0.0
1040
10.0
1040
10.0
1040
10.0
1040
10.0
1070
     0
1002
{
1002
}
1002
}
  0
ENDSEC
  0
SECTION
  2
OBJECTS
  0
DICTIONARY
  5
C
330
0
100
AcDbDictionary
  3
ACAD_GROUP
350
D
  3
ACAD_LAYOUT
350
1A
  3
ACAD_MLINESTYLE
350
17
  3
ACAD_PLOTSETTINGS
350
19
  3
ACAD_PLOTSTYLENAME
350
E
  3
ACDBVARIABLEDICTIONARY
350
34
  3
ACMDICTIONARY
350
43
  3
AMG
350
2B
  3
AMGSNAPSETTINGS
350
6E
  3
DWGPROPS
350
28D0
  3
ACDBHEADERROUNDTRIPXREC
350
28DC
  0
DICTIONARY
  5
74
330
1F
100
AcDbDictionary
280
     1
  3
ACAD_INDEX
360
28D2
  3
ACAD_LAYOUTSELFREF
360
28FF
  0
DICTIONARY
  5
2904
330
101
100
AcDbDictionary
280
     1
  3
ACAD_LAYOUTSELFREF
360
2905
  0
DICTIONARY
  5
D
102
{ACAD_REACTORS
330
C
102
}
330
C
100
AcDbDictionary
  0
DICTIONARY
  5
1A
102
{ACAD_REACTORS
330
C
102
}
330
C
100
AcDbDictionary
  0
DICTIONARY
  5
17
102
{ACAD_REACTORS
330
C
102
}
330
C
100
AcDbDictionary
  3
STANDARD
350
18
  0
DICTIONARY
  5
19
102
{ACAD_REACTORS
330
C
102
}
330
C
100
AcDbDictionary
  0
ACDBDICTIONARYWDFLT
  5
E
102
{ACAD_REACTORS
330
C
102
}
330
C
100
AcDbDictionary
281
     1
  3
Normal
350
F
100
AcDbDictionaryWithDefault
340
F
  0
DICTIONARY
  5
34
102
{ACAD_REACTORS
330
C
102
}
330
C
100
AcDbDictionary
  3
INDEXCTL
350
35
  3
SORTENTS
350
B5E
  0
DICTIONARY
  5
43
102
{ACAD_REACTORS
330
C
102
}
330
C
100
AcDbDictionary
  3
ACMSTDDICTIONARY
350
260
  0
DICTIONARY
  5
2B
102
{ACAD_REACTORS
330
C
102
}
330
C
100
AcDbDictionary
  3
ACMGSETTINGS
350
2C
  0
DICTIONARY
  5
6E
102
{ACAD_REACTORS
330
C
102
}
330
C
100
AcDbDictionary
  0
XRECORD
  5
28D0
102
{ACAD_REACTORS
330
C
102
}
330
C
100
AcDbXrecord
  1
DWGPROPS COOKIE
  2

  3

  4

  6

  7

  8

  9

300
AmdtFileType=82
301
=
302
=
303
=
304
=
305
=
306
=
307
=
308
=
309
=
 40
0.0546995833333333
 41
2452836.771637361
 42
2452845.694865624
  1

 90
        1
  0
DICTIONARY
  5
28DC
102
{ACAD_REACTORS
330
C
102
}
330
C
100
AcDbDictionary
  3
TSTACKALIGN
350
28DD
  3
TSTACKSIZE
350
28DE
  3
HYPERLINKBASE
350
28DF
  3
STYLESHEET
350
28E0
  3
LAYOUTDICT
350
28E1
  3
PLOTSETDICT
350
28E2
  3
PLOTSTYLNAMDICT
350
28E3
  3
LWETCUNION
350
28E4
  3
INSUNITS
350
28E5
  3
CEPSNTYPE
350
28E6
  3
FINGERPRINTGUID
350
28E7
  3
VERSIONGUID
350
28E8
  3
PSVPSCALE
350
28E9
  3
DIMSTYLEDATA
350
28EA
  3
PUCSORTHOREF
350
28EB
  3
PUCSORTHOVIEW
350
28EC
  3
PUCSBASE
350
28ED
  3
PUCSORGTOP
350
28EE
  3
PUCSORGBOTTOM
350
28EF
  3
PUCSORGLEFT
350
28F0
  3
PUCSORGRIGHT
350
28F1
  3
PUCSORGFRONT
350
28F2
  3
PUCSORGBACK
350
28F3
  3
UCSORTHOREF
350
28F4
  3
UCSORTHOVIEW
350
28F5
  3
UCSBASE
350
28F6
  3
UCSORGTOP
350
28F7
  3
UCSORGBOTTOM
350
28F8
  3
UCSORGLEFT
350
28F9
  3
UCSORGRIGHT
350
28FA
  3
UCSORGFRONT
350
28FB
  3
UCSORGBACK
350
28FC
  0
DICTIONARY
  5
28D2
102
{ACAD_REACTORS
330
74
102
}
330
74
100
AcDbDictionary
  3
*A1
350
28D3
  0
XRECORD
  5
28FF
102
{ACAD_REACTORS
330
74
102
}
330
74
100
AcDbXrecord
340
1F
  0
XRECORD
  5
2905
102
{ACAD_REACTORS
330
2904
102
}
330
2904
100
AcDbXrecord
340
101
  0
MLINESTYLE
  5
18
102
{ACAD_REACTORS
330
17
102
}
330
17
100
AcDbMlineStyle
  2
STANDARD
 70
     0
  3

 62
   256
 51
90.0
 52
90.0
 71
     2
 49
0.5
 62
   256
  6
BYLAYER
 49
-0.5
 62
   256
  6
BYLAYER
  0
ACDBPLACEHOLDER
  5
F
102
{ACAD_REACTORS
330
E
102
}
330
E
100
AcDbPlaceHolder
280
     0
  0
DICTIONARYVAR
  5
35
102
{ACAD_REACTORS
330
34
102
}
330
34
100
DictionaryVariables
280
     0
  1
1
  0
DICTIONARYVAR
  5
B5E
102
{ACAD_REACTORS
330
34
102
}
330
34
100
DictionaryVariables
280
     0
  1
96
  0
DICTIONARY
  5
260
102
{ACAD_REACTORS
330
43
102
}
330
43
100
AcDbDictionary
  0
DICTIONARY
  5
2C
102
{ACAD_REACTORS
330
2B
102
}
330
2B
100
AcDbDictionary
  3
DWGSETTINGS
350
2D
  0
XRECORD
  5
28DD
102
{ACAD_REACTORS
330
28DC
102
}
330
28DC
100
AcDbXrecord
 90
        1
  0
XRECORD
  5
28DE
102
{ACAD_REACTORS
330
28DC
102
}
330
28DC
100
AcDbXrecord
 90
       70
  0
XRECORD
  5
28DF
102
{ACAD_REACTORS
330
28DC
102
}
330
28DC
100
AcDbXrecord
  1

  0
XRECORD
  5
28E0
102
{ACAD_REACTORS
330
28DC
102
}
330
28DC
100
AcDbXrecord
  1
ASAMI.ctb
  0
XRECORD
  5
28E1
102
{ACAD_REACTORS
330
28DC
102
}
330
28DC
100
AcDbXrecord
340
1A
  0
XRECORD
  5
28E2
102
{ACAD_REACTORS
330
28DC
102
}
330
28DC
100
AcDbXrecord
340
19
  0
XRECORD
  5
28E3
102
{ACAD_REACTORS
330
28DC
102
}
330
28DC
100
AcDbXrecord
340
E
  0
XRECORD
  5
28E4
102
{ACAD_REACTORS
330
28DC
102
}
330
28DC
100
AcDbXrecord
 90
    10781
  0
XRECORD
  5
28E5
102
{ACAD_REACTORS
330
28DC
102
}
330
28DC
100
AcDbXrecord
 90
        4
  0
XRECORD
  5
28E6
102
{ACAD_REACTORS
330
28DC
102
}
330
28DC
100
AcDbXrecord
 90
        0
  0
XRECORD
  5
28E7
102
{ACAD_REACTORS
330
28DC
102
}
330
28DC
100
AcDbXrecord
  1
{AFB28963-8C59-40AE-9337-C84526B81ACE}
  0
XRECORD
  5
28E8
102
{ACAD_REACTORS
330
28DC
102
}
330
28DC
100
AcDbXrecord
  1
{B24C98E4-9212-46EF-98E9-924AF8F80806}
  0
XRECORD
  5
28E9
102
{ACAD_REACTORS
330
28DC
102
}
330
28DC
100
AcDbXrecord
 40
0.0
  0
XRECORD
  5
28EA
102
{ACAD_REACTORS
330
28DC
102
}
330
28DC
100
AcDbXrecord
1000
DSTYLE
1002
{
1070
    79
 70
     2
1070
   341
340
59
1070
   342
340
59
1070
   371
 70
    -1
1070
   372
 70
    -1
1002
}
  0
XRECORD
  5
28EB
102
{ACAD_REACTORS
330
28DC
102
}
330
28DC
100
AcDbXrecord
340
0
  0
XRECORD
  5
28EC
102
{ACAD_REACTORS
330
28DC
102
}
330
28DC
100
AcDbXrecord
 70
     0
  0
XRECORD
  5
28ED
102
{ACAD_REACTORS
330
28DC
102
}
330
28DC
100
AcDbXrecord
340
0
  0
XRECORD
  5
28EE
102
{ACAD_REACTORS
330
28DC
102
}
330
28DC
100
AcDbXrecord
 10
0.0
 20
0.0
 30
0.0
  0
XRECORD
  5
28EF
102
{ACAD_REACTORS
330
28DC
102
}
330
28DC
100
AcDbXrecord
 10
0.0
 20
0.0
 30
0.0
  0
XRECORD
  5
28F0
102
{ACAD_REACTORS
330
28DC
102
}
330
28DC
100
AcDbXrecord
 10
0.0
 20
0.0
 30
0.0
  0
XRECORD
  5
28F1
102
{ACAD_REACTORS
330
28DC
102
}
330
28DC
100
AcDbXrecord
 10
0.0
 20
0.0
 30
0.0
  0
XRECORD
  5
28F2
102
{ACAD_REACTORS
330
28DC
102
}
330
28DC
100
AcDbXrecord
 10
0.0
 20
0.0
 30
0.0
  0
XRECORD
  5
28F3
102
{ACAD_REACTORS
330
28DC
102
}
330
28DC
100
AcDbXrecord
 10
0.0
 20
0.0
 30
0.0
  0
XRECORD
  5
28F4
102
{ACAD_REACTORS
330
28DC
102
}
330
28DC
100
AcDbXrecord
340
0
  0
XRECORD
  5
28F5
102
{ACAD_REACTORS
330
28DC
102
}
330
28DC
100
AcDbXrecord
 70
     0
  0
XRECORD
  5
28F6
102
{ACAD_REACTORS
330
28DC
102
}
330
28DC
100
AcDbXrecord
340
0
  0
XRECORD
  5
28F7
102
{ACAD_REACTORS
330
28DC
102
}
330
28DC
100
AcDbXrecord
 10
0.0
 20
0.0
 30
0.0
  0
XRECORD
  5
28F8
102
{ACAD_REACTORS
330
28DC
102
}
330
28DC
100
AcDbXrecord
 10
0.0
 20
0.0
 30
0.0
  0
XRECORD
  5
28F9
102
{ACAD_REACTORS
330
28DC
102
}
330
28DC
100
AcDbXrecord
 10
0.0
 20
0.0
 30
0.0
  0
XRECORD
  5
28FA
102
{ACAD_REACTORS
330
28DC
102
}
330
28DC
100
AcDbXrecord
 10
0.0
 20
0.0
 30
0.0
  0
XRECORD
  5
28FB
102
{ACAD_REACTORS
330
28DC
102
}
330
28DC
100
AcDbXrecord
 10
0.0
 20
0.0
 30
0.0
  0
XRECORD
  5
28FC
102
{ACAD_REACTORS
330
28DC
102
}
330
28DC
100
AcDbXrecord
 10
0.0
 20
0.0
 30
0.0
  0
LAYER_INDEX
  5
28D3
102
{ACAD_REACTORS
330
28D2
102
}
330
28D2
100
AcDbIndex
 40
2453151.798685937
100
AcDbLayerIndex
  8
0
360
28D4
 90
        0
  8
AM_0
360
28D5
 90
       66
  8
AM_11
360
28D6
 90
        3
  8
AM_7
360
28D7
 90
        1
  8
AM_5
360
28D8
 90
        4
  8
Defpoints
360
28D9
 90
        0
  8
AM_6
360
28DA
 90
        1
  0
XRECORD
  5
2D
102
{ACAD_REACTORS
330
2C
102
}
330
2C
100
AcDbXrecord
  1
VERSION
140
15.0
  1
PRODUCT
  2
AutoCAD Mechanical 2000
  0
IDBUFFER
  5
28D4
330
0
100
AcDbIdBuffer
  0
IDBUFFER
  5
28D5
330
0
100
AcDbIdBuffer
330
264D
330
264E
330
264F
330
2650
330
2651
330
2652
330
2653
330
2654
330
2655
330
2656
330
2657
330
2658
330
2659
330
267C
330
267D
330
267E
330
267F
330
2680
330
2378
330
2379
330
237C
330
237D
330
23A8
330
23AB
330
23BD
330
2613
330
2614
330
2615
330
2616
330
2617
330
2618
330
2619
330
261A
330
261B
330
261C
330
261D
330
261E
330
261F
330
2620
330
2621
330
2622
330
2623
330
2624
330
2625
330
2626
330
2627
330
2628
330
2629
330
262A
330
262B
330
262C
330
262D
330
262E
330
262F
330
2630
330
2631
330
2633
330
2644
330
2645
330
2646
330
2647
330
2648
330
2649
330
264A
330
264B
330
264C
  0
IDBUFFER
  5
28D6
330
0
100
AcDbIdBuffer
330
2632
330
2642
330
2643
  0
IDBUFFER
  5
28D7
330
0
100
AcDbIdBuffer
330
13DC
  0
IDBUFFER
  5
28D8
330
0
100
AcDbIdBuffer
330
16EA
330
177A
330
1936
330
237E
  0
IDBUFFER
  5
28D9
330
0
100
AcDbIdBuffer
  0
IDBUFFER
  5
28DA
330
0
100
AcDbIdBuffer
330
E5A
  0
ENDSEC
  0
EOF
