  0
SECTION
  2
HEADER
  9
$ACADVER
  1
AC1014
  9
$ACADMAINTVER
 70
     9
  9
$DWGCODEPAGE
  3
ANSI_932
  9
$INSBASE
 10
0.0
 20
0.0
 30
0.0
  9
$EXTMIN
 10
-69.14349790496837
 20
-29.25000101000007
 30
-0.00000001
  9
$EXTMAX
 10
12.05776903085492
 20
5.758114061132755
 30
0.00000001
  9
$LIMMIN
 10
-72.34227318661618
 20
-44.79159503329313
  9
$LIMMAX
 10
19.61117777889558
 20
16.4807643793618
  9
$ORTHOMODE
 70
     0
  9
$REGENMODE
 70
     1
  9
$FILLMODE
 70
     1
  9
$QTEXTMODE
 70
     0
  9
$MIRRTEXT
 70
     0
  9
$DRAGMODE
 70
     2
  9
$LTSCALE
 40
1.0
  9
$OSMODE
 70
    55
  9
$ATTMODE
 70
     1
  9
$TEXTSIZE
 40
2.5
  9
$TRACEWID
 40
1.0
  9
$TEXTSTYLE
  7
STANDARD
  9
$CLAYER
  8
AM_0
  9
$CELTYPE
  6
BYLAYER
  9
$CECOLOR
 62
   256
  9
$CELTSCALE
 40
1.0
  9
$DELOBJ
 70
     1
  9
$DISPSILH
 70
     0
  9
$DIMSCALE
 40
0.5
  9
$DIMASZ
 40
2.5
  9
$DIMEXO
 40
1.0
  9
$DIMDLI
 40
12.0
  9
$DIMRND
 40
0.0
  9
$DIMDLE
 40
0.0
  9
$DIMEXE
 40
1.0
  9
$DIMTP
 40
0.1
  9
$DIMTM
 40
0.1
  9
$DIMTXT
 40
3.2
  9
$DIMCEN
 40
0.0
  9
$DIMTSZ
 40
0.0
  9
$DIMTOL
 70
     0
  9
$DIMLIM
 70
     0
  9
$DIMTIH
 70
     0
  9
$DIMTOH
 70
     0
  9
$DIMSE1
 70
     0
  9
$DIMSE2
 70
     0
  9
$DIMTAD
 70
     3
  9
$DIMZIN
 70
     8
  9
$DIMBLK
  1
OPEN30
  9
$DIMASO
 70
     1
  9
$DIMSHO
 70
     1
  9
$DIMPOST
  1

  9
$DIMAPOST
  1
"
  9
$DIMALT
 70
     0
  9
$DIMALTD
 70
     2
  9
$DIMALTF
 40
0.0393701
  9
$DIMLFAC
 40
1.0
  9
$DIMTOFL
 70
     1
  9
$DIMTVP
 40
0.0
  9
$DIMTIX
 70
     0
  9
$DIMSOXD
 70
     0
  9
$DIMSAH
 70
     0
  9
$DIMBLK1
  1

  9
$DIMBLK2
  1

  9
$DIMSTYLE
  2
AM_JIS
  9
$DIMCLRD
 70
   256
  9
$DIMCLRE
 70
   256
  9
$DIMCLRT
 70
     2
  9
$DIMTFAC
 40
0.71
  9
$DIMGAP
 40
1.5
  9
$DIMJUST
 70
     0
  9
$DIMSD1
 70
     0
  9
$DIMSD2
 70
     0
  9
$DIMTOLJ
 70
     0
  9
$DIMTZIN
 70
     0
  9
$DIMALTZ
 70
     0
  9
$DIMALTTZ
 70
     0
  9
$DIMFIT
 70
     3
  9
$DIMUPT
 70
     0
  9
$DIMUNIT
 70
     2
  9
$DIMDEC
 70
     3
  9
$DIMTDEC
 70
     3
  9
$DIMALTU
 70
     2
  9
$DIMALTTD
 70
     2
  9
$DIMTXSTY
  7
ASAMI
  9
$DIMAUNIT
 70
     0
  9
$LUNITS
 70
     2
  9
$LUPREC
 70
     2
  9
$SKETCHINC
 40
1.0
  9
$FILLETRAD
 40
2.5
  9
$AUNITS
 70
     0
  9
$AUPREC
 70
     0
  9
$MENU
  1
.
  9
$ELEVATION
 40
0.0
  9
$PELEVATION
 40
0.0
  9
$THICKNESS
 40
0.0
  9
$LIMCHECK
 70
     0
  9
$BLIPMODE
 70
     0
  9
$CHAMFERA
 40
2.5
  9
$CHAMFERB
 40
2.5
  9
$CHAMFERC
 40
20.0
  9
$CHAMFERD
 40
0.0
  9
$SKPOLY
 70
     0
  9
$TDCREATE
 40
2452836.771637361
  9
$TDUPDATE
 40
2453151.799269537
  9
$TDINDWG
 40
0.0195559144
  9
$TDUSRTIMER
 40
0.0195559144
  9
$USRTIMER
 70
     1
  9
$ANGBASE
 50
0.0
  9
$ANGDIR
 70
     0
  9
$PDMODE
 70
     0
  9
$PDSIZE
 40
0.0
  9
$PLINEWID
 40
0.0
  9
$COORDS
 70
     1
  9
$SPLFRAME
 70
     0
  9
$SPLINETYPE
 70
     6
  9
$SPLINESEGS
 70
     8
  9
$ATTDIA
 70
     1
  9
$ATTREQ
 70
     1
  9
$HANDLING
 70
 12289
  9
$HANDSEED
  5
14B2
  9
$SURFTAB1
 70
     6
  9
$SURFTAB2
 70
     6
  9
$SURFTYPE
 70
     6
  9
$SURFU
 70
     6
  9
$SURFV
 70
     6
  9
$UCSNAME
  2

  9
$UCSORG
 10
0.0
 20
0.0
 30
0.0
  9
$UCSXDIR
 10
1.0
 20
0.0
 30
0.0
  9
$UCSYDIR
 10
0.0
 20
1.0
 30
0.0
  9
$PUCSNAME
  2

  9
$PUCSORG
 10
0.0
 20
0.0
 30
0.0
  9
$PUCSXDIR
 10
1.0
 20
0.0
 30
0.0
  9
$PUCSYDIR
 10
0.0
 20
1.0
 30
0.0
  9
$USERI1
 70
     0
  9
$USERI2
 70
     0
  9
$USERI3
 70
     0
  9
$USERI4
 70
     0
  9
$USERI5
 70
     0
  9
$USERR1
 40
0.0
  9
$USERR2
 40
0.0
  9
$USERR3
 40
0.0
  9
$USERR4
 40
0.0
  9
$USERR5
 40
0.0
  9
$WORLDVIEW
 70
     1
  9
$SHADEDGE
 70
     3
  9
$SHADEDIF
 70
    70
  9
$TILEMODE
 70
     1
  9
$MAXACTVP
 70
    64
  9
$PINSBASE
 10
0.0
 20
0.0
 30
0.0
  9
$PLIMCHECK
 70
     0
  9
$PEXTMIN
 10
1.000000000000000E+20
 20
1.000000000000000E+20
 30
1.000000000000000E+20
  9
$PEXTMAX
 10
-1.000000000000000E+20
 20
-1.000000000000000E+20
 30
-1.000000000000000E+20
  9
$PLIMMIN
 10
0.0
 20
0.0
  9
$PLIMMAX
 10
841.0
 20
594.0
  9
$UNITMODE
 70
     0
  9
$VISRETAIN
 70
     1
  9
$PLINEGEN
 70
     0
  9
$PSLTSCALE
 70
     0
  9
$TREEDEPTH
 70
  3020
  9
$PICKSTYLE
 70
     0
  9
$CMLSTYLE
  2
STANDARD
  9
$CMLJUST
 70
     0
  9
$CMLSCALE
 40
20.0
  9
$PROXYGRAPHICS
 70
     1
  9
$MEASUREMENT
 70
     1
  0
ENDSEC
  0
SECTION
  2
CLASSES
  0
CLASS
  1
ACDBDICTIONARYWDFLT
  2
AcDbDictionaryWithDefault
  3
AutoCAD 2000
 90
        0
280
     0
281
     0
  0
CLASS
  1
ACDBPLACEHOLDER
  2
AcDbPlaceHolder
  3
AutoCAD 2000
 90
        0
280
     0
281
     0
  0
CLASS
  1
LAYOUT
  2
AcDbLayout
  3
AutoCAD 2000
 90
        0
280
     0
281
     0
  0
CLASS
  1
AMGSETTINGSOBJ
  2
AmgSettingsObj
  3
"AcadM|Product Description: AutoCAD Mechanical 2000|Company: Autodesk"
 90
        0
280
     0
281
     0
  0
CLASS
  1
ACME_DOCUMENT
  2
AcMeDbDoc
  3
AcMeServices
 90
        0
280
     0
281
     0
  0
CLASS
  1
ACMESCOPE
  2
AcMeScope
  3
AcMeServices
 90
        0
280
     0
281
     0
  0
CLASS
  1
ACMECOMMANDHISTORY
  2
AcMeCommandHistory
  3
AcMeServices
 90
        0
280
     0
281
     0
  0
CLASS
  1
DICTIONARYVAR
  2
AcDbDictionaryVar
  3
AutoCAD 2000
 90
        0
280
     0
281
     0
  0
CLASS
  1
ACIMSYSVARMAN
  2
AcImSysVarManager
  3
AcMeServices
 90
        0
280
     0
281
     0
  0
CLASS
  1
ACIMREALSYSVAR
  2
AcImRealSysVar
  3
AcMeServices
 90
        0
280
     0
281
     0
  0
CLASS
  1
ACIMINTSYSVAR
  2
AcImIntSysVar
  3
AcMeServices
 90
        0
280
     0
281
     0
  0
CLASS
  1
ACMEDRAWINGMAN
  2
AcMeDrawingMan
  3
AcMeServices
 90
        0
280
     0
281
     0
  0
CLASS
  1
ACMEVIEW
  2
AcMeView
  3
AcMeServices
 90
        0
280
     0
281
     0
  0
CLASS
  1
ACDBENTITYCACHE
  2
AcMeEntityCache
  3
AcMeServices
 90
        0
280
     0
281
     0
  0
CLASS
  1
GSMANAGER
  2
AcMeGSManager
  3
AcMeServices
 90
        0
280
     0
281
     0
  0
CLASS
  1
AmdtInternalReactor
  2
AmdtInternalReactor
  3
AcMeServices
 90
        0
280
     0
281
     0
  0
CLASS
  1
ACMESTATEMGR
  2
AcMeStateMgr
  3
AcMeServices
 90
        0
280
     0
281
     0
  0
CLASS
  1
ACME_DATABASE
  2
AcMeDbDatabase
  3
AcMeServices
 90
        0
280
     0
281
     0
  0
CLASS
  1
ACRFINSADJUSTERMGR
  2
AcRfInsAdjusterMgr
  3
AcMeServices
 90
        0
280
     0
281
     0
  0
CLASS
  1
ACMDATADICTIONARY
  2
AcmDataDictionary
  3
"AcmSymBB|Product Description: AutoCAD Mechanical 2000|Company: Autodesk"
 90
        0
280
     0
281
     0
  0
CLASS
  1
ACMDATAENTRYBLOCK
  2
AcmDataEntryBlock
  3
"AcmSymBB|Product Description: AutoCAD Mechanical 2000|Company: Autodesk"
 90
        0
280
     0
281
     0
  0
CLASS
  1
AMGOBJPROPCFG
  2
AmgObjPropCfg
  3
"AmgLay|Product Description: AutoCAD Mechanical 2000|Company: Autodesk"
 90
        1
280
     0
281
     0
  0
CLASS
  1
ACAMGFILTERDAT
  2
AcAmgFilterDat
  3
"AcadM|Product Description: AutoCAD Mechanical 2000|Company: Autodesk"
 90
        0
280
     0
281
     0
  0
CLASS
  1
LAYER_INDEX
  2
AcDbLayerIndex
  3
AutoCAD 2000
 90
        0
280
     0
281
     0
  0
CLASS
  1
IDBUFFER
  2
AcDbIdBuffer
  3
AutoCAD 2000
 90
        0
280
     0
281
     0
  0
CLASS
  1
ACIMSTRSYSVAR
  2
AcImStrSysVar
  3
AcMeServices
 90
        0
280
     0
281
     0
  0
CLASS
  1
ACMSTANDARDJIS
  2
AcmStandardJIS
  3
"AcmSymBB|Product Description: AutoCAD Mechanical 2000|Company: Autodesk"
 90
        0
280
     0
281
     0
  0
CLASS
  1
ACMSURFSTANDARDJIS
  2
AcmSurfTextStdJIS
  3
"AcmSymBB|Product Description: AutoCAD Mechanical 2000|Company: Autodesk"
 90
        0
280
     0
281
     0
  0
CLASS
  1
ACMFCFSTANDARDJIS
  2
AcmFCFStdJIS
  3
"AcmSymBB|Product Description: AutoCAD Mechanical 2000|Company: Autodesk"
 90
        0
280
     0
281
     0
  0
CLASS
  1
ACMWELDSTANDARDJIS
  2
AcmWeldingStdJIS
  3
"AcmSymBB|Product Description: AutoCAD Mechanical 2000|Company: Autodesk"
 90
        0
280
     0
281
     0
  0
CLASS
  1
ACMIDSTANDARDJIS
  2
AcmIdStdJIS
  3
"AcmSymBB|Product Description: AutoCAD Mechanical 2000|Company: Autodesk"
 90
        0
280
     0
281
     0
  0
CLASS
  1
ACMDATUMSTANDARDJIS
  2
AcmDatumStdJIS
  3
"AcmSymBB|Product Description: AutoCAD Mechanical 2000|Company: Autodesk"
 90
        0
280
     0
281
     0
  0
CLASS
  1
ACMBOMSTANDARDJIS
  2
AcmBOMStdJIS
  3
"AcmSymBB|Product Description: AutoCAD Mechanical 2000|Company: Autodesk"
 90
        0
280
     0
281
     0
  0
CLASS
  1
ACMSTANDARDANSI
  2
AcmStandardANSI
  3
"AcmSymBB|Product Description: AutoCAD Mechanical 2000|Company: Autodesk"
 90
        0
280
     0
281
     0
  0
CLASS
  1
ACMSURFSTANDARDANSI
  2
AcmSurfTextStdANSI
  3
"AcmSymBB|Product Description: AutoCAD Mechanical 2000|Company: Autodesk"
 90
        0
280
     0
281
     0
  0
CLASS
  1
ACMFCFSTANDARDANSI
  2
AcmFCFStdANSI
  3
"AcmSymBB|Product Description: AutoCAD Mechanical 2000|Company: Autodesk"
 90
        0
280
     0
281
     0
  0
CLASS
  1
ACMWELDSTANDARDANSI
  2
AcmWeldingStdANSI
  3
"AcmSymBB|Product Description: AutoCAD Mechanical 2000|Company: Autodesk"
 90
        0
280
     0
281
     0
  0
CLASS
  1
ACMIDSTANDARDANSI
  2
AcmIdStdANSI
  3
"AcmSymBB|Product Description: AutoCAD Mechanical 2000|Company: Autodesk"
 90
        0
280
     0
281
     0
  0
CLASS
  1
ACMDATUMSTANDARDANSI
  2
AcmDatumStdANSI
  3
"AcmSymBB|Product Description: AutoCAD Mechanical 2000|Company: Autodesk"
 90
        0
280
     0
281
     0
  0
CLASS
  1
ACMBOMSTANDARDANSI
  2
AcmBOMStdANSI
  3
"AcmSymBB|Product Description: AutoCAD Mechanical 2000|Company: Autodesk"
 90
        0
280
     0
281
     0
  0
CLASS
  1
ACMSTANDARDBSI
  2
AcmStandardBSI
  3
"AcmSymBB|Product Description: AutoCAD Mechanical 2000|Company: Autodesk"
 90
        0
280
     0
281
     0
  0
CLASS
  1
ACMSURFSTANDARDBSI
  2
AcmSurfTextStdBSI
  3
"AcmSymBB|Product Description: AutoCAD Mechanical 2000|Company: Autodesk"
 90
        0
280
     0
281
     0
  0
CLASS
  1
ACMFCFSTANDARDBSI
  2
AcmFCFStdBSI
  3
"AcmSymBB|Product Description: AutoCAD Mechanical 2000|Company: Autodesk"
 90
        0
280
     0
281
     0
  0
CLASS
  1
ACMWELDSTANDARDBSI
  2
AcmWeldingStdBSI
  3
"AcmSymBB|Product Description: AutoCAD Mechanical 2000|Company: Autodesk"
 90
        0
280
     0
281
     0
  0
CLASS
  1
ACMIDSTANDARDBSI
  2
AcmIdStdBSI
  3
"AcmSymBB|Product Description: AutoCAD Mechanical 2000|Company: Autodesk"
 90
        0
280
     0
281
     0
  0
CLASS
  1
ACMDATUMSTANDARDBSI
  2
AcmDatumStdBSI
  3
"AcmSymBB|Product Description: AutoCAD Mechanical 2000|Company: Autodesk"
 90
        0
280
     0
281
     0
  0
CLASS
  1
ACMBOMSTANDARDBSI
  2
AcmBOMStdBSI
  3
"AcmSymBB|Product Description: AutoCAD Mechanical 2000|Company: Autodesk"
 90
        0
280
     0
281
     0
  0
CLASS
  1
LONG_TRANSACTION
  2
AcDbLongTransaction
  3
AutoCAD 2000
 90
        0
280
     0
281
     0
  0
CLASS
  1
LWPOLYLINE
  2
AcDbPolyline
  3
AutoCAD 2000
 90
        0
280
     0
281
     1
  0
CLASS
  1
HATCH
  2
AcDbHatch
  3
AutoCAD 2000
 90
        0
280
     0
281
     1
  0
CLASS
  1
XRECORD
  2
AcDbXrecord
  3
AutoCAD 2000
 90
        0
280
     0
281
     0
  0
ENDSEC
  0
SECTION
  2
TABLES
  0
TABLE
  2
VPORT
  5
8
330
0
100
AcDbSymbolTable
 70
     3
  0
VPORT
  5
1487
330
8
100
AcDbSymbolTableRecord
100
AcDbViewportTableRecord
  2
*ACTIVE
 70
     0
 10
0.0
 20
0.0
 11
1.0
 21
1.0
 12
-26.05030579962333
 22
-5.579342688361528
 13
0.0
 23
0.0
 14
2.5
 24
2.5
 15
10.0
 25
10.0
 16
0.0
 26
0.0
 36
1.0
 17
0.0
 27
0.0
 37
0.0
 40
61.43640247574571
 41
1.56570841889117
 42
50.0
 43
0.0
 44
0.0
 50
0.0
 51
0.0
 71
     0
 72
   100
 73
     1
 74
     3
 75
     0
 76
     0
 77
     0
 78
     0
  0
ENDTAB
  0
TABLE
  2
LTYPE
  5
5
330
0
100
AcDbSymbolTable
 70
    10
  0
LTYPE
  5
14
330
5
100
AcDbSymbolTableRecord
100
AcDbLinetypeTableRecord
  2
BYBLOCK
 70
     0
  3

 72
    65
 73
     0
 40
0.0
  0
LTYPE
  5
15
330
5
100
AcDbSymbolTableRecord
100
AcDbLinetypeTableRecord
  2
BYLAYER
 70
     0
  3

 72
    65
 73
     0
 40
0.0
  0
LTYPE
  5
16
330
5
100
AcDbSymbolTableRecord
100
AcDbLinetypeTableRecord
  2
CONTINUOUS
 70
     0
  3
Solid line
 72
    65
 73
     0
 40
0.0
  0
LTYPE
  5
4B
330
5
100
AcDbSymbolTableRecord
100
AcDbLinetypeTableRecord
  2
AM_ISO02W050
 70
     0
  3
__ __ __ __ __ __ __ __ __ __ __ __ __ __ __
 72
    65
 73
     2
 40
7.5
 49
6.0
 74
     0
 49
-1.5
 74
     0
  0
LTYPE
  5
4C
330
5
100
AcDbSymbolTableRecord
100
AcDbLinetypeTableRecord
  2
AM_ISO08W050
 70
     0
  3
____ . ____ . ____ . ____ . ____ . ____ . ____
 72
    65
 73
     4
 40
18.0
 49
12.0
 74
     0
 49
-1.5
 74
     0
 49
3.0
 74
     0
 49
-1.5
 74
     0
  0
LTYPE
  5
4D
330
5
100
AcDbSymbolTableRecord
100
AcDbLinetypeTableRecord
  2
AM_ISO09W050
 70
     0
  3
_____ . . _____ . . _____ . . ____ .. ____
 72
    65
 73
     6
 40
22.5
 49
12.0
 74
     0
 49
-1.5
 74
     0
 49
3.0
 74
     0
 49
-1.5
 74
     0
 49
3.0
 74
     0
 49
-1.5
 74
     0
  0
LTYPE
  5
4E
330
5
100
AcDbSymbolTableRecord
100
AcDbLinetypeTableRecord
  2
AMCONSTR
 70
     0
  3
_______________________
 72
    65
 73
     2
 40
9999.0
 49
9999.0
 74
     0
 49
0.0
 74
     0
  0
LTYPE
  5
4F
330
5
100
AcDbSymbolTableRecord
100
AcDbLinetypeTableRecord
  2
AM_ISO02W050X2
 70
     0
  3
 _ _ _ _ _ _ _ _ _ _ _ _
 72
    65
 73
     2
 40
3.75
 49
3.0
 74
     0
 49
-0.75
 74
     0
  0
LTYPE
  5
50
330
5
100
AcDbSymbolTableRecord
100
AcDbLinetypeTableRecord
  2
AM_ISO08W050X2
 70
     0
  3
__ . __ . __ . __ . __ . __
 72
    65
 73
     4
 40
9.0
 49
6.0
 74
     0
 49
-0.75
 74
     0
 49
1.5
 74
     0
 49
-0.75
 74
     0
  0
LTYPE
  5
53
330
5
100
AcDbSymbolTableRecord
100
AcDbLinetypeTableRecord
  2
AMZIGZAG
 70
     0
  3
/\/-/\/-/\/-/\/-/\/-/\/
 72
    65
 73
     2
 40
11.00009999999999
 49
0.0001
 74
     4
 75
   135
340
52
 46
0.04
 50
0.0
 44
0.0
 45
0.0
 49
-11.0
 74
     0
  0
LTYPE
  5
166
330
5
100
AcDbSymbolTableRecord
100
AcDbLinetypeTableRecord
  2
ACJISTGL
 70
     0
  3
_ _ _ _ _
 72
    65
 73
     2
 40
3.0
 49
2.0
 74
     0
 49
-1.0
 74
     0
  0
LTYPE
  5
26A
330
5
100
AcDbSymbolTableRecord
100
AcDbLinetypeTableRecord
  2
ACJISTGB
 70
     0
  3
__ . . __ . .
 72
    65
 73
     6
 40
9.0
 49
4.0
 74
     0
 49
-1.0
 74
     0
 49
1.0
 74
     0
 49
-1.0
 74
     0
 49
1.0
 74
     0
 49
-1.0
 74
     0
  0
ENDTAB
  0
TABLE
  2
LAYER
  5
2
330
0
100
AcDbSymbolTable
 70
     7
  0
LAYER
  5
10
330
2
100
AcDbSymbolTableRecord
100
AcDbLayerTableRecord
  2
0
 70
     0
 62
     7
  6
CONTINUOUS
  0
LAYER
  5
3F9
330
2
100
AcDbSymbolTableRecord
100
AcDbLayerTableRecord
  2
AM_0
 70
     0
 62
     7
  6
CONTINUOUS
  0
LAYER
  5
BD4
330
2
100
AcDbSymbolTableRecord
100
AcDbLayerTableRecord
  2
AM_11
 70
     0
 62
     3
  6
AM_ISO09W050
  0
LAYER
  5
BD5
330
2
100
AcDbSymbolTableRecord
100
AcDbLayerTableRecord
  2
AM_7
 70
     0
 62
     4
  6
AM_ISO08W050
  0
LAYER
  5
BD6
330
2
100
AcDbSymbolTableRecord
100
AcDbLayerTableRecord
  2
AM_5
 70
     0
 62
     3
  6
CONTINUOUS
  0
LAYER
  5
BD7
330
2
100
AcDbSymbolTableRecord
100
AcDbLayerTableRecord
  2
DEFPOINTS
 70
     0
 62
     7
  6
CONTINUOUS
  0
LAYER
  5
E59
330
2
100
AcDbSymbolTableRecord
100
AcDbLayerTableRecord
  2
AM_6
 70
     0
 62
     2
  6
CONTINUOUS
  0
ENDTAB
  0
TABLE
  2
STYLE
  5
3
330
0
100
AcDbSymbolTable
 70
     5
  0
STYLE
  5
11
330
3
100
AcDbSymbolTableRecord
100
AcDbTextStyleTableRecord
  2
STANDARD
 70
     0
 40
0.0
 41
1.0
 50
0.0
 71
     0
 42
2.5
  3
simplex.shx
  4
EXTFONT.SHX
  0
STYLE
  5
52
330
3
100
AcDbSymbolTableRecord
100
AcDbTextStyleTableRecord
  2

 70
     1
 40
0.0
 41
1.0
 50
0.0
 71
     0
 42
2.5
  3
ltypeshp.shx
  4

  0
STYLE
  5
6B
330
3
100
AcDbSymbolTableRecord
100
AcDbTextStyleTableRecord
  2
ASAMI
 70
     0
 40
0.0
 41
1.0
 50
0.0
 71
     0
 42
2.5
  3
simplex.shx
  4
EXTFONT.SHX
  0
STYLE
  5
262
330
3
100
AcDbSymbolTableRecord
100
AcDbTextStyleTableRecord
  2
ACJISTS
 70
     0
 40
1.0
 41
1.0
 50
0.0
 71
     0
 42
2.5
  3
simplex.shx
  4
bigfont.shx
  0
STYLE
  5
269
330
3
100
AcDbSymbolTableRecord
100
AcDbTextStyleTableRecord
  2
ACJISGDT
 70
     0
 40
0.0
 41
1.0
 50
0.0
 71
     0
 42
2.5
  3
amgdtans.shx
  4

  0
ENDTAB
  0
TABLE
  2
VIEW
  5
6
330
0
100
AcDbSymbolTable
 70
     0
  0
ENDTAB
  0
TABLE
  2
UCS
  5
7
330
0
100
AcDbSymbolTable
 70
     0
  0
ENDTAB
  0
TABLE
  2
APPID
  5
9
330
0
100
AcDbSymbolTable
 70
    12
  0
APPID
  5
12
330
9
100
AcDbSymbolTableRecord
100
AcDbRegAppTableRecord
  2
ACAD
 70
     0
  0
APPID
  5
30
330
9
100
AcDbSymbolTableRecord
100
AcDbRegAppTableRecord
  2
MCAD_NO_VIS
 70
     0
  0
APPID
  5
31
330
9
100
AcDbSymbolTableRecord
100
AcDbRegAppTableRecord
  2
ACAD_TEMP_GRAPHIC
 70
     0
  0
APPID
  5
2C2
330
9
100
AcDbSymbolTableRecord
100
AcDbRegAppTableRecord
  2
GENIUS_GENDTOL_13
 70
     0
  0
APPID
  5
339
330
9
100
AcDbSymbolTableRecord
100
AcDbRegAppTableRecord
  2
GENIUS_GENODEF_13
 70
     0
  0
APPID
  5
33A
330
9
100
AcDbSymbolTableRecord
100
AcDbRegAppTableRecord
  2
GENIUS_GENOBJ-N-RSBK_13
 70
     0
  0
APPID
  5
33B
330
9
100
AcDbSymbolTableRecord
100
AcDbRegAppTableRecord
  2
GENIUS_GENOBJ-N-LIB_13
 70
     0
  0
APPID
  5
33C
330
9
100
AcDbSymbolTableRecord
100
AcDbRegAppTableRecord
  2
GENIUS_GENSCALE_13
 70
     0
  0
APPID
  5
378
330
9
100
AcDbSymbolTableRecord
100
AcDbRegAppTableRecord
  2
GENIUS_GENDIMSH_14
 70
     0
  0
APPID
  5
BD8
330
9
100
AcDbSymbolTableRecord
100
AcDbRegAppTableRecord
  2
GENIUS_GENOBJ-N-CEN_13
 70
     0
  0
APPID
  5
BD9
330
9
100
AcDbSymbolTableRecord
100
AcDbRegAppTableRecord
  2
GENIUS_GENFIL_13
 70
     0
  0
APPID
  5
BDA
330
9
100
AcDbSymbolTableRecord
100
AcDbRegAppTableRecord
  2
GENIUS_GENOBJ-N-CHA_13
 70
     0
  0
ENDTAB
  0
TABLE
  2
DIMSTYLE
  5
A
330
0
100
AcDbSymbolTable
 70
     8
  0
DIMSTYLE
105
58
102
{ACAD_REACTORS
330
D71
330
D75
330
D7A
330
DA6
102
}
330
A
100
AcDbSymbolTableRecord
100
AcDbDimStyleTableRecord
  2
AM_JIS
 70
     0
  3

  4
"
  5
OPEN30
  6

  7

 40
0.5
 41
2.5
 42
1.0
 43
12.0
 44
1.0
 45
0.0
 46
0.0
 47
0.1
 48
0.1
140
3.2
141
0.0
142
0.0
143
0.0393701
144
1.0
145
0.0
146
0.71
147
1.5
 71
     0
 72
     0
 73
     0
 74
     0
 75
     0
 76
     0
 77
     3
 78
     8
170
     0
171
     2
172
     1
173
     0
174
     0
175
     0
176
   256
177
   256
178
     2
270
     2
271
     3
272
     3
273
     2
274
     2
340
6B
275
     0
280
     0
281
     0
282
     0
283
     0
284
     0
285
     0
286
     0
287
     3
288
     0
  0
DIMSTYLE
105
5F
330
A
100
AcDbSymbolTableRecord
100
AcDbDimStyleTableRecord
  2
AM_JIS$3
 70
     0
  3

  4
"
  5
OPEN30
  6

  7

 40
0.5
 41
2.5
 42
1.0
 43
10.0
 44
1.0
 45
0.0
 46
0.0
 47
0.1
 48
0.1
140
3.2
141
0.0
142
0.0
143
0.0393701
144
1.0
145
0.0
146
0.71
147
1.5
 71
     0
 72
     0
 73
     0
 74
     1
 75
     0
 76
     0
 77
     3
 78
     8
170
     0
171
     2
172
     0
173
     0
174
     0
175
     0
176
   256
177
   256
178
     2
270
     2
271
     2
272
     3
273
     2
274
     2
340
6B
275
     0
280
     0
281
     0
282
     0
283
     0
284
     0
285
     0
286
     0
287
     0
288
     1
  0
DIMSTYLE
105
60
330
A
100
AcDbSymbolTableRecord
100
AcDbDimStyleTableRecord
  2
AM_JIS$4
 70
     0
  3

  4
"
  5
OPEN30
  6

  7

 40
0.5
 41
2.5
 42
1.0
 43
10.0
 44
1.0
 45
0.0
 46
0.0
 47
0.1
 48
0.1
140
3.2
141
0.0
142
0.0
143
0.0393701
144
1.0
145
0.0
146
0.71
147
1.5
 71
     0
 72
     0
 73
     0
 74
     1
 75
     0
 76
     0
 77
     3
 78
     8
170
     0
171
     2
172
     0
173
     0
174
     0
175
     0
176
   256
177
   256
178
     2
270
     2
271
     2
272
     3
273
     2
274
     2
340
6B
275
     0
280
     0
281
     0
282
     0
283
     0
284
     0
285
     0
286
     0
287
     0
288
     1
  0
DIMSTYLE
105
61
330
A
100
AcDbSymbolTableRecord
100
AcDbDimStyleTableRecord
  2
AM_JIS$6
 70
     0
  3

  4
"
  5
OPEN30
  6

  7

 40
0.5
 41
2.5
 42
1.0
 43
10.0
 44
1.0
 45
0.0
 46
0.0
 47
0.1
 48
0.1
140
3.2
141
0.0
142
0.0
143
0.0393701
144
1.0
145
0.0
146
0.71
147
1.5
 71
     0
 72
     0
 73
     0
 74
     0
 75
     0
 76
     0
 77
     0
 78
     8
170
     0
171
     2
172
     1
173
     0
174
     0
175
     0
176
   256
177
   256
178
     2
270
     2
271
     2
272
     2
273
     2
274
     2
340
6B
275
     0
280
     0
281
     0
282
     0
283
     0
284
     0
285
     0
286
     0
287
     3
288
     0
  0
DIMSTYLE
105
62
330
A
100
AcDbSymbolTableRecord
100
AcDbDimStyleTableRecord
  2
AM_JIS$7
 70
     0
  3

  4
"
  5
OPEN30
  6

  7

 40
0.5
 41
2.5
 42
1.0
 43
10.0
 44
1.0
 45
0.0
 46
0.0
 47
0.1
 48
0.1
140
3.2
141
0.0
142
0.0
143
0.0393701
144
1.0
145
0.0
146
0.71
147
1.5
 71
     0
 72
     0
 73
     0
 74
     0
 75
     0
 76
     0
 77
     3
 78
     8
170
     0
171
     2
172
     1
173
     0
174
     0
175
     0
176
   256
177
   256
178
     2
270
     2
271
     2
272
     3
273
     2
274
     2
340
6B
275
     0
280
     0
281
     0
282
     0
283
     0
284
     0
285
     0
286
     0
287
     3
288
     0
  0
DIMSTYLE
105
63
330
A
100
AcDbSymbolTableRecord
100
AcDbDimStyleTableRecord
  2
AM_JIS$SF
 70
     0
  3

  4
"
  5
OPEN30
  6

  7

 40
0.5
 41
2.5
 42
1.0
 43
10.0
 44
1.0
 45
0.0
 46
0.0
 47
0.1
 48
0.1
140
3.2
141
0.0
142
0.0
143
0.0393701
144
1.0
145
0.0
146
0.71
147
1.5
 71
     0
 72
     0
 73
     0
 74
     0
 75
     1
 76
     1
 77
     3
 78
     8
170
     0
171
     2
172
     1
173
     0
174
     0
175
     0
176
   256
177
   256
178
     2
270
     2
271
     2
272
     2
273
     2
274
     2
340
6B
275
     0
280
     0
281
     0
282
     0
283
     0
284
     0
285
     0
286
     0
287
     3
288
     0
  0
DIMSTYLE
105
68
330
A
100
AcDbSymbolTableRecord
100
AcDbDimStyleTableRecord
  2
AM_JIS$SH
 70
     0
  3

  4
"
  5

  6
GENAXEH
  7
OPEN30
 40
0.5
 41
2.5
 42
1.0
 43
10.0
 44
1.0
 45
0.0
 46
0.0
 47
0.1
 48
0.1
140
3.2
141
0.0
142
0.0
143
0.0393701
144
2.0
145
0.0
146
0.71
147
1.5
 71
     0
 72
     0
 73
     0
 74
     0
 75
     1
 76
     1
 77
     3
 78
     8
170
     0
171
     2
172
     1
173
     1
174
     0
175
     0
176
   256
177
   256
178
     2
270
     2
271
     2
272
     2
273
     2
274
     2
340
6B
275
     0
280
     0
281
     0
282
     0
283
     0
284
     0
285
     0
286
     0
287
     3
288
     0
  0
DIMSTYLE
105
B34
330
A
100
AcDbSymbolTableRecord
100
AcDbDimStyleTableRecord
  2
AM_JIS$2
 70
     0
  3

  4
"
  5
OPEN30
  6

  7

 40
0.5
 41
2.5
 42
1.0
 43
12.0
 44
1.0
 45
0.0
 46
0.0
 47
0.1
 48
0.1
140
3.2
141
0.0
142
0.0
143
0.0393701
144
1.0
145
0.0
146
0.71
147
1.5
 71
     0
 72
     0
 73
     0
 74
     0
 75
     0
 76
     0
 77
     3
 78
     8
170
     0
171
     2
172
     1
173
     0
174
     0
175
     0
176
   256
177
   256
178
     2
270
     2
271
     3
272
     3
273
     2
274
     2
340
6B
275
     0
280
     0
281
     0
282
     0
283
     0
284
     0
285
     0
286
     0
287
     3
288
     0
  0
ENDTAB
  0
TABLE
  2
BLOCK_RECORD
  5
1
330
0
100
AcDbSymbolTable
 70
     9
  0
BLOCK_RECORD
  5
1F
102
{ACAD_XDICTIONARY
360
74
102
}
330
1
100
AcDbSymbolTableRecord
100
AcDbBlockTableRecord
  2
*MODEL_SPACE
  0
BLOCK_RECORD
  5
101
102
{ACAD_XDICTIONARY
360
14B0
102
}
330
1
100
AcDbSymbolTableRecord
100
AcDbBlockTableRecord
  2
*PAPER_SPACE
  0
BLOCK_RECORD
  5
59
330
1
100
AcDbSymbolTableRecord
100
AcDbBlockTableRecord
  2
_OPEN30
  0
BLOCK_RECORD
  5
64
330
1
100
AcDbSymbolTableRecord
100
AcDbBlockTableRecord
  2
GENAXEH
  0
BLOCK_RECORD
  5
DDA
330
1
100
AcDbSymbolTableRecord
100
AcDbBlockTableRecord
  2
*D5
  0
BLOCK_RECORD
  5
DE6
330
1
100
AcDbSymbolTableRecord
100
AcDbBlockTableRecord
  2
*D6
  0
BLOCK_RECORD
  5
DF3
330
1
100
AcDbSymbolTableRecord
100
AcDbBlockTableRecord
  2
*D7
  0
BLOCK_RECORD
  5
DFF
330
1
100
AcDbSymbolTableRecord
100
AcDbBlockTableRecord
  2
*D8
  0
ENDTAB
  0
ENDSEC
  0
SECTION
  2
BLOCKS
  0
BLOCK
  5
20
330
1F
100
AcDbEntity
  8
0
100
AcDbBlockBegin
  2
*MODEL_SPACE
 70
     0
 10
0.0
 20
0.0
 30
0.0
  3
*MODEL_SPACE
  1

  0
ENDBLK
  5
21
330
1F
100
AcDbEntity
  8
0
100
AcDbBlockEnd
  0
BLOCK
  5
103
330
101
100
AcDbEntity
 67
     1
  8
0
100
AcDbBlockBegin
  2
*PAPER_SPACE
 70
     0
 10
0.0
 20
0.0
 30
0.0
  3
*PAPER_SPACE
  1

  0
ENDBLK
  5
104
330
101
100
AcDbEntity
 67
     1
  8
0
100
AcDbBlockEnd
  0
BLOCK
  5
5D
330
59
100
AcDbEntity
  8
0
100
AcDbBlockBegin
  2
_OPEN30
 70
     0
 10
0.0
 20
0.0
 30
0.0
  3
_OPEN30
  1

  0
LINE
  5
5A
330
59
100
AcDbEntity
  8
0
 62
     0
100
AcDbLine
 10
-1.0
 20
0.26794919
 30
0.0
 11
0.0
 21
0.0
 31
0.0
  0
LINE
  5
5B
330
59
100
AcDbEntity
  8
0
 62
     0
100
AcDbLine
 10
0.0
 20
0.0
 30
0.0
 11
-1.0
 21
-0.26794919
 31
0.0
  0
LINE
  5
5C
330
59
100
AcDbEntity
  8
0
 62
     0
100
AcDbLine
 10
0.0
 20
0.0
 30
0.0
 11
-1.0
 21
0.0
 31
0.0
  0
ENDBLK
  5
5E
330
59
100
AcDbEntity
  8
0
100
AcDbBlockEnd
  0
BLOCK
  5
66
330
64
100
AcDbEntity
  8
0
100
AcDbBlockBegin
  2
GENAXEH
 70
     0
 10
0.0
 20
0.0
 30
0.0
  3
GENAXEH
  1

  0
LINE
  5
65
330
64
100
AcDbEntity
  8
0
100
AcDbLine
 10
-1.0
 20
0.0
 30
0.0
 11
1.0
 21
0.0
 31
0.0
  0
ENDBLK
  5
67
330
64
100
AcDbEntity
  8
0
100
AcDbBlockEnd
  0
BLOCK
  5
DE4
330
DDA
100
AcDbEntity
  8
0
100
AcDbBlockBegin
  2
*D5
 70
     1
 10
0.0
 20
0.0
 30
0.0
  3
*D5
  1

  0
LINE
  5
1250
330
DDA
100
AcDbEntity
  8
AM_5
100
AcDbLine
 10
-0.0000000000001812
 20
-5.25
 30
0.0
 11
-0.000000000000182
 21
-18.50000101000006
 31
0.0
  0
LINE
  5
1251
330
DDA
100
AcDbEntity
  8
AM_5
100
AcDbLine
 10
-55.0
 20
-4.5
 30
0.0
 11
-55.0
 21
-18.50000101000006
 31
0.0
  0
LINE
  5
1252
330
DDA
100
AcDbEntity
  8
AM_5
100
AcDbLine
 10
-1.250000000000182
 20
-18.00000101000006
 30
0.0
 11
-53.75
 21
-18.00000101000006
 31
0.0
  0
INSERT
  5
1253
330
DDA
100
AcDbEntity
  8
AM_5
100
AcDbBlockReference
  2
_OPEN30
 10
-0.000000000000182
 20
-18.00000101000006
 30
0.0
 41
1.25
 42
1.25
 43
1.25
  0
INSERT
  5
1254
330
DDA
100
AcDbEntity
  8
AM_5
100
AcDbBlockReference
  2
_OPEN30
 10
-55.0
 20
-18.00000101000006
 30
0.0
 41
1.25
 42
1.25
 43
1.25
 50
180.0
  0
MTEXT
  5
1255
330
DDA
100
AcDbEntity
  8
AM_5
 62
     2
100
AcDbMText
 10
-27.50000000000009
 20
-16.45000101000006
 30
0.0
 40
1.6
 41
0.0
 71
     5
 72
     1
  1
55
  7
ASAMI
1001
ACAD
1000
MTEXTBEGIN
1070
    73
1070
     1
1070
    44
1040
1.0
1070
    74
1070
     0
1000
MTEXTEND
  0
POINT
  5
1256
330
DDA
100
AcDbEntity
  8
DEFPOINTS
 62
     0
100
AcDbPoint
 10
-0.0000000000001812
 20
-4.75
 30
0.0
  0
POINT
  5
1257
330
DDA
100
AcDbEntity
  8
DEFPOINTS
 62
     0
100
AcDbPoint
 10
-55.0
 20
-4.0
 30
0.0
  0
POINT
  5
1258
330
DDA
100
AcDbEntity
  8
DEFPOINTS
 62
     0
100
AcDbPoint
 10
-55.0
 20
-18.00000101000006
 30
0.0
  0
ENDBLK
  5
DE5
330
DDA
100
AcDbEntity
  8
0
100
AcDbBlockEnd
  0
BLOCK
  5
DF1
330
DE6
100
AcDbEntity
  8
0
100
AcDbBlockBegin
  2
*D6
 70
     1
 10
0.0
 20
0.0
 30
0.0
  3
*D6
  1

  0
LINE
  5
EBF
330
DE6
100
AcDbEntity
  8
AM_5
100
AcDbLine
 10
-54.50000000000001
 20
5.0
 30
0.0
 11
-67.29349790496837
 21
5.000000000000003
 31
0.0
  0
LINE
  5
EC0
330
DE6
100
AcDbEntity
  8
AM_5
100
AcDbLine
 10
-54.5
 20
-5.0
 30
0.0
 11
-67.29349790496837
 21
-4.999999999999996
 31
0.0
  0
LINE
  5
EC1
330
DE6
100
AcDbEntity
  8
AM_5
100
AcDbLine
 10
-66.79349790496837
 20
3.750000000000003
 30
0.0
 11
-66.79349790496837
 21
-3.749999999999996
 31
0.0
  0
INSERT
  5
EC2
330
DE6
100
AcDbEntity
  8
AM_5
100
AcDbBlockReference
  2
_OPEN30
 10
-66.79349790496837
 20
5.000000000000003
 30
0.0
 41
1.25
 42
1.25
 43
1.25
 50
90.0
  0
INSERT
  5
EC3
330
DE6
100
AcDbEntity
  8
AM_5
100
AcDbBlockReference
  2
_OPEN30
 10
-66.79349790496837
 20
-4.999999999999996
 30
0.0
 41
1.25
 42
1.25
 43
1.25
 50
270.0
  0
MTEXT
  5
EC4
330
DE6
100
AcDbEntity
  8
AM_5
 62
     2
100
AcDbMText
 10
-68.34349790496837
 20
-0.0000000000000073
 30
0.0
 40
1.6
 41
0.0
 71
     5
 72
     1
  1
%%c10
  7
ASAMI
 11
0.0000000000000001
 21
1.0
 31
0.0
1001
ACAD
1000
MTEXTBEGIN
1070
    73
1070
     1
1070
    44
1040
1.0
1070
    74
1070
     0
1000
MTEXTEND
  0
POINT
  5
EC5
330
DE6
100
AcDbEntity
  8
DEFPOINTS
 62
     0
100
AcDbPoint
 10
-54.00000000000002
 20
5.0
 30
0.0
  0
POINT
  5
EC6
330
DE6
100
AcDbEntity
  8
DEFPOINTS
 62
     0
100
AcDbPoint
 10
-54.0
 20
-5.0
 30
0.0
  0
POINT
  5
EC7
330
DE6
100
AcDbEntity
  8
DEFPOINTS
 62
     0
100
AcDbPoint
 10
-66.79349790496837
 20
-4.999999999999996
 30
0.0
  0
ENDBLK
  5
DF2
330
DE6
100
AcDbEntity
  8
0
100
AcDbBlockEnd
  0
BLOCK
  5
DFD
330
DF3
100
AcDbEntity
  8
0
100
AcDbBlockBegin
  2
*D7
 70
     1
 10
0.0
 20
0.0
 30
0.0
  3
*D7
  1

  0
LINE
  5
1247
330
DF3
100
AcDbEntity
  8
AM_5
100
AcDbLine
 10
-15.00000000000011
 20
-5.250000000000017
 30
0.0
 11
-15.00000000000011
 21
-12.50000100999995
 31
0.0
  0
LINE
  5
1248
330
DF3
100
AcDbEntity
  8
AM_5
100
AcDbLine
 10
-0.0000000000001812
 20
-5.25
 30
0.0
 11
-0.0000000000001817
 21
-12.50000100999995
 31
0.0
  0
LINE
  5
1249
330
DF3
100
AcDbEntity
  8
AM_5
100
AcDbLine
 10
-13.75000000000011
 20
-12.00000100999994
 30
0.0
 11
-1.250000000000181
 21
-12.00000100999994
 31
0.0
  0
INSERT
  5
124A
330
DF3
100
AcDbEntity
  8
AM_5
100
AcDbBlockReference
  2
_OPEN30
 10
-15.00000000000011
 20
-12.00000100999994
 30
0.0
 41
1.25
 42
1.25
 43
1.25
 50
180.0
  0
INSERT
  5
124B
330
DF3
100
AcDbEntity
  8
AM_5
100
AcDbBlockReference
  2
_OPEN30
 10
-0.0000000000001816
 20
-12.00000100999994
 30
0.0
 41
1.25
 42
1.25
 43
1.25
  0
MTEXT
  5
124C
330
DF3
100
AcDbEntity
  8
AM_5
 62
     2
100
AcDbMText
 10
-7.500000000000149
 20
-10.45000100999994
 30
0.0
 40
1.6
 41
0.0
 71
     5
 72
     1
  1
15
  7
ASAMI
1001
ACAD
1000
MTEXTBEGIN
1070
    73
1070
     1
1070
    44
1040
1.0
1070
    74
1070
     0
1000
MTEXTEND
  0
POINT
  5
124D
330
DF3
100
AcDbEntity
  8
DEFPOINTS
 62
     0
100
AcDbPoint
 10
-15.00000000000011
 20
-4.750000000000017
 30
0.0
  0
POINT
  5
124E
330
DF3
100
AcDbEntity
  8
DEFPOINTS
 62
     0
100
AcDbPoint
 10
-0.0000000000001812
 20
-4.75
 30
0.0
  0
POINT
  5
124F
330
DF3
100
AcDbEntity
  8
DEFPOINTS
 62
     0
100
AcDbPoint
 10
-0.0000000000001816
 20
-12.00000100999994
 30
0.0
  0
ENDBLK
  5
DFE
330
DF3
100
AcDbEntity
  8
0
100
AcDbBlockEnd
  0
BLOCK
  5
E0A
330
DFF
100
AcDbEntity
  8
0
100
AcDbBlockBegin
  2
*D8
 70
     1
 10
0.0
 20
0.0
 30
0.0
  3
*D8
  1

  0
LINE
  5
123E
330
DFF
100
AcDbEntity
  8
AM_5
100
AcDbLine
 10
0.4999999999998117
 20
4.750000000000003
 30
0.0
 11
12.05776903085492
 21
4.75
 31
0.0
  0
LINE
  5
123F
330
DFF
100
AcDbEntity
  8
AM_5
100
AcDbLine
 10
0.4999999999998189
 20
-4.75
 30
0.0
 11
12.05776903085492
 21
-4.750000000000003
 31
0.0
  0
LINE
  5
1240
330
DFF
100
AcDbEntity
  8
AM_5
100
AcDbLine
 10
11.55776903085492
 20
3.5
 30
0.0
 11
11.55776903085492
 21
-3.500000000000003
 31
0.0
  0
INSERT
  5
1241
330
DFF
100
AcDbEntity
  8
AM_5
100
AcDbBlockReference
  2
_OPEN30
 10
11.55776903085492
 20
4.75
 30
0.0
 41
1.25
 42
1.25
 43
1.25
 50
90.0
  0
INSERT
  5
1242
330
DFF
100
AcDbEntity
  8
AM_5
100
AcDbBlockReference
  2
_OPEN30
 10
11.55776903085492
 20
-4.750000000000003
 30
0.0
 41
1.25
 42
1.25
 43
1.25
 50
270.0
  0
MTEXT
  5
1243
330
DFF
100
AcDbEntity
  8
AM_5
 62
     2
100
AcDbMText
 10
10.00776903085492
 20
0.0000000000000004
 30
0.0
 40
1.6
 41
0.0
 71
     5
 72
     1
  1
%%c9.5
  7
ASAMI
 11
0.0000000000000001
 21
1.0
 31
0.0
1001
ACAD
1000
MTEXTBEGIN
1070
    73
1070
     1
1070
    44
1040
1.0
1070
    74
1070
     0
1000
MTEXTEND
  0
POINT
  5
1244
330
DFF
100
AcDbEntity
  8
DEFPOINTS
 62
     0
100
AcDbPoint
 10
-0.0000000000001883
 20
4.750000000000003
 30
0.0
  0
POINT
  5
1245
330
DFF
100
AcDbEntity
  8
DEFPOINTS
 62
     0
100
AcDbPoint
 10
-0.0000000000001812
 20
-4.75
 30
0.0
  0
POINT
  5
1246
330
DFF
100
AcDbEntity
  8
DEFPOINTS
 62
     0
100
AcDbPoint
 10
11.55776903085492
 20
-4.750000000000003
 30
0.0
  0
ENDBLK
  5
E0B
330
DFF
100
AcDbEntity
  8
0
100
AcDbBlockEnd
  0
ENDSEC
  0
SECTION
  2
ENTITIES
  0
DIMENSION
  5
D71
330
1F
100
AcDbEntity
  8
AM_5
100
AcDbDimension
  2
*D5
 10
-55.0
 20
-18.00000101000006
 30
0.0
 11
-27.50000000000009
 21
-16.45000101000006
 31
0.0
 70
    32
  1
<>
  3
AM_JIS
100
AcDbAlignedDimension
 13
-0.0000000000001812
 23
-4.75
 33
0.0
 14
-55.0
 24
-4.0
 34
0.0
100
AcDbRotatedDimension
1001
GENIUS_GENDTOL_13
1000

1000
h7
1000

1040
0.0
  0
LINE
  5
D72
330
1F
100
AcDbEntity
  8
AM_0
100
AcDbLine
 10
-23.0
 20
-4.999999999999971
 30
0.0
 11
-54.0
 21
-5.0
 31
0.0
  0
LINE
  5
D73
330
1F
100
AcDbEntity
  8
AM_0
100
AcDbLine
 10
-23.0
 20
5.0
 30
0.0
 11
-54.0
 21
5.0
 31
0.0
  0
LINE
  5
D74
330
1F
100
AcDbEntity
  8
AM_7
  6
AM_ISO08W050X2
100
AcDbLine
 10
4.557768030854926
 20
0.0
 30
0.0
 11
-59.79349690496838
 21
-0.0000000000000284
 31
0.0
1001
GENIUS_GENODEF_13
1002
{
1000
HIER
1070
     0
1002
}
1002
{
1000
MANEDIT
1070
     0
1002
}
1002
{
1000
NOSEL
1070
     0
1002
}
1002
{
1000
BEHIND
1070
     0
1002
}
1002
{
1000
REACTOR
1002
}
1001
GENIUS_GENOBJ-N-CEN_13
1002
{
1000
OWNER
1000
GEN
1002
}
  0
DIMENSION
  5
D75
330
1F
100
AcDbEntity
  8
AM_5
100
AcDbDimension
  2
*D6
 10
-66.79349790496837
 20
-4.999999999999996
 30
0.0
 11
-68.34349790496837
 21
-0.0000000000000073
 31
0.0
 70
    32
  1
%%c<>
  3
AM_JIS
100
AcDbAlignedDimension
 13
-54.00000000000002
 23
5.0
 33
0.0
 14
-54.0
 24
-5.0
 34
0.0
 50
270.0
100
AcDbRotatedDimension
1001
GENIUS_GENDTOL_13
1000

1000
h7
1000

1040
0.0
  0
LINE
  5
D76
330
1F
100
AcDbEntity
  8
AM_0
100
AcDbLine
 10
-54.0
 20
5.0
 30
0.0
 11
-55.0
 21
4.0
 31
0.0
1001
GENIUS_GENFIL_13
1070
     0
1040
1.0
1040
1.0
1040
20.0
1040
0.0
1002
{
1002
}
1001
GENIUS_GENODEF_13
1002
{
1000
HIER
1070
     0
1002
}
1002
{
1000
MANEDIT
1070
     0
1002
}
1002
{
1000
NOSEL
1070
     0
1002
}
1002
{
1000
BEHIND
1070
     0
1002
}
1002
{
1000
REACTOR
1002
}
1001
GENIUS_GENOBJ-N-CHA_13
1002
{
1000
OWNER
1000
GEN
1002
}
  0
LINE
  5
D77
330
1F
100
AcDbEntity
  8
AM_0
100
AcDbLine
 10
-55.0
 20
-4.0
 30
0.0
 11
-54.0
 21
-5.0
 31
0.0
1001
GENIUS_GENFIL_13
1070
     0
1040
1.0
1040
1.0
1040
20.0
1040
0.0
1002
{
1002
}
1001
GENIUS_GENODEF_13
1002
{
1000
HIER
1070
     0
1002
}
1002
{
1000
MANEDIT
1070
     0
1002
}
1002
{
1000
NOSEL
1070
     0
1002
}
1002
{
1000
BEHIND
1070
     0
1002
}
1002
{
1000
REACTOR
1002
}
1001
GENIUS_GENOBJ-N-CHA_13
1002
{
1000
OWNER
1000
GEN
1002
}
  0
LINE
  5
D78
330
1F
100
AcDbEntity
  8
AM_0
100
AcDbLine
 10
-55.0
 20
-4.0
 30
0.0
 11
-55.0
 21
4.0
 31
0.0
  0
LINE
  5
D79
330
1F
100
AcDbEntity
  8
AM_0
100
AcDbLine
 10
-54.0
 20
-5.0
 30
0.0
 11
-54.0
 21
5.0
 31
0.0
  0
DIMENSION
  5
D7A
330
1F
100
AcDbEntity
  8
AM_5
100
AcDbDimension
  2
*D7
 10
-0.0000000000001816
 20
-12.00000100999994
 30
0.0
 11
-7.500000000000149
 21
-10.45000100999994
 31
0.0
 70
    32
  1
<>
  3
AM_JIS
100
AcDbAlignedDimension
 13
-15.00000000000011
 23
-4.750000000000017
 33
0.0
 14
-0.0000000000001812
 24
-4.75
 34
0.0
100
AcDbRotatedDimension
1001
GENIUS_GENDTOL_13
1000

1000
h7
1000

1040
0.0
  0
DIMENSION
  5
DA6
330
1F
100
AcDbEntity
  8
AM_5
100
AcDbDimension
  2
*D8
 10
11.55776903085492
 20
-4.750000000000003
 30
0.0
 11
10.00776903085492
 21
0.0000000000000004
 31
0.0
 70
    32
  1
%%c<>
  3
AM_JIS
100
AcDbAlignedDimension
 13
-0.0000000000001883
 23
4.750000000000003
 33
0.0
 14
-0.0000000000001812
 24
-4.75
 34
0.0
 50
270.0
100
AcDbRotatedDimension
1001
GENIUS_GENDTOL_13
1000

1000
h7
1000

1040
0.0
  0
TEXT
  5
E5A
330
1F
100
AcDbEntity
  8
AM_6
100
AcDbText
 10
-35.71428571428579
 20
-29.25000101000006
 30
0.0
 40
2.5
  1
SSM4095
 72
     4
 11
-27.50000000000008
 21
-28.00000101000006
 31
0.0
100
AcDbText
  0
SPLINE
  5
F14
330
1F
100
AcDbEntity
  8
AM_0
100
AcDbSpline
210
0.0
220
0.0
230
1.0
 70
     8
 71
     3
 72
     8
 73
     4
 74
     0
 42
0.0000000001
 43
0.0000000001
 40
0.0
 40
0.0
 40
0.0
 40
0.0
 40
2.130230809022907
 40
2.130230809022907
 40
2.130230809022907
 40
2.130230809022907
 10
-12.92000000000035
 20
-4.750000000000017
 30
0.0
 10
-12.24542691047642
 20
-4.750000000000014
 30
0.0
 10
-11.57999071715693
 20
-4.69866892342917
 30
0.0
 10
-10.92234816935667
 20
-4.603553151709945
 30
0.0
  0
SPLINE
  5
F15
330
1F
100
AcDbEntity
  8
AM_0
100
AcDbSpline
210
0.0
220
0.0
230
1.0
 70
     8
 71
     3
 72
     8
 73
     4
 74
     0
 42
0.0000000001
 43
0.0000000001
 40
10.38442441395913
 40
10.38442441395913
 40
10.38442441395913
 40
10.38442441395913
 40
14.43901837670146
 40
14.43901837670146
 40
14.43901837670146
 40
14.43901837670146
 10
-15.53677795337023
 20
2.040485145579861
 30
0.0
 10
-13.6567925937361
 20
1.243016740148746
 30
0.0
 10
-12.45213664100736
 20
0.6286798544877464
 30
0.0
 10
-11.26182365710532
 20
0.0000000000000391
 30
0.0
  0
SPLINE
  5
F16
330
1F
100
AcDbEntity
  8
AM_0
100
AcDbSpline
210
0.0
220
0.0
230
1.0
 70
     8
 71
     3
 72
     8
 73
     4
 74
     0
 42
0.0000000001
 43
0.0000000001
 40
0.0
 40
0.0
 40
0.0
 40
0.0
 40
3.20279236890966
 40
3.20279236890966
 40
3.20279236890966
 40
3.20279236890966
 10
-11.26182365710548
 20
-4.607769486818522
 30
0.0
 10
-12.27604124059353
 20
-4.607769486818522
 30
0.0
 10
-13.27065019124441
 20
-4.494413886644782
 30
0.0
 10
-14.99999999999915
 20
-4.068495454957686
 30
0.0
  0
SPLINE
  5
F17
330
1F
100
AcDbEntity
  8
AM_0
100
AcDbSpline
210
0.0
220
0.0
230
1.0
 70
     8
 71
     3
 72
     8
 73
     4
 74
     0
 42
0.0000000001
 43
0.0000000001
 40
0.0
 40
0.0
 40
0.0
 40
0.0
 40
4.451443990518192
 40
4.451443990518192
 40
4.451443990518192
 40
4.451443990518192
 10
-9.352449153073845
 20
-4.386572278612561
 30
0.0
 10
-7.942825222743064
 20
-4.386572278612561
 30
0.0
 10
-6.56799208681009
 20
-4.175884993535074
 30
0.0
 10
-5.21716683822029
 20
-3.819809921477304
 30
0.0
  0
SPLINE
  5
F18
330
1F
100
AcDbEntity
  8
AM_0
100
AcDbSpline
210
0.0
220
0.0
230
1.0
 70
     8
 71
     3
 72
     8
 73
     4
 74
     0
 42
0.0000000001
 43
0.0000000001
 40
0.7142832446738512
 40
0.7142832446738512
 40
0.7142832446738512
 40
0.7142832446738512
 40
9.361146747480315
 40
9.361146747480315
 40
9.361146747480315
 40
9.361146747480315
 10
-8.894621547454871
 20
4.370567900333067
 30
0.0
 10
-5.959498232192327
 20
4.242494267022994
 30
0.0
 10
-3.367219283875815
 20
3.358981388659643
 30
0.0
 10
-0.8206529443986489
 20
2.198640527006901
 30
0.0
  0
SPLINE
  5
F19
330
1F
100
AcDbEntity
  8
AM_0
100
AcDbSpline
210
0.0
220
0.0
230
1.0
 70
     8
 71
     3
 72
     8
 73
     4
 74
     2
 42
0.0000000001
 43
0.0000000001
 44
0.0000000001
 12
-0.6417012268563091
 22
-0.7669547153848838
 32
0.0
 13
-0.990099942783104
 23
-0.1403641809753975
 33
0.0
 40
0.0
 40
0.0
 40
0.0
 40
0.0
 40
2.457237057435874
 40
2.457237057435874
 40
2.457237057435874
 40
2.457237057435874
 10
-0.0000000000001918
 20
3.870967552349767
 30
0.0
 10
-0.5256040114779878
 20
3.24277103634346
 30
0.0
 10
-1.427773529480382
 20
2.973000107078131
 30
0.0
 10
-2.238743619470977
 20
2.85803075140167
 30
0.0
 11
-0.0000000000001918
 21
3.870967552349767
 31
0.0
 11
-2.238743619470977
 21
2.85803075140167
 31
0.0
  0
SPLINE
  5
F1A
330
1F
100
AcDbEntity
  8
AM_0
100
AcDbSpline
210
0.0
220
0.0
230
1.0
 70
     8
 71
     3
 72
     8
 73
     4
 74
     0
 42
0.0000000001
 43
0.0000000001
 40
0.0
 40
0.0
 40
0.0
 40
0.0
 40
5.635889483499127
 40
5.635889483499127
 40
5.635889483499127
 40
5.635889483499127
 10
-0.0000000000001918
 20
4.750000000000003
 30
0.0
 10
-1.784698336441575
 20
4.749999999999996
 30
0.0
 10
-3.505442291144493
 20
4.390704327530176
 30
0.0
 10
-5.187106944391825
 20
3.811861166452672
 30
0.0
  0
SPLINE
  5
F1B
330
1F
100
AcDbEntity
  8
AM_0
100
AcDbSpline
210
0.0
220
0.0
230
1.0
 70
     8
 71
     3
 72
     8
 73
     4
 74
     0
 42
0.0000000001
 43
0.0000000001
 40
4.542668862435135
 40
4.542668862435135
 40
4.542668862435135
 40
4.542668862435135
 40
14.36247867694493
 40
14.36247867694493
 40
14.36247867694493
 40
14.36247867694493
 10
-0.6507499999988618
 20
-3.797735822683794
 30
0.0
 10
-3.628486845012947
 20
-2.99915540224422
 30
0.0
 10
-6.4904679990433
 20
-1.499577701122088
 30
0.0
 10
-9.352449153073653
 20
0.0000000000000426
 30
0.0
  0
SPLINE
  5
F1C
330
1F
100
AcDbEntity
  8
AM_0
100
AcDbSpline
210
0.0
220
0.0
230
1.0
 70
     8
 71
     3
 72
     8
 73
     4
 74
     0
 42
0.0000000001
 43
0.0000000001
 40
0.3581103616548037
 40
0.3581103616548037
 40
0.3581103616548037
 40
0.3581103616548037
 40
12.40023413887867
 40
12.40023413887867
 40
12.40023413887867
 40
12.40023413887867
 10
-11.3480603461747
 20
4.603553151710034
 30
0.0
 10
-7.125291449347717
 20
4.509425740209682
 30
0.0
 10
-3.598561409242709
 20
2.852566072060746
 30
0.0
 10
-0.1109721527762169
 20
0.9694373387785155
 30
0.0
  0
SPLINE
  5
F1D
330
1F
100
AcDbEntity
  8
AM_0
100
AcDbSpline
210
0.0
220
0.0
230
1.0
 70
     8
 71
     3
 72
     8
 73
     4
 74
     2
 42
0.0000000001
 43
0.0000000001
 44
0.0000000001
 12
1.0
 22
0.0000000000000011
 32
0.0
 40
0.0
 40
0.0
 40
0.0
 40
0.0
 40
14.23119579435446
 40
14.23119579435446
 40
14.23119579435446
 40
14.23119579435446
 10
-13.41508232316364
 20
4.750000000000074
 30
0.0
 10
-8.671350391712152
 20
4.750000000000079
 30
0.0
 10
-4.335675195856171
 20
2.375000000000093
 30
0.0
 10
-0.0000000000001883
 20
0.0000000000001066
 30
0.0
 11
-13.41508232316364
 21
4.750000000000074
 31
0.0
 11
-0.0000000000001883
 21
0.0000000000001066
 31
0.0
  0
SPLINE
  5
F1E
330
1F
100
AcDbEntity
  8
AM_0
100
AcDbSpline
210
0.0
220
0.0
230
1.0
 70
     8
 71
     3
 72
     8
 73
     4
 74
     2
 42
0.0000000001
 43
0.0000000001
 44
0.0000000001
 12
-1.0
 22
-0.0000000000000012
 32
0.0
 40
0.0
 40
0.0
 40
0.0
 40
0.0
 40
13.76549672187675
 40
13.76549672187675
 40
13.76549672187675
 40
13.76549672187675
 10
-0.0000000000001812
 20
-4.75
 30
0.0
 10
-4.588498907292432
 20
-4.750000000000005
 30
0.0
 10
-8.754249453646304
 20
-2.375000000000011
 30
0.0
 10
-12.92000000000017
 20
-0.0000000000000178
 30
0.0
 11
-0.0000000000001812
 21
-4.75
 31
0.0
 11
-12.92000000000017
 21
-0.0000000000000178
 31
0.0
  0
SPLINE
  5
F1F
330
1F
100
AcDbEntity
  8
AM_0
100
AcDbSpline
210
0.0
220
0.0
230
1.0
 70
     8
 71
     3
 72
     8
 73
     4
 74
     0
 42
0.0000000001
 43
0.0000000001
 40
0.0
 40
0.0
 40
0.0
 40
0.0
 40
5.291496149500158
 40
5.291496149500158
 40
5.291496149500158
 40
5.291496149500158
 10
-9.352449153073845
 20
-4.386572278612455
 30
0.0
 10
-11.02808960041555
 20
-4.386572278612458
 30
0.0
 10
-12.65456918595262
 20
-4.08886224683621
 30
0.0
 10
-15.0000000000001
 20
-3.452475601298662
 30
0.0
  0
SPLINE
  5
F20
330
1F
100
AcDbEntity
  8
AM_0
100
AcDbSpline
210
0.0
220
0.0
230
1.0
 70
     8
 71
     3
 72
     8
 73
     4
 74
     0
 42
0.0000000001
 43
0.0000000001
 40
5.522276060027962
 40
5.522276060027962
 40
5.522276060027962
 40
5.522276060027962
 40
14.36247867694493
 40
14.36247867694493
 40
14.36247867694493
 40
14.36247867694493
 10
-17.66632769863719
 20
3.538508386755434
 30
0.0
 10
-14.73160729990847
 20
2.56936338435462
 30
0.0
 10
-11.92892403042231
 20
1.349982430224095
 30
0.0
 10
-9.352449153073653
 20
0.0000000000000426
 30
0.0
  0
SPLINE
  5
F21
330
1F
100
AcDbEntity
  8
AM_0
100
AcDbSpline
210
0.0
220
0.0
230
1.0
 70
     8
 71
     3
 72
     8
 73
     4
 74
     0
 42
0.0000000001
 43
0.0000000001
 40
1.870660592686466
 40
1.870660592686466
 40
1.870660592686466
 40
1.870660592686466
 40
14.43901837670146
 40
14.43901837670146
 40
14.43901837670146
 40
14.43901837670146
 10
-0.0997500000001708
 20
-4.496769099740678
 30
0.0
 10
-3.995666361667556
 20
-4.010805581496406
 30
0.0
 10
-7.628745009386438
 20
-2.005402790748185
 30
0.0
 10
-11.26182365710532
 20
0.0000000000000391
 30
0.0
  0
SPLINE
  5
F22
330
1F
100
AcDbEntity
  8
AM_0
100
AcDbSpline
210
0.0
220
0.0
230
1.0
 70
     8
 71
     3
 72
     8
 73
     4
 74
     0
 42
0.0000000001
 43
0.0000000001
 40
0.0
 40
0.0
 40
0.0
 40
0.0
 40
2.764560748519282
 40
2.764560748519282
 40
2.764560748519282
 40
2.764560748519282
 10
-11.26182365710548
 20
-4.607769486818629
 30
0.0
 10
-10.38637942007438
 20
-4.607769486818629
 30
0.0
 10
-9.525544907316241
 20
-4.523312091084559
 30
0.0
 10
-8.676522873947927
 20
-4.370567900350959
 30
0.0
  0
SPLINE
  5
F23
330
1F
100
AcDbEntity
  8
AM_0
100
AcDbSpline
210
0.0
220
0.0
230
1.0
 70
     8
 71
     3
 72
     8
 73
     4
 74
     0
 42
0.0000000001
 43
0.0000000001
 40
12.94851199321065
 40
12.94851199321065
 40
12.94851199321065
 40
12.94851199321065
 40
14.48999654934396
 40
14.48999654934396
 40
14.48999654934396
 40
14.48999654934396
 10
-15.00000000000018
 20
0.9057675310380837
 30
0.0
 10
-13.9582916518908
 20
0.3533533934882698
 30
0.0
 10
-12.92000000000017
 20
0.0000000000000924
 30
0.0
 10
-12.92000000000017
 20
0.0000000000000924
 30
0.0
  0
SPLINE
  5
F24
330
1F
100
AcDbEntity
  8
AM_0
100
AcDbSpline
210
0.0
220
0.0
230
1.0
 70
     8
 71
     3
 72
     8
 73
     4
 74
     0
 42
0.0000000001
 43
0.0000000001
 40
0.0
 40
0.0
 40
0.0
 40
0.0
 40
1.412269715655734
 40
1.412269715655734
 40
1.412269715655734
 40
1.412269715655734
 10
-12.92000000000035
 20
-4.749999999999907
 30
0.0
 10
-13.36721874329132
 20
-4.749999999999907
 30
0.0
 10
-14.20702478260585
 20
-4.722485321748962
 30
0.0
 10
-14.9999999999982
 20
-4.68451530861671
 30
0.0
  0
POLYLINE
  5
F27
330
1F
100
AcDbEntity
  8
AM_0
100
AcDb2dPolyline
 66
     1
 10
0.0
 20
0.0
 30
0.0
 70
     2
  0
VERTEX
  5
F28
330
F27
100
AcDbEntity
  8
AM_0
100
AcDbVertex
100
AcDb2dVertex
 10
-15.00000000000011
 20
0.9057675310379309
 30
0.0
 42
0.0405418597991228
  0
VERTEX
  5
F29
330
F27
100
AcDbEntity
  8
AM_0
100
AcDbVertex
100
AcDb2dVertex
 10
-15.84480965665816
 20
1.260120677250068
 30
0.0
 42
0.0478227441547119
 70
     1
  0
VERTEX
  5
F2A
330
F27
100
AcDbEntity
  8
AM_0
100
AcDbVertex
100
AcDb2dVertex
 10
-16.6031250000001
 20
1.430129576497915
 30
0.0
 42
0.0443214214461838
  0
VERTEX
  5
F2B
330
F27
100
AcDbEntity
  8
AM_0
100
AcDbVertex
100
AcDb2dVertex
 10
-18.11251634307015
 20
1.485078374619778
 30
0.0
 42
0.1039236762820958
 70
     1
  0
VERTEX
  5
F2C
330
F27
100
AcDbEntity
  8
AM_0
100
AcDbVertex
100
AcDb2dVertex
 10
-18.74062500000011
 20
1.3184584860312
 30
0.0
 42
0.1017574481668659
  0
VERTEX
  5
F2D
330
F27
100
AcDbEntity
  8
AM_0
100
AcDbVertex
100
AcDb2dVertex
 10
-19.1601317755054
 20
0.9866341248379519
 30
0.0
 42
0.1704800302432918
 70
     1
  0
VERTEX
  5
F2E
330
F27
100
AcDbEntity
  8
AM_0
100
AcDbVertex
100
AcDb2dVertex
 10
-19.2750000000001
 20
0.682425350104559
 30
0.0
 42
0.1172295991725115
  0
VERTEX
  5
F2F
330
F27
100
AcDbEntity
  8
AM_0
100
AcDbVertex
100
AcDb2dVertex
 10
-19.18974221786745
 20
0.2825431690013929
 30
0.0
 42
0.0556068033830928
 70
     1
  0
VERTEX
  5
F30
330
F27
100
AcDbEntity
  8
AM_0
100
AcDbVertex
100
AcDb2dVertex
 10
-18.74062500000011
 20
-0.4425526321308127
 30
0.0
 42
0.0341135094462395
  0
VERTEX
  5
F31
330
F27
100
AcDbEntity
  8
AM_0
100
AcDbVertex
100
AcDb2dVertex
 10
-17.97384262033152
 20
-1.292753535291414
 30
0.0
 42
0.0212902001773867
 70
     1
  0
VERTEX
  5
F32
330
F27
100
AcDbEntity
  8
AM_0
100
AcDbVertex
100
AcDb2dVertex
 10
-16.6031250000001
 20
-2.510003107832417
 30
0.0
 42
0.0380483921513513
  0
VERTEX
  5
F33
330
F27
100
AcDbEntity
  8
AM_0
100
AcDbVertex
100
AcDb2dVertex
 10
-16.02974725527528
 20
-2.908645620865872
 30
0.0
 42
0.022795517676966
 70
     1
  0
VERTEX
  5
F34
330
F27
100
AcDbEntity
  8
AM_0
100
AcDbVertex
100
AcDb2dVertex
 10
-15.0000000000001
 20
-3.452475601298662
 30
0.0
  0
SEQEND
  5
F35
330
F27
100
AcDbEntity
  8
AM_0
  0
LINE
  5
F36
330
1F
100
AcDbEntity
  8
AM_0
100
AcDbLine
 10
-2.238743619470977
 20
-0.0000000000000036
 30
0.0
 11
-2.238743619470977
 21
-0.7600000000000123
 31
0.0
  0
LINE
  5
F37
330
1F
100
AcDbEntity
  8
AM_0
100
AcDbLine
 10
-0.0000000000001847
 20
0.0
 30
0.0
 11
-0.0844004786869519
 21
-0.8038140827314634
 31
0.0
  0
LINE
  5
F38
330
1F
100
AcDbEntity
  8
AM_0
100
AcDbLine
 10
-0.0000000000001812
 20
-0.9499999999999992
 30
0.0
 11
-0.5484827557303511
 21
0.0000000000000533
 31
0.0
  0
POLYLINE
  5
F3A
330
1F
100
AcDbEntity
  8
AM_0
100
AcDb2dPolyline
 66
     1
 10
0.0
 20
0.0
 30
0.0
 70
     2
  0
VERTEX
  5
F3B
330
F3A
100
AcDbEntity
  8
AM_0
100
AcDbVertex
100
AcDb2dVertex
 10
-17.66632769863719
 20
3.538508386755434
 30
0.0
 42
-0.0100635788804193
  0
VERTEX
  5
F3C
330
F3A
100
AcDbEntity
  8
AM_0
100
AcDbVertex
100
AcDb2dVertex
 10
-18.10478388094877
 20
3.768085571970534
 30
0.0
 42
-0.0111716247241469
 70
     1
  0
VERTEX
  5
F3D
330
F3A
100
AcDbEntity
  8
AM_0
100
AcDbVertex
100
AcDb2dVertex
 10
-18.49062500000018
 20
3.991479961291702
 30
0.0
 42
-0.0056817162269327
  0
VERTEX
  5
F3E
330
F3A
100
AcDbEntity
  8
AM_0
100
AcDbVertex
100
AcDb2dVertex
 10
-19.00057610462988
 20
4.310147435094261
 30
0.0
 42
-0.1012800428637157
 70
     1
  0
VERTEX
  5
F3F
330
F3A
100
AcDbEntity
  8
AM_0
100
AcDbVertex
100
AcDb2dVertex
 10
-19.02500000000018
 20
4.333914110071543
 30
0.0
 42
-0.5091829191374789
  0
VERTEX
  5
F40
330
F3A
100
AcDbEntity
  8
AM_0
100
AcDbVertex
100
AcDb2dVertex
 10
-19.00940227133579
 20
4.377348125127323
 30
0.0
 42
-0.0351954426445148
 70
     1
  0
VERTEX
  5
F41
330
F3A
100
AcDbEntity
  8
AM_0
100
AcDbVertex
100
AcDb2dVertex
 10
-18.49062500000019
 20
4.489946318794725
 30
0.0
 42
-0.011586529956417
  0
VERTEX
  5
F42
330
F3A
100
AcDbEntity
  8
AM_0
100
AcDbVertex
100
AcDb2dVertex
 10
-18.02706013784001
 20
4.545935056533391
 30
0.0
 42
-0.0032183393648243
 70
     1
  0
VERTEX
  5
F43
330
F3A
100
AcDbEntity
  8
AM_0
100
AcDbVertex
100
AcDb2dVertex
 10
-16.35312500000018
 20
4.69798926375903
 30
0.0
 42
-0.0129305071352978
  0
VERTEX
  5
F44
330
F3A
100
AcDbEntity
  8
AM_0
100
AcDbVertex
100
AcDb2dVertex
 10
-15.79563249001354
 20
4.73052321901299
 30
0.0
 42
-0.0069037738036377
 70
     1
  0
VERTEX
  5
F45
330
F3A
100
AcDbEntity
  8
AM_0
100
AcDbVertex
100
AcDb2dVertex
 10
-13.41508232316757
 20
4.750000000000088
 30
0.0
  0
SEQEND
  5
F46
330
F3A
100
AcDbEntity
  8
AM_0
  0
LINE
  5
F47
330
1F
100
AcDbEntity
  8
AM_11
100
AcDbLine
 10
-0.0000000000009202
 20
4.750000000000003
 30
0.0
 11
-15.0000000000001
 21
4.749999999999978
 31
0.0
  0
LINE
  5
F48
330
1F
100
AcDbEntity
  8
AM_0
100
AcDbLine
 10
-0.0997500000001743
 20
0.9500000000001094
 30
0.0
 11
-1.014147987858745
 21
2.533783773309874
 31
0.0
  0
LINE
  5
F49
330
1F
100
AcDbEntity
  8
AM_0
100
AcDbLine
 10
-0.0000000000001847
 20
0.0
 30
0.0
 11
-0.0997500000001743
 21
0.9500000000001094
 31
0.0
  0
LINE
  5
F4A
330
1F
100
AcDbEntity
  8
AM_0
100
AcDbLine
 10
-1.014147987858745
 20
2.533783773309874
 30
0.0
 11
-2.238743619470984
 21
2.85803075140167
 31
0.0
  0
LINE
  5
F4B
330
1F
100
AcDbEntity
  8
AM_0
100
AcDbLine
 10
-0.0000000000001847
 20
0.0
 30
0.0
 11
-2.238743619470977
 21
-0.0000000000000036
 31
0.0
  0
LINE
  5
F4C
330
1F
100
AcDbEntity
  8
AM_0
100
AcDbLine
 10
-0.0000000000001847
 20
0.0
 30
0.0
 11
-0.0000000000001883
 21
4.750000000000003
 31
0.0
  0
LINE
  5
F4D
330
1F
100
AcDbEntity
  8
AM_0
100
AcDbLine
 10
-15.53677795337023
 20
2.040485145579861
 30
0.0
 11
-15.00000000000018
 21
0.9057675310380837
 31
0.0
  0
LINE
  5
F4E
330
1F
100
AcDbEntity
  8
AM_0
100
AcDbLine
 10
-15.00000000000018
 20
2.577263098949913
 30
0.0
 11
-15.53677795337023
 21
2.040485145579861
 31
0.0
  0
ARC
  5
F4F
330
1F
100
AcDbEntity
  8
AM_0
100
AcDbCircle
 10
-3.624459215773404
 20
-296.5355690990376
 30
0.0
 40
292.0726630938142
100
AcDbArc
 50
92.23209992593776
 51
92.54062056902695
  0
LINE
  5
F50
330
1F
100
AcDbEntity
  8
AM_11
100
AcDbLine
 10
-15.00000000000011
 20
-4.750000000000015
 30
0.0
 11
-0.0000000000001812
 21
-4.75
 31
0.0
  0
LINE
  5
F51
330
1F
100
AcDbEntity
  8
AM_0
100
AcDbLine
 10
-0.0997500000001708
 20
-4.496769099740678
 30
0.0
 11
-0.6507500000001834
 21
-3.797735822688814
 31
0.0
  0
LINE
  5
F52
330
1F
100
AcDbEntity
  8
AM_0
100
AcDbLine
 10
-0.0000000000001812
 20
-4.75
 30
0.0
 11
-0.0000000000001812
 21
-0.9499999999999992
 31
0.0
  0
LINE
  5
F53
330
1F
100
AcDbEntity
  8
AM_0
100
AcDbLine
 10
-0.0997500000001708
 20
-4.496769099740735
 30
0.0
 11
-0.0997500000001743
 21
-1.260552961835024
 31
0.0
  0
LINE
  5
F54
330
1F
100
AcDbEntity
  8
AM_0
100
AcDbLine
 10
-0.0997500000001743
 20
-1.260552961835024
 30
0.0
 11
-0.0000000000001812
 21
-0.9499999999999992
 31
0.0
  0
LINE
  5
F55
330
1F
100
AcDbEntity
  8
AM_0
100
AcDbLine
 10
-0.8174350864067925
 20
-1.399972026908216
 30
0.0
 11
-0.0997500000001743
 21
-1.260552961835024
 31
0.0
  0
LINE
  5
F56
330
1F
100
AcDbEntity
  8
AM_0
100
AcDbLine
 10
-2.238743619470977
 20
-0.7600000000000123
 30
0.0
 11
-0.1096965511462109
 21
-0.7600000000000087
 31
0.0
  0
LINE
  5
F57
330
1F
100
AcDbEntity
  8
AM_0
100
AcDbLine
 10
-2.238743619470977
 20
-0.7600000000000123
 30
0.0
 11
-0.8174350864067925
 21
-1.399972026908216
 31
0.0
  0
ARC
  5
F58
330
1F
100
AcDbEntity
  8
AM_0
100
AcDbCircle
 10
1.886389522925657
 20
-2.416686156482004
 30
0.0
 40
2.888663209740247
100
AcDbArc
 50
159.3923269732582
 51
208.5609268810355
  0
LINE
  5
F59
330
1F
100
AcDbEntity
  8
AM_0
100
AcDbLine
 10
-0.0000000000001812
 20
-4.75
 30
0.0
 11
-0.0997500000001708
 21
-4.496769099740735
 31
0.0
  0
LINE
  5
F5A
330
1F
100
AcDbEntity
  8
AM_0
100
AcDbLine
 10
-15.0000000000001
 20
-3.452475601298661
 30
0.0
 11
-14.9999999999982
 21
-4.68451530861671
 31
0.0
  0
LINE
  5
10B2
330
1F
100
AcDbEntity
  8
AM_11
100
AcDbLine
 10
-15.0000000000001
 20
4.750000000000117
 30
0.0
 11
-15.00000000000011
 21
-4.750000000000017
 31
0.0
  0
LINE
  5
1117
330
1F
100
AcDbEntity
  8
AM_0
100
AcDbLine
 10
-23.0
 20
-4.999999999999972
 30
0.0
 11
-22.99999999999986
 21
5.0
 31
0.0
  0
LINE
  5
1226
330
1F
100
AcDbEntity
  8
AM_0
100
AcDbLine
 10
-15.0000000000001
 20
4.750000000000117
 30
0.0
 11
-22.31313064513665
 21
4.750000000000111
 31
0.0
  0
LINE
  5
1227
330
1F
100
AcDbEntity
  8
AM_0
100
AcDbLine
 10
-16.57135815966862
 20
-4.749999999999943
 30
0.0
 11
-22.31313064513647
 21
-4.75000000000002
 31
0.0
  0
LINE
  5
1228
330
1F
100
AcDbEntity
  8
AM_0
100
AcDbLine
 10
-23.0
 20
5.0
 30
0.0
 11
-22.31313064513665
 21
4.750000000000111
 31
0.0
  0
LINE
  5
1229
330
1F
100
AcDbEntity
  8
AM_0
100
AcDbLine
 10
-22.31313064513665
 20
4.750000000000111
 30
0.0
 11
-22.31313064513647
 21
-4.750000000000021
 31
0.0
  0
LINE
  5
122A
330
1F
100
AcDbEntity
  8
AM_0
100
AcDbLine
 10
-22.31313064513647
 20
-4.750000000000021
 30
0.0
 11
-23.0
 21
-4.999999999999972
 31
0.0
  0
VIEWPORT
  5
110
330
101
100
AcDbEntity
 67
     1
  8
0
100
AcDbViewport
 10
420.5
 20
297.0
 30
0.0
 40
948.9782706766916
 41
628.452
 68
     1
 69
     1
1001
ACAD
1000
MVIEW
1002
{
1070
    16
1010
0.0
1020
0.0
1030
0.0
1010
0.0
1020
0.0
1030
1.0
1040
0.0
1040
628.452
1040
420.5
1040
297.0
1040
50.0
1040
0.0
1040
0.0
1070
     0
1070
   100
1070
     1
1070
     1
1070
     0
1070
     0
1070
     0
1070
     0
1040
0.0
1040
0.0
1040
0.0
1040
10.0
1040
10.0
1040
10.0
1040
10.0
1070
     0
1002
{
1002
}
1002
}
  0
ENDSEC
  0
SECTION
  2
OBJECTS
  0
DICTIONARY
  5
C
330
0
100
AcDbDictionary
  3
ACAD_GROUP
350
D
  3
ACAD_LAYOUT
350
1A
  3
ACAD_MLINESTYLE
350
17
  3
ACAD_PLOTSETTINGS
350
19
  3
ACAD_PLOTSTYLENAME
350
E
  3
ACDBVARIABLEDICTIONARY
350
34
  3
ACMDICTIONARY
350
43
  3
AMG
350
2B
  3
AMGSNAPSETTINGS
350
6E
  3
DWGPROPS
350
147C
  3
ACDBHEADERROUNDTRIPXREC
350
1488
  0
DICTIONARY
  5
74
330
1F
100
AcDbDictionary
280
     1
  3
ACAD_INDEX
360
147E
  3
ACAD_LAYOUTSELFREF
360
14AB
  0
DICTIONARY
  5
14B0
330
101
100
AcDbDictionary
280
     1
  3
ACAD_LAYOUTSELFREF
360
14B1
  0
DICTIONARY
  5
D
102
{ACAD_REACTORS
330
C
102
}
330
C
100
AcDbDictionary
  0
DICTIONARY
  5
1A
102
{ACAD_REACTORS
330
C
102
}
330
C
100
AcDbDictionary
  0
DICTIONARY
  5
17
102
{ACAD_REACTORS
330
C
102
}
330
C
100
AcDbDictionary
  3
STANDARD
350
18
  0
DICTIONARY
  5
19
102
{ACAD_REACTORS
330
C
102
}
330
C
100
AcDbDictionary
  0
ACDBDICTIONARYWDFLT
  5
E
102
{ACAD_REACTORS
330
C
102
}
330
C
100
AcDbDictionary
281
     1
  3
Normal
350
F
100
AcDbDictionaryWithDefault
340
F
  0
DICTIONARY
  5
34
102
{ACAD_REACTORS
330
C
102
}
330
C
100
AcDbDictionary
  3
INDEXCTL
350
35
  3
SORTENTS
350
B5E
  0
DICTIONARY
  5
43
102
{ACAD_REACTORS
330
C
102
}
330
C
100
AcDbDictionary
  3
ACMSTDDICTIONARY
350
260
  0
DICTIONARY
  5
2B
102
{ACAD_REACTORS
330
C
102
}
330
C
100
AcDbDictionary
  3
ACMGSETTINGS
350
2C
  0
DICTIONARY
  5
6E
102
{ACAD_REACTORS
330
C
102
}
330
C
100
AcDbDictionary
  0
XRECORD
  5
147C
102
{ACAD_REACTORS
330
C
102
}
330
C
100
AcDbXrecord
  1
DWGPROPS COOKIE
  2

  3

  4

  6

  7

  8

  9

300
AmdtFileType=82
301
=
302
=
303
=
304
=
305
=
306
=
307
=
308
=
309
=
 40
0.0192940393518519
 41
2452836.771637361
 42
2453045.613860729
  1

 90
        1
  0
DICTIONARY
  5
1488
102
{ACAD_REACTORS
330
C
102
}
330
C
100
AcDbDictionary
  3
TSTACKALIGN
350
1489
  3
TSTACKSIZE
350
148A
  3
HYPERLINKBASE
350
148B
  3
STYLESHEET
350
148C
  3
LAYOUTDICT
350
148D
  3
PLOTSETDICT
350
148E
  3
PLOTSTYLNAMDICT
350
148F
  3
LWETCUNION
350
1490
  3
INSUNITS
350
1491
  3
CEPSNTYPE
350
1492
  3
FINGERPRINTGUID
350
1493
  3
VERSIONGUID
350
1494
  3
PSVPSCALE
350
1495
  3
DIMSTYLEDATA
350
1496
  3
PUCSORTHOREF
350
1497
  3
PUCSORTHOVIEW
350
1498
  3
PUCSBASE
350
1499
  3
PUCSORGTOP
350
149A
  3
PUCSORGBOTTOM
350
149B
  3
PUCSORGLEFT
350
149C
  3
PUCSORGRIGHT
350
149D
  3
PUCSORGFRONT
350
149E
  3
PUCSORGBACK
350
149F
  3
UCSORTHOREF
350
14A0
  3
UCSORTHOVIEW
350
14A1
  3
UCSBASE
350
14A2
  3
UCSORGTOP
350
14A3
  3
UCSORGBOTTOM
350
14A4
  3
UCSORGLEFT
350
14A5
  3
UCSORGRIGHT
350
14A6
  3
UCSORGFRONT
350
14A7
  3
UCSORGBACK
350
14A8
  0
DICTIONARY
  5
147E
102
{ACAD_REACTORS
330
74
102
}
330
74
100
AcDbDictionary
  3
*A1
350
147F
  0
XRECORD
  5
14AB
102
{ACAD_REACTORS
330
74
102
}
330
74
100
AcDbXrecord
340
1F
  0
XRECORD
  5
14B1
102
{ACAD_REACTORS
330
14B0
102
}
330
14B0
100
AcDbXrecord
340
101
  0
MLINESTYLE
  5
18
102
{ACAD_REACTORS
330
17
102
}
330
17
100
AcDbMlineStyle
  2
STANDARD
 70
     0
  3

 62
   256
 51
90.0
 52
90.0
 71
     2
 49
0.5
 62
   256
  6
BYLAYER
 49
-0.5
 62
   256
  6
BYLAYER
  0
ACDBPLACEHOLDER
  5
F
102
{ACAD_REACTORS
330
E
102
}
330
E
100
AcDbPlaceHolder
280
     0
  0
DICTIONARYVAR
  5
35
102
{ACAD_REACTORS
330
34
102
}
330
34
100
DictionaryVariables
280
     0
  1
1
  0
DICTIONARYVAR
  5
B5E
102
{ACAD_REACTORS
330
34
102
}
330
34
100
DictionaryVariables
280
     0
  1
96
  0
DICTIONARY
  5
260
102
{ACAD_REACTORS
330
43
102
}
330
43
100
AcDbDictionary
  0
DICTIONARY
  5
2C
102
{ACAD_REACTORS
330
2B
102
}
330
2B
100
AcDbDictionary
  3
DWGSETTINGS
350
2D
  0
XRECORD
  5
1489
102
{ACAD_REACTORS
330
1488
102
}
330
1488
100
AcDbXrecord
 90
        1
  0
XRECORD
  5
148A
102
{ACAD_REACTORS
330
1488
102
}
330
1488
100
AcDbXrecord
 90
       70
  0
XRECORD
  5
148B
102
{ACAD_REACTORS
330
1488
102
}
330
1488
100
AcDbXrecord
  1

  0
XRECORD
  5
148C
102
{ACAD_REACTORS
330
1488
102
}
330
1488
100
AcDbXrecord
  1
ASAMI.ctb
  0
XRECORD
  5
148D
102
{ACAD_REACTORS
330
1488
102
}
330
1488
100
AcDbXrecord
340
1A
  0
XRECORD
  5
148E
102
{ACAD_REACTORS
330
1488
102
}
330
1488
100
AcDbXrecord
340
19
  0
XRECORD
  5
148F
102
{ACAD_REACTORS
330
1488
102
}
330
1488
100
AcDbXrecord
340
E
  0
XRECORD
  5
1490
102
{ACAD_REACTORS
330
1488
102
}
330
1488
100
AcDbXrecord
 90
    10781
  0
XRECORD
  5
1491
102
{ACAD_REACTORS
330
1488
102
}
330
1488
100
AcDbXrecord
 90
        4
  0
XRECORD
  5
1492
102
{ACAD_REACTORS
330
1488
102
}
330
1488
100
AcDbXrecord
 90
        0
  0
XRECORD
  5
1493
102
{ACAD_REACTORS
330
1488
102
}
330
1488
100
AcDbXrecord
  1
{AFB28963-8C59-40AE-9337-C84526B81ACE}
  0
XRECORD
  5
1494
102
{ACAD_REACTORS
330
1488
102
}
330
1488
100
AcDbXrecord
  1
{6EFD7928-97F9-4A69-8115-F9DEBCDB37CF}
  0
XRECORD
  5
1495
102
{ACAD_REACTORS
330
1488
102
}
330
1488
100
AcDbXrecord
 40
0.0
  0
XRECORD
  5
1496
102
{ACAD_REACTORS
330
1488
102
}
330
1488
100
AcDbXrecord
1000
DSTYLE
1002
{
1070
    79
 70
     2
1070
   341
340
59
1070
   342
340
59
1070
   371
 70
    -1
1070
   372
 70
    -1
1002
}
  0
XRECORD
  5
1497
102
{ACAD_REACTORS
330
1488
102
}
330
1488
100
AcDbXrecord
340
0
  0
XRECORD
  5
1498
102
{ACAD_REACTORS
330
1488
102
}
330
1488
100
AcDbXrecord
 70
     0
  0
XRECORD
  5
1499
102
{ACAD_REACTORS
330
1488
102
}
330
1488
100
AcDbXrecord
340
0
  0
XRECORD
  5
149A
102
{ACAD_REACTORS
330
1488
102
}
330
1488
100
AcDbXrecord
 10
0.0
 20
0.0
 30
0.0
  0
XRECORD
  5
149B
102
{ACAD_REACTORS
330
1488
102
}
330
1488
100
AcDbXrecord
 10
0.0
 20
0.0
 30
0.0
  0
XRECORD
  5
149C
102
{ACAD_REACTORS
330
1488
102
}
330
1488
100
AcDbXrecord
 10
0.0
 20
0.0
 30
0.0
  0
XRECORD
  5
149D
102
{ACAD_REACTORS
330
1488
102
}
330
1488
100
AcDbXrecord
 10
0.0
 20
0.0
 30
0.0
  0
XRECORD
  5
149E
102
{ACAD_REACTORS
330
1488
102
}
330
1488
100
AcDbXrecord
 10
0.0
 20
0.0
 30
0.0
  0
XRECORD
  5
149F
102
{ACAD_REACTORS
330
1488
102
}
330
1488
100
AcDbXrecord
 10
0.0
 20
0.0
 30
0.0
  0
XRECORD
  5
14A0
102
{ACAD_REACTORS
330
1488
102
}
330
1488
100
AcDbXrecord
340
0
  0
XRECORD
  5
14A1
102
{ACAD_REACTORS
330
1488
102
}
330
1488
100
AcDbXrecord
 70
     0
  0
XRECORD
  5
14A2
102
{ACAD_REACTORS
330
1488
102
}
330
1488
100
AcDbXrecord
340
0
  0
XRECORD
  5
14A3
102
{ACAD_REACTORS
330
1488
102
}
330
1488
100
AcDbXrecord
 10
0.0
 20
0.0
 30
0.0
  0
XRECORD
  5
14A4
102
{ACAD_REACTORS
330
1488
102
}
330
1488
100
AcDbXrecord
 10
0.0
 20
0.0
 30
0.0
  0
XRECORD
  5
14A5
102
{ACAD_REACTORS
330
1488
102
}
330
1488
100
AcDbXrecord
 10
0.0
 20
0.0
 30
0.0
  0
XRECORD
  5
14A6
102
{ACAD_REACTORS
330
1488
102
}
330
1488
100
AcDbXrecord
 10
0.0
 20
0.0
 30
0.0
  0
XRECORD
  5
14A7
102
{ACAD_REACTORS
330
1488
102
}
330
1488
100
AcDbXrecord
 10
0.0
 20
0.0
 30
0.0
  0
XRECORD
  5
14A8
102
{ACAD_REACTORS
330
1488
102
}
330
1488
100
AcDbXrecord
 10
0.0
 20
0.0
 30
0.0
  0
LAYER_INDEX
  5
147F
102
{ACAD_REACTORS
330
147E
102
}
330
147E
100
AcDbIndex
 40
2453151.799269537
100
AcDbLayerIndex
  8
0
360
1480
 90
        0
  8
AM_0
360
1481
 90
       52
  8
AM_11
360
1482
 90
        3
  8
AM_7
360
1483
 90
        1
  8
AM_5
360
1484
 90
        4
  8
Defpoints
360
1485
 90
        0
  8
AM_6
360
1486
 90
        1
  0
XRECORD
  5
2D
102
{ACAD_REACTORS
330
2C
102
}
330
2C
100
AcDbXrecord
  1
VERSION
140
15.0
  1
PRODUCT
  2
AutoCAD Mechanical 2000
  0
IDBUFFER
  5
1480
330
0
100
AcDbIdBuffer
  0
IDBUFFER
  5
1481
330
0
100
AcDbIdBuffer
330
1227
330
1228
330
1229
330
122A
330
D72
330
D73
330
D76
330
D77
330
D78
330
D79
330
F14
330
F15
330
F16
330
F17
330
F18
330
F19
330
F1A
330
F1B
330
F1C
330
F1D
330
F1E
330
F1F
330
F20
330
F21
330
F22
330
F23
330
F24
330
F27
330
F36
330
F37
330
F38
330
F3A
330
F48
330
F49
330
F4A
330
F4B
330
F4C
330
F4D
330
F4E
330
F4F
330
F51
330
F52
330
F53
330
F54
330
F55
330
F56
330
F57
330
F58
330
F59
330
F5A
330
1117
330
1226
  0
IDBUFFER
  5
1482
330
0
100
AcDbIdBuffer
330
F47
330
F50
330
10B2
  0
IDBUFFER
  5
1483
330
0
100
AcDbIdBuffer
330
D74
  0
IDBUFFER
  5
1484
330
0
100
AcDbIdBuffer
330
D71
330
D75
330
D7A
330
DA6
  0
IDBUFFER
  5
1485
330
0
100
AcDbIdBuffer
  0
IDBUFFER
  5
1486
330
0
100
AcDbIdBuffer
330
E5A
  0
ENDSEC
  0
EOF
