  0
SECTION
  2
HEADER
  9
$ACADVER
  1
AC1014
  9
$ACADMAINTVER
 70
     9
  9
$DWGCODEPAGE
  3
ANSI_932
  9
$INSBASE
 10
0.0
 20
0.0
 30
0.0
  9
$EXTMIN
 10
-79.14349790496837
 20
-29.25000101000007
 30
-0.00000001
  9
$EXTMAX
 10
12.05776903085492
 20
6.001582632610123
 30
0.00000001
  9
$LIMMIN
 10
-88.29011584902445
 20
-51.84888674736908
  9
$LIMMAX
 10
37.21457137419474
 20
16.31175345278563
  9
$ORTHOMODE
 70
     0
  9
$REGENMODE
 70
     1
  9
$FILLMODE
 70
     1
  9
$QTEXTMODE
 70
     0
  9
$MIRRTEXT
 70
     0
  9
$DRAGMODE
 70
     2
  9
$LTSCALE
 40
1.0
  9
$OSMODE
 70
    55
  9
$ATTMODE
 70
     1
  9
$TEXTSIZE
 40
2.5
  9
$TRACEWID
 40
1.0
  9
$TEXTSTYLE
  7
STANDARD
  9
$CLAYER
  8
AM_0
  9
$CELTYPE
  6
BYLAYER
  9
$CECOLOR
 62
   256
  9
$CELTSCALE
 40
1.0
  9
$DELOBJ
 70
     1
  9
$DISPSILH
 70
     0
  9
$DIMSCALE
 40
1.0
  9
$DIMASZ
 40
2.5
  9
$DIMEXO
 40
1.0
  9
$DIMDLI
 40
12.0
  9
$DIMRND
 40
0.0
  9
$DIMDLE
 40
0.0
  9
$DIMEXE
 40
1.0
  9
$DIMTP
 40
0.1
  9
$DIMTM
 40
0.1
  9
$DIMTXT
 40
3.2
  9
$DIMCEN
 40
0.0
  9
$DIMTSZ
 40
0.0
  9
$DIMTOL
 70
     0
  9
$DIMLIM
 70
     0
  9
$DIMTIH
 70
     0
  9
$DIMTOH
 70
     0
  9
$DIMSE1
 70
     0
  9
$DIMSE2
 70
     0
  9
$DIMTAD
 70
     3
  9
$DIMZIN
 70
     8
  9
$DIMBLK
  1
OPEN30
  9
$DIMASO
 70
     1
  9
$DIMSHO
 70
     1
  9
$DIMPOST
  1

  9
$DIMAPOST
  1
"
  9
$DIMALT
 70
     0
  9
$DIMALTD
 70
     2
  9
$DIMALTF
 40
0.0393701
  9
$DIMLFAC
 40
1.0
  9
$DIMTOFL
 70
     1
  9
$DIMTVP
 40
0.0
  9
$DIMTIX
 70
     0
  9
$DIMSOXD
 70
     0
  9
$DIMSAH
 70
     0
  9
$DIMBLK1
  1

  9
$DIMBLK2
  1

  9
$DIMSTYLE
  2
AM_JIS
  9
$DIMCLRD
 70
   256
  9
$DIMCLRE
 70
   256
  9
$DIMCLRT
 70
     2
  9
$DIMTFAC
 40
0.71
  9
$DIMGAP
 40
1.5
  9
$DIMJUST
 70
     0
  9
$DIMSD1
 70
     0
  9
$DIMSD2
 70
     0
  9
$DIMTOLJ
 70
     0
  9
$DIMTZIN
 70
     0
  9
$DIMALTZ
 70
     0
  9
$DIMALTTZ
 70
     0
  9
$DIMFIT
 70
     3
  9
$DIMUPT
 70
     0
  9
$DIMUNIT
 70
     2
  9
$DIMDEC
 70
     3
  9
$DIMTDEC
 70
     3
  9
$DIMALTU
 70
     2
  9
$DIMALTTD
 70
     2
  9
$DIMTXSTY
  7
ASAMI
  9
$DIMAUNIT
 70
     0
  9
$LUNITS
 70
     2
  9
$LUPREC
 70
     2
  9
$SKETCHINC
 40
1.0
  9
$FILLETRAD
 40
2.5
  9
$AUNITS
 70
     0
  9
$AUPREC
 70
     0
  9
$MENU
  1
.
  9
$ELEVATION
 40
0.0
  9
$PELEVATION
 40
0.0
  9
$THICKNESS
 40
0.0
  9
$LIMCHECK
 70
     0
  9
$BLIPMODE
 70
     0
  9
$CHAMFERA
 40
2.5
  9
$CHAMFERB
 40
2.5
  9
$CHAMFERC
 40
20.0
  9
$CHAMFERD
 40
0.0
  9
$SKPOLY
 70
     0
  9
$TDCREATE
 40
2452836.771637361
  9
$TDUPDATE
 40
2453151.791582349
  9
$TDINDWG
 40
0.0238986574
  9
$TDUSRTIMER
 40
0.0238986574
  9
$USRTIMER
 70
     1
  9
$ANGBASE
 50
0.0
  9
$ANGDIR
 70
     0
  9
$PDMODE
 70
     0
  9
$PDSIZE
 40
0.0
  9
$PLINEWID
 40
0.0
  9
$COORDS
 70
     1
  9
$SPLFRAME
 70
     0
  9
$SPLINETYPE
 70
     6
  9
$SPLINESEGS
 70
     8
  9
$ATTDIA
 70
     1
  9
$ATTREQ
 70
     1
  9
$HANDLING
 70
 12289
  9
$HANDSEED
  5
F4D
  9
$SURFTAB1
 70
     6
  9
$SURFTAB2
 70
     6
  9
$SURFTYPE
 70
     6
  9
$SURFU
 70
     6
  9
$SURFV
 70
     6
  9
$UCSNAME
  2

  9
$UCSORG
 10
0.0
 20
0.0
 30
0.0
  9
$UCSXDIR
 10
1.0
 20
0.0
 30
0.0
  9
$UCSYDIR
 10
0.0
 20
1.0
 30
0.0
  9
$PUCSNAME
  2

  9
$PUCSORG
 10
0.0
 20
0.0
 30
0.0
  9
$PUCSXDIR
 10
1.0
 20
0.0
 30
0.0
  9
$PUCSYDIR
 10
0.0
 20
1.0
 30
0.0
  9
$USERI1
 70
     0
  9
$USERI2
 70
     0
  9
$USERI3
 70
     0
  9
$USERI4
 70
     0
  9
$USERI5
 70
     0
  9
$USERR1
 40
0.0
  9
$USERR2
 40
0.0
  9
$USERR3
 40
0.0
  9
$USERR4
 40
0.0
  9
$USERR5
 40
0.0
  9
$WORLDVIEW
 70
     1
  9
$SHADEDGE
 70
     3
  9
$SHADEDIF
 70
    70
  9
$TILEMODE
 70
     1
  9
$MAXACTVP
 70
    64
  9
$PINSBASE
 10
0.0
 20
0.0
 30
0.0
  9
$PLIMCHECK
 70
     0
  9
$PEXTMIN
 10
1.000000000000000E+20
 20
1.000000000000000E+20
 30
1.000000000000000E+20
  9
$PEXTMAX
 10
-1.000000000000000E+20
 20
-1.000000000000000E+20
 30
-1.000000000000000E+20
  9
$PLIMMIN
 10
0.0
 20
0.0
  9
$PLIMMAX
 10
841.0
 20
594.0
  9
$UNITMODE
 70
     0
  9
$VISRETAIN
 70
     1
  9
$PLINEGEN
 70
     0
  9
$PSLTSCALE
 70
     0
  9
$TREEDEPTH
 70
  3020
  9
$PICKSTYLE
 70
     0
  9
$CMLSTYLE
  2
STANDARD
  9
$CMLJUST
 70
     0
  9
$CMLSCALE
 40
20.0
  9
$PROXYGRAPHICS
 70
     1
  9
$MEASUREMENT
 70
     1
  0
ENDSEC
  0
SECTION
  2
CLASSES
  0
CLASS
  1
ACDBDICTIONARYWDFLT
  2
AcDbDictionaryWithDefault
  3
AutoCAD 2000
 90
        0
280
     0
281
     0
  0
CLASS
  1
ACDBPLACEHOLDER
  2
AcDbPlaceHolder
  3
AutoCAD 2000
 90
        0
280
     0
281
     0
  0
CLASS
  1
LAYOUT
  2
AcDbLayout
  3
AutoCAD 2000
 90
        0
280
     0
281
     0
  0
CLASS
  1
AMGSETTINGSOBJ
  2
AmgSettingsObj
  3
"AcadM|Product Description: AutoCAD Mechanical 2000|Company: Autodesk"
 90
        0
280
     0
281
     0
  0
CLASS
  1
ACME_DOCUMENT
  2
AcMeDbDoc
  3
AcMeServices
 90
        0
280
     0
281
     0
  0
CLASS
  1
ACMESCOPE
  2
AcMeScope
  3
AcMeServices
 90
        0
280
     0
281
     0
  0
CLASS
  1
ACMECOMMANDHISTORY
  2
AcMeCommandHistory
  3
AcMeServices
 90
        0
280
     0
281
     0
  0
CLASS
  1
DICTIONARYVAR
  2
AcDbDictionaryVar
  3
AutoCAD 2000
 90
        0
280
     0
281
     0
  0
CLASS
  1
ACIMSYSVARMAN
  2
AcImSysVarManager
  3
AcMeServices
 90
        0
280
     0
281
     0
  0
CLASS
  1
ACIMREALSYSVAR
  2
AcImRealSysVar
  3
AcMeServices
 90
        0
280
     0
281
     0
  0
CLASS
  1
ACIMINTSYSVAR
  2
AcImIntSysVar
  3
AcMeServices
 90
        0
280
     0
281
     0
  0
CLASS
  1
ACMEDRAWINGMAN
  2
AcMeDrawingMan
  3
AcMeServices
 90
        0
280
     0
281
     0
  0
CLASS
  1
ACMEVIEW
  2
AcMeView
  3
AcMeServices
 90
        0
280
     0
281
     0
  0
CLASS
  1
ACDBENTITYCACHE
  2
AcMeEntityCache
  3
AcMeServices
 90
        0
280
     0
281
     0
  0
CLASS
  1
GSMANAGER
  2
AcMeGSManager
  3
AcMeServices
 90
        0
280
     0
281
     0
  0
CLASS
  1
AmdtInternalReactor
  2
AmdtInternalReactor
  3
AcMeServices
 90
        0
280
     0
281
     0
  0
CLASS
  1
ACMESTATEMGR
  2
AcMeStateMgr
  3
AcMeServices
 90
        0
280
     0
281
     0
  0
CLASS
  1
ACME_DATABASE
  2
AcMeDbDatabase
  3
AcMeServices
 90
        0
280
     0
281
     0
  0
CLASS
  1
ACRFINSADJUSTERMGR
  2
AcRfInsAdjusterMgr
  3
AcMeServices
 90
        0
280
     0
281
     0
  0
CLASS
  1
ACMDATADICTIONARY
  2
AcmDataDictionary
  3
"AcmSymBB|Product Description: AutoCAD Mechanical 2000|Company: Autodesk"
 90
        0
280
     0
281
     0
  0
CLASS
  1
ACMDATAENTRYBLOCK
  2
AcmDataEntryBlock
  3
"AcmSymBB|Product Description: AutoCAD Mechanical 2000|Company: Autodesk"
 90
        0
280
     0
281
     0
  0
CLASS
  1
AMGOBJPROPCFG
  2
AmgObjPropCfg
  3
"AmgLay|Product Description: AutoCAD Mechanical 2000|Company: Autodesk"
 90
        1
280
     0
281
     0
  0
CLASS
  1
ACAMGFILTERDAT
  2
AcAmgFilterDat
  3
"AcadM|Product Description: AutoCAD Mechanical 2000|Company: Autodesk"
 90
        0
280
     0
281
     0
  0
CLASS
  1
LAYER_INDEX
  2
AcDbLayerIndex
  3
AutoCAD 2000
 90
        0
280
     0
281
     0
  0
CLASS
  1
IDBUFFER
  2
AcDbIdBuffer
  3
AutoCAD 2000
 90
        0
280
     0
281
     0
  0
CLASS
  1
ACIMSTRSYSVAR
  2
AcImStrSysVar
  3
AcMeServices
 90
        0
280
     0
281
     0
  0
CLASS
  1
ACMSTANDARDJIS
  2
AcmStandardJIS
  3
"AcmSymBB|Product Description: AutoCAD Mechanical 2000|Company: Autodesk"
 90
        0
280
     0
281
     0
  0
CLASS
  1
ACMSURFSTANDARDJIS
  2
AcmSurfTextStdJIS
  3
"AcmSymBB|Product Description: AutoCAD Mechanical 2000|Company: Autodesk"
 90
        0
280
     0
281
     0
  0
CLASS
  1
ACMFCFSTANDARDJIS
  2
AcmFCFStdJIS
  3
"AcmSymBB|Product Description: AutoCAD Mechanical 2000|Company: Autodesk"
 90
        0
280
     0
281
     0
  0
CLASS
  1
ACMWELDSTANDARDJIS
  2
AcmWeldingStdJIS
  3
"AcmSymBB|Product Description: AutoCAD Mechanical 2000|Company: Autodesk"
 90
        0
280
     0
281
     0
  0
CLASS
  1
ACMIDSTANDARDJIS
  2
AcmIdStdJIS
  3
"AcmSymBB|Product Description: AutoCAD Mechanical 2000|Company: Autodesk"
 90
        0
280
     0
281
     0
  0
CLASS
  1
ACMDATUMSTANDARDJIS
  2
AcmDatumStdJIS
  3
"AcmSymBB|Product Description: AutoCAD Mechanical 2000|Company: Autodesk"
 90
        0
280
     0
281
     0
  0
CLASS
  1
ACMBOMSTANDARDJIS
  2
AcmBOMStdJIS
  3
"AcmSymBB|Product Description: AutoCAD Mechanical 2000|Company: Autodesk"
 90
        0
280
     0
281
     0
  0
CLASS
  1
ACMSTANDARDANSI
  2
AcmStandardANSI
  3
"AcmSymBB|Product Description: AutoCAD Mechanical 2000|Company: Autodesk"
 90
        0
280
     0
281
     0
  0
CLASS
  1
ACMSURFSTANDARDANSI
  2
AcmSurfTextStdANSI
  3
"AcmSymBB|Product Description: AutoCAD Mechanical 2000|Company: Autodesk"
 90
        0
280
     0
281
     0
  0
CLASS
  1
ACMFCFSTANDARDANSI
  2
AcmFCFStdANSI
  3
"AcmSymBB|Product Description: AutoCAD Mechanical 2000|Company: Autodesk"
 90
        0
280
     0
281
     0
  0
CLASS
  1
ACMWELDSTANDARDANSI
  2
AcmWeldingStdANSI
  3
"AcmSymBB|Product Description: AutoCAD Mechanical 2000|Company: Autodesk"
 90
        0
280
     0
281
     0
  0
CLASS
  1
ACMIDSTANDARDANSI
  2
AcmIdStdANSI
  3
"AcmSymBB|Product Description: AutoCAD Mechanical 2000|Company: Autodesk"
 90
        0
280
     0
281
     0
  0
CLASS
  1
ACMDATUMSTANDARDANSI
  2
AcmDatumStdANSI
  3
"AcmSymBB|Product Description: AutoCAD Mechanical 2000|Company: Autodesk"
 90
        0
280
     0
281
     0
  0
CLASS
  1
ACMBOMSTANDARDANSI
  2
AcmBOMStdANSI
  3
"AcmSymBB|Product Description: AutoCAD Mechanical 2000|Company: Autodesk"
 90
        0
280
     0
281
     0
  0
CLASS
  1
ACMSTANDARDBSI
  2
AcmStandardBSI
  3
"AcmSymBB|Product Description: AutoCAD Mechanical 2000|Company: Autodesk"
 90
        0
280
     0
281
     0
  0
CLASS
  1
ACMSURFSTANDARDBSI
  2
AcmSurfTextStdBSI
  3
"AcmSymBB|Product Description: AutoCAD Mechanical 2000|Company: Autodesk"
 90
        0
280
     0
281
     0
  0
CLASS
  1
ACMFCFSTANDARDBSI
  2
AcmFCFStdBSI
  3
"AcmSymBB|Product Description: AutoCAD Mechanical 2000|Company: Autodesk"
 90
        0
280
     0
281
     0
  0
CLASS
  1
ACMWELDSTANDARDBSI
  2
AcmWeldingStdBSI
  3
"AcmSymBB|Product Description: AutoCAD Mechanical 2000|Company: Autodesk"
 90
        0
280
     0
281
     0
  0
CLASS
  1
ACMIDSTANDARDBSI
  2
AcmIdStdBSI
  3
"AcmSymBB|Product Description: AutoCAD Mechanical 2000|Company: Autodesk"
 90
        0
280
     0
281
     0
  0
CLASS
  1
ACMDATUMSTANDARDBSI
  2
AcmDatumStdBSI
  3
"AcmSymBB|Product Description: AutoCAD Mechanical 2000|Company: Autodesk"
 90
        0
280
     0
281
     0
  0
CLASS
  1
ACMBOMSTANDARDBSI
  2
AcmBOMStdBSI
  3
"AcmSymBB|Product Description: AutoCAD Mechanical 2000|Company: Autodesk"
 90
        0
280
     0
281
     0
  0
CLASS
  1
LONG_TRANSACTION
  2
AcDbLongTransaction
  3
AutoCAD 2000
 90
        0
280
     0
281
     0
  0
CLASS
  1
LWPOLYLINE
  2
AcDbPolyline
  3
AutoCAD 2000
 90
        0
280
     0
281
     1
  0
CLASS
  1
HATCH
  2
AcDbHatch
  3
AutoCAD 2000
 90
        0
280
     0
281
     1
  0
CLASS
  1
XRECORD
  2
AcDbXrecord
  3
AutoCAD 2000
 90
        0
280
     0
281
     0
  0
ENDSEC
  0
SECTION
  2
TABLES
  0
TABLE
  2
VPORT
  5
8
330
0
100
AcDbSymbolTable
 70
     3
  0
VPORT
  5
F22
330
8
100
AcDbSymbolTableRecord
100
AcDbViewportTableRecord
  2
*ACTIVE
 70
     0
 10
0.0
 20
0.0
 11
1.0
 21
1.0
 12
-33.54267906806191
 22
-11.62447801124956
 13
0.0
 23
0.0
 14
2.5
 24
2.5
 15
10.0
 25
10.0
 16
0.0
 26
0.0
 36
1.0
 17
0.0
 27
0.0
 37
0.0
 40
58.50721945406284
 41
1.56570841889117
 42
50.0
 43
0.0
 44
0.0
 50
0.0
 51
0.0
 71
     0
 72
   100
 73
     1
 74
     3
 75
     0
 76
     0
 77
     0
 78
     0
  0
ENDTAB
  0
TABLE
  2
LTYPE
  5
5
330
0
100
AcDbSymbolTable
 70
    10
  0
LTYPE
  5
14
330
5
100
AcDbSymbolTableRecord
100
AcDbLinetypeTableRecord
  2
BYBLOCK
 70
     0
  3

 72
    65
 73
     0
 40
0.0
  0
LTYPE
  5
15
330
5
100
AcDbSymbolTableRecord
100
AcDbLinetypeTableRecord
  2
BYLAYER
 70
     0
  3

 72
    65
 73
     0
 40
0.0
  0
LTYPE
  5
16
330
5
100
AcDbSymbolTableRecord
100
AcDbLinetypeTableRecord
  2
CONTINUOUS
 70
     0
  3
Solid line
 72
    65
 73
     0
 40
0.0
  0
LTYPE
  5
4B
330
5
100
AcDbSymbolTableRecord
100
AcDbLinetypeTableRecord
  2
AM_ISO02W050
 70
     0
  3
__ __ __ __ __ __ __ __ __ __ __ __ __ __ __
 72
    65
 73
     2
 40
7.5
 49
6.0
 74
     0
 49
-1.5
 74
     0
  0
LTYPE
  5
4C
330
5
100
AcDbSymbolTableRecord
100
AcDbLinetypeTableRecord
  2
AM_ISO08W050
 70
     0
  3
____ . ____ . ____ . ____ . ____ . ____ . ____
 72
    65
 73
     4
 40
18.0
 49
12.0
 74
     0
 49
-1.5
 74
     0
 49
3.0
 74
     0
 49
-1.5
 74
     0
  0
LTYPE
  5
4D
330
5
100
AcDbSymbolTableRecord
100
AcDbLinetypeTableRecord
  2
AM_ISO09W050
 70
     0
  3
_____ . . _____ . . _____ . . ____ .. ____
 72
    65
 73
     6
 40
22.5
 49
12.0
 74
     0
 49
-1.5
 74
     0
 49
3.0
 74
     0
 49
-1.5
 74
     0
 49
3.0
 74
     0
 49
-1.5
 74
     0
  0
LTYPE
  5
4E
330
5
100
AcDbSymbolTableRecord
100
AcDbLinetypeTableRecord
  2
AMCONSTR
 70
     0
  3
_______________________
 72
    65
 73
     2
 40
9999.0
 49
9999.0
 74
     0
 49
0.0
 74
     0
  0
LTYPE
  5
4F
330
5
100
AcDbSymbolTableRecord
100
AcDbLinetypeTableRecord
  2
AM_ISO02W050X2
 70
     0
  3
 _ _ _ _ _ _ _ _ _ _ _ _
 72
    65
 73
     2
 40
3.75
 49
3.0
 74
     0
 49
-0.75
 74
     0
  0
LTYPE
  5
50
330
5
100
AcDbSymbolTableRecord
100
AcDbLinetypeTableRecord
  2
AM_ISO08W050X2
 70
     0
  3
__ . __ . __ . __ . __ . __
 72
    65
 73
     4
 40
9.0
 49
6.0
 74
     0
 49
-0.75
 74
     0
 49
1.5
 74
     0
 49
-0.75
 74
     0
  0
LTYPE
  5
53
330
5
100
AcDbSymbolTableRecord
100
AcDbLinetypeTableRecord
  2
AMZIGZAG
 70
     0
  3
/\/-/\/-/\/-/\/-/\/-/\/
 72
    65
 73
     2
 40
11.00009999999999
 49
0.0001
 74
     4
 75
   135
340
52
 46
0.04
 50
0.0
 44
0.0
 45
0.0
 49
-11.0
 74
     0
  0
LTYPE
  5
166
330
5
100
AcDbSymbolTableRecord
100
AcDbLinetypeTableRecord
  2
ACJISTGL
 70
     0
  3
_ _ _ _ _
 72
    65
 73
     2
 40
3.0
 49
2.0
 74
     0
 49
-1.0
 74
     0
  0
LTYPE
  5
26A
330
5
100
AcDbSymbolTableRecord
100
AcDbLinetypeTableRecord
  2
ACJISTGB
 70
     0
  3
__ . . __ . .
 72
    65
 73
     6
 40
9.0
 49
4.0
 74
     0
 49
-1.0
 74
     0
 49
1.0
 74
     0
 49
-1.0
 74
     0
 49
1.0
 74
     0
 49
-1.0
 74
     0
  0
ENDTAB
  0
TABLE
  2
LAYER
  5
2
330
0
100
AcDbSymbolTable
 70
     7
  0
LAYER
  5
10
330
2
100
AcDbSymbolTableRecord
100
AcDbLayerTableRecord
  2
0
 70
     0
 62
     7
  6
CONTINUOUS
  0
LAYER
  5
3F9
330
2
100
AcDbSymbolTableRecord
100
AcDbLayerTableRecord
  2
AM_0
 70
     0
 62
     7
  6
CONTINUOUS
  0
LAYER
  5
BD4
330
2
100
AcDbSymbolTableRecord
100
AcDbLayerTableRecord
  2
AM_11
 70
     0
 62
     3
  6
AM_ISO09W050
  0
LAYER
  5
BD5
330
2
100
AcDbSymbolTableRecord
100
AcDbLayerTableRecord
  2
AM_7
 70
     0
 62
     4
  6
AM_ISO08W050
  0
LAYER
  5
BD6
330
2
100
AcDbSymbolTableRecord
100
AcDbLayerTableRecord
  2
AM_5
 70
     0
 62
     3
  6
CONTINUOUS
  0
LAYER
  5
BD7
330
2
100
AcDbSymbolTableRecord
100
AcDbLayerTableRecord
  2
DEFPOINTS
 70
     0
 62
     7
  6
CONTINUOUS
  0
LAYER
  5
E59
330
2
100
AcDbSymbolTableRecord
100
AcDbLayerTableRecord
  2
AM_6
 70
     0
 62
     2
  6
CONTINUOUS
  0
ENDTAB
  0
TABLE
  2
STYLE
  5
3
330
0
100
AcDbSymbolTable
 70
     5
  0
STYLE
  5
11
330
3
100
AcDbSymbolTableRecord
100
AcDbTextStyleTableRecord
  2
STANDARD
 70
     0
 40
0.0
 41
1.0
 50
0.0
 71
     0
 42
2.5
  3
simplex.shx
  4
EXTFONT.SHX
  0
STYLE
  5
52
330
3
100
AcDbSymbolTableRecord
100
AcDbTextStyleTableRecord
  2

 70
     1
 40
0.0
 41
1.0
 50
0.0
 71
     0
 42
2.5
  3
ltypeshp.shx
  4

  0
STYLE
  5
6B
330
3
100
AcDbSymbolTableRecord
100
AcDbTextStyleTableRecord
  2
ASAMI
 70
     0
 40
0.0
 41
1.0
 50
0.0
 71
     0
 42
2.5
  3
simplex.shx
  4
EXTFONT.SHX
  0
STYLE
  5
262
330
3
100
AcDbSymbolTableRecord
100
AcDbTextStyleTableRecord
  2
ACJISTS
 70
     0
 40
1.0
 41
1.0
 50
0.0
 71
     0
 42
2.5
  3
simplex.shx
  4
bigfont.shx
  0
STYLE
  5
269
330
3
100
AcDbSymbolTableRecord
100
AcDbTextStyleTableRecord
  2
ACJISGDT
 70
     0
 40
0.0
 41
1.0
 50
0.0
 71
     0
 42
2.5
  3
amgdtans.shx
  4

  0
ENDTAB
  0
TABLE
  2
VIEW
  5
6
330
0
100
AcDbSymbolTable
 70
     0
  0
ENDTAB
  0
TABLE
  2
UCS
  5
7
330
0
100
AcDbSymbolTable
 70
     0
  0
ENDTAB
  0
TABLE
  2
APPID
  5
9
330
0
100
AcDbSymbolTable
 70
    12
  0
APPID
  5
12
330
9
100
AcDbSymbolTableRecord
100
AcDbRegAppTableRecord
  2
ACAD
 70
     0
  0
APPID
  5
30
330
9
100
AcDbSymbolTableRecord
100
AcDbRegAppTableRecord
  2
MCAD_NO_VIS
 70
     0
  0
APPID
  5
31
330
9
100
AcDbSymbolTableRecord
100
AcDbRegAppTableRecord
  2
ACAD_TEMP_GRAPHIC
 70
     0
  0
APPID
  5
2C2
330
9
100
AcDbSymbolTableRecord
100
AcDbRegAppTableRecord
  2
GENIUS_GENDTOL_13
 70
     0
  0
APPID
  5
339
330
9
100
AcDbSymbolTableRecord
100
AcDbRegAppTableRecord
  2
GENIUS_GENODEF_13
 70
     0
  0
APPID
  5
33A
330
9
100
AcDbSymbolTableRecord
100
AcDbRegAppTableRecord
  2
GENIUS_GENOBJ-N-RSBK_13
 70
     0
  0
APPID
  5
33B
330
9
100
AcDbSymbolTableRecord
100
AcDbRegAppTableRecord
  2
GENIUS_GENOBJ-N-LIB_13
 70
     0
  0
APPID
  5
33C
330
9
100
AcDbSymbolTableRecord
100
AcDbRegAppTableRecord
  2
GENIUS_GENSCALE_13
 70
     0
  0
APPID
  5
378
330
9
100
AcDbSymbolTableRecord
100
AcDbRegAppTableRecord
  2
GENIUS_GENDIMSH_14
 70
     0
  0
APPID
  5
BD8
330
9
100
AcDbSymbolTableRecord
100
AcDbRegAppTableRecord
  2
GENIUS_GENOBJ-N-CEN_13
 70
     0
  0
APPID
  5
BD9
330
9
100
AcDbSymbolTableRecord
100
AcDbRegAppTableRecord
  2
GENIUS_GENFIL_13
 70
     0
  0
APPID
  5
BDA
330
9
100
AcDbSymbolTableRecord
100
AcDbRegAppTableRecord
  2
GENIUS_GENOBJ-N-CHA_13
 70
     0
  0
ENDTAB
  0
TABLE
  2
DIMSTYLE
  5
A
330
0
100
AcDbSymbolTable
 70
     8
  0
DIMSTYLE
105
58
102
{ACAD_REACTORS
330
D71
330
D75
330
D7A
330
DA6
102
}
330
A
100
AcDbSymbolTableRecord
100
AcDbDimStyleTableRecord
  2
AM_JIS
 70
     0
  3

  4
"
  5
OPEN30
  6

  7

 40
0.5
 41
2.5
 42
1.0
 43
12.0
 44
1.0
 45
0.0
 46
0.0
 47
0.1
 48
0.1
140
3.2
141
0.0
142
0.0
143
0.0393701
144
1.0
145
0.0
146
0.71
147
1.5
 71
     0
 72
     0
 73
     0
 74
     0
 75
     0
 76
     0
 77
     3
 78
     8
170
     0
171
     2
172
     1
173
     0
174
     0
175
     0
176
   256
177
   256
178
     2
270
     2
271
     3
272
     3
273
     2
274
     2
340
6B
275
     0
280
     0
281
     0
282
     0
283
     0
284
     0
285
     0
286
     0
287
     3
288
     0
  0
DIMSTYLE
105
5F
330
A
100
AcDbSymbolTableRecord
100
AcDbDimStyleTableRecord
  2
AM_JIS$3
 70
     0
  3

  4
"
  5
OPEN30
  6

  7

 40
0.5
 41
2.5
 42
1.0
 43
10.0
 44
1.0
 45
0.0
 46
0.0
 47
0.1
 48
0.1
140
3.2
141
0.0
142
0.0
143
0.0393701
144
1.0
145
0.0
146
0.71
147
1.5
 71
     0
 72
     0
 73
     0
 74
     1
 75
     0
 76
     0
 77
     3
 78
     8
170
     0
171
     2
172
     0
173
     0
174
     0
175
     0
176
   256
177
   256
178
     2
270
     2
271
     2
272
     3
273
     2
274
     2
340
6B
275
     0
280
     0
281
     0
282
     0
283
     0
284
     0
285
     0
286
     0
287
     0
288
     1
  0
DIMSTYLE
105
60
330
A
100
AcDbSymbolTableRecord
100
AcDbDimStyleTableRecord
  2
AM_JIS$4
 70
     0
  3

  4
"
  5
OPEN30
  6

  7

 40
0.5
 41
2.5
 42
1.0
 43
10.0
 44
1.0
 45
0.0
 46
0.0
 47
0.1
 48
0.1
140
3.2
141
0.0
142
0.0
143
0.0393701
144
1.0
145
0.0
146
0.71
147
1.5
 71
     0
 72
     0
 73
     0
 74
     1
 75
     0
 76
     0
 77
     3
 78
     8
170
     0
171
     2
172
     0
173
     0
174
     0
175
     0
176
   256
177
   256
178
     2
270
     2
271
     2
272
     3
273
     2
274
     2
340
6B
275
     0
280
     0
281
     0
282
     0
283
     0
284
     0
285
     0
286
     0
287
     0
288
     1
  0
DIMSTYLE
105
61
330
A
100
AcDbSymbolTableRecord
100
AcDbDimStyleTableRecord
  2
AM_JIS$6
 70
     0
  3

  4
"
  5
OPEN30
  6

  7

 40
0.5
 41
2.5
 42
1.0
 43
10.0
 44
1.0
 45
0.0
 46
0.0
 47
0.1
 48
0.1
140
3.2
141
0.0
142
0.0
143
0.0393701
144
1.0
145
0.0
146
0.71
147
1.5
 71
     0
 72
     0
 73
     0
 74
     0
 75
     0
 76
     0
 77
     0
 78
     8
170
     0
171
     2
172
     1
173
     0
174
     0
175
     0
176
   256
177
   256
178
     2
270
     2
271
     2
272
     2
273
     2
274
     2
340
6B
275
     0
280
     0
281
     0
282
     0
283
     0
284
     0
285
     0
286
     0
287
     3
288
     0
  0
DIMSTYLE
105
62
330
A
100
AcDbSymbolTableRecord
100
AcDbDimStyleTableRecord
  2
AM_JIS$7
 70
     0
  3

  4
"
  5
OPEN30
  6

  7

 40
0.5
 41
2.5
 42
1.0
 43
10.0
 44
1.0
 45
0.0
 46
0.0
 47
0.1
 48
0.1
140
3.2
141
0.0
142
0.0
143
0.0393701
144
1.0
145
0.0
146
0.71
147
1.5
 71
     0
 72
     0
 73
     0
 74
     0
 75
     0
 76
     0
 77
     3
 78
     8
170
     0
171
     2
172
     1
173
     0
174
     0
175
     0
176
   256
177
   256
178
     2
270
     2
271
     2
272
     3
273
     2
274
     2
340
6B
275
     0
280
     0
281
     0
282
     0
283
     0
284
     0
285
     0
286
     0
287
     3
288
     0
  0
DIMSTYLE
105
63
330
A
100
AcDbSymbolTableRecord
100
AcDbDimStyleTableRecord
  2
AM_JIS$SF
 70
     0
  3

  4
"
  5
OPEN30
  6

  7

 40
0.5
 41
2.5
 42
1.0
 43
10.0
 44
1.0
 45
0.0
 46
0.0
 47
0.1
 48
0.1
140
3.2
141
0.0
142
0.0
143
0.0393701
144
1.0
145
0.0
146
0.71
147
1.5
 71
     0
 72
     0
 73
     0
 74
     0
 75
     1
 76
     1
 77
     3
 78
     8
170
     0
171
     2
172
     1
173
     0
174
     0
175
     0
176
   256
177
   256
178
     2
270
     2
271
     2
272
     2
273
     2
274
     2
340
6B
275
     0
280
     0
281
     0
282
     0
283
     0
284
     0
285
     0
286
     0
287
     3
288
     0
  0
DIMSTYLE
105
68
330
A
100
AcDbSymbolTableRecord
100
AcDbDimStyleTableRecord
  2
AM_JIS$SH
 70
     0
  3

  4
"
  5

  6
GENAXEH
  7
OPEN30
 40
0.5
 41
2.5
 42
1.0
 43
10.0
 44
1.0
 45
0.0
 46
0.0
 47
0.1
 48
0.1
140
3.2
141
0.0
142
0.0
143
0.0393701
144
2.0
145
0.0
146
0.71
147
1.5
 71
     0
 72
     0
 73
     0
 74
     0
 75
     1
 76
     1
 77
     3
 78
     8
170
     0
171
     2
172
     1
173
     1
174
     0
175
     0
176
   256
177
   256
178
     2
270
     2
271
     2
272
     2
273
     2
274
     2
340
6B
275
     0
280
     0
281
     0
282
     0
283
     0
284
     0
285
     0
286
     0
287
     3
288
     0
  0
DIMSTYLE
105
B34
330
A
100
AcDbSymbolTableRecord
100
AcDbDimStyleTableRecord
  2
AM_JIS$2
 70
     0
  3

  4
"
  5
OPEN30
  6

  7

 40
0.5
 41
2.5
 42
1.0
 43
12.0
 44
1.0
 45
0.0
 46
0.0
 47
0.1
 48
0.1
140
3.2
141
0.0
142
0.0
143
0.0393701
144
1.0
145
0.0
146
0.71
147
1.5
 71
     0
 72
     0
 73
     0
 74
     0
 75
     0
 76
     0
 77
     3
 78
     8
170
     0
171
     2
172
     1
173
     0
174
     0
175
     0
176
   256
177
   256
178
     2
270
     2
271
     3
272
     3
273
     2
274
     2
340
6B
275
     0
280
     0
281
     0
282
     0
283
     0
284
     0
285
     0
286
     0
287
     3
288
     0
  0
ENDTAB
  0
TABLE
  2
BLOCK_RECORD
  5
1
330
0
100
AcDbSymbolTable
 70
     9
  0
BLOCK_RECORD
  5
1F
102
{ACAD_XDICTIONARY
360
74
102
}
330
1
100
AcDbSymbolTableRecord
100
AcDbBlockTableRecord
  2
*MODEL_SPACE
  0
BLOCK_RECORD
  5
101
102
{ACAD_XDICTIONARY
360
F4B
102
}
330
1
100
AcDbSymbolTableRecord
100
AcDbBlockTableRecord
  2
*PAPER_SPACE
  0
BLOCK_RECORD
  5
59
330
1
100
AcDbSymbolTableRecord
100
AcDbBlockTableRecord
  2
_OPEN30
  0
BLOCK_RECORD
  5
64
330
1
100
AcDbSymbolTableRecord
100
AcDbBlockTableRecord
  2
GENAXEH
  0
BLOCK_RECORD
  5
DDA
330
1
100
AcDbSymbolTableRecord
100
AcDbBlockTableRecord
  2
*D5
  0
BLOCK_RECORD
  5
DE6
330
1
100
AcDbSymbolTableRecord
100
AcDbBlockTableRecord
  2
*D6
  0
BLOCK_RECORD
  5
DF3
330
1
100
AcDbSymbolTableRecord
100
AcDbBlockTableRecord
  2
*D7
  0
BLOCK_RECORD
  5
DFF
330
1
100
AcDbSymbolTableRecord
100
AcDbBlockTableRecord
  2
*D8
  0
ENDTAB
  0
ENDSEC
  0
SECTION
  2
BLOCKS
  0
BLOCK
  5
20
330
1F
100
AcDbEntity
  8
0
100
AcDbBlockBegin
  2
*MODEL_SPACE
 70
     0
 10
0.0
 20
0.0
 30
0.0
  3
*MODEL_SPACE
  1

  0
ENDBLK
  5
21
330
1F
100
AcDbEntity
  8
0
100
AcDbBlockEnd
  0
BLOCK
  5
103
330
101
100
AcDbEntity
 67
     1
  8
0
100
AcDbBlockBegin
  2
*PAPER_SPACE
 70
     0
 10
0.0
 20
0.0
 30
0.0
  3
*PAPER_SPACE
  1

  0
ENDBLK
  5
104
330
101
100
AcDbEntity
 67
     1
  8
0
100
AcDbBlockEnd
  0
BLOCK
  5
5D
330
59
100
AcDbEntity
  8
0
100
AcDbBlockBegin
  2
_OPEN30
 70
     0
 10
0.0
 20
0.0
 30
0.0
  3
_OPEN30
  1

  0
LINE
  5
5A
330
59
100
AcDbEntity
  8
0
 62
     0
100
AcDbLine
 10
-1.0
 20
0.26794919
 30
0.0
 11
0.0
 21
0.0
 31
0.0
  0
LINE
  5
5B
330
59
100
AcDbEntity
  8
0
 62
     0
100
AcDbLine
 10
0.0
 20
0.0
 30
0.0
 11
-1.0
 21
-0.26794919
 31
0.0
  0
LINE
  5
5C
330
59
100
AcDbEntity
  8
0
 62
     0
100
AcDbLine
 10
0.0
 20
0.0
 30
0.0
 11
-1.0
 21
0.0
 31
0.0
  0
ENDBLK
  5
5E
330
59
100
AcDbEntity
  8
0
100
AcDbBlockEnd
  0
BLOCK
  5
66
330
64
100
AcDbEntity
  8
0
100
AcDbBlockBegin
  2
GENAXEH
 70
     0
 10
0.0
 20
0.0
 30
0.0
  3
GENAXEH
  1

  0
LINE
  5
65
330
64
100
AcDbEntity
  8
0
100
AcDbLine
 10
-1.0
 20
0.0
 30
0.0
 11
1.0
 21
0.0
 31
0.0
  0
ENDBLK
  5
67
330
64
100
AcDbEntity
  8
0
100
AcDbBlockEnd
  0
BLOCK
  5
DE4
330
DDA
100
AcDbEntity
  8
0
100
AcDbBlockBegin
  2
*D5
 70
     1
 10
0.0
 20
0.0
 30
0.0
  3
*D5
  1

  0
LINE
  5
E33
330
DDA
100
AcDbEntity
  8
AM_5
100
AcDbLine
 10
-0.0000000000000036
 20
-5.5
 30
0.0
 11
-0.0000000000000044
 21
-18.50000101000006
 31
0.0
  0
LINE
  5
E34
330
DDA
100
AcDbEntity
  8
AM_5
100
AcDbLine
 10
-65.0
 20
-4.5
 30
0.0
 11
-65.0
 21
-18.50000101000006
 31
0.0
  0
LINE
  5
E35
330
DDA
100
AcDbEntity
  8
AM_5
100
AcDbLine
 10
-1.250000000000004
 20
-18.00000101000006
 30
0.0
 11
-63.75
 21
-18.00000101000006
 31
0.0
  0
INSERT
  5
E36
330
DDA
100
AcDbEntity
  8
AM_5
100
AcDbBlockReference
  2
_OPEN30
 10
-0.0000000000000043
 20
-18.00000101000006
 30
0.0
 41
1.25
 42
1.25
 43
1.25
  0
INSERT
  5
E37
330
DDA
100
AcDbEntity
  8
AM_5
100
AcDbBlockReference
  2
_OPEN30
 10
-65.0
 20
-18.00000101000006
 30
0.0
 41
1.25
 42
1.25
 43
1.25
 50
180.0
  0
MTEXT
  5
E38
330
DDA
100
AcDbEntity
  8
AM_5
 62
     2
100
AcDbMText
 10
-32.5
 20
-16.45000101000006
 30
0.0
 40
1.6
 41
0.0
 71
     5
 72
     1
  1
65
  7
ASAMI
1001
ACAD
1000
MTEXTBEGIN
1070
    73
1070
     1
1070
    44
1040
1.0
1070
    74
1070
     0
1000
MTEXTEND
  0
POINT
  5
E39
330
DDA
100
AcDbEntity
  8
DEFPOINTS
 62
     0
100
AcDbPoint
 10
-0.0000000000000036
 20
-5.0
 30
0.0
  0
POINT
  5
E3A
330
DDA
100
AcDbEntity
  8
DEFPOINTS
 62
     0
100
AcDbPoint
 10
-65.0
 20
-4.0
 30
0.0
  0
POINT
  5
E3B
330
DDA
100
AcDbEntity
  8
DEFPOINTS
 62
     0
100
AcDbPoint
 10
-65.0
 20
-18.00000101000006
 30
0.0
  0
ENDBLK
  5
DE5
330
DDA
100
AcDbEntity
  8
0
100
AcDbBlockEnd
  0
BLOCK
  5
DF1
330
DE6
100
AcDbEntity
  8
0
100
AcDbBlockBegin
  2
*D6
 70
     1
 10
0.0
 20
0.0
 30
0.0
  3
*D6
  1

  0
LINE
  5
E3C
330
DE6
100
AcDbEntity
  8
AM_5
100
AcDbLine
 10
-64.50000000000001
 20
5.0
 30
0.0
 11
-77.29349790496837
 21
5.000000000000003
 31
0.0
  0
LINE
  5
E3D
330
DE6
100
AcDbEntity
  8
AM_5
100
AcDbLine
 10
-64.5
 20
-5.0
 30
0.0
 11
-77.29349790496837
 21
-4.999999999999996
 31
0.0
  0
LINE
  5
E3E
330
DE6
100
AcDbEntity
  8
AM_5
100
AcDbLine
 10
-76.79349790496837
 20
3.750000000000003
 30
0.0
 11
-76.79349790496837
 21
-3.749999999999996
 31
0.0
  0
INSERT
  5
E3F
330
DE6
100
AcDbEntity
  8
AM_5
100
AcDbBlockReference
  2
_OPEN30
 10
-76.79349790496837
 20
5.000000000000003
 30
0.0
 41
1.25
 42
1.25
 43
1.25
 50
90.0
  0
INSERT
  5
E40
330
DE6
100
AcDbEntity
  8
AM_5
100
AcDbBlockReference
  2
_OPEN30
 10
-76.79349790496837
 20
-4.999999999999996
 30
0.0
 41
1.25
 42
1.25
 43
1.25
 50
270.0
  0
MTEXT
  5
E41
330
DE6
100
AcDbEntity
  8
AM_5
 62
     2
100
AcDbMText
 10
-78.34349790496837
 20
-0.0000000000000084
 30
0.0
 40
1.6
 41
0.0
 71
     5
 72
     1
  1
%%c10
  7
ASAMI
 11
0.0000000000000001
 21
1.0
 31
0.0
1001
ACAD
1000
MTEXTBEGIN
1070
    73
1070
     1
1070
    44
1040
1.0
1070
    74
1070
     0
1000
MTEXTEND
  0
POINT
  5
E42
330
DE6
100
AcDbEntity
  8
DEFPOINTS
 62
     0
100
AcDbPoint
 10
-64.00000000000002
 20
5.0
 30
0.0
  0
POINT
  5
E43
330
DE6
100
AcDbEntity
  8
DEFPOINTS
 62
     0
100
AcDbPoint
 10
-64.0
 20
-5.0
 30
0.0
  0
POINT
  5
E44
330
DE6
100
AcDbEntity
  8
DEFPOINTS
 62
     0
100
AcDbPoint
 10
-76.79349790496837
 20
-4.999999999999996
 30
0.0
  0
ENDBLK
  5
DF2
330
DE6
100
AcDbEntity
  8
0
100
AcDbBlockEnd
  0
BLOCK
  5
DFD
330
DF3
100
AcDbEntity
  8
0
100
AcDbBlockBegin
  2
*D7
 70
     1
 10
0.0
 20
0.0
 30
0.0
  3
*D7
  1

  0
LINE
  5
E45
330
DF3
100
AcDbEntity
  8
AM_5
100
AcDbLine
 10
-17.99999999999994
 20
-5.5
 30
0.0
 11
-17.99999999999994
 21
-12.50000100999995
 31
0.0
  0
LINE
  5
E46
330
DF3
100
AcDbEntity
  8
AM_5
100
AcDbLine
 10
-0.0000000000000036
 20
-5.5
 30
0.0
 11
-0.000000000000004
 21
-12.50000100999995
 31
0.0
  0
LINE
  5
E47
330
DF3
100
AcDbEntity
  8
AM_5
100
AcDbLine
 10
-16.74999999999994
 20
-12.00000100999994
 30
0.0
 11
-1.250000000000003
 21
-12.00000100999994
 31
0.0
  0
INSERT
  5
E48
330
DF3
100
AcDbEntity
  8
AM_5
100
AcDbBlockReference
  2
_OPEN30
 10
-17.99999999999994
 20
-12.00000100999994
 30
0.0
 41
1.25
 42
1.25
 43
1.25
 50
180.0
  0
INSERT
  5
E49
330
DF3
100
AcDbEntity
  8
AM_5
100
AcDbBlockReference
  2
_OPEN30
 10
-0.000000000000004
 20
-12.00000100999994
 30
0.0
 41
1.25
 42
1.25
 43
1.25
  0
MTEXT
  5
E4A
330
DF3
100
AcDbEntity
  8
AM_5
 62
     2
100
AcDbMText
 10
-8.999999999999975
 20
-10.45000100999994
 30
0.0
 40
1.6
 41
0.0
 71
     5
 72
     1
  1
18
  7
ASAMI
1001
ACAD
1000
MTEXTBEGIN
1070
    73
1070
     1
1070
    44
1040
1.0
1070
    74
1070
     0
1000
MTEXTEND
  0
POINT
  5
E4B
330
DF3
100
AcDbEntity
  8
DEFPOINTS
 62
     0
100
AcDbPoint
 10
-17.99999999999994
 20
-5.0
 30
0.0
  0
POINT
  5
E4C
330
DF3
100
AcDbEntity
  8
DEFPOINTS
 62
     0
100
AcDbPoint
 10
-0.0000000000000036
 20
-5.0
 30
0.0
  0
POINT
  5
E4D
330
DF3
100
AcDbEntity
  8
DEFPOINTS
 62
     0
100
AcDbPoint
 10
-0.000000000000004
 20
-12.00000100999994
 30
0.0
  0
ENDBLK
  5
DFE
330
DF3
100
AcDbEntity
  8
0
100
AcDbBlockEnd
  0
BLOCK
  5
E0A
330
DFF
100
AcDbEntity
  8
0
100
AcDbBlockBegin
  2
*D8
 70
     1
 10
0.0
 20
0.0
 30
0.0
  3
*D8
  1

  0
LINE
  5
E4E
330
DFF
100
AcDbEntity
  8
AM_5
100
AcDbLine
 10
0.4999999999999965
 20
5.0
 30
0.0
 11
12.05776903085492
 21
4.999999999999996
 31
0.0
  0
LINE
  5
E4F
330
DFF
100
AcDbEntity
  8
AM_5
100
AcDbLine
 10
0.4999999999999965
 20
-5.0
 30
0.0
 11
12.05776903085492
 21
-5.000000000000003
 31
0.0
  0
LINE
  5
E50
330
DFF
100
AcDbEntity
  8
AM_5
100
AcDbLine
 10
11.55776903085492
 20
3.749999999999996
 30
0.0
 11
11.55776903085492
 21
-3.750000000000003
 31
0.0
  0
INSERT
  5
E51
330
DFF
100
AcDbEntity
  8
AM_5
100
AcDbBlockReference
  2
_OPEN30
 10
11.55776903085492
 20
4.999999999999996
 30
0.0
 41
1.25
 42
1.25
 43
1.25
 50
90.0
  0
INSERT
  5
E52
330
DFF
100
AcDbEntity
  8
AM_5
100
AcDbBlockReference
  2
_OPEN30
 10
11.55776903085492
 20
-5.000000000000003
 30
0.0
 41
1.25
 42
1.25
 43
1.25
 50
270.0
  0
MTEXT
  5
E53
330
DFF
100
AcDbEntity
  8
AM_5
 62
     2
100
AcDbMText
 10
10.00776903085492
 20
-0.0000000000000014
 30
0.0
 40
1.6
 41
0.0
 71
     5
 72
     1
  1
%%c10
  7
ASAMI
 11
0.0000000000000001
 21
1.0
 31
0.0
1001
ACAD
1000
MTEXTBEGIN
1070
    73
1070
     1
1070
    44
1040
1.0
1070
    74
1070
     0
1000
MTEXTEND
  0
POINT
  5
E54
330
DFF
100
AcDbEntity
  8
DEFPOINTS
 62
     0
100
AcDbPoint
 10
-0.0000000000000036
 20
5.0
 30
0.0
  0
POINT
  5
E55
330
DFF
100
AcDbEntity
  8
DEFPOINTS
 62
     0
100
AcDbPoint
 10
-0.0000000000000036
 20
-5.0
 30
0.0
  0
POINT
  5
E56
330
DFF
100
AcDbEntity
  8
DEFPOINTS
 62
     0
100
AcDbPoint
 10
11.55776903085492
 20
-5.000000000000003
 30
0.0
  0
ENDBLK
  5
E0B
330
DFF
100
AcDbEntity
  8
0
100
AcDbBlockEnd
  0
ENDSEC
  0
SECTION
  2
ENTITIES
  0
ELLIPSE
  5
D5B
330
1F
100
AcDbEntity
  8
AM_0
100
AcDbEllipse
 10
-22.24607405846484
 20
4.527818764647804
 30
0.0
 11
-0.0000000000001342
 21
-9.544919547441956
 31
0.0
210
0.0
220
0.0
230
1.0
 40
0.8181818181818506
 41
0.0598689607002094
 42
0.285657365623657
  0
ELLIPSE
  5
D5C
330
1F
100
AcDbEntity
  8
AM_0
100
AcDbEllipse
 10
-22.23986701986001
 20
-13.28900635594868
 30
0.0
 11
0.0000000000000696
 21
-11.70177253835171
 31
0.0
210
0.0
220
0.0
230
1.0
 40
0.8181818181818208
 41
2.682824474444832
 42
2.910335750662668
  0
ELLIPSE
  5
D5D
330
1F
100
AcDbEntity
  8
AM_0
100
AcDbEllipse
 10
1.624641694385896
 20
-2.543880164717904
 30
0.0
 11
-0.0000000000000307
 21
-3.04069811551606
 31
0.0
210
0.0
220
0.0
230
1.0
 40
0.8181818181818172
 41
4.35271723489363
 42
5.210871191880122
  0
SPLINE
  5
D5E
330
1F
100
AcDbEntity
  8
AM_0
100
AcDbSpline
210
0.0
220
0.0
230
1.0
 70
     8
 71
     3
 72
     8
 73
     4
 74
     0
 42
0.0000000001
 43
0.0000000001
 40
0.0
 40
0.0
 40
0.0
 40
0.0
 40
9.068166399416787
 40
9.068166399416787
 40
9.068166399416787
 40
9.068166399416787
 10
-11.12727272727287
 20
-4.999999999999886
 30
0.0
 10
-13.6004090180229
 20
-4.999999999999886
 30
0.0
 10
-15.93094825621304
 20
-4.02086538093539
 30
0.0
 10
-18.20813089102319
 20
-2.675360654024245
 30
0.0
  0
SPLINE
  5
D5F
330
1F
100
AcDbEntity
  8
AM_0
100
AcDbSpline
210
0.0
220
0.0
230
1.0
 70
     8
 71
     3
 72
     8
 73
     4
 74
     0
 42
0.0000000001
 43
0.0000000001
 40
5.360156850992435
 40
5.360156850992435
 40
5.360156850992435
 40
5.360156850992435
 40
14.48999654934396
 40
14.48999654934396
 40
14.48999654934396
 40
14.48999654934396
 10
-18.00000000000003
 20
4.100238921653556
 30
0.0
 10
-15.64837513966472
 20
3.15039402088928
 30
0.0
 10
-13.38782393346872
 20
1.575197010444696
 30
0.0
 10
-11.12727272727273
 20
0.0000000000001137
 30
0.0
  0
SPLINE
  5
D60
330
1F
100
AcDbEntity
  8
AM_0
100
AcDbSpline
210
0.0
220
0.0
230
1.0
 70
     8
 71
     3
 72
     8
 73
     4
 74
     0
 42
0.0000000001
 43
0.0000000001
 40
1.090140354492627
 40
1.090140354492627
 40
1.090140354492627
 40
1.090140354492627
 40
14.36247867694493
 40
14.36247867694493
 40
14.36247867694493
 40
14.36247867694493
 10
-18.29533527798233
 20
4.578551663810515
 30
0.0
 10
-14.7177031256723
 20
4.26697139247932
 30
0.0
 10
-11.38622201152807
 20
2.133485696239688
 30
0.0
 10
-8.054740897383855
 20
0.0000000000000568
 30
0.0
  0
SPLINE
  5
D61
330
1F
100
AcDbEntity
  8
AM_0
100
AcDbSpline
210
0.0
220
0.0
230
1.0
 70
     8
 71
     3
 72
     8
 73
     4
 74
     0
 42
0.0000000001
 43
0.0000000001
 40
0.0
 40
0.0
 40
0.0
 40
0.0
 40
12.79333816032526
 40
12.79333816032526
 40
12.79333816032526
 40
12.79333816032526
 10
-8.054740897384025
 20
-4.617444503802573
 30
0.0
 10
-11.54383312292725
 20
-4.617444503802573
 30
0.0
 10
-14.78543600887005
 20
-2.785633540156538
 30
0.0
 10
-17.99999999999991
 20
-0.7536921626385152
 30
0.0
  0
SPLINE
  5
D62
330
1F
100
AcDbEntity
  8
AM_0
100
AcDbSpline
210
0.0
220
0.0
230
1.0
 70
     8
 71
     3
 72
     8
 73
     4
 74
     0
 42
0.0000000001
 43
0.0000000001
 40
0.0
 40
0.0
 40
0.0
 40
0.0
 40
11.45610476152127
 40
11.45610476152127
 40
11.45610476152127
 40
11.45610476152127
 10
-9.6991782692773
 20
-4.850283670335272
 30
0.0
 10
-12.8235704769649
 20
-4.850283670335272
 30
0.0
 10
-15.73189495113485
 20
-3.323646760749454
 30
0.0
 10
-18.5955826385582
 20
-1.481626498622972
 30
0.0
  0
SPLINE
  5
D63
330
1F
100
AcDbEntity
  8
AM_0
100
AcDbSpline
210
0.0
220
0.0
230
1.0
 70
     8
 71
     3
 72
     8
 73
     4
 74
     0
 42
0.0000000001
 43
0.0000000001
 40
0.3581103616548037
 40
0.3581103616548037
 40
0.3581103616548037
 40
0.3581103616548037
 40
14.43901837670146
 40
14.43901837670146
 40
14.43901837670146
 40
14.43901837670146
 10
-20.75253722113146
 20
5.0
 30
0.0
 10
-16.71022949438122
 20
4.729989008053223
 30
0.0
 10
-13.20470388182918
 20
2.36499450402664
 30
0.0
 10
-9.699178269277158
 20
0.0000000000000568
 30
0.0
  0
SPLINE
  5
D64
330
1F
100
AcDbEntity
  8
AM_0
100
AcDbSpline
210
0.0
220
0.0
230
1.0
 70
     8
 71
     3
 72
     8
 73
     4
 74
     0
 42
0.0000000001
 43
0.0000000001
 40
0.0
 40
0.0
 40
0.0
 40
0.0
 40
4.451443990518192
 40
4.451443990518192
 40
4.451443990518192
 40
4.451443990518192
 10
-20.04545454545453
 20
-4.630308400741171
 30
0.0
 10
-17.96798344542449
 20
-4.617444503802687
 30
0.0
 10
-16.78391662978842
 20
-4.395668414247438
 30
0.0
 10
-15.62052646353885
 20
-4.020852548923471
 30
0.0
  0
SPLINE
  5
D65
330
1F
100
AcDbEntity
  8
AM_0
100
AcDbSpline
210
0.0
220
0.0
230
1.0
 70
     8
 71
     3
 72
     8
 73
     4
 74
     0
 42
0.0000000001
 43
0.0000000001
 40
1.870660592686466
 40
1.870660592686466
 40
1.870660592686466
 40
1.870660592686466
 40
14.43901837670146
 40
14.43901837670146
 40
14.43901837670146
 40
14.43901837670146
 10
-0.0859090909090732
 20
-4.733441157621768
 30
0.0
 10
-3.441243756459929
 20
-4.221900612101478
 30
0.0
 10
-6.570211012868558
 20
-2.11095030605071
 30
0.0
 10
-9.699178269277158
 20
0.0000000000000568
 30
0.0
  0
SPLINE
  5
D66
330
1F
100
AcDbEntity
  8
AM_0
100
AcDbSpline
210
0.0
220
0.0
230
1.0
 70
     8
 71
     3
 72
     8
 73
     4
 74
     0
 42
0.0000000001
 43
0.0000000001
 40
0.0
 40
0.0
 40
0.0
 40
0.0
 40
14.48999654934396
 40
14.48999654934396
 40
14.48999654934396
 40
14.48999654934396
 10
-0.0000000000000036
 20
-5.0
 30
0.0
 10
-3.951817240730182
 20
-5.0
 30
0.0
 10
-7.539544984001455
 20
-2.5
 30
0.0
 10
-11.12727272727273
 20
0.0
 30
0.0
  0
SPLINE
  5
D67
330
1F
100
AcDbEntity
  8
AM_0
100
AcDbSpline
210
0.0
220
0.0
230
1.0
 70
     8
 71
     3
 72
     8
 73
     4
 74
     0
 42
0.0000000001
 43
0.0000000001
 40
0.0
 40
0.0
 40
0.0
 40
0.0
 40
14.48999654934396
 40
14.48999654934396
 40
14.48999654934396
 40
14.48999654934396
 10
-11.12727272727273
 20
5.000000000000113
 30
0.0
 10
-7.175455486542549
 20
5.000000000000113
 30
0.0
 10
-3.587727743271276
 20
2.500000000000113
 30
0.0
 10
-0.0000000000000036
 20
0.0000000000001137
 30
0.0
  0
SPLINE
  5
D68
330
1F
100
AcDbEntity
  8
AM_0
100
AcDbSpline
210
0.0
220
0.0
230
1.0
 70
     8
 71
     3
 72
     8
 73
     4
 74
     0
 42
0.0000000001
 43
0.0000000001
 40
0.3581103616548037
 40
0.3581103616548037
 40
0.3581103616548037
 40
0.3581103616548037
 40
12.40023413887867
 40
12.40023413887867
 40
12.40023413887867
 40
12.40023413887867
 10
-9.406807035809098
 20
4.845845422852676
 30
0.0
 10
-6.136614645371086
 20
4.746763937062837
 30
0.0
 10
-3.099239491213641
 20
3.002701128485
 30
0.0
 10
-0.0955741028693105
 20
1.020460356608964
 30
0.0
  0
SPLINE
  5
D69
330
1F
100
AcDbEntity
  8
AM_0
100
AcDbSpline
210
0.0
220
0.0
230
1.0
 70
     8
 71
     3
 72
     8
 73
     4
 74
     0
 42
0.0000000001
 43
0.0000000001
 40
4.542668862435135
 40
4.542668862435135
 40
4.542668862435135
 40
4.542668862435135
 40
14.36247867694493
 40
14.36247867694493
 40
14.36247867694493
 40
14.36247867694493
 10
-0.560454545453414
 20
-3.997616655456624
 30
0.0
 10
-3.125012593790902
 20
-3.157005686572858
 30
0.0
 10
-5.589876745587364
 20
-1.578502843286401
 30
0.0
 10
-8.054740897383855
 20
0.0000000000000568
 30
0.0
  0
SPLINE
  5
D6A
330
1F
100
AcDbEntity
  8
AM_0
100
AcDbSpline
210
0.0
220
0.0
230
1.0
 70
     8
 71
     3
 72
     8
 73
     4
 74
     0
 42
0.0000000001
 43
0.0000000001
 40
0.0
 40
0.0
 40
0.0
 40
0.0
 40
5.635889483499127
 40
5.635889483499127
 40
5.635889483499127
 40
5.635889483499127
 10
-0.0000000000000036
 20
5.0
 30
0.0
 10
-1.537060768227039
 20
5.0
 30
0.0
 10
-3.0190412076841
 20
4.621794028979138
 30
0.0
 10
-4.467364832490407
 20
4.012485438371243
 30
0.0
  0
SPLINE
  5
D6B
330
1F
100
AcDbEntity
  8
AM_0
100
AcDbSpline
210
0.0
220
0.0
230
1.0
 70
     8
 71
     3
 72
     8
 73
     4
 74
     0
 42
0.0000000001
 43
0.0000000001
 40
0.7142832446738512
 40
0.7142832446738512
 40
0.7142832446738512
 40
0.7142832446738512
 40
9.361146747480315
 40
9.361146747480315
 40
9.361146747480315
 40
9.361146747480315
 10
-7.472603432021774
 20
4.600597789824291
 30
0.0
 10
-5.132582209543475
 20
4.465783438971584
 30
0.0
 10
-2.899997469366557
 20
3.535769882799627
 30
0.0
 10
-0.7067824401517875
 20
2.314358449480948
 30
0.0
  0
SPLINE
  5
D6C
330
1F
100
AcDbEntity
  8
AM_0
100
AcDbSpline
210
0.0
220
0.0
230
1.0
 70
     8
 71
     3
 72
     8
 73
     4
 74
     0
 42
0.0000000001
 43
0.0000000001
 40
0.0
 40
0.0
 40
0.0
 40
0.0
 40
2.586565323616714
 40
2.586565323616714
 40
2.586565323616714
 40
2.586565323616714
 10
-0.0000000000000036
 20
4.074702686683963
 30
0.0
 10
-0.4526733113205843
 20
3.413443196151007
 30
0.0
 10
-1.229661412949443
 20
3.129473796924344
 30
0.0
 10
-1.928104552654279
 20
3.008453422528077
 30
0.0
  0
SPLINE
  5
D6D
330
1F
100
AcDbEntity
  8
AM_0
100
AcDbSpline
210
0.0
220
0.0
230
1.0
 70
     8
 71
     3
 72
     8
 73
     4
 74
     0
 42
0.0000000001
 43
0.0000000001
 40
0.0
 40
0.0
 40
0.0
 40
0.0
 40
5.635889483499305
 40
5.635889483499305
 40
5.635889483499305
 40
5.635889483499305
 10
-11.12727272727287
 20
5.000000000000113
 30
0.0
 10
-12.66433349549999
 20
5.000000000000113
 30
0.0
 10
-14.14631393495708
 20
4.621794028979252
 30
0.0
 10
-15.59463755976341
 20
4.0124854383713
 30
0.0
  0
SPLINE
  5
D6E
330
1F
100
AcDbEntity
  8
AM_0
100
AcDbSpline
210
0.0
220
0.0
230
1.0
 70
     8
 71
     3
 72
     8
 73
     4
 74
     0
 42
0.0000000001
 43
0.0000000001
 40
0.0
 40
0.0
 40
0.0
 40
0.0
 40
2.130230809022907
 40
2.130230809022907
 40
2.130230809022907
 40
2.130230809022907
 10
-11.12727272727287
 20
-5.0
 30
0.0
 10
-10.54630068844844
 20
-5.0
 30
0.0
 10
-9.973197746833566
 20
-4.945967287820167
 30
0.0
 10
-9.406807035809411
 20
-4.845845422852562
 30
0.0
  0
SPLINE
  5
D6F
330
1F
100
AcDbEntity
  8
AM_0
100
AcDbSpline
210
0.0
220
0.0
230
1.0
 70
     8
 71
     3
 72
     8
 73
     4
 74
     0
 42
0.0000000001
 43
0.0000000001
 40
0.0
 40
0.0
 40
0.0
 40
0.0
 40
2.764560748519282
 40
2.764560748519282
 40
2.764560748519282
 40
2.764560748519282
 10
-9.6991782692773
 20
-4.850283670335386
 30
0.0
 10
-8.945207156044777
 20
-4.850283670335386
 30
0.0
 10
-8.203818580463579
 20
-4.761381148510054
 30
0.0
 10
-7.472603432108119
 20
-4.600597789843106
 30
0.0
  0
SPLINE
  5
D70
330
1F
100
AcDbEntity
  8
AM_0
100
AcDbSpline
210
0.0
220
0.0
230
1.0
 70
     8
 71
     3
 72
     8
 73
     4
 74
     0
 42
0.0000000001
 43
0.0000000001
 40
0.0
 40
0.0
 40
0.0
 40
0.0
 40
4.451443990518192
 40
4.451443990518192
 40
4.451443990518192
 40
4.451443990518192
 10
-8.054740897384025
 20
-4.617444503802687
 30
0.0
 10
-6.840710718151772
 20
-4.617444503802687
 30
0.0
 10
-5.6566439025157
 20
-4.395668414247438
 30
0.0
 10
-4.49325373626613
 20
-4.020852548923471
 30
0.0
  0
DIMENSION
  5
D71
330
1F
100
AcDbEntity
  8
AM_5
100
AcDbDimension
  2
*D5
 10
-65.0
 20
-18.00000101000006
 30
0.0
 11
-32.5
 21
-16.45000101000006
 31
0.0
 70
    32
  1
<>
  3
AM_JIS
100
AcDbAlignedDimension
 13
-0.0000000000000036
 23
-5.0
 33
0.0
 14
-65.0
 24
-4.0
 34
0.0
100
AcDbRotatedDimension
1001
GENIUS_GENDTOL_13
1000

1000
h7
1000

1040
0.0
  0
LINE
  5
D72
330
1F
100
AcDbEntity
  8
AM_0
100
AcDbLine
 10
-21.77880788263187
 20
-4.999999999999971
 30
0.0
 11
-64.0
 21
-5.0
 31
0.0
  0
LINE
  5
D73
330
1F
100
AcDbEntity
  8
AM_0
100
AcDbLine
 10
-20.75253722113149
 20
5.0
 30
0.0
 11
-64.0
 21
5.0
 31
0.0
  0
LINE
  5
D74
330
1F
100
AcDbEntity
  8
AM_7
  6
AM_ISO08W050X2
100
AcDbLine
 10
4.557768030854926
 20
0.0
 30
0.0
 11
-69.79349690496838
 21
-0.0000000000000284
 31
0.0
1001
GENIUS_GENODEF_13
1002
{
1000
HIER
1070
     0
1002
}
1002
{
1000
MANEDIT
1070
     0
1002
}
1002
{
1000
NOSEL
1070
     0
1002
}
1002
{
1000
BEHIND
1070
     0
1002
}
1002
{
1000
REACTOR
1002
}
1001
GENIUS_GENOBJ-N-CEN_13
1002
{
1000
OWNER
1000
GEN
1002
}
  0
DIMENSION
  5
D75
330
1F
100
AcDbEntity
  8
AM_5
100
AcDbDimension
  2
*D6
 10
-76.79349790496837
 20
-4.999999999999996
 30
0.0
 11
-78.34349790496837
 21
-0.0000000000000084
 31
0.0
 70
    32
  1
%%c<>
  3
AM_JIS
100
AcDbAlignedDimension
 13
-64.00000000000002
 23
5.0
 33
0.0
 14
-64.0
 24
-5.0
 34
0.0
 50
270.0
100
AcDbRotatedDimension
1001
GENIUS_GENDTOL_13
1000

1000
h7
1000

1040
0.0
  0
LINE
  5
D76
330
1F
100
AcDbEntity
  8
AM_0
100
AcDbLine
 10
-64.0
 20
5.0
 30
0.0
 11
-65.0
 21
4.0
 31
0.0
1001
GENIUS_GENFIL_13
1070
     0
1040
1.0
1040
1.0
1040
20.0
1040
0.0
1002
{
1002
}
1001
GENIUS_GENODEF_13
1002
{
1000
HIER
1070
     0
1002
}
1002
{
1000
MANEDIT
1070
     0
1002
}
1002
{
1000
NOSEL
1070
     0
1002
}
1002
{
1000
BEHIND
1070
     0
1002
}
1002
{
1000
REACTOR
1002
}
1001
GENIUS_GENOBJ-N-CHA_13
1002
{
1000
OWNER
1000
GEN
1002
}
  0
LINE
  5
D77
330
1F
100
AcDbEntity
  8
AM_0
100
AcDbLine
 10
-65.0
 20
-4.0
 30
0.0
 11
-64.0
 21
-5.0
 31
0.0
1001
GENIUS_GENFIL_13
1070
     0
1040
1.0
1040
1.0
1040
20.0
1040
0.0
1002
{
1002
}
1001
GENIUS_GENODEF_13
1002
{
1000
HIER
1070
     0
1002
}
1002
{
1000
MANEDIT
1070
     0
1002
}
1002
{
1000
NOSEL
1070
     0
1002
}
1002
{
1000
BEHIND
1070
     0
1002
}
1002
{
1000
REACTOR
1002
}
1001
GENIUS_GENOBJ-N-CHA_13
1002
{
1000
OWNER
1000
GEN
1002
}
  0
LINE
  5
D78
330
1F
100
AcDbEntity
  8
AM_0
100
AcDbLine
 10
-65.0
 20
-4.0
 30
0.0
 11
-65.0
 21
4.0
 31
0.0
  0
LINE
  5
D79
330
1F
100
AcDbEntity
  8
AM_0
100
AcDbLine
 10
-64.0
 20
-5.0
 30
0.0
 11
-64.0
 21
5.0
 31
0.0
  0
DIMENSION
  5
D7A
330
1F
100
AcDbEntity
  8
AM_5
100
AcDbDimension
  2
*D7
 10
-0.000000000000004
 20
-12.00000100999994
 30
0.0
 11
-8.999999999999975
 21
-10.45000100999994
 31
0.0
 70
    32
  1
<>
  3
AM_JIS
100
AcDbAlignedDimension
 13
-17.99999999999994
 23
-5.0
 33
0.0
 14
-0.0000000000000036
 24
-5.0
 34
0.0
100
AcDbRotatedDimension
1001
GENIUS_GENDTOL_13
1000

1000
h7
1000

1040
0.0
  0
POLYLINE
  5
D7B
330
1F
100
AcDbEntity
  8
AM_0
100
AcDb2dPolyline
 66
     1
 10
0.0
 20
0.0
 30
0.0
 70
     2
  0
VERTEX
  5
D7C
330
D7B
100
AcDbEntity
  8
AM_0
100
AcDbVertex
100
AcDb2dVertex
 10
-18.0
 20
4.100238921653556
 30
0.0
 42
0.0113495642762015
  0
VERTEX
  5
D7D
330
D7B
100
AcDbEntity
  8
AM_0
100
AcDbVertex
100
AcDb2dVertex
 10
-18.95377086323168
 20
4.274781178446261
 30
0.0
 42
0.0187918863228812
 70
     1
  0
VERTEX
  5
D7E
330
D7B
100
AcDbEntity
  8
AM_0
100
AcDbVertex
100
AcDb2dVertex
 10
-19.53409090909091
 20
4.337607874670766
 30
0.0
 42
0.0075788461628208
  0
VERTEX
  5
D7F
330
D7B
100
AcDbEntity
  8
AM_0
100
AcDbVertex
100
AcDb2dVertex
 10
-21.07676632104312
 20
4.404780141512617
 30
0.0
 42
0.0232722457202398
 70
     1
  0
VERTEX
  5
D80
330
D7B
100
AcDbEntity
  8
AM_0
100
AcDbVertex
100
AcDb2dVertex
 10
-21.57954545454544
 20
4.388748481761979
 30
0.0
 42
0.0542958387243925
  0
VERTEX
  5
D81
330
D7B
100
AcDbEntity
  8
AM_0
100
AcDbVertex
100
AcDb2dVertex
 10
-22.05978770754319
 20
4.281269578658793
 30
0.0
 42
0.4413285869607302
 70
     1
  0
VERTEX
  5
D82
330
D7B
100
AcDbEntity
  8
AM_0
100
AcDbVertex
100
AcDb2dVertex
 10
-22.09090909090909
 20
4.202520135835982
 30
0.0
 42
0.0678159998049314
  0
VERTEX
  5
D83
330
D7B
100
AcDbEntity
  8
AM_0
100
AcDbVertex
100
AcDb2dVertex
 10
-22.05259446936165
 20
4.120101122015455
 30
0.0
 42
0.006836731909696
 70
     1
  0
VERTEX
  5
D84
330
D7B
100
AcDbEntity
  8
AM_0
100
AcDbVertex
100
AcDb2dVertex
 10
-21.57954545454544
 20
3.383980100827898
 30
0.0
 42
0.0061465077983929
  0
VERTEX
  5
D85
330
D7B
100
AcDbEntity
  8
AM_0
100
AcDbVertex
100
AcDb2dVertex
 10
-20.86649366617047
 20
2.331812947481637
 30
0.0
 42
0.0040253861954876
 70
     1
  0
VERTEX
  5
D86
330
D7B
100
AcDbEntity
  8
AM_0
100
AcDbVertex
100
AcDb2dVertex
 10
-19.75121896654602
 20
0.7526574664102271
 30
0.0
 42
0.0594163782683759
  0
VERTEX
  5
D87
330
D7B
100
AcDbEntity
  8
AM_0
100
AcDbVertex
100
AcDb2dVertex
 10
-19.24699346589659
 20
0.1989740112593949
 30
0.0
 42
0.0273113651513278
 70
     1
  0
VERTEX
  5
D88
330
D7B
100
AcDbEntity
  8
AM_0
100
AcDbVertex
100
AcDb2dVertex
 10
-18.0
 20
-0.7536921626385152
 30
0.0
  0
SEQEND
  5
D89
330
D7B
100
AcDbEntity
  8
AM_0
  0
POLYLINE
  5
D8A
330
1F
100
AcDbEntity
  8
AM_0
100
AcDb2dPolyline
 66
     1
 10
0.0
 20
0.0
 30
0.0
 70
     2
  0
VERTEX
  5
D8B
330
D8A
100
AcDbEntity
  8
AM_0
100
AcDbVertex
100
AcDb2dVertex
 10
-20.04545454545453
 20
-4.630308400741171
 30
0.0
 42
-0.0230918143391583
  0
VERTEX
  5
D8C
330
D8A
100
AcDbEntity
  8
AM_0
100
AcDbVertex
100
AcDb2dVertex
 10
-20.51715088252016
 20
-4.484201257149607
 30
0.0
 42
-0.0355587143075394
 70
     1
  0
VERTEX
  5
D8D
330
D8A
100
AcDbEntity
  8
AM_0
100
AcDbVertex
100
AcDb2dVertex
 10
-20.8125
 20
-4.346068500758178
 30
0.0
 42
-0.0216088548285507
  0
VERTEX
  5
D8E
330
D8A
100
AcDbEntity
  8
AM_0
100
AcDbVertex
100
AcDb2dVertex
 10
-21.50159254596207
 20
-3.90784784368401
 30
0.0
 42
-0.0414110700152503
 70
     1
  0
VERTEX
  5
D8F
330
D8A
100
AcDbEntity
  8
AM_0
100
AcDbVertex
100
AcDb2dVertex
 10
-21.83522727272725
 20
-3.625416518339108
 30
0.0
 42
-0.0653031023268945
  0
VERTEX
  5
D90
330
D8A
100
AcDbEntity
  8
AM_0
100
AcDbVertex
100
AcDb2dVertex
 10
-22.05014343542081
 20
-3.344496978814447
 30
0.0
 42
-0.1569363594221426
 70
     1
  0
VERTEX
  5
D91
330
D8A
100
AcDbEntity
  8
AM_0
100
AcDbVertex
100
AcDb2dVertex
 10
-22.09090909090909
 20
-3.189004435903001
 30
0.0
 42
-0.1617045000652558
  0
VERTEX
  5
D92
330
D8A
100
AcDbEntity
  8
AM_0
100
AcDbVertex
100
AcDb2dVertex
 10
-22.04943927529698
 20
-3.037010326483539
 30
0.0
 42
-0.0680210806811403
 70
     1
  0
VERTEX
  5
D93
330
D8A
100
AcDbEntity
  8
AM_0
100
AcDbVertex
100
AcDb2dVertex
 10
-21.83522727272725
 20
-2.771473015077958
 30
0.0
 42
-0.0450747416233525
  0
VERTEX
  5
D94
330
D8A
100
AcDbEntity
  8
AM_0
100
AcDbVertex
100
AcDb2dVertex
 10
-21.50473294884833
 20
-2.514531663676677
 30
0.0
 42
-0.0231467319857815
 70
     1
  0
VERTEX
  5
D95
330
D8A
100
AcDbEntity
  8
AM_0
100
AcDbVertex
100
AcDb2dVertex
 10
-20.8125
 20
-2.126343679103285
 30
0.0
 42
-0.0364444523572374
  0
VERTEX
  5
D96
330
D8A
100
AcDbEntity
  8
AM_0
100
AcDbVertex
100
AcDb2dVertex
 10
-20.51186627950492
 20
-2.008228698519246
 30
0.0
 42
-0.0242139410122645
 70
     1
  0
VERTEX
  5
D97
330
D8A
100
AcDbEntity
  8
AM_0
100
AcDbVertex
100
AcDb2dVertex
 10
-20.04545454545453
 20
-1.89874576395357
 30
0.0
  0
SEQEND
  5
D98
330
D8A
100
AcDbEntity
  8
AM_0
  0
LINE
  5
D99
330
1F
100
AcDbEntity
  8
AM_0
100
AcDbLine
 10
-0.0859090909090732
 20
1.000000000000113
 30
0.0
 11
-0.8734288890647725
 21
2.667140814010394
 31
0.0
  0
LINE
  5
D9A
330
1F
100
AcDbEntity
  8
AM_0
100
AcDbLine
 10
-0.7040110792018517
 20
-1.473654765166543
 30
0.0
 11
-0.0859090909090732
 21
-1.326897854563185
 31
0.0
  0
LINE
  5
D9B
330
1F
100
AcDbEntity
  8
AM_0
100
AcDbLine
 10
-0.0000000000000036
 20
0.0
 30
0.0
 11
-1.928104552654279
 21
0.0
 31
0.0
  0
LINE
  5
D9C
330
1F
100
AcDbEntity
  8
AM_0
100
AcDbLine
 10
-1.928104552654279
 20
-0.8000000000000113
 30
0.0
 11
-0.094475498594651
 21
-0.8000000000000113
 31
0.0
  0
LINE
  5
D9D
330
1F
100
AcDbEntity
  8
AM_11
100
AcDbLine
 10
-17.99999999999994
 20
-5.000000000000028
 30
0.0
 11
-0.0000000000000036
 21
-5.0
 31
0.0
  0
LINE
  5
D9E
330
1F
100
AcDbEntity
  8
AM_11
100
AcDbLine
 10
-0.0000000000006288
 20
5.0
 30
0.0
 11
-17.99999999999994
 21
5.0
 31
0.0
  0
LINE
  5
D9F
330
1F
100
AcDbEntity
  8
AM_11
100
AcDbLine
 10
-17.99999999999994
 20
5.0
 30
0.0
 11
-17.99999999999994
 21
-5.000000000000028
 31
0.0
  0
LINE
  5
DA0
330
1F
100
AcDbEntity
  8
AM_0
100
AcDbLine
 10
-17.99999999999991
 20
-0.7536921626385152
 30
0.0
 11
-18.59558263858656
 21
-1.481626498688854
 31
0.0
  0
LINE
  5
DA1
330
1F
100
AcDbEntity
  8
AM_0
100
AcDbLine
 10
-18.59558263858656
 20
-1.481626498688854
 30
0.0
 11
-18.0
 21
-2.797212519866263
 31
0.0
  0
LINE
  5
DA2
330
1F
100
AcDbEntity
  8
AM_0
100
AcDbLine
 10
-18.00000000000003
 20
4.100238921653556
 30
0.0
 11
-18.21551154798303
 21
4.55646630587222
 31
0.0
  0
LINE
  5
DA3
330
1F
100
AcDbEntity
  8
AM_0
100
AcDbLine
 10
-1.928104552654279
 20
0.0
 30
0.0
 11
-1.928104552654279
 21
-0.8000000000000113
 31
0.0
  0
LINE
  5
DA4
330
1F
100
AcDbEntity
  8
AM_0
100
AcDbLine
 10
-1.928104552654279
 20
-0.8000000000000113
 30
0.0
 11
-0.7040110792018517
 21
-1.473654765166543
 31
0.0
  0
LINE
  5
DA5
330
1F
100
AcDbEntity
  8
AM_0
100
AcDbLine
 10
-0.8734288890647725
 20
2.667140814010394
 30
0.0
 11
-1.928104552654279
 21
3.008453422528077
 31
0.0
  0
DIMENSION
  5
DA6
330
1F
100
AcDbEntity
  8
AM_5
100
AcDbDimension
  2
*D8
 10
11.55776903085492
 20
-5.000000000000003
 30
0.0
 11
10.00776903085492
 21
-0.0000000000000014
 31
0.0
 70
    32
  1
%%c<>
  3
AM_JIS
100
AcDbAlignedDimension
 13
-0.0000000000000036
 23
5.0
 33
0.0
 14
-0.0000000000000036
 24
-5.0
 34
0.0
 50
270.0
100
AcDbRotatedDimension
1001
GENIUS_GENDTOL_13
1000

1000
h7
1000

1040
0.0
  0
LINE
  5
DA7
330
1F
100
AcDbEntity
  8
AM_0
100
AcDbLine
 10
-0.0000000000000036
 20
0.0
 30
0.0
 11
-0.0000000000000036
 21
5.0
 31
0.0
  0
LINE
  5
DA8
330
1F
100
AcDbEntity
  8
AM_0
100
AcDbLine
 10
-0.0000000000000036
 20
0.0
 30
0.0
 11
-0.0859090909090732
 21
1.000000000000113
 31
0.0
  0
LINE
  5
DA9
330
1F
100
AcDbEntity
  8
AM_0
100
AcDbLine
 10
-0.0859090909090732
 20
-4.733441157621825
 30
0.0
 11
-0.0859090909090732
 21
-1.326897854563185
 31
0.0
  0
LINE
  5
DAA
330
1F
100
AcDbEntity
  8
AM_0
100
AcDbLine
 10
-0.0000000000000036
 20
-5.0
 30
0.0
 11
-0.0000000000000036
 21
-1.0
 31
0.0
  0
LINE
  5
DAB
330
1F
100
AcDbEntity
  8
AM_0
100
AcDbLine
 10
-0.0859090909090732
 20
-4.733441157621768
 30
0.0
 11
-0.5604545454545509
 21
-3.997616655461911
 31
0.0
  0
LINE
  5
DAC
330
1F
100
AcDbEntity
  8
AM_0
100
AcDbLine
 10
-0.0000000000000036
 20
-5.0
 30
0.0
 11
-0.0859090909090732
 21
-4.733441157621825
 31
0.0
  0
LINE
  5
DAD
330
1F
100
AcDbEntity
  8
AM_0
100
AcDbLine
 10
-0.0000000000000036
 20
-1.0
 30
0.0
 11
-0.4723774929733544
 21
0.0000000000000568
 31
0.0
  0
LINE
  5
DAE
330
1F
100
AcDbEntity
  8
AM_0
100
AcDbLine
 10
-0.0000000000000036
 20
0.0
 30
0.0
 11
-0.0726894074814233
 21
-0.846120087085751
 31
0.0
  0
LINE
  5
DAF
330
1F
100
AcDbEntity
  8
AM_0
100
AcDbLine
 10
-0.0859090909090732
 20
-1.326897854563185
 30
0.0
 11
-0.0000000000000036
 21
-1.0
 31
0.0
  0
TEXT
  5
E5A
330
1F
100
AcDbEntity
  8
AM_6
100
AcDbText
 10
-42.85714285714285
 20
-29.25000101000006
 30
0.0
 40
2.5
  1
SSM4100ZX
 72
     4
 11
-32.5
 21
-28.00000101000006
 31
0.0
100
AcDbText
  0
VIEWPORT
  5
110
330
101
100
AcDbEntity
 67
     1
  8
0
100
AcDbViewport
 10
420.5
 20
297.0
 30
0.0
 40
948.9782706766916
 41
628.452
 68
     1
 69
     1
1001
ACAD
1000
MVIEW
1002
{
1070
    16
1010
0.0
1020
0.0
1030
0.0
1010
0.0
1020
0.0
1030
1.0
1040
0.0
1040
628.452
1040
420.5
1040
297.0
1040
50.0
1040
0.0
1040
0.0
1070
     0
1070
   100
1070
     1
1070
     1
1070
     0
1070
     0
1070
     0
1070
     0
1040
0.0
1040
0.0
1040
0.0
1040
10.0
1040
10.0
1040
10.0
1040
10.0
1070
     0
1002
{
1002
}
1002
}
  0
ENDSEC
  0
SECTION
  2
OBJECTS
  0
DICTIONARY
  5
C
330
0
100
AcDbDictionary
  3
ACAD_GROUP
350
D
  3
ACAD_LAYOUT
350
1A
  3
ACAD_MLINESTYLE
350
17
  3
ACAD_PLOTSETTINGS
350
19
  3
ACAD_PLOTSTYLENAME
350
E
  3
ACDBVARIABLEDICTIONARY
350
34
  3
ACMDICTIONARY
350
43
  3
AMG
350
2B
  3
AMGSNAPSETTINGS
350
6E
  3
DWGPROPS
350
F17
  3
ACDBHEADERROUNDTRIPXREC
350
F23
  0
DICTIONARY
  5
74
330
1F
100
AcDbDictionary
280
     1
  3
ACAD_INDEX
360
F19
  3
ACAD_LAYOUTSELFREF
360
F46
  0
DICTIONARY
  5
F4B
330
101
100
AcDbDictionary
280
     1
  3
ACAD_LAYOUTSELFREF
360
F4C
  0
DICTIONARY
  5
D
102
{ACAD_REACTORS
330
C
102
}
330
C
100
AcDbDictionary
  0
DICTIONARY
  5
1A
102
{ACAD_REACTORS
330
C
102
}
330
C
100
AcDbDictionary
  0
DICTIONARY
  5
17
102
{ACAD_REACTORS
330
C
102
}
330
C
100
AcDbDictionary
  3
STANDARD
350
18
  0
DICTIONARY
  5
19
102
{ACAD_REACTORS
330
C
102
}
330
C
100
AcDbDictionary
  0
ACDBDICTIONARYWDFLT
  5
E
102
{ACAD_REACTORS
330
C
102
}
330
C
100
AcDbDictionary
281
     1
  3
Normal
350
F
100
AcDbDictionaryWithDefault
340
F
  0
DICTIONARY
  5
34
102
{ACAD_REACTORS
330
C
102
}
330
C
100
AcDbDictionary
  3
INDEXCTL
350
35
  3
SORTENTS
350
B5E
  0
DICTIONARY
  5
43
102
{ACAD_REACTORS
330
C
102
}
330
C
100
AcDbDictionary
  3
ACMSTDDICTIONARY
350
260
  0
DICTIONARY
  5
2B
102
{ACAD_REACTORS
330
C
102
}
330
C
100
AcDbDictionary
  3
ACMGSETTINGS
350
2C
  0
DICTIONARY
  5
6E
102
{ACAD_REACTORS
330
C
102
}
330
C
100
AcDbDictionary
  0
XRECORD
  5
F17
102
{ACAD_REACTORS
330
C
102
}
330
C
100
AcDbXrecord
  1
DWGPROPS COOKIE
  2

  3

  4

  6

  7

  8

  9

300
AmdtFileType=82
301
=
302
=
303
=
304
=
305
=
306
=
307
=
308
=
309
=
 40
0.0236904976851852
 41
2452836.771637361
 42
2452901.60058647
  1

 90
        1
  0
DICTIONARY
  5
F23
102
{ACAD_REACTORS
330
C
102
}
330
C
100
AcDbDictionary
  3
TSTACKALIGN
350
F24
  3
TSTACKSIZE
350
F25
  3
HYPERLINKBASE
350
F26
  3
STYLESHEET
350
F27
  3
LAYOUTDICT
350
F28
  3
PLOTSETDICT
350
F29
  3
PLOTSTYLNAMDICT
350
F2A
  3
LWETCUNION
350
F2B
  3
INSUNITS
350
F2C
  3
CEPSNTYPE
350
F2D
  3
FINGERPRINTGUID
350
F2E
  3
VERSIONGUID
350
F2F
  3
PSVPSCALE
350
F30
  3
DIMSTYLEDATA
350
F31
  3
PUCSORTHOREF
350
F32
  3
PUCSORTHOVIEW
350
F33
  3
PUCSBASE
350
F34
  3
PUCSORGTOP
350
F35
  3
PUCSORGBOTTOM
350
F36
  3
PUCSORGLEFT
350
F37
  3
PUCSORGRIGHT
350
F38
  3
PUCSORGFRONT
350
F39
  3
PUCSORGBACK
350
F3A
  3
UCSORTHOREF
350
F3B
  3
UCSORTHOVIEW
350
F3C
  3
UCSBASE
350
F3D
  3
UCSORGTOP
350
F3E
  3
UCSORGBOTTOM
350
F3F
  3
UCSORGLEFT
350
F40
  3
UCSORGRIGHT
350
F41
  3
UCSORGFRONT
350
F42
  3
UCSORGBACK
350
F43
  0
DICTIONARY
  5
F19
102
{ACAD_REACTORS
330
74
102
}
330
74
100
AcDbDictionary
  3
*A1
350
F1A
  0
XRECORD
  5
F46
102
{ACAD_REACTORS
330
74
102
}
330
74
100
AcDbXrecord
340
1F
  0
XRECORD
  5
F4C
102
{ACAD_REACTORS
330
F4B
102
}
330
F4B
100
AcDbXrecord
340
101
  0
MLINESTYLE
  5
18
102
{ACAD_REACTORS
330
17
102
}
330
17
100
AcDbMlineStyle
  2
STANDARD
 70
     0
  3

 62
   256
 51
90.0
 52
90.0
 71
     2
 49
0.5
 62
   256
  6
BYLAYER
 49
-0.5
 62
   256
  6
BYLAYER
  0
ACDBPLACEHOLDER
  5
F
102
{ACAD_REACTORS
330
E
102
}
330
E
100
AcDbPlaceHolder
280
     0
  0
DICTIONARYVAR
  5
35
102
{ACAD_REACTORS
330
34
102
}
330
34
100
DictionaryVariables
280
     0
  1
1
  0
DICTIONARYVAR
  5
B5E
102
{ACAD_REACTORS
330
34
102
}
330
34
100
DictionaryVariables
280
     0
  1
96
  0
DICTIONARY
  5
260
102
{ACAD_REACTORS
330
43
102
}
330
43
100
AcDbDictionary
  0
DICTIONARY
  5
2C
102
{ACAD_REACTORS
330
2B
102
}
330
2B
100
AcDbDictionary
  3
DWGSETTINGS
350
2D
  0
XRECORD
  5
F24
102
{ACAD_REACTORS
330
F23
102
}
330
F23
100
AcDbXrecord
 90
        1
  0
XRECORD
  5
F25
102
{ACAD_REACTORS
330
F23
102
}
330
F23
100
AcDbXrecord
 90
       70
  0
XRECORD
  5
F26
102
{ACAD_REACTORS
330
F23
102
}
330
F23
100
AcDbXrecord
  1

  0
XRECORD
  5
F27
102
{ACAD_REACTORS
330
F23
102
}
330
F23
100
AcDbXrecord
  1
ASAMI.ctb
  0
XRECORD
  5
F28
102
{ACAD_REACTORS
330
F23
102
}
330
F23
100
AcDbXrecord
340
1A
  0
XRECORD
  5
F29
102
{ACAD_REACTORS
330
F23
102
}
330
F23
100
AcDbXrecord
340
19
  0
XRECORD
  5
F2A
102
{ACAD_REACTORS
330
F23
102
}
330
F23
100
AcDbXrecord
340
E
  0
XRECORD
  5
F2B
102
{ACAD_REACTORS
330
F23
102
}
330
F23
100
AcDbXrecord
 90
    10781
  0
XRECORD
  5
F2C
102
{ACAD_REACTORS
330
F23
102
}
330
F23
100
AcDbXrecord
 90
        4
  0
XRECORD
  5
F2D
102
{ACAD_REACTORS
330
F23
102
}
330
F23
100
AcDbXrecord
 90
        0
  0
XRECORD
  5
F2E
102
{ACAD_REACTORS
330
F23
102
}
330
F23
100
AcDbXrecord
  1
{AFB28963-8C59-40AE-9337-C84526B81ACE}
  0
XRECORD
  5
F2F
102
{ACAD_REACTORS
330
F23
102
}
330
F23
100
AcDbXrecord
  1
{89ECB11B-704B-4E62-BB88-335A9C93D8F6}
  0
XRECORD
  5
F30
102
{ACAD_REACTORS
330
F23
102
}
330
F23
100
AcDbXrecord
 40
0.0
  0
XRECORD
  5
F31
102
{ACAD_REACTORS
330
F23
102
}
330
F23
100
AcDbXrecord
1000
DSTYLE
1002
{
1070
    79
 70
     2
1070
   341
340
59
1070
   342
340
59
1070
   371
 70
    -1
1070
   372
 70
    -1
1002
}
  0
XRECORD
  5
F32
102
{ACAD_REACTORS
330
F23
102
}
330
F23
100
AcDbXrecord
340
0
  0
XRECORD
  5
F33
102
{ACAD_REACTORS
330
F23
102
}
330
F23
100
AcDbXrecord
 70
     0
  0
XRECORD
  5
F34
102
{ACAD_REACTORS
330
F23
102
}
330
F23
100
AcDbXrecord
340
0
  0
XRECORD
  5
F35
102
{ACAD_REACTORS
330
F23
102
}
330
F23
100
AcDbXrecord
 10
0.0
 20
0.0
 30
0.0
  0
XRECORD
  5
F36
102
{ACAD_REACTORS
330
F23
102
}
330
F23
100
AcDbXrecord
 10
0.0
 20
0.0
 30
0.0
  0
XRECORD
  5
F37
102
{ACAD_REACTORS
330
F23
102
}
330
F23
100
AcDbXrecord
 10
0.0
 20
0.0
 30
0.0
  0
XRECORD
  5
F38
102
{ACAD_REACTORS
330
F23
102
}
330
F23
100
AcDbXrecord
 10
0.0
 20
0.0
 30
0.0
  0
XRECORD
  5
F39
102
{ACAD_REACTORS
330
F23
102
}
330
F23
100
AcDbXrecord
 10
0.0
 20
0.0
 30
0.0
  0
XRECORD
  5
F3A
102
{ACAD_REACTORS
330
F23
102
}
330
F23
100
AcDbXrecord
 10
0.0
 20
0.0
 30
0.0
  0
XRECORD
  5
F3B
102
{ACAD_REACTORS
330
F23
102
}
330
F23
100
AcDbXrecord
340
0
  0
XRECORD
  5
F3C
102
{ACAD_REACTORS
330
F23
102
}
330
F23
100
AcDbXrecord
 70
     0
  0
XRECORD
  5
F3D
102
{ACAD_REACTORS
330
F23
102
}
330
F23
100
AcDbXrecord
340
0
  0
XRECORD
  5
F3E
102
{ACAD_REACTORS
330
F23
102
}
330
F23
100
AcDbXrecord
 10
0.0
 20
0.0
 30
0.0
  0
XRECORD
  5
F3F
102
{ACAD_REACTORS
330
F23
102
}
330
F23
100
AcDbXrecord
 10
0.0
 20
0.0
 30
0.0
  0
XRECORD
  5
F40
102
{ACAD_REACTORS
330
F23
102
}
330
F23
100
AcDbXrecord
 10
0.0
 20
0.0
 30
0.0
  0
XRECORD
  5
F41
102
{ACAD_REACTORS
330
F23
102
}
330
F23
100
AcDbXrecord
 10
0.0
 20
0.0
 30
0.0
  0
XRECORD
  5
F42
102
{ACAD_REACTORS
330
F23
102
}
330
F23
100
AcDbXrecord
 10
0.0
 20
0.0
 30
0.0
  0
XRECORD
  5
F43
102
{ACAD_REACTORS
330
F23
102
}
330
F23
100
AcDbXrecord
 10
0.0
 20
0.0
 30
0.0
  0
LAYER_INDEX
  5
F1A
102
{ACAD_REACTORS
330
F19
102
}
330
F19
100
AcDbIndex
 40
2453151.791582349
100
AcDbLayerIndex
  8
0
360
F1B
 90
        0
  8
AM_0
360
F1C
 90
       49
  8
AM_11
360
F1D
 90
        3
  8
AM_7
360
F1E
 90
        1
  8
AM_5
360
F1F
 90
        4
  8
Defpoints
360
F20
 90
        0
  8
AM_6
360
F21
 90
        1
  0
XRECORD
  5
2D
102
{ACAD_REACTORS
330
2C
102
}
330
2C
100
AcDbXrecord
  1
VERSION
140
15.0
  1
PRODUCT
  2
AutoCAD Mechanical 2000
  0
IDBUFFER
  5
F1B
330
0
100
AcDbIdBuffer
  0
IDBUFFER
  5
F1C
330
0
100
AcDbIdBuffer
330
DAF
330
D5B
330
D5C
330
D5D
330
D5E
330
D5F
330
D60
330
D61
330
D62
330
D63
330
D64
330
D65
330
D66
330
D67
330
D68
330
D69
330
D6A
330
D6B
330
D6C
330
D6D
330
D6E
330
D6F
330
D70
330
D72
330
D73
330
D76
330
D77
330
D78
330
D79
330
D7B
330
D8A
330
D99
330
D9A
330
D9B
330
D9C
330
DA0
330
DA1
330
DA2
330
DA3
330
DA4
330
DA5
330
DA7
330
DA8
330
DA9
330
DAA
330
DAB
330
DAC
330
DAD
330
DAE
  0
IDBUFFER
  5
F1D
330
0
100
AcDbIdBuffer
330
D9D
330
D9E
330
D9F
  0
IDBUFFER
  5
F1E
330
0
100
AcDbIdBuffer
330
D74
  0
IDBUFFER
  5
F1F
330
0
100
AcDbIdBuffer
330
D71
330
D75
330
D7A
330
DA6
  0
IDBUFFER
  5
F20
330
0
100
AcDbIdBuffer
  0
IDBUFFER
  5
F21
330
0
100
AcDbIdBuffer
330
E5A
  0
ENDSEC
  0
EOF
