  0
SECTION
  2
HEADER
  9
$ACADVER
  1
AC1014
  9
$ACADMAINTVER
 70
     9
  9
$DWGCODEPAGE
  3
ANSI_932
  9
$INSBASE
 10
0.0
 20
0.0
 30
0.0
  9
$EXTMIN
 10
-94.14349790496837
 20
-32.25000100000002
 30
-0.00000001
  9
$EXTMAX
 10
12.05776903085493
 20
8.000000000000017
 30
0.00000001
  9
$LIMMIN
 10
-96.48964381372685
 20
-39.88318434356182
  9
$LIMMAX
 10
16.11050586761723
 20
15.96719754207873
  9
$ORTHOMODE
 70
     0
  9
$REGENMODE
 70
     1
  9
$FILLMODE
 70
     1
  9
$QTEXTMODE
 70
     0
  9
$MIRRTEXT
 70
     0
  9
$DRAGMODE
 70
     2
  9
$LTSCALE
 40
1.0
  9
$OSMODE
 70
    55
  9
$ATTMODE
 70
     1
  9
$TEXTSIZE
 40
2.5
  9
$TRACEWID
 40
1.0
  9
$TEXTSTYLE
  7
STANDARD
  9
$CLAYER
  8
AM_0
  9
$CELTYPE
  6
BYLAYER
  9
$CECOLOR
 62
   256
  9
$CELTSCALE
 40
1.0
  9
$DELOBJ
 70
     1
  9
$DISPSILH
 70
     0
  9
$DIMSCALE
 40
0.5
  9
$DIMASZ
 40
2.5
  9
$DIMEXO
 40
1.0
  9
$DIMDLI
 40
12.0
  9
$DIMRND
 40
0.0
  9
$DIMDLE
 40
0.0
  9
$DIMEXE
 40
1.0
  9
$DIMTP
 40
0.1
  9
$DIMTM
 40
0.1
  9
$DIMTXT
 40
3.2
  9
$DIMCEN
 40
0.0
  9
$DIMTSZ
 40
0.0
  9
$DIMTOL
 70
     0
  9
$DIMLIM
 70
     0
  9
$DIMTIH
 70
     0
  9
$DIMTOH
 70
     0
  9
$DIMSE1
 70
     0
  9
$DIMSE2
 70
     0
  9
$DIMTAD
 70
     3
  9
$DIMZIN
 70
     8
  9
$DIMBLK
  1
OPEN30
  9
$DIMASO
 70
     1
  9
$DIMSHO
 70
     1
  9
$DIMPOST
  1

  9
$DIMAPOST
  1
"
  9
$DIMALT
 70
     0
  9
$DIMALTD
 70
     2
  9
$DIMALTF
 40
0.0393701
  9
$DIMLFAC
 40
1.0
  9
$DIMTOFL
 70
     1
  9
$DIMTVP
 40
0.0
  9
$DIMTIX
 70
     0
  9
$DIMSOXD
 70
     0
  9
$DIMSAH
 70
     0
  9
$DIMBLK1
  1

  9
$DIMBLK2
  1

  9
$DIMSTYLE
  2
AM_JIS
  9
$DIMCLRD
 70
   256
  9
$DIMCLRE
 70
   256
  9
$DIMCLRT
 70
     2
  9
$DIMTFAC
 40
0.71
  9
$DIMGAP
 40
1.5
  9
$DIMJUST
 70
     0
  9
$DIMSD1
 70
     0
  9
$DIMSD2
 70
     0
  9
$DIMTOLJ
 70
     0
  9
$DIMTZIN
 70
     0
  9
$DIMALTZ
 70
     0
  9
$DIMALTTZ
 70
     0
  9
$DIMFIT
 70
     3
  9
$DIMUPT
 70
     0
  9
$DIMUNIT
 70
     2
  9
$DIMDEC
 70
     3
  9
$DIMTDEC
 70
     3
  9
$DIMALTU
 70
     2
  9
$DIMALTTD
 70
     2
  9
$DIMTXSTY
  7
ASAMI
  9
$DIMAUNIT
 70
     0
  9
$LUNITS
 70
     2
  9
$LUPREC
 70
     2
  9
$SKETCHINC
 40
1.0
  9
$FILLETRAD
 40
2.5
  9
$AUNITS
 70
     0
  9
$AUPREC
 70
     0
  9
$MENU
  1
.
  9
$ELEVATION
 40
0.0
  9
$PELEVATION
 40
0.0
  9
$THICKNESS
 40
0.0
  9
$LIMCHECK
 70
     0
  9
$BLIPMODE
 70
     0
  9
$CHAMFERA
 40
1.0
  9
$CHAMFERB
 40
1.0
  9
$CHAMFERC
 40
20.0
  9
$CHAMFERD
 40
0.0
  9
$SKPOLY
 70
     0
  9
$TDCREATE
 40
2452836.771637361
  9
$TDUPDATE
 40
2453151.800336192
  9
$TDINDWG
 40
0.0421739352
  9
$TDUSRTIMER
 40
0.0421739352
  9
$USRTIMER
 70
     1
  9
$ANGBASE
 50
0.0
  9
$ANGDIR
 70
     0
  9
$PDMODE
 70
     0
  9
$PDSIZE
 40
0.0
  9
$PLINEWID
 40
0.0
  9
$COORDS
 70
     1
  9
$SPLFRAME
 70
     0
  9
$SPLINETYPE
 70
     6
  9
$SPLINESEGS
 70
     8
  9
$ATTDIA
 70
     1
  9
$ATTREQ
 70
     1
  9
$HANDLING
 70
 12289
  9
$HANDSEED
  5
19AB
  9
$SURFTAB1
 70
     6
  9
$SURFTAB2
 70
     6
  9
$SURFTYPE
 70
     6
  9
$SURFU
 70
     6
  9
$SURFV
 70
     6
  9
$UCSNAME
  2

  9
$UCSORG
 10
0.0
 20
0.0
 30
0.0
  9
$UCSXDIR
 10
1.0
 20
0.0
 30
0.0
  9
$UCSYDIR
 10
0.0
 20
1.0
 30
0.0
  9
$PUCSNAME
  2

  9
$PUCSORG
 10
0.0
 20
0.0
 30
0.0
  9
$PUCSXDIR
 10
1.0
 20
0.0
 30
0.0
  9
$PUCSYDIR
 10
0.0
 20
1.0
 30
0.0
  9
$USERI1
 70
     0
  9
$USERI2
 70
     0
  9
$USERI3
 70
     0
  9
$USERI4
 70
     0
  9
$USERI5
 70
     0
  9
$USERR1
 40
0.0
  9
$USERR2
 40
0.0
  9
$USERR3
 40
0.0
  9
$USERR4
 40
0.0
  9
$USERR5
 40
0.0
  9
$WORLDVIEW
 70
     1
  9
$SHADEDGE
 70
     3
  9
$SHADEDIF
 70
    70
  9
$TILEMODE
 70
     1
  9
$MAXACTVP
 70
    64
  9
$PINSBASE
 10
0.0
 20
0.0
 30
0.0
  9
$PLIMCHECK
 70
     0
  9
$PEXTMIN
 10
1.000000000000000E+20
 20
1.000000000000000E+20
 30
1.000000000000000E+20
  9
$PEXTMAX
 10
-1.000000000000000E+20
 20
-1.000000000000000E+20
 30
-1.000000000000000E+20
  9
$PLIMMIN
 10
0.0
 20
0.0
  9
$PLIMMAX
 10
841.0
 20
594.0
  9
$UNITMODE
 70
     0
  9
$VISRETAIN
 70
     1
  9
$PLINEGEN
 70
     0
  9
$PSLTSCALE
 70
     0
  9
$TREEDEPTH
 70
  3020
  9
$PICKSTYLE
 70
     0
  9
$CMLSTYLE
  2
STANDARD
  9
$CMLJUST
 70
     0
  9
$CMLSCALE
 40
20.0
  9
$PROXYGRAPHICS
 70
     1
  9
$MEASUREMENT
 70
     1
  0
ENDSEC
  0
SECTION
  2
CLASSES
  0
CLASS
  1
ACDBDICTIONARYWDFLT
  2
AcDbDictionaryWithDefault
  3
AutoCAD 2000
 90
        0
280
     0
281
     0
  0
CLASS
  1
ACDBPLACEHOLDER
  2
AcDbPlaceHolder
  3
AutoCAD 2000
 90
        0
280
     0
281
     0
  0
CLASS
  1
LAYOUT
  2
AcDbLayout
  3
AutoCAD 2000
 90
        0
280
     0
281
     0
  0
CLASS
  1
AMGSETTINGSOBJ
  2
AmgSettingsObj
  3
"AcadM|Product Description: AutoCAD Mechanical 2000|Company: Autodesk"
 90
        0
280
     0
281
     0
  0
CLASS
  1
ACME_DOCUMENT
  2
AcMeDbDoc
  3
AcMeServices
 90
        0
280
     0
281
     0
  0
CLASS
  1
ACMESCOPE
  2
AcMeScope
  3
AcMeServices
 90
        0
280
     0
281
     0
  0
CLASS
  1
ACMECOMMANDHISTORY
  2
AcMeCommandHistory
  3
AcMeServices
 90
        0
280
     0
281
     0
  0
CLASS
  1
DICTIONARYVAR
  2
AcDbDictionaryVar
  3
AutoCAD 2000
 90
        0
280
     0
281
     0
  0
CLASS
  1
ACIMSYSVARMAN
  2
AcImSysVarManager
  3
AcMeServices
 90
        0
280
     0
281
     0
  0
CLASS
  1
ACIMREALSYSVAR
  2
AcImRealSysVar
  3
AcMeServices
 90
        0
280
     0
281
     0
  0
CLASS
  1
ACIMINTSYSVAR
  2
AcImIntSysVar
  3
AcMeServices
 90
        0
280
     0
281
     0
  0
CLASS
  1
ACMEDRAWINGMAN
  2
AcMeDrawingMan
  3
AcMeServices
 90
        0
280
     0
281
     0
  0
CLASS
  1
ACMEVIEW
  2
AcMeView
  3
AcMeServices
 90
        0
280
     0
281
     0
  0
CLASS
  1
ACDBENTITYCACHE
  2
AcMeEntityCache
  3
AcMeServices
 90
        0
280
     0
281
     0
  0
CLASS
  1
GSMANAGER
  2
AcMeGSManager
  3
AcMeServices
 90
        0
280
     0
281
     0
  0
CLASS
  1
AmdtInternalReactor
  2
AmdtInternalReactor
  3
AcMeServices
 90
        0
280
     0
281
     0
  0
CLASS
  1
ACMESTATEMGR
  2
AcMeStateMgr
  3
AcMeServices
 90
        0
280
     0
281
     0
  0
CLASS
  1
ACME_DATABASE
  2
AcMeDbDatabase
  3
AcMeServices
 90
        0
280
     0
281
     0
  0
CLASS
  1
ACRFINSADJUSTERMGR
  2
AcRfInsAdjusterMgr
  3
AcMeServices
 90
        0
280
     0
281
     0
  0
CLASS
  1
ACMDATADICTIONARY
  2
AcmDataDictionary
  3
"AcmSymBB|Product Description: AutoCAD Mechanical 2000|Company: Autodesk"
 90
        0
280
     0
281
     0
  0
CLASS
  1
ACMDATAENTRYBLOCK
  2
AcmDataEntryBlock
  3
"AcmSymBB|Product Description: AutoCAD Mechanical 2000|Company: Autodesk"
 90
        0
280
     0
281
     0
  0
CLASS
  1
AMGOBJPROPCFG
  2
AmgObjPropCfg
  3
"AmgLay|Product Description: AutoCAD Mechanical 2000|Company: Autodesk"
 90
        1
280
     0
281
     0
  0
CLASS
  1
ACAMGFILTERDAT
  2
AcAmgFilterDat
  3
"AcadM|Product Description: AutoCAD Mechanical 2000|Company: Autodesk"
 90
        0
280
     0
281
     0
  0
CLASS
  1
LAYER_INDEX
  2
AcDbLayerIndex
  3
AutoCAD 2000
 90
        0
280
     0
281
     0
  0
CLASS
  1
IDBUFFER
  2
AcDbIdBuffer
  3
AutoCAD 2000
 90
        0
280
     0
281
     0
  0
CLASS
  1
ACIMSTRSYSVAR
  2
AcImStrSysVar
  3
AcMeServices
 90
        0
280
     0
281
     0
  0
CLASS
  1
ACMSTANDARDJIS
  2
AcmStandardJIS
  3
"AcmSymBB|Product Description: AutoCAD Mechanical 2000|Company: Autodesk"
 90
        0
280
     0
281
     0
  0
CLASS
  1
ACMSURFSTANDARDJIS
  2
AcmSurfTextStdJIS
  3
"AcmSymBB|Product Description: AutoCAD Mechanical 2000|Company: Autodesk"
 90
        0
280
     0
281
     0
  0
CLASS
  1
ACMFCFSTANDARDJIS
  2
AcmFCFStdJIS
  3
"AcmSymBB|Product Description: AutoCAD Mechanical 2000|Company: Autodesk"
 90
        0
280
     0
281
     0
  0
CLASS
  1
ACMWELDSTANDARDJIS
  2
AcmWeldingStdJIS
  3
"AcmSymBB|Product Description: AutoCAD Mechanical 2000|Company: Autodesk"
 90
        0
280
     0
281
     0
  0
CLASS
  1
ACMIDSTANDARDJIS
  2
AcmIdStdJIS
  3
"AcmSymBB|Product Description: AutoCAD Mechanical 2000|Company: Autodesk"
 90
        0
280
     0
281
     0
  0
CLASS
  1
ACMDATUMSTANDARDJIS
  2
AcmDatumStdJIS
  3
"AcmSymBB|Product Description: AutoCAD Mechanical 2000|Company: Autodesk"
 90
        0
280
     0
281
     0
  0
CLASS
  1
ACMBOMSTANDARDJIS
  2
AcmBOMStdJIS
  3
"AcmSymBB|Product Description: AutoCAD Mechanical 2000|Company: Autodesk"
 90
        0
280
     0
281
     0
  0
CLASS
  1
ACMSTANDARDANSI
  2
AcmStandardANSI
  3
"AcmSymBB|Product Description: AutoCAD Mechanical 2000|Company: Autodesk"
 90
        0
280
     0
281
     0
  0
CLASS
  1
ACMSURFSTANDARDANSI
  2
AcmSurfTextStdANSI
  3
"AcmSymBB|Product Description: AutoCAD Mechanical 2000|Company: Autodesk"
 90
        0
280
     0
281
     0
  0
CLASS
  1
ACMFCFSTANDARDANSI
  2
AcmFCFStdANSI
  3
"AcmSymBB|Product Description: AutoCAD Mechanical 2000|Company: Autodesk"
 90
        0
280
     0
281
     0
  0
CLASS
  1
ACMWELDSTANDARDANSI
  2
AcmWeldingStdANSI
  3
"AcmSymBB|Product Description: AutoCAD Mechanical 2000|Company: Autodesk"
 90
        0
280
     0
281
     0
  0
CLASS
  1
ACMIDSTANDARDANSI
  2
AcmIdStdANSI
  3
"AcmSymBB|Product Description: AutoCAD Mechanical 2000|Company: Autodesk"
 90
        0
280
     0
281
     0
  0
CLASS
  1
ACMDATUMSTANDARDANSI
  2
AcmDatumStdANSI
  3
"AcmSymBB|Product Description: AutoCAD Mechanical 2000|Company: Autodesk"
 90
        0
280
     0
281
     0
  0
CLASS
  1
ACMBOMSTANDARDANSI
  2
AcmBOMStdANSI
  3
"AcmSymBB|Product Description: AutoCAD Mechanical 2000|Company: Autodesk"
 90
        0
280
     0
281
     0
  0
CLASS
  1
ACMSTANDARDBSI
  2
AcmStandardBSI
  3
"AcmSymBB|Product Description: AutoCAD Mechanical 2000|Company: Autodesk"
 90
        0
280
     0
281
     0
  0
CLASS
  1
ACMSURFSTANDARDBSI
  2
AcmSurfTextStdBSI
  3
"AcmSymBB|Product Description: AutoCAD Mechanical 2000|Company: Autodesk"
 90
        0
280
     0
281
     0
  0
CLASS
  1
ACMFCFSTANDARDBSI
  2
AcmFCFStdBSI
  3
"AcmSymBB|Product Description: AutoCAD Mechanical 2000|Company: Autodesk"
 90
        0
280
     0
281
     0
  0
CLASS
  1
ACMWELDSTANDARDBSI
  2
AcmWeldingStdBSI
  3
"AcmSymBB|Product Description: AutoCAD Mechanical 2000|Company: Autodesk"
 90
        0
280
     0
281
     0
  0
CLASS
  1
ACMIDSTANDARDBSI
  2
AcmIdStdBSI
  3
"AcmSymBB|Product Description: AutoCAD Mechanical 2000|Company: Autodesk"
 90
        0
280
     0
281
     0
  0
CLASS
  1
ACMDATUMSTANDARDBSI
  2
AcmDatumStdBSI
  3
"AcmSymBB|Product Description: AutoCAD Mechanical 2000|Company: Autodesk"
 90
        0
280
     0
281
     0
  0
CLASS
  1
ACMBOMSTANDARDBSI
  2
AcmBOMStdBSI
  3
"AcmSymBB|Product Description: AutoCAD Mechanical 2000|Company: Autodesk"
 90
        0
280
     0
281
     0
  0
CLASS
  1
LONG_TRANSACTION
  2
AcDbLongTransaction
  3
AutoCAD 2000
 90
        0
280
     0
281
     0
  0
CLASS
  1
LWPOLYLINE
  2
AcDbPolyline
  3
AutoCAD 2000
 90
        0
280
     0
281
     1
  0
CLASS
  1
HATCH
  2
AcDbHatch
  3
AutoCAD 2000
 90
        0
280
     0
281
     1
  0
CLASS
  1
XRECORD
  2
AcDbXrecord
  3
AutoCAD 2000
 90
        0
280
     0
281
     0
  0
ENDSEC
  0
SECTION
  2
TABLES
  0
TABLE
  2
VPORT
  5
8
330
0
100
AcDbSymbolTable
 70
     3
  0
VPORT
  5
1980
330
8
100
AcDbSymbolTableRecord
100
AcDbViewportTableRecord
  2
*ACTIVE
 70
     0
 10
0.0
 20
0.0
 11
1.0
 21
1.0
 12
-41.04434432324803
 22
-12.12461773276145
 13
0.0
 23
0.0
 14
2.5
 24
2.5
 15
10.0
 25
10.0
 16
0.0
 26
0.0
 36
1.0
 17
0.0
 27
0.0
 37
0.0
 40
68.1092869325387
 41
1.56570841889117
 42
50.0
 43
0.0
 44
0.0
 50
0.0
 51
0.0
 71
     0
 72
   100
 73
     1
 74
     3
 75
     0
 76
     0
 77
     0
 78
     0
  0
ENDTAB
  0
TABLE
  2
LTYPE
  5
5
330
0
100
AcDbSymbolTable
 70
    10
  0
LTYPE
  5
14
330
5
100
AcDbSymbolTableRecord
100
AcDbLinetypeTableRecord
  2
BYBLOCK
 70
     0
  3

 72
    65
 73
     0
 40
0.0
  0
LTYPE
  5
15
330
5
100
AcDbSymbolTableRecord
100
AcDbLinetypeTableRecord
  2
BYLAYER
 70
     0
  3

 72
    65
 73
     0
 40
0.0
  0
LTYPE
  5
16
330
5
100
AcDbSymbolTableRecord
100
AcDbLinetypeTableRecord
  2
CONTINUOUS
 70
     0
  3
Solid line
 72
    65
 73
     0
 40
0.0
  0
LTYPE
  5
4B
330
5
100
AcDbSymbolTableRecord
100
AcDbLinetypeTableRecord
  2
AM_ISO02W050
 70
     0
  3
__ __ __ __ __ __ __ __ __ __ __ __ __ __ __
 72
    65
 73
     2
 40
7.5
 49
6.0
 74
     0
 49
-1.5
 74
     0
  0
LTYPE
  5
4C
330
5
100
AcDbSymbolTableRecord
100
AcDbLinetypeTableRecord
  2
AM_ISO08W050
 70
     0
  3
____ . ____ . ____ . ____ . ____ . ____ . ____
 72
    65
 73
     4
 40
18.0
 49
12.0
 74
     0
 49
-1.5
 74
     0
 49
3.0
 74
     0
 49
-1.5
 74
     0
  0
LTYPE
  5
4D
330
5
100
AcDbSymbolTableRecord
100
AcDbLinetypeTableRecord
  2
AM_ISO09W050
 70
     0
  3
_____ . . _____ . . _____ . . ____ .. ____
 72
    65
 73
     6
 40
22.5
 49
12.0
 74
     0
 49
-1.5
 74
     0
 49
3.0
 74
     0
 49
-1.5
 74
     0
 49
3.0
 74
     0
 49
-1.5
 74
     0
  0
LTYPE
  5
4E
330
5
100
AcDbSymbolTableRecord
100
AcDbLinetypeTableRecord
  2
AMCONSTR
 70
     0
  3
_______________________
 72
    65
 73
     2
 40
9999.0
 49
9999.0
 74
     0
 49
0.0
 74
     0
  0
LTYPE
  5
4F
330
5
100
AcDbSymbolTableRecord
100
AcDbLinetypeTableRecord
  2
AM_ISO02W050X2
 70
     0
  3
 _ _ _ _ _ _ _ _ _ _ _ _
 72
    65
 73
     2
 40
3.75
 49
3.0
 74
     0
 49
-0.75
 74
     0
  0
LTYPE
  5
50
330
5
100
AcDbSymbolTableRecord
100
AcDbLinetypeTableRecord
  2
AM_ISO08W050X2
 70
     0
  3
__ . __ . __ . __ . __ . __
 72
    65
 73
     4
 40
9.0
 49
6.0
 74
     0
 49
-0.75
 74
     0
 49
1.5
 74
     0
 49
-0.75
 74
     0
  0
LTYPE
  5
53
330
5
100
AcDbSymbolTableRecord
100
AcDbLinetypeTableRecord
  2
AMZIGZAG
 70
     0
  3
/\/-/\/-/\/-/\/-/\/-/\/
 72
    65
 73
     2
 40
11.00009999999999
 49
0.0001
 74
     4
 75
   135
340
52
 46
0.04
 50
0.0
 44
0.0
 45
0.0
 49
-11.0
 74
     0
  0
LTYPE
  5
166
330
5
100
AcDbSymbolTableRecord
100
AcDbLinetypeTableRecord
  2
ACJISTGL
 70
     0
  3
_ _ _ _ _
 72
    65
 73
     2
 40
3.0
 49
2.0
 74
     0
 49
-1.0
 74
     0
  0
LTYPE
  5
26A
330
5
100
AcDbSymbolTableRecord
100
AcDbLinetypeTableRecord
  2
ACJISTGB
 70
     0
  3
__ . . __ . .
 72
    65
 73
     6
 40
9.0
 49
4.0
 74
     0
 49
-1.0
 74
     0
 49
1.0
 74
     0
 49
-1.0
 74
     0
 49
1.0
 74
     0
 49
-1.0
 74
     0
  0
ENDTAB
  0
TABLE
  2
LAYER
  5
2
330
0
100
AcDbSymbolTable
 70
     7
  0
LAYER
  5
10
330
2
100
AcDbSymbolTableRecord
100
AcDbLayerTableRecord
  2
0
 70
     0
 62
     7
  6
CONTINUOUS
  0
LAYER
  5
3F9
330
2
100
AcDbSymbolTableRecord
100
AcDbLayerTableRecord
  2
AM_0
 70
     0
 62
     7
  6
CONTINUOUS
  0
LAYER
  5
BD4
330
2
100
AcDbSymbolTableRecord
100
AcDbLayerTableRecord
  2
AM_11
 70
     0
 62
     3
  6
AM_ISO09W050
  0
LAYER
  5
BD5
330
2
100
AcDbSymbolTableRecord
100
AcDbLayerTableRecord
  2
AM_7
 70
     0
 62
     4
  6
AM_ISO08W050
  0
LAYER
  5
BD6
330
2
100
AcDbSymbolTableRecord
100
AcDbLayerTableRecord
  2
AM_5
 70
     0
 62
     3
  6
CONTINUOUS
  0
LAYER
  5
BD7
330
2
100
AcDbSymbolTableRecord
100
AcDbLayerTableRecord
  2
DEFPOINTS
 70
     0
 62
     7
  6
CONTINUOUS
  0
LAYER
  5
E59
330
2
100
AcDbSymbolTableRecord
100
AcDbLayerTableRecord
  2
AM_6
 70
     0
 62
     2
  6
CONTINUOUS
  0
ENDTAB
  0
TABLE
  2
STYLE
  5
3
330
0
100
AcDbSymbolTable
 70
     5
  0
STYLE
  5
11
330
3
100
AcDbSymbolTableRecord
100
AcDbTextStyleTableRecord
  2
STANDARD
 70
     0
 40
0.0
 41
1.0
 50
0.0
 71
     0
 42
2.5
  3
simplex.shx
  4
EXTFONT.SHX
  0
STYLE
  5
52
330
3
100
AcDbSymbolTableRecord
100
AcDbTextStyleTableRecord
  2

 70
     1
 40
0.0
 41
1.0
 50
0.0
 71
     0
 42
2.5
  3
ltypeshp.shx
  4

  0
STYLE
  5
6B
330
3
100
AcDbSymbolTableRecord
100
AcDbTextStyleTableRecord
  2
ASAMI
 70
     0
 40
0.0
 41
1.0
 50
0.0
 71
     0
 42
2.5
  3
simplex.shx
  4
EXTFONT.SHX
  0
STYLE
  5
262
330
3
100
AcDbSymbolTableRecord
100
AcDbTextStyleTableRecord
  2
ACJISTS
 70
     0
 40
1.0
 41
1.0
 50
0.0
 71
     0
 42
2.5
  3
simplex.shx
  4
bigfont.shx
  0
STYLE
  5
269
330
3
100
AcDbSymbolTableRecord
100
AcDbTextStyleTableRecord
  2
ACJISGDT
 70
     0
 40
0.0
 41
1.0
 50
0.0
 71
     0
 42
2.5
  3
amgdtans.shx
  4

  0
ENDTAB
  0
TABLE
  2
VIEW
  5
6
330
0
100
AcDbSymbolTable
 70
     0
  0
ENDTAB
  0
TABLE
  2
UCS
  5
7
330
0
100
AcDbSymbolTable
 70
     0
  0
ENDTAB
  0
TABLE
  2
APPID
  5
9
330
0
100
AcDbSymbolTable
 70
    12
  0
APPID
  5
12
330
9
100
AcDbSymbolTableRecord
100
AcDbRegAppTableRecord
  2
ACAD
 70
     0
  0
APPID
  5
30
330
9
100
AcDbSymbolTableRecord
100
AcDbRegAppTableRecord
  2
MCAD_NO_VIS
 70
     0
  0
APPID
  5
31
330
9
100
AcDbSymbolTableRecord
100
AcDbRegAppTableRecord
  2
ACAD_TEMP_GRAPHIC
 70
     0
  0
APPID
  5
2C2
330
9
100
AcDbSymbolTableRecord
100
AcDbRegAppTableRecord
  2
GENIUS_GENDTOL_13
 70
     0
  0
APPID
  5
339
330
9
100
AcDbSymbolTableRecord
100
AcDbRegAppTableRecord
  2
GENIUS_GENODEF_13
 70
     0
  0
APPID
  5
33A
330
9
100
AcDbSymbolTableRecord
100
AcDbRegAppTableRecord
  2
GENIUS_GENOBJ-N-RSBK_13
 70
     0
  0
APPID
  5
33B
330
9
100
AcDbSymbolTableRecord
100
AcDbRegAppTableRecord
  2
GENIUS_GENOBJ-N-LIB_13
 70
     0
  0
APPID
  5
33C
330
9
100
AcDbSymbolTableRecord
100
AcDbRegAppTableRecord
  2
GENIUS_GENSCALE_13
 70
     0
  0
APPID
  5
378
330
9
100
AcDbSymbolTableRecord
100
AcDbRegAppTableRecord
  2
GENIUS_GENDIMSH_14
 70
     0
  0
APPID
  5
BD8
330
9
100
AcDbSymbolTableRecord
100
AcDbRegAppTableRecord
  2
GENIUS_GENOBJ-N-CEN_13
 70
     0
  0
APPID
  5
BD9
330
9
100
AcDbSymbolTableRecord
100
AcDbRegAppTableRecord
  2
GENIUS_GENFIL_13
 70
     0
  0
APPID
  5
BDA
330
9
100
AcDbSymbolTableRecord
100
AcDbRegAppTableRecord
  2
GENIUS_GENOBJ-N-CHA_13
 70
     0
  0
ENDTAB
  0
TABLE
  2
DIMSTYLE
  5
A
330
0
100
AcDbSymbolTable
 70
     8
  0
DIMSTYLE
105
58
102
{ACAD_REACTORS
330
D71
330
D7A
330
DA6
330
15D1
102
}
330
A
100
AcDbSymbolTableRecord
100
AcDbDimStyleTableRecord
  2
AM_JIS
 70
     0
  3

  4
"
  5
OPEN30
  6

  7

 40
0.5
 41
2.5
 42
1.0
 43
12.0
 44
1.0
 45
0.0
 46
0.0
 47
0.1
 48
0.1
140
3.2
141
0.0
142
0.0
143
0.0393701
144
1.0
145
0.0
146
0.71
147
1.5
 71
     0
 72
     0
 73
     0
 74
     0
 75
     0
 76
     0
 77
     3
 78
     8
170
     0
171
     2
172
     1
173
     0
174
     0
175
     0
176
   256
177
   256
178
     2
270
     2
271
     3
272
     3
273
     2
274
     2
340
6B
275
     0
280
     0
281
     0
282
     0
283
     0
284
     0
285
     0
286
     0
287
     3
288
     0
  0
DIMSTYLE
105
5F
330
A
100
AcDbSymbolTableRecord
100
AcDbDimStyleTableRecord
  2
AM_JIS$3
 70
     0
  3

  4
"
  5
OPEN30
  6

  7

 40
0.5
 41
2.5
 42
1.0
 43
10.0
 44
1.0
 45
0.0
 46
0.0
 47
0.1
 48
0.1
140
3.2
141
0.0
142
0.0
143
0.0393701
144
1.0
145
0.0
146
0.71
147
1.5
 71
     0
 72
     0
 73
     0
 74
     1
 75
     0
 76
     0
 77
     3
 78
     8
170
     0
171
     2
172
     0
173
     0
174
     0
175
     0
176
   256
177
   256
178
     2
270
     2
271
     2
272
     3
273
     2
274
     2
340
6B
275
     0
280
     0
281
     0
282
     0
283
     0
284
     0
285
     0
286
     0
287
     0
288
     1
  0
DIMSTYLE
105
60
330
A
100
AcDbSymbolTableRecord
100
AcDbDimStyleTableRecord
  2
AM_JIS$4
 70
     0
  3

  4
"
  5
OPEN30
  6

  7

 40
0.5
 41
2.5
 42
1.0
 43
10.0
 44
1.0
 45
0.0
 46
0.0
 47
0.1
 48
0.1
140
3.2
141
0.0
142
0.0
143
0.0393701
144
1.0
145
0.0
146
0.71
147
1.5
 71
     0
 72
     0
 73
     0
 74
     1
 75
     0
 76
     0
 77
     3
 78
     8
170
     0
171
     2
172
     0
173
     0
174
     0
175
     0
176
   256
177
   256
178
     2
270
     2
271
     2
272
     3
273
     2
274
     2
340
6B
275
     0
280
     0
281
     0
282
     0
283
     0
284
     0
285
     0
286
     0
287
     0
288
     1
  0
DIMSTYLE
105
61
330
A
100
AcDbSymbolTableRecord
100
AcDbDimStyleTableRecord
  2
AM_JIS$6
 70
     0
  3

  4
"
  5
OPEN30
  6

  7

 40
0.5
 41
2.5
 42
1.0
 43
10.0
 44
1.0
 45
0.0
 46
0.0
 47
0.1
 48
0.1
140
3.2
141
0.0
142
0.0
143
0.0393701
144
1.0
145
0.0
146
0.71
147
1.5
 71
     0
 72
     0
 73
     0
 74
     0
 75
     0
 76
     0
 77
     0
 78
     8
170
     0
171
     2
172
     1
173
     0
174
     0
175
     0
176
   256
177
   256
178
     2
270
     2
271
     2
272
     2
273
     2
274
     2
340
6B
275
     0
280
     0
281
     0
282
     0
283
     0
284
     0
285
     0
286
     0
287
     3
288
     0
  0
DIMSTYLE
105
62
330
A
100
AcDbSymbolTableRecord
100
AcDbDimStyleTableRecord
  2
AM_JIS$7
 70
     0
  3

  4
"
  5
OPEN30
  6

  7

 40
0.5
 41
2.5
 42
1.0
 43
10.0
 44
1.0
 45
0.0
 46
0.0
 47
0.1
 48
0.1
140
3.2
141
0.0
142
0.0
143
0.0393701
144
1.0
145
0.0
146
0.71
147
1.5
 71
     0
 72
     0
 73
     0
 74
     0
 75
     0
 76
     0
 77
     3
 78
     8
170
     0
171
     2
172
     1
173
     0
174
     0
175
     0
176
   256
177
   256
178
     2
270
     2
271
     2
272
     3
273
     2
274
     2
340
6B
275
     0
280
     0
281
     0
282
     0
283
     0
284
     0
285
     0
286
     0
287
     3
288
     0
  0
DIMSTYLE
105
63
330
A
100
AcDbSymbolTableRecord
100
AcDbDimStyleTableRecord
  2
AM_JIS$SF
 70
     0
  3

  4
"
  5
OPEN30
  6

  7

 40
0.5
 41
2.5
 42
1.0
 43
10.0
 44
1.0
 45
0.0
 46
0.0
 47
0.1
 48
0.1
140
3.2
141
0.0
142
0.0
143
0.0393701
144
1.0
145
0.0
146
0.71
147
1.5
 71
     0
 72
     0
 73
     0
 74
     0
 75
     1
 76
     1
 77
     3
 78
     8
170
     0
171
     2
172
     1
173
     0
174
     0
175
     0
176
   256
177
   256
178
     2
270
     2
271
     2
272
     2
273
     2
274
     2
340
6B
275
     0
280
     0
281
     0
282
     0
283
     0
284
     0
285
     0
286
     0
287
     3
288
     0
  0
DIMSTYLE
105
68
330
A
100
AcDbSymbolTableRecord
100
AcDbDimStyleTableRecord
  2
AM_JIS$SH
 70
     0
  3

  4
"
  5

  6
GENAXEH
  7
OPEN30
 40
0.5
 41
2.5
 42
1.0
 43
10.0
 44
1.0
 45
0.0
 46
0.0
 47
0.1
 48
0.1
140
3.2
141
0.0
142
0.0
143
0.0393701
144
2.0
145
0.0
146
0.71
147
1.5
 71
     0
 72
     0
 73
     0
 74
     0
 75
     1
 76
     1
 77
     3
 78
     8
170
     0
171
     2
172
     1
173
     1
174
     0
175
     0
176
   256
177
   256
178
     2
270
     2
271
     2
272
     2
273
     2
274
     2
340
6B
275
     0
280
     0
281
     0
282
     0
283
     0
284
     0
285
     0
286
     0
287
     3
288
     0
  0
DIMSTYLE
105
B34
330
A
100
AcDbSymbolTableRecord
100
AcDbDimStyleTableRecord
  2
AM_JIS$2
 70
     0
  3

  4
"
  5
OPEN30
  6

  7

 40
0.5
 41
2.5
 42
1.0
 43
12.0
 44
1.0
 45
0.0
 46
0.0
 47
0.1
 48
0.1
140
3.2
141
0.0
142
0.0
143
0.0393701
144
1.0
145
0.0
146
0.71
147
1.5
 71
     0
 72
     0
 73
     0
 74
     0
 75
     0
 76
     0
 77
     3
 78
     8
170
     0
171
     2
172
     1
173
     0
174
     0
175
     0
176
   256
177
   256
178
     2
270
     2
271
     3
272
     3
273
     2
274
     2
340
6B
275
     0
280
     0
281
     0
282
     0
283
     0
284
     0
285
     0
286
     0
287
     3
288
     0
  0
ENDTAB
  0
TABLE
  2
BLOCK_RECORD
  5
1
330
0
100
AcDbSymbolTable
 70
     9
  0
BLOCK_RECORD
  5
1F
102
{ACAD_XDICTIONARY
360
74
102
}
330
1
100
AcDbSymbolTableRecord
100
AcDbBlockTableRecord
  2
*MODEL_SPACE
  0
BLOCK_RECORD
  5
101
102
{ACAD_XDICTIONARY
360
19A9
102
}
330
1
100
AcDbSymbolTableRecord
100
AcDbBlockTableRecord
  2
*PAPER_SPACE
  0
BLOCK_RECORD
  5
59
330
1
100
AcDbSymbolTableRecord
100
AcDbBlockTableRecord
  2
_OPEN30
  0
BLOCK_RECORD
  5
64
330
1
100
AcDbSymbolTableRecord
100
AcDbBlockTableRecord
  2
GENAXEH
  0
BLOCK_RECORD
  5
DDA
330
1
100
AcDbSymbolTableRecord
100
AcDbBlockTableRecord
  2
*D5
  0
BLOCK_RECORD
  5
DF3
330
1
100
AcDbSymbolTableRecord
100
AcDbBlockTableRecord
  2
*D6
  0
BLOCK_RECORD
  5
DFF
330
1
100
AcDbSymbolTableRecord
100
AcDbBlockTableRecord
  2
*D7
  0
BLOCK_RECORD
  5
15D2
330
1
100
AcDbSymbolTableRecord
100
AcDbBlockTableRecord
  2
*D8
  0
ENDTAB
  0
ENDSEC
  0
SECTION
  2
BLOCKS
  0
BLOCK
  5
20
330
1F
100
AcDbEntity
  8
0
100
AcDbBlockBegin
  2
*MODEL_SPACE
 70
     0
 10
0.0
 20
0.0
 30
0.0
  3
*MODEL_SPACE
  1

  0
ENDBLK
  5
21
330
1F
100
AcDbEntity
  8
0
100
AcDbBlockEnd
  0
BLOCK
  5
103
330
101
100
AcDbEntity
 67
     1
  8
0
100
AcDbBlockBegin
  2
*PAPER_SPACE
 70
     0
 10
0.0
 20
0.0
 30
0.0
  3
*PAPER_SPACE
  1

  0
ENDBLK
  5
104
330
101
100
AcDbEntity
 67
     1
  8
0
100
AcDbBlockEnd
  0
BLOCK
  5
5D
330
59
100
AcDbEntity
  8
0
100
AcDbBlockBegin
  2
_OPEN30
 70
     0
 10
0.0
 20
0.0
 30
0.0
  3
_OPEN30
  1

  0
LINE
  5
5A
330
59
100
AcDbEntity
  8
0
 62
     0
100
AcDbLine
 10
-1.0
 20
0.26794919
 30
0.0
 11
0.0
 21
0.0
 31
0.0
  0
LINE
  5
5B
330
59
100
AcDbEntity
  8
0
 62
     0
100
AcDbLine
 10
0.0
 20
0.0
 30
0.0
 11
-1.0
 21
-0.26794919
 31
0.0
  0
LINE
  5
5C
330
59
100
AcDbEntity
  8
0
 62
     0
100
AcDbLine
 10
0.0
 20
0.0
 30
0.0
 11
-1.0
 21
0.0
 31
0.0
  0
ENDBLK
  5
5E
330
59
100
AcDbEntity
  8
0
100
AcDbBlockEnd
  0
BLOCK
  5
66
330
64
100
AcDbEntity
  8
0
100
AcDbBlockBegin
  2
GENAXEH
 70
     0
 10
0.0
 20
0.0
 30
0.0
  3
GENAXEH
  1

  0
LINE
  5
65
330
64
100
AcDbEntity
  8
0
100
AcDbLine
 10
-1.0
 20
0.0
 30
0.0
 11
1.0
 21
0.0
 31
0.0
  0
ENDBLK
  5
67
330
64
100
AcDbEntity
  8
0
100
AcDbBlockEnd
  0
BLOCK
  5
DE4
330
DDA
100
AcDbEntity
  8
0
100
AcDbBlockBegin
  2
*D5
 70
     1
 10
0.0
 20
0.0
 30
0.0
  3
*D5
  1

  0
LINE
  5
1793
330
DDA
100
AcDbEntity
  8
AM_5
100
AcDbLine
 10
-0.0000000000012435
 20
-7.000000000000156
 30
0.0
 11
-0.0000000000012444
 21
-21.500001
 31
0.0
  0
LINE
  5
1794
330
DDA
100
AcDbEntity
  8
AM_5
100
AcDbLine
 10
-80.0
 20
-7.500000000000003
 30
0.0
 11
-80.0
 21
-21.500001
 31
0.0
  0
LINE
  5
1795
330
DDA
100
AcDbEntity
  8
AM_5
100
AcDbLine
 10
-1.250000000001244
 20
-21.000001
 30
0.0
 11
-78.75
 21
-21.000001
 31
0.0
  0
INSERT
  5
1796
330
DDA
100
AcDbEntity
  8
AM_5
100
AcDbBlockReference
  2
_OPEN30
 10
-0.0000000000012443
 20
-21.000001
 30
0.0
 41
1.25
 42
1.25
 43
1.25
  0
INSERT
  5
1797
330
DDA
100
AcDbEntity
  8
AM_5
100
AcDbBlockReference
  2
_OPEN30
 10
-80.0
 20
-21.000001
 30
0.0
 41
1.25
 42
1.25
 43
1.25
 50
180.0
  0
MTEXT
  5
1798
330
DDA
100
AcDbEntity
  8
AM_5
 62
     2
100
AcDbMText
 10
-40.00000000000063
 20
-19.450001
 30
0.0
 40
1.6
 41
0.0
 71
     5
 72
     1
  1
80
  7
ASAMI
1001
ACAD
1000
MTEXTBEGIN
1070
    73
1070
     1
1070
    44
1040
1.0
1070
    74
1070
     0
1000
MTEXTEND
  0
POINT
  5
1799
330
DDA
100
AcDbEntity
  8
DEFPOINTS
 62
     0
100
AcDbPoint
 10
-0.0000000000012434
 20
-6.500000000000156
 30
0.0
  0
POINT
  5
179A
330
DDA
100
AcDbEntity
  8
DEFPOINTS
 62
     0
100
AcDbPoint
 10
-80.0
 20
-7.000000000000003
 30
0.0
  0
POINT
  5
179B
330
DDA
100
AcDbEntity
  8
DEFPOINTS
 62
     0
100
AcDbPoint
 10
-80.0
 20
-21.000001
 30
0.0
  0
ENDBLK
  5
DE5
330
DDA
100
AcDbEntity
  8
0
100
AcDbBlockEnd
  0
BLOCK
  5
DFD
330
DF3
100
AcDbEntity
  8
0
100
AcDbBlockBegin
  2
*D6
 70
     1
 10
0.0
 20
0.0
 30
0.0
  3
*D6
  1

  0
LINE
  5
179C
330
DF3
100
AcDbEntity
  8
AM_5
100
AcDbLine
 10
-19.9999999999999
 20
-7.000000000000174
 30
0.0
 11
-19.9999999999999
 21
-15.500001
 31
0.0
  0
LINE
  5
179D
330
DF3
100
AcDbEntity
  8
AM_5
100
AcDbLine
 10
-0.0000000000012435
 20
-7.000000000000156
 30
0.0
 11
-0.000000000001244
 21
-15.500001
 31
0.0
  0
LINE
  5
179E
330
DF3
100
AcDbEntity
  8
AM_5
100
AcDbLine
 10
-18.7499999999999
 20
-15.000001
 30
0.0
 11
-1.250000000001243
 21
-15.000001
 31
0.0
  0
INSERT
  5
179F
330
DF3
100
AcDbEntity
  8
AM_5
100
AcDbBlockReference
  2
_OPEN30
 10
-19.9999999999999
 20
-15.000001
 30
0.0
 41
1.25
 42
1.25
 43
1.25
 50
180.0
  0
INSERT
  5
17A0
330
DF3
100
AcDbEntity
  8
AM_5
100
AcDbBlockReference
  2
_OPEN30
 10
-0.000000000001244
 20
-15.000001
 30
0.0
 41
1.25
 42
1.25
 43
1.25
  0
MTEXT
  5
17A1
330
DF3
100
AcDbEntity
  8
AM_5
 62
     2
100
AcDbMText
 10
-10.00000000000057
 20
-13.450001
 30
0.0
 40
1.6
 41
0.0
 71
     5
 72
     1
  1
20
  7
ASAMI
1001
ACAD
1000
MTEXTBEGIN
1070
    73
1070
     1
1070
    44
1040
1.0
1070
    74
1070
     0
1000
MTEXTEND
  0
POINT
  5
17A2
330
DF3
100
AcDbEntity
  8
DEFPOINTS
 62
     0
100
AcDbPoint
 10
-19.9999999999999
 20
-6.500000000000174
 30
0.0
  0
POINT
  5
17A3
330
DF3
100
AcDbEntity
  8
DEFPOINTS
 62
     0
100
AcDbPoint
 10
-0.0000000000012434
 20
-6.500000000000156
 30
0.0
  0
POINT
  5
17A4
330
DF3
100
AcDbEntity
  8
DEFPOINTS
 62
     0
100
AcDbPoint
 10
-0.000000000001244
 20
-15.000001
 30
0.0
  0
ENDBLK
  5
DFE
330
DF3
100
AcDbEntity
  8
0
100
AcDbBlockEnd
  0
BLOCK
  5
E0A
330
DFF
100
AcDbEntity
  8
0
100
AcDbBlockBegin
  2
*D7
 70
     1
 10
0.0
 20
0.0
 30
0.0
  3
*D7
  1

  0
LINE
  5
1789
330
DFF
100
AcDbEntity
  8
AM_5
100
AcDbLine
 10
0.5000000000000071
 20
6.499999999999843
 30
0.0
 11
12.05776903085493
 21
6.49999999999984
 31
0.0
  0
LINE
  5
178A
330
DFF
100
AcDbEntity
  8
AM_5
100
AcDbLine
 10
0.4999999999987566
 20
-6.500000000000156
 30
0.0
 11
12.05776903085492
 21
-6.500000000000159
 31
0.0
  0
LINE
  5
178B
330
DFF
100
AcDbEntity
  8
AM_5
100
AcDbLine
 10
11.55776903085492
 20
5.24999999999984
 30
0.0
 11
11.55776903085492
 21
-5.250000000000159
 31
0.0
  0
INSERT
  5
178C
330
DFF
100
AcDbEntity
  8
AM_5
100
AcDbBlockReference
  2
_OPEN30
 10
11.55776903085492
 20
6.49999999999984
 30
0.0
 41
1.25
 42
1.25
 43
1.25
 50
90.0
  0
INSERT
  5
178D
330
DFF
100
AcDbEntity
  8
AM_5
100
AcDbBlockReference
  2
_OPEN30
 10
11.55776903085492
 20
-6.500000000000159
 30
0.0
 41
1.25
 42
1.25
 43
1.25
 50
270.0
  0
MTEXT
  5
178E
330
DFF
100
AcDbEntity
  8
AM_5
 62
     2
100
AcDbMText
 10
10.00776903085492
 20
-0.0000000000001577
 30
0.0
 40
1.6
 41
0.0
 71
     5
 72
     1
  1
%%c13
  7
ASAMI
 11
0.0000000000000001
 21
1.0
 31
0.0
1001
ACAD
1000
MTEXTBEGIN
1070
    73
1070
     1
1070
    44
1040
1.0
1070
    74
1070
     0
1000
MTEXTEND
  0
POINT
  5
178F
330
DFF
100
AcDbEntity
  8
DEFPOINTS
 62
     0
100
AcDbPoint
 10
0.0000000000000071
 20
6.499999999999843
 30
0.0
  0
POINT
  5
1790
330
DFF
100
AcDbEntity
  8
DEFPOINTS
 62
     0
100
AcDbPoint
 10
-0.0000000000012434
 20
-6.500000000000156
 30
0.0
  0
POINT
  5
1791
330
DFF
100
AcDbEntity
  8
DEFPOINTS
 62
     0
100
AcDbPoint
 10
11.55776903085492
 20
-6.500000000000159
 30
0.0
  0
ENDBLK
  5
E0B
330
DFF
100
AcDbEntity
  8
0
100
AcDbBlockEnd
  0
BLOCK
  5
15DC
330
15D2
100
AcDbEntity
  8
0
100
AcDbBlockBegin
  2
*D8
 70
     1
 10
0.0
 20
0.0
 30
0.0
  3
*D8
  1

  0
LINE
  5
15DE
330
15D2
100
AcDbEntity
  8
AM_5
100
AcDbLine
 10
-79.50000000000001
 20
7.999999999999999
 30
0.0
 11
-92.29349790496838
 21
8.000000000000003
 31
0.0
  0
LINE
  5
15DF
330
15D2
100
AcDbEntity
  8
AM_5
100
AcDbLine
 10
-79.5
 20
-8.0
 30
0.0
 11
-92.29349790496838
 21
-7.999999999999997
 31
0.0
  0
LINE
  5
15E0
330
15D2
100
AcDbEntity
  8
AM_5
100
AcDbLine
 10
-91.79349790496837
 20
6.750000000000002
 30
0.0
 11
-91.79349790496837
 21
-6.749999999999997
 31
0.0
  0
INSERT
  5
15E1
330
15D2
100
AcDbEntity
  8
AM_5
100
AcDbBlockReference
  2
_OPEN30
 10
-91.79349790496837
 20
8.000000000000001
 30
0.0
 41
1.25
 42
1.25
 43
1.25
 50
90.0
  0
INSERT
  5
15E2
330
15D2
100
AcDbEntity
  8
AM_5
100
AcDbBlockReference
  2
_OPEN30
 10
-91.79349790496837
 20
-7.999999999999997
 30
0.0
 41
1.25
 42
1.25
 43
1.25
 50
270.0
  0
MTEXT
  5
15E3
330
15D2
100
AcDbEntity
  8
AM_5
 62
     2
100
AcDbMText
 10
-93.34349790496837
 20
-0.000000000000012
 30
0.0
 40
1.6
 41
0.0
 71
     5
 72
     1
  1
%%c16
  7
ASAMI
 11
0.0000000000000001
 21
1.0
 31
0.0
1001
ACAD
1000
MTEXTBEGIN
1070
    73
1070
     1
1070
    44
1040
1.0
1070
    74
1070
     0
1000
MTEXTEND
  0
POINT
  5
15E4
330
15D2
100
AcDbEntity
  8
DEFPOINTS
 62
     0
100
AcDbPoint
 10
-79.00000000000002
 20
7.999999999999999
 30
0.0
  0
POINT
  5
15E5
330
15D2
100
AcDbEntity
  8
DEFPOINTS
 62
     0
100
AcDbPoint
 10
-79.0
 20
-8.0
 30
0.0
  0
POINT
  5
15E6
330
15D2
100
AcDbEntity
  8
DEFPOINTS
 62
     0
100
AcDbPoint
 10
-91.79349790496837
 20
-7.999999999999997
 30
0.0
  0
ENDBLK
  5
15DD
330
15D2
100
AcDbEntity
  8
0
100
AcDbBlockEnd
  0
ENDSEC
  0
SECTION
  2
ENTITIES
  0
DIMENSION
  5
D71
330
1F
100
AcDbEntity
  8
AM_5
100
AcDbDimension
  2
*D5
 10
-80.0
 20
-21.000001
 30
0.0
 11
-40.00000000000063
 21
-19.450001
 31
0.0
 70
    32
  1
<>
  3
AM_JIS
100
AcDbAlignedDimension
 13
-0.0000000000012434
 23
-6.500000000000156
 33
0.0
 14
-80.0
 24
-7.000000000000003
 34
0.0
100
AcDbRotatedDimension
1001
GENIUS_GENDTOL_13
1000

1000
h7
1000

1040
0.0
  0
LINE
  5
D74
330
1F
100
AcDbEntity
  8
AM_7
  6
AM_ISO08W050X2
100
AcDbLine
 10
4.557768030854926
 20
0.0
 30
0.0
 11
-84.79349690496837
 21
-0.0000000000000444
 31
0.0
1001
GENIUS_GENODEF_13
1002
{
1000
HIER
1070
     0
1002
}
1002
{
1000
MANEDIT
1070
     0
1002
}
1002
{
1000
NOSEL
1070
     0
1002
}
1002
{
1000
BEHIND
1070
     0
1002
}
1002
{
1000
REACTOR
1002
}
1001
GENIUS_GENOBJ-N-CEN_13
1002
{
1000
OWNER
1000
GEN
1002
}
  0
DIMENSION
  5
D7A
330
1F
100
AcDbEntity
  8
AM_5
100
AcDbDimension
  2
*D6
 10
-0.000000000001244
 20
-15.000001
 30
0.0
 11
-10.00000000000057
 21
-13.450001
 31
0.0
 70
    32
  1
<>
  3
AM_JIS
100
AcDbAlignedDimension
 13
-19.9999999999999
 23
-6.500000000000174
 33
0.0
 14
-0.0000000000012434
 24
-6.500000000000156
 34
0.0
100
AcDbRotatedDimension
1001
GENIUS_GENDTOL_13
1000

1000
h7
1000

1040
0.0
  0
DIMENSION
  5
DA6
330
1F
100
AcDbEntity
  8
AM_5
100
AcDbDimension
  2
*D7
 10
11.55776903085492
 20
-6.500000000000159
 30
0.0
 11
10.00776903085492
 21
-0.0000000000001577
 31
0.0
 70
    32
  1
%%c<>
  3
AM_JIS
100
AcDbAlignedDimension
 13
0.0000000000000071
 23
6.499999999999843
 33
0.0
 14
-0.0000000000012434
 24
-6.500000000000156
 34
0.0
 50
270.0
100
AcDbRotatedDimension
1001
GENIUS_GENDTOL_13
1000

1000
h7
1000

1040
0.0
  0
TEXT
  5
E5A
330
1F
100
AcDbEntity
  8
AM_6
100
AcDbText
 10
-47.97619047619109
 20
-32.250001
 30
0.0
 40
2.5
  1
SSM4130
 72
     4
 11
-40.00000000000062
 21
-31.000001
 31
0.0
100
AcDbText
  0
LINE
  5
15CB
330
1F
100
AcDbEntity
  8
AM_0
100
AcDbLine
 10
-33.0
 20
8.000000000000017
 30
0.0
 11
-79.0
 21
8.0
 31
0.0
  0
LINE
  5
15CC
330
1F
100
AcDbEntity
  8
AM_0
100
AcDbLine
 10
-32.99999999999999
 20
-7.99999999999993
 30
0.0
 11
-79.0
 21
-8.000000000000001
 31
0.0
  0
LINE
  5
15CF
330
1F
100
AcDbEntity
  8
AM_0
100
AcDbLine
 10
-80.0
 20
-7.000000000000003
 30
0.0
 11
-80.0
 21
7.0
 31
0.0
  0
LINE
  5
15D0
330
1F
100
AcDbEntity
  8
AM_0
100
AcDbLine
 10
-79.0
 20
-8.0
 30
0.0
 11
-79.0
 21
7.999999999999999
 31
0.0
  0
DIMENSION
  5
15D1
330
1F
100
AcDbEntity
  8
AM_5
100
AcDbDimension
  2
*D8
 10
-91.79349790496837
 20
-7.999999999999997
 30
0.0
 11
-93.34349790496837
 21
-0.000000000000012
 31
0.0
 70
    32
  1
%%c<>
  3
AM_JIS
100
AcDbAlignedDimension
 13
-79.00000000000002
 23
7.999999999999999
 33
0.0
 14
-79.0
 24
-8.0
 34
0.0
 50
270.0
100
AcDbRotatedDimension
1001
GENIUS_GENDTOL_13
1000

1000
h7
1000

1040
0.0
  0
LINE
  5
15EF
330
1F
100
AcDbEntity
  8
AM_0
100
AcDbLine
 10
-79.0
 20
8.0
 30
0.0
 11
-80.0
 21
7.0
 31
0.0
1001
GENIUS_GENFIL_13
1070
     0
1040
1.0
1040
1.0
1040
20.0
1040
0.0
1002
{
1002
}
1001
GENIUS_GENODEF_13
1002
{
1000
HIER
1070
     0
1002
}
1002
{
1000
MANEDIT
1070
     0
1002
}
1002
{
1000
NOSEL
1070
     0
1002
}
1002
{
1000
BEHIND
1070
     0
1002
}
1002
{
1000
REACTOR
1002
}
1001
GENIUS_GENOBJ-N-CHA_13
1002
{
1000
OWNER
1000
GEN
1002
}
  0
LINE
  5
15F2
330
1F
100
AcDbEntity
  8
AM_0
100
AcDbLine
 10
-80.0
 20
-7.000000000000003
 30
0.0
 11
-79.0
 21
-8.000000000000001
 31
0.0
1001
GENIUS_GENFIL_13
1070
     0
1040
1.0
1040
1.0
1040
20.0
1040
0.0
1002
{
1002
}
1001
GENIUS_GENODEF_13
1002
{
1000
HIER
1070
     0
1002
}
1002
{
1000
MANEDIT
1070
     0
1002
}
1002
{
1000
NOSEL
1070
     0
1002
}
1002
{
1000
BEHIND
1070
     0
1002
}
1002
{
1000
REACTOR
1002
}
1001
GENIUS_GENOBJ-N-CHA_13
1002
{
1000
OWNER
1000
GEN
1002
}
  0
LINE
  5
1604
330
1F
100
AcDbEntity
  8
AM_0
100
AcDbLine
 10
-32.99999999999999
 20
-7.999999999999929
 30
0.0
 11
-33.0
 21
8.000000000000017
 31
0.0
  0
LINE
  5
1703
330
1F
100
AcDbEntity
  8
AM_0
100
AcDbLine
 10
0.0000000000000178
 20
-0.0000000000001563
 30
0.0
 11
-0.1184568121919387
 21
-1.099956113211632
 31
0.0
  0
LINE
  5
1704
330
1F
100
AcDbEntity
  8
AM_0
100
AcDbLine
 10
-0.1399999999999686
 20
-1.724967210932298
 30
0.0
 11
0.0000000000000178
 21
-1.300000000000153
 31
0.0
  0
LINE
  5
1705
330
1F
100
AcDbEntity
  8
AM_0
100
AcDbLine
 10
0.0000000000000178
 20
-1.300000000000153
 30
0.0
 11
-0.7698003589195164
 21
-0.0000000000000853
 31
0.0
  0
LINE
  5
1706
330
1F
100
AcDbEntity
  8
AM_0
100
AcDbLine
 10
-1.147277314254877
 20
-1.915751194716662
 30
0.0
 11
-0.1399999999999686
 21
-1.724967210932298
 31
0.0
  0
LINE
  5
1707
330
1F
100
AcDbEntity
  8
AM_0
100
AcDbLine
 10
0.0000000000000178
 20
-0.0000000000001563
 30
0.0
 11
-0.1399999999999686
 21
1.29999999999999
 31
0.0
  0
LINE
  5
1708
330
1F
100
AcDbEntity
  8
AM_0
100
AcDbLine
 10
0.0000000000000178
 20
-0.0000000000001563
 30
0.0
 11
0.0000000000000071
 21
6.499999999999843
 31
0.0
  0
LINE
  5
1709
330
1F
100
AcDbEntity
  8
AM_0
100
AcDbLine
 10
-0.1399999999999686
 20
1.29999999999999
 30
0.0
 11
-1.423365596994456
 21
3.467283058213354
 31
0.0
  0
LINE
  5
170A
330
1F
100
AcDbEntity
  8
AM_0
100
AcDbLine
 10
-3.142096308029165
 20
-0.0000000000001563
 30
0.0
 11
-3.142096308029165
 21
-1.040000000000169
 31
0.0
  0
LINE
  5
170B
330
1F
100
AcDbEntity
  8
AM_0
100
AcDbLine
 10
-1.423365596994456
 20
3.467283058213354
 30
0.0
 11
-3.142096308029165
 21
3.910989449286347
 31
0.0
  0
LINE
  5
170C
330
1F
100
AcDbEntity
  8
AM_0
100
AcDbLine
 10
-3.142096308029165
 20
-1.040000000000169
 30
0.0
 11
-1.147277314254877
 21
-1.915751194716662
 31
0.0
  0
LINE
  5
170D
330
1F
100
AcDbEntity
  8
AM_0
100
AcDbLine
 10
-3.142096308029165
 20
-1.040000000000169
 30
0.0
 11
-0.1539600717838816
 21
-1.040000000000169
 31
0.0
  0
LINE
  5
170E
330
1F
100
AcDbEntity
  8
AM_0
100
AcDbLine
 10
0.0000000000000178
 20
-0.0000000000001563
 30
0.0
 11
-3.142096308029165
 21
-0.0000000000001563
 31
0.0
  0
LINE
  5
170F
330
1F
100
AcDbEntity
  8
AM_0
100
AcDbLine
 10
0.0000000000000178
 20
-6.500000000000156
 30
0.0
 11
-0.1399999999999686
 21
-6.153473504908532
 31
0.0
  0
LINE
  5
1710
330
1F
100
AcDbEntity
  8
AM_0
100
AcDbLine
 10
-0.1399999999999686
 20
-6.153473504908454
 30
0.0
 11
-0.913333333333318
 21
-5.196901652100642
 31
0.0
  0
ELLIPSE
  5
1711
330
1F
100
AcDbEntity
  8
AM_0
100
AcDbEllipse
 10
2.64756424270295
 20
-3.307044214133426
 30
0.0
 11
-4.054264154021399
 21
0.0000000000000885
 31
0.0
210
0.0
220
0.0
230
1.0
 40
0.9750000000000015
 41
-0.3596717454910507
 42
0.498482211495444
  0
LINE
  5
1712
330
1F
100
AcDbEntity
  8
AM_0
100
AcDbLine
 10
-0.1399999999999686
 20
-6.153473504908532
 30
0.0
 11
-0.1399999999999686
 21
-1.724967210932298
 31
0.0
  0
LINE
  5
1713
330
1F
100
AcDbEntity
  8
AM_0
100
AcDbLine
 10
0.0000000000000178
 20
-6.500000000000156
 30
0.0
 11
0.0000000000000178
 21
-1.300000000000153
 31
0.0
  0
SPLINE
  5
1714
330
1F
100
AcDbEntity
  8
AM_0
100
AcDbSpline
210
0.0
220
0.0
230
1.0
 70
     8
 71
     3
 72
     8
 73
     4
 74
     0
 42
0.0000000001
 43
0.0000000001
 40
0.0
 40
0.0
 40
0.0
 40
0.0
 40
5.635889483499127
 40
5.635889483499127
 40
5.635889483499127
 40
5.635889483499127
 10
0.0000000000000071
 20
6.499999999999843
 30
0.0
 10
-2.504839770444041
 20
6.499999999999843
 30
0.0
 10
-4.919919005114811
 20
6.008332237672725
 30
0.0
 10
-7.280150097391755
 20
5.216231069882461
 30
0.0
  0
SPLINE
  5
1715
330
1F
100
AcDbEntity
  8
AM_0
100
AcDbSpline
210
0.0
220
0.0
230
1.0
 70
     8
 71
     3
 72
     8
 73
     4
 74
     0
 42
0.0000000001
 43
0.0000000001
 40
0.0
 40
0.0
 40
0.0
 40
0.0
 40
2.586565323616714
 40
2.586565323616714
 40
2.586565323616714
 40
2.586565323616714
 10
0.0000000000000178
 20
5.297113492688993
 30
0.0
 10
-0.7376898406705746
 20
4.437476154996154
 30
0.0
 10
-2.003892672954647
 20
4.068315936001496
 30
0.0
 10
-3.142096308029165
 20
3.910989449286347
 30
0.0
  0
LINE
  5
1716
330
1F
100
AcDbEntity
  8
AM_0
100
AcDbLine
 10
-19.99999999999999
 20
3.320627904838964
 30
0.0
 11
-20.7533725661334
 21
2.586089652858888
 31
0.0
  0
LINE
  5
1717
330
1F
100
AcDbEntity
  8
AM_0
100
AcDbLine
 10
-20.7533725661334
 20
2.586089652858888
 30
0.0
 11
-19.99999999999998
 21
1.033318180328038
 31
0.0
  0
LINE
  5
1718
330
1F
100
AcDbEntity
  8
AM_0
100
AcDbLine
 10
-19.99999999999993
 20
-4.930593474448279
 30
0.0
 11
-19.99999999999998
 21
-6.410389369686356
 31
0.0
  0
ELLIPSE
  5
1719
330
1F
100
AcDbEntity
  8
AM_0
100
AcDbEllipse
 10
-4.034328723889915
 20
-405.7855156092095
 30
0.0
 11
-409.9265446888193
 21
0.0000000067980015
 31
0.0
210
0.0
220
0.0
230
1.0
 40
0.9750000000101001
 41
-1.531838833837189
 42
-1.526454132804856
  0
LINE
  5
171A
330
1F
100
AcDbEntity
  8
AM_11
100
AcDbLine
 10
-19.99999999999987
 20
6.500000000000021
 30
0.0
 11
-19.9999999999999
 21
-6.500000000000163
 31
0.0
  0
POLYLINE
  5
171B
330
1F
100
AcDbEntity
  8
AM_0
100
AcDb2dPolyline
 66
     1
 10
0.0
 20
0.0
 30
0.0
 70
     2
  0
VERTEX
  5
171C
330
171B
100
AcDbEntity
  8
AM_0
100
AcDbVertex
100
AcDb2dVertex
 10
-24.09309150685894
 20
4.842169371349399
 30
0.0
 42
-0.0100635788804193
  0
VERTEX
  5
171D
330
171B
100
AcDbEntity
  8
AM_0
100
AcDbVertex
100
AcDb2dVertex
 10
-24.70846860484011
 20
5.156327624801633
 30
0.0
 42
-0.0111716247241469
 70
     1
  0
VERTEX
  5
171E
330
171B
100
AcDbEntity
  8
AM_0
100
AcDbVertex
100
AcDb2dVertex
 10
-25.24999999999998
 20
5.4620252101885
 30
0.0
 42
-0.0056817162269327
  0
VERTEX
  5
171F
330
171B
100
AcDbEntity
  8
AM_0
100
AcDbVertex
100
AcDb2dVertex
 10
-25.96572084860306
 20
5.898096490128843
 30
0.0
 42
-0.1012800428637157
 70
     1
  0
VERTEX
  5
1720
330
171B
100
AcDbEntity
  8
AM_0
100
AcDbVertex
100
AcDb2dVertex
 10
-25.99999999999997
 20
5.930619308518807
 30
0.0
 42
-0.5091829191374789
  0
VERTEX
  5
1721
330
171B
100
AcDbEntity
  8
AM_0
100
AcDbVertex
100
AcDb2dVertex
 10
-25.97810845099731
 20
5.990055329121453
 30
0.0
 42
-0.0351954426445148
 70
     1
  0
VERTEX
  5
1722
330
171B
100
AcDbEntity
  8
AM_0
100
AcDbVertex
100
AcDb2dVertex
 10
-25.24999999999998
 20
6.144137067824217
 30
0.0
 42
-0.011586529956417
  0
VERTEX
  5
1723
330
171B
100
AcDbEntity
  8
AM_0
100
AcDbVertex
100
AcDb2dVertex
 10
-24.59938264959974
 20
6.220753235256076
 30
0.0
 42
-0.0032183393648243
 70
     1
  0
VERTEX
  5
1724
330
171B
100
AcDbEntity
  8
AM_0
100
AcDbVertex
100
AcDb2dVertex
 10
-22.24999999999997
 20
6.428827413564846
 30
0.0
 42
-0.0129305071352978
  0
VERTEX
  5
1725
330
171B
100
AcDbEntity
  8
AM_0
100
AcDbVertex
100
AcDb2dVertex
 10
-21.46755437194856
 20
6.473347562859736
 30
0.0
 42
-0.0069037738036377
 70
     1
  0
VERTEX
  5
1726
330
171B
100
AcDbEntity
  8
AM_0
100
AcDbVertex
100
AcDb2dVertex
 10
-19.99999999999999
 20
6.499999999999985
 30
0.0
  0
SEQEND
  5
1727
330
171B
100
AcDbEntity
  8
AM_0
  0
POLYLINE
  5
1728
330
1F
100
AcDbEntity
  8
AM_0
100
AcDb2dPolyline
 66
     1
 10
0.0
 20
0.0
 30
0.0
 70
     2
  0
VERTEX
  5
1729
330
1728
100
AcDbEntity
  8
AM_0
100
AcDbVertex
100
AcDb2dVertex
 10
-19.99999999999998
 20
1.033318180328038
 30
0.0
 42
0.0405418597991228
  0
VERTEX
  5
172A
330
1728
100
AcDbEntity
  8
AM_0
100
AcDbVertex
100
AcDb2dVertex
 10
-21.18569776373058
 20
1.51822248567096
 30
0.0
 42
0.0478227441547119
 70
     1
  0
VERTEX
  5
172B
330
1728
100
AcDbEntity
  8
AM_0
100
AcDbVertex
100
AcDb2dVertex
 10
-22.24999999999997
 20
1.750866242536439
 30
0.0
 42
0.0443214214461838
  0
VERTEX
  5
172C
330
1728
100
AcDbEntity
  8
AM_0
100
AcDbVertex
100
AcDb2dVertex
 10
-24.36844399027372
 20
1.826059334703188
 30
0.0
 42
0.1039236762820958
 70
     1
  0
VERTEX
  5
172D
330
1728
100
AcDbEntity
  8
AM_0
100
AcDbVertex
100
AcDb2dVertex
 10
-25.24999999999998
 20
1.598053171371454
 30
0.0
 42
0.1017574481668659
  0
VERTEX
  5
172E
330
1728
100
AcDbEntity
  8
AM_0
100
AcDbVertex
100
AcDb2dVertex
 10
-25.83878143930567
 20
1.143977729738587
 30
0.0
 42
0.1704800302432918
 70
     1
  0
VERTEX
  5
172F
330
1728
100
AcDbEntity
  8
AM_0
100
AcDbVertex
100
AcDb2dVertex
 10
-25.99999999999997
 20
0.7276920379981533
 30
0.0
 42
0.1172295991725115
  0
VERTEX
  5
1730
330
1728
100
AcDbEntity
  8
AM_0
100
AcDbVertex
100
AcDb2dVertex
 10
-25.88033995490152
 20
0.1804848428043471
 30
0.0
 42
0.0556068033830928
 70
     1
  0
VERTEX
  5
1731
330
1728
100
AcDbEntity
  8
AM_0
100
AcDbVertex
100
AcDb2dVertex
 10
-25.24999999999998
 20
-0.811751516639724
 30
0.0
 42
0.0341135094462395
  0
VERTEX
  5
1732
330
1728
100
AcDbEntity
  8
AM_0
100
AcDbVertex
100
AcDb2dVertex
 10
-24.17381420397391
 20
-1.975184331491071
 30
0.0
 42
0.0212902001773867
 70
     1
  0
VERTEX
  5
1733
330
1728
100
AcDbEntity
  8
AM_0
100
AcDbVertex
100
AcDb2dVertex
 10
-22.24999999999997
 20
-3.640894272862965
 30
0.0
 42
0.0380483921513513
  0
VERTEX
  5
1734
330
1728
100
AcDbEntity
  8
AM_0
100
AcDbVertex
100
AcDb2dVertex
 10
-21.44525930564935
 20
-4.186405080171901
 30
0.0
 42
0.022795517676966
 70
     1
  0
VERTEX
  5
1735
330
1728
100
AcDbEntity
  8
AM_0
100
AcDbVertex
100
AcDb2dVertex
 10
-19.99999999999998
 20
-4.93059347444835
 30
0.0
  0
SEQEND
  5
1736
330
1728
100
AcDbEntity
  8
AM_0
  0
SPLINE
  5
1737
330
1F
100
AcDbEntity
  8
AM_0
100
AcDbSpline
210
0.0
220
0.0
230
1.0
 70
     8
 71
     3
 72
     8
 73
     4
 74
     0
 42
0.0000000001
 43
0.0000000001
 40
5.522276060027962
 40
5.522276060027962
 40
5.522276060027962
 40
5.522276060027962
 40
14.36247867694493
 40
14.36247867694493
 40
14.36247867694493
 40
14.36247867694493
 10
-24.09309150685903
 20
4.84216937134947
 30
0.0
 10
-20.35845460739758
 20
3.694688756402584
 30
0.0
 10
-16.74234951638192
 20
1.847344378201249
 30
0.0
 10
-13.12624442536626
 20
-0.0000000000000924
 30
0.0
  0
SPLINE
  5
1738
330
1F
100
AcDbEntity
  8
AM_0
100
AcDbSpline
210
0.0
220
0.0
230
1.0
 70
     8
 71
     3
 72
     8
 73
     4
 74
     0
 42
0.0000000001
 43
0.0000000001
 40
0.0
 40
0.0
 40
0.0
 40
0.0
 40
1.412269715655734
 40
1.412269715655734
 40
1.412269715655734
 40
1.412269715655734
 10
-18.13333333333357
 20
-6.500000000000014
 30
0.0
 10
-18.76100876251387
 20
-6.500000000000014
 30
0.0
 10
-19.38304786974422
 20
-6.469126768495407
 30
0.0
 10
-19.99999999999998
 20
-6.410389369686356
 30
0.0
  0
SPLINE
  5
1739
330
1F
100
AcDbEntity
  8
AM_0
100
AcDbSpline
210
0.0
220
0.0
230
1.0
 70
     8
 71
     3
 72
     8
 73
     4
 74
     0
 42
0.0000000001
 43
0.0000000001
 40
12.94851199321065
 40
12.94851199321065
 40
12.94851199321065
 40
12.94851199321065
 40
14.48999654934396
 40
14.48999654934396
 40
14.48999654934396
 40
14.48999654934396
 10
-20.00000000000006
 20
1.033318180327924
 30
0.0
 10
-19.37730154586736
 20
0.6914873706660601
 30
0.0
 10
-18.75531743960033
 20
0.3457436853330194
 30
0.0
 10
-18.1333333333333
 20
-0.0000000000000142
 30
0.0
  0
SPLINE
  5
173A
330
1F
100
AcDbEntity
  8
AM_0
100
AcDbSpline
210
0.0
220
0.0
230
1.0
 70
     8
 71
     3
 72
     8
 73
     4
 74
     0
 42
0.0000000001
 43
0.0000000001
 40
0.0
 40
0.0
 40
0.0
 40
0.0
 40
2.764560748519282
 40
2.764560748519282
 40
2.764560748519282
 40
2.764560748519282
 10
-15.80606829067408
 20
-6.305368771436164
 30
0.0
 10
-14.57737462466553
 20
-6.305368771436164
 30
0.0
 10
-13.36918583482954
 20
-6.189795493063236
 30
0.0
 10
-12.17757596343541
 20
-5.980777126796205
 30
0.0
  0
SPLINE
  5
173B
330
1F
100
AcDbEntity
  8
AM_0
100
AcDbSpline
210
0.0
220
0.0
230
1.0
 70
     8
 71
     3
 72
     8
 73
     4
 74
     0
 42
0.0000000001
 43
0.0000000001
 40
0.0
 40
0.0
 40
0.0
 40
0.0
 40
5.291496149500158
 40
5.291496149500158
 40
5.291496149500158
 40
5.291496149500158
 10
-13.12624442536652
 20
-6.002677854943513
 30
0.0
 10
-15.47802049181103
 20
-6.002677854943513
 30
0.0
 10
-17.7607988574771
 20
-5.595285179881273
 30
0.0
 10
-19.99999999999993
 20
-4.930593474448279
 30
0.0
  0
SPLINE
  5
173C
330
1F
100
AcDbEntity
  8
AM_0
100
AcDbSpline
210
0.0
220
0.0
230
1.0
 70
     8
 71
     3
 72
     8
 73
     4
 74
     0
 42
0.0000000001
 43
0.0000000001
 40
0.0
 40
0.0
 40
0.0
 40
0.0
 40
3.20279236890966
 40
3.20279236890966
 40
3.20279236890966
 40
3.20279236890966
 10
-15.80606829067408
 20
-6.305368771436022
 30
0.0
 10
-17.22953156574504
 20
-6.305368771436022
 30
0.0
 10
-18.62547395262347
 20
-6.150250581724584
 30
0.0
 10
-19.9999999999974
 20
-5.87442175974948
 30
0.0
  0
SPLINE
  5
173D
330
1F
100
AcDbEntity
  8
AM_0
100
AcDbSpline
210
0.0
220
0.0
230
1.0
 70
     8
 71
     3
 72
     8
 73
     4
 74
     0
 42
0.0000000001
 43
0.0000000001
 40
10.38442441395913
 40
10.38442441395913
 40
10.38442441395913
 40
10.38442441395913
 40
14.43901837670146
 40
14.43901837670146
 40
14.43901837670146
 40
14.43901837670146
 10
-20.75337256614195
 20
2.586089652842446
 30
0.0
 10
-19.09601422138593
 20
1.770598906832837
 30
0.0
 10
-17.4510412560299
 20
0.8852994534163727
 30
0.0
 10
-15.80606829067386
 20
-0.0000000000000924
 30
0.0
  0
SPLINE
  5
173E
330
1F
100
AcDbEntity
  8
AM_0
100
AcDbSpline
210
0.0
220
0.0
230
1.0
 70
     8
 71
     3
 72
     8
 73
     4
 74
     0
 42
0.0000000001
 43
0.0000000001
 40
0.0
 40
0.0
 40
0.0
 40
0.0
 40
2.130230809022907
 40
2.130230809022907
 40
2.130230809022907
 40
2.130230809022907
 10
-18.13333333333357
 20
-6.500000000000163
 30
0.0
 10
-17.18656408487893
 20
-6.500000000000163
 30
0.0
 10
-16.25261855039541
 20
-6.429757474166379
 30
0.0
 10
-15.32961146576346
 20
-6.299599049708497
 30
0.0
  0
SPLINE
  5
173F
330
1F
100
AcDbEntity
  8
AM_0
100
AcDbSpline
210
0.0
220
0.0
230
1.0
 70
     8
 71
     3
 72
     8
 73
     4
 74
     0
 42
0.0000000001
 43
0.0000000001
 40
1.870660592686466
 40
1.870660592686466
 40
1.870660592686466
 40
1.870660592686466
 40
14.43901837670146
 40
14.43901837670146
 40
14.43901837670146
 40
14.43901837670146
 10
-0.1399999999999686
 20
-6.153473504908454
 30
0.0
 10
-5.607952788305075
 20
-5.488470795732077
 30
0.0
 10
-10.70701053948947
 20
-2.744235397866091
 30
0.0
 10
-15.80606829067386
 20
-0.0000000000000924
 30
0.0
  0
SPLINE
  5
1740
330
1F
100
AcDbEntity
  8
AM_0
100
AcDbSpline
210
0.0
220
0.0
230
1.0
 70
     8
 71
     3
 72
     8
 73
     4
 74
     0
 42
0.0000000001
 43
0.0000000001
 40
0.0
 40
0.0
 40
0.0
 40
0.0
 40
14.48999654934395
 40
14.48999654934395
 40
14.48999654934395
 40
14.48999654934395
 10
0.0000000000000178
 20
-6.500000000000156
 30
0.0
 10
-6.439998466375074
 20
-6.500000000000163
 30
0.0
 10
-12.28666589985419
 20
-3.250000000000163
 30
0.0
 10
-18.1333333333333
 20
-0.0000000000001634
 30
0.0
  0
SPLINE
  5
1741
330
1F
100
AcDbEntity
  8
AM_0
100
AcDbSpline
210
0.0
220
0.0
230
1.0
 70
     8
 71
     3
 72
     8
 73
     4
 74
     0
 42
0.0000000001
 43
0.0000000001
 40
0.0
 40
0.0
 40
0.0
 40
0.0
 40
14.48999654934396
 40
14.48999654934396
 40
14.48999654934396
 40
14.48999654934396
 10
-18.13333333333331
 20
6.499999999999985
 30
0.0
 10
-11.69333486695822
 20
6.499999999999985
 30
0.0
 10
-5.846667433479103
 20
3.249999999999992
 30
0.0
 10
0.0000000000000178
 20
-0.0000000000000071
 30
0.0
  0
SPLINE
  5
1742
330
1F
100
AcDbEntity
  8
AM_0
100
AcDbSpline
210
0.0
220
0.0
230
1.0
 70
     8
 71
     3
 72
     8
 73
     4
 74
     0
 42
0.0000000001
 43
0.0000000001
 40
0.3581103616548037
 40
0.3581103616548037
 40
0.3581103616548037
 40
0.3581103616548037
 40
12.40023413887867
 40
12.40023413887867
 40
12.40023413887867
 40
12.40023413887867
 10
-15.32961146576295
 20
6.299599049708312
 30
0.0
 10
-10.00040905171581
 20
6.170793118181521
 30
0.0
 10
-5.050612504200008
 20
3.903511467030341
 30
0.0
 10
-0.1557503898610761
 20
1.326598463591494
 30
0.0
  0
SPLINE
  5
1743
330
1F
100
AcDbEntity
  8
AM_0
100
AcDbSpline
210
0.0
220
0.0
230
1.0
 70
     8
 71
     3
 72
     8
 73
     4
 74
     0
 42
0.0000000001
 43
0.0000000001
 40
4.542668862435135
 40
4.542668862435135
 40
4.542668862435135
 40
4.542668862435135
 40
14.36247867694493
 40
14.36247867694493
 40
14.36247867694493
 40
14.36247867694493
 10
-0.9133333333314634
 20
-5.196901652093771
 30
0.0
 10
-5.092613115807372
 20
-4.104107392544875
 30
0.0
 10
-9.109428770586818
 20
-2.05205369627248
 30
0.0
 10
-13.12624442536626
 20
-0.0000000000000924
 30
0.0
  0
SPLINE
  5
1744
330
1F
100
AcDbEntity
  8
AM_0
100
AcDbSpline
210
0.0
220
0.0
230
1.0
 70
     8
 71
     3
 72
     8
 73
     4
 74
     0
 42
0.0000000001
 43
0.0000000001
 40
0.7142832446738512
 40
0.7142832446738512
 40
0.7142832446738512
 40
0.7142832446738512
 40
9.361146747480315
 40
9.361146747480315
 40
9.361146747480315
 40
9.361146747480315
 10
-12.17757596329472
 20
5.980777126771414
 30
0.0
 10
-8.364208045181944
 20
5.805518470662903
 30
0.0
 10
-4.725921801930686
 20
4.596500847639362
 30
0.0
 10
-1.151793606173272
 20
3.008665984325077
 30
0.0
  0
SPLINE
  5
1745
330
1F
100
AcDbEntity
  8
AM_0
100
AcDbSpline
210
0.0
220
0.0
230
1.0
 70
     8
 71
     3
 72
     8
 73
     4
 74
     0
 42
0.0000000001
 43
0.0000000001
 40
0.0
 40
0.0
 40
0.0
 40
0.0
 40
4.451443990518192
 40
4.451443990518192
 40
4.451443990518192
 40
4.451443990518192
 10
-13.12624442536652
 20
-6.002677854943655
 30
0.0
 10
-11.14782487402508
 20
-6.002677854943655
 30
0.0
 10
-9.218234507803364
 20
-5.714368938521829
 30
0.0
 10
-7.322339422063295
 20
-5.227108313600666
 30
0.0
  0
LINE
  5
1746
330
1F
100
AcDbEntity
  8
AM_11
100
AcDbLine
 10
-19.9999999999999
 20
-6.500000000000174
 30
0.0
 11
0.0000000000000178
 21
-6.500000000000156
 31
0.0
  0
LINE
  5
1747
330
1F
100
AcDbEntity
  8
AM_11
100
AcDbLine
 10
-0.0000000000010161
 20
6.499999999999843
 30
0.0
 11
-19.99999999999987
 21
6.499999999999835
 31
0.0
  0
LINE
  5
175C
330
1F
100
AcDbEntity
  8
AM_0
100
AcDbLine
 10
-33.0
 20
8.000000000000017
 30
0.0
 11
-28.87878387081757
 21
6.499999999999835
 31
0.0
  0
LINE
  5
175D
330
1F
100
AcDbEntity
  8
AM_0
100
AcDbLine
 10
-28.87878387081757
 20
6.499999999999835
 30
0.0
 11
-28.87878387081874
 21
-6.500000000000174
 31
0.0
  0
LINE
  5
175E
330
1F
100
AcDbEntity
  8
AM_0
100
AcDbLine
 10
-28.87878387081874
 20
-6.500000000000174
 30
0.0
 11
-32.99999999999999
 21
-7.99999999999993
 31
0.0
  0
LINE
  5
175F
330
1F
100
AcDbEntity
  8
AM_0
100
AcDbLine
 10
-28.87878387081757
 20
6.499999999999835
 30
0.0
 11
-18.13333333333331
 21
6.499999999999985
 31
0.0
  0
LINE
  5
1760
330
1F
100
AcDbEntity
  8
AM_0
100
AcDbLine
 10
-28.87878387081874
 20
-6.500000000000174
 30
0.0
 11
-22.20541496093705
 21
-6.500000000000175
 31
0.0
  0
VIEWPORT
  5
110
330
101
100
AcDbEntity
 67
     1
  8
0
100
AcDbViewport
 10
420.5
 20
297.0
 30
0.0
 40
948.9782706766916
 41
628.452
 68
     1
 69
     1
1001
ACAD
1000
MVIEW
1002
{
1070
    16
1010
0.0
1020
0.0
1030
0.0
1010
0.0
1020
0.0
1030
1.0
1040
0.0
1040
628.452
1040
420.5
1040
297.0
1040
50.0
1040
0.0
1040
0.0
1070
     0
1070
   100
1070
     1
1070
     1
1070
     0
1070
     0
1070
     0
1070
     0
1040
0.0
1040
0.0
1040
0.0
1040
10.0
1040
10.0
1040
10.0
1040
10.0
1070
     0
1002
{
1002
}
1002
}
  0
ENDSEC
  0
SECTION
  2
OBJECTS
  0
DICTIONARY
  5
C
330
0
100
AcDbDictionary
  3
ACAD_GROUP
350
D
  3
ACAD_LAYOUT
350
1A
  3
ACAD_MLINESTYLE
350
17
  3
ACAD_PLOTSETTINGS
350
19
  3
ACAD_PLOTSTYLENAME
350
E
  3
ACDBVARIABLEDICTIONARY
350
34
  3
ACMDICTIONARY
350
43
  3
AMG
350
2B
  3
AMGSNAPSETTINGS
350
6E
  3
DWGPROPS
350
1975
  3
ACDBHEADERROUNDTRIPXREC
350
1981
  0
DICTIONARY
  5
74
330
1F
100
AcDbDictionary
280
     1
  3
ACAD_INDEX
360
1977
  3
ACAD_LAYOUTSELFREF
360
19A4
  0
DICTIONARY
  5
19A9
330
101
100
AcDbDictionary
280
     1
  3
ACAD_LAYOUTSELFREF
360
19AA
  0
DICTIONARY
  5
D
102
{ACAD_REACTORS
330
C
102
}
330
C
100
AcDbDictionary
  0
DICTIONARY
  5
1A
102
{ACAD_REACTORS
330
C
102
}
330
C
100
AcDbDictionary
  0
DICTIONARY
  5
17
102
{ACAD_REACTORS
330
C
102
}
330
C
100
AcDbDictionary
  3
STANDARD
350
18
  0
DICTIONARY
  5
19
102
{ACAD_REACTORS
330
C
102
}
330
C
100
AcDbDictionary
  0
ACDBDICTIONARYWDFLT
  5
E
102
{ACAD_REACTORS
330
C
102
}
330
C
100
AcDbDictionary
281
     1
  3
Normal
350
F
100
AcDbDictionaryWithDefault
340
F
  0
DICTIONARY
  5
34
102
{ACAD_REACTORS
330
C
102
}
330
C
100
AcDbDictionary
  3
INDEXCTL
350
35
  3
SORTENTS
350
B5E
  0
DICTIONARY
  5
43
102
{ACAD_REACTORS
330
C
102
}
330
C
100
AcDbDictionary
  3
ACMSTDDICTIONARY
350
260
  0
DICTIONARY
  5
2B
102
{ACAD_REACTORS
330
C
102
}
330
C
100
AcDbDictionary
  3
ACMGSETTINGS
350
2C
  0
DICTIONARY
  5
6E
102
{ACAD_REACTORS
330
C
102
}
330
C
100
AcDbDictionary
  0
XRECORD
  5
1975
102
{ACAD_REACTORS
330
C
102
}
330
C
100
AcDbXrecord
  1
DWGPROPS COOKIE
  2

  3

  4

  6

  7

  8

  9

300
AmdtFileType=82
301
=
302
=
303
=
304
=
305
=
306
=
307
=
308
=
309
=
 40
0.0419404513888889
 41
2452836.771637361
 42
2452845.709019455
  1

 90
        1
  0
DICTIONARY
  5
1981
102
{ACAD_REACTORS
330
C
102
}
330
C
100
AcDbDictionary
  3
TSTACKALIGN
350
1982
  3
TSTACKSIZE
350
1983
  3
HYPERLINKBASE
350
1984
  3
STYLESHEET
350
1985
  3
LAYOUTDICT
350
1986
  3
PLOTSETDICT
350
1987
  3
PLOTSTYLNAMDICT
350
1988
  3
LWETCUNION
350
1989
  3
INSUNITS
350
198A
  3
CEPSNTYPE
350
198B
  3
FINGERPRINTGUID
350
198C
  3
VERSIONGUID
350
198D
  3
PSVPSCALE
350
198E
  3
DIMSTYLEDATA
350
198F
  3
PUCSORTHOREF
350
1990
  3
PUCSORTHOVIEW
350
1991
  3
PUCSBASE
350
1992
  3
PUCSORGTOP
350
1993
  3
PUCSORGBOTTOM
350
1994
  3
PUCSORGLEFT
350
1995
  3
PUCSORGRIGHT
350
1996
  3
PUCSORGFRONT
350
1997
  3
PUCSORGBACK
350
1998
  3
UCSORTHOREF
350
1999
  3
UCSORTHOVIEW
350
199A
  3
UCSBASE
350
199B
  3
UCSORGTOP
350
199C
  3
UCSORGBOTTOM
350
199D
  3
UCSORGLEFT
350
199E
  3
UCSORGRIGHT
350
199F
  3
UCSORGFRONT
350
19A0
  3
UCSORGBACK
350
19A1
  0
DICTIONARY
  5
1977
102
{ACAD_REACTORS
330
74
102
}
330
74
100
AcDbDictionary
  3
*A1
350
1978
  0
XRECORD
  5
19A4
102
{ACAD_REACTORS
330
74
102
}
330
74
100
AcDbXrecord
340
1F
  0
XRECORD
  5
19AA
102
{ACAD_REACTORS
330
19A9
102
}
330
19A9
100
AcDbXrecord
340
101
  0
MLINESTYLE
  5
18
102
{ACAD_REACTORS
330
17
102
}
330
17
100
AcDbMlineStyle
  2
STANDARD
 70
     0
  3

 62
   256
 51
90.0
 52
90.0
 71
     2
 49
0.5
 62
   256
  6
BYLAYER
 49
-0.5
 62
   256
  6
BYLAYER
  0
ACDBPLACEHOLDER
  5
F
102
{ACAD_REACTORS
330
E
102
}
330
E
100
AcDbPlaceHolder
280
     0
  0
DICTIONARYVAR
  5
35
102
{ACAD_REACTORS
330
34
102
}
330
34
100
DictionaryVariables
280
     0
  1
1
  0
DICTIONARYVAR
  5
B5E
102
{ACAD_REACTORS
330
34
102
}
330
34
100
DictionaryVariables
280
     0
  1
96
  0
DICTIONARY
  5
260
102
{ACAD_REACTORS
330
43
102
}
330
43
100
AcDbDictionary
  0
DICTIONARY
  5
2C
102
{ACAD_REACTORS
330
2B
102
}
330
2B
100
AcDbDictionary
  3
DWGSETTINGS
350
2D
  0
XRECORD
  5
1982
102
{ACAD_REACTORS
330
1981
102
}
330
1981
100
AcDbXrecord
 90
        1
  0
XRECORD
  5
1983
102
{ACAD_REACTORS
330
1981
102
}
330
1981
100
AcDbXrecord
 90
       70
  0
XRECORD
  5
1984
102
{ACAD_REACTORS
330
1981
102
}
330
1981
100
AcDbXrecord
  1

  0
XRECORD
  5
1985
102
{ACAD_REACTORS
330
1981
102
}
330
1981
100
AcDbXrecord
  1
ASAMI.ctb
  0
XRECORD
  5
1986
102
{ACAD_REACTORS
330
1981
102
}
330
1981
100
AcDbXrecord
340
1A
  0
XRECORD
  5
1987
102
{ACAD_REACTORS
330
1981
102
}
330
1981
100
AcDbXrecord
340
19
  0
XRECORD
  5
1988
102
{ACAD_REACTORS
330
1981
102
}
330
1981
100
AcDbXrecord
340
E
  0
XRECORD
  5
1989
102
{ACAD_REACTORS
330
1981
102
}
330
1981
100
AcDbXrecord
 90
    10781
  0
XRECORD
  5
198A
102
{ACAD_REACTORS
330
1981
102
}
330
1981
100
AcDbXrecord
 90
        4
  0
XRECORD
  5
198B
102
{ACAD_REACTORS
330
1981
102
}
330
1981
100
AcDbXrecord
 90
        0
  0
XRECORD
  5
198C
102
{ACAD_REACTORS
330
1981
102
}
330
1981
100
AcDbXrecord
  1
{AFB28963-8C59-40AE-9337-C84526B81ACE}
  0
XRECORD
  5
198D
102
{ACAD_REACTORS
330
1981
102
}
330
1981
100
AcDbXrecord
  1
{EC99CD88-5D97-4B95-8AB2-62C5BF5AE931}
  0
XRECORD
  5
198E
102
{ACAD_REACTORS
330
1981
102
}
330
1981
100
AcDbXrecord
 40
0.0
  0
XRECORD
  5
198F
102
{ACAD_REACTORS
330
1981
102
}
330
1981
100
AcDbXrecord
1000
DSTYLE
1002
{
1070
    79
 70
     2
1070
   341
340
59
1070
   342
340
59
1070
   371
 70
    -1
1070
   372
 70
    -1
1002
}
  0
XRECORD
  5
1990
102
{ACAD_REACTORS
330
1981
102
}
330
1981
100
AcDbXrecord
340
0
  0
XRECORD
  5
1991
102
{ACAD_REACTORS
330
1981
102
}
330
1981
100
AcDbXrecord
 70
     0
  0
XRECORD
  5
1992
102
{ACAD_REACTORS
330
1981
102
}
330
1981
100
AcDbXrecord
340
0
  0
XRECORD
  5
1993
102
{ACAD_REACTORS
330
1981
102
}
330
1981
100
AcDbXrecord
 10
0.0
 20
0.0
 30
0.0
  0
XRECORD
  5
1994
102
{ACAD_REACTORS
330
1981
102
}
330
1981
100
AcDbXrecord
 10
0.0
 20
0.0
 30
0.0
  0
XRECORD
  5
1995
102
{ACAD_REACTORS
330
1981
102
}
330
1981
100
AcDbXrecord
 10
0.0
 20
0.0
 30
0.0
  0
XRECORD
  5
1996
102
{ACAD_REACTORS
330
1981
102
}
330
1981
100
AcDbXrecord
 10
0.0
 20
0.0
 30
0.0
  0
XRECORD
  5
1997
102
{ACAD_REACTORS
330
1981
102
}
330
1981
100
AcDbXrecord
 10
0.0
 20
0.0
 30
0.0
  0
XRECORD
  5
1998
102
{ACAD_REACTORS
330
1981
102
}
330
1981
100
AcDbXrecord
 10
0.0
 20
0.0
 30
0.0
  0
XRECORD
  5
1999
102
{ACAD_REACTORS
330
1981
102
}
330
1981
100
AcDbXrecord
340
0
  0
XRECORD
  5
199A
102
{ACAD_REACTORS
330
1981
102
}
330
1981
100
AcDbXrecord
 70
     0
  0
XRECORD
  5
199B
102
{ACAD_REACTORS
330
1981
102
}
330
1981
100
AcDbXrecord
340
0
  0
XRECORD
  5
199C
102
{ACAD_REACTORS
330
1981
102
}
330
1981
100
AcDbXrecord
 10
0.0
 20
0.0
 30
0.0
  0
XRECORD
  5
199D
102
{ACAD_REACTORS
330
1981
102
}
330
1981
100
AcDbXrecord
 10
0.0
 20
0.0
 30
0.0
  0
XRECORD
  5
199E
102
{ACAD_REACTORS
330
1981
102
}
330
1981
100
AcDbXrecord
 10
0.0
 20
0.0
 30
0.0
  0
XRECORD
  5
199F
102
{ACAD_REACTORS
330
1981
102
}
330
1981
100
AcDbXrecord
 10
0.0
 20
0.0
 30
0.0
  0
XRECORD
  5
19A0
102
{ACAD_REACTORS
330
1981
102
}
330
1981
100
AcDbXrecord
 10
0.0
 20
0.0
 30
0.0
  0
XRECORD
  5
19A1
102
{ACAD_REACTORS
330
1981
102
}
330
1981
100
AcDbXrecord
 10
0.0
 20
0.0
 30
0.0
  0
LAYER_INDEX
  5
1978
102
{ACAD_REACTORS
330
1977
102
}
330
1977
100
AcDbIndex
 40
2453151.800336192
100
AcDbLayerIndex
  8
0
360
1979
 90
        0
  8
AM_0
360
197A
 90
       52
  8
AM_11
360
197B
 90
        3
  8
AM_7
360
197C
 90
        1
  8
AM_5
360
197D
 90
        4
  8
Defpoints
360
197E
 90
        0
  8
AM_6
360
197F
 90
        1
  0
XRECORD
  5
2D
102
{ACAD_REACTORS
330
2C
102
}
330
2C
100
AcDbXrecord
  1
VERSION
140
15.0
  1
PRODUCT
  2
AutoCAD Mechanical 2000
  0
IDBUFFER
  5
1979
330
0
100
AcDbIdBuffer
  0
IDBUFFER
  5
197A
330
0
100
AcDbIdBuffer
330
175D
330
175E
330
175F
330
1760
330
15CB
330
15CC
330
15CF
330
15D0
330
15EF
330
15F2
330
1604
330
1703
330
1704
330
1705
330
1706
330
1707
330
1708
330
1709
330
170A
330
170B
330
170C
330
170D
330
170E
330
170F
330
1710
330
1711
330
1712
330
1713
330
1714
330
1715
330
1716
330
1717
330
1718
330
1719
330
171B
330
1728
330
1737
330
1738
330
1739
330
173A
330
173B
330
173C
330
173D
330
173E
330
173F
330
1740
330
1741
330
1742
330
1743
330
1744
330
1745
330
175C
  0
IDBUFFER
  5
197B
330
0
100
AcDbIdBuffer
330
171A
330
1746
330
1747
  0
IDBUFFER
  5
197C
330
0
100
AcDbIdBuffer
330
D74
  0
IDBUFFER
  5
197D
330
0
100
AcDbIdBuffer
330
D71
330
D7A
330
DA6
330
15D1
  0
IDBUFFER
  5
197E
330
0
100
AcDbIdBuffer
  0
IDBUFFER
  5
197F
330
0
100
AcDbIdBuffer
330
E5A
  0
ENDSEC
  0
EOF
